<?xml version="1.0" standalone="no"?>
<!DOCTYPE svg PUBLIC "-//W3C//DTD SVG 1.1//EN" "http://www.w3.org/Graphics/SVG/1.1/DTD/svg11.dtd" >
<svg xmlns="http://www.w3.org/2000/svg" xmlns:xlink="http://www.w3.org/1999/xlink" version="1.1">
<metadata>
Created by FontForge 20170924 at Thu Jul 21 23:21:13 2016
 By www-data
Copyright \251 2015 by Radomir Tinkov. All rights reserved.
</metadata>
<defs>
<font id="Gilroy-UltraLightItalic" horiz-adv-x="570" >
  <font-face 
    font-family="Gilroy"
    font-weight="265"
    font-style="italic"
    font-stretch="normal"
    units-per-em="1000"
    panose-1="0 0 3 0 0 0 0 0 0 0"
    ascent="776"
    descent="-224"
    x-height="500"
    cap-height="700"
    bbox="-286 -240 1041.07 960"
    underline-thickness="50"
    underline-position="-100"
    slope="-10"
    unicode-range="U+0020-FB02"
  />
<missing-glyph horiz-adv-x="500" 
d="M93 800h317v-1000h-317v1000zM333 700v33h-165v-33h65v-37h-66v-33h166v33h-66v37h66zM267 534v70h-100v-104h166v34h-66zM200 570h33v-36h-33v36zM333 440v33h-166v-33h66v-37h-66v-33h100v70h66zM333 313v100h-33v-66h-133v-34h166zM333 178v113h-100v-56h34v23h33v-47
h-100v80h-33v-113h166zM333 5v113h-166v-113h166zM200 85h100v-47h-100v47zM333 -51v33h-166v-33h70l-70 -47v-33h166v33h-102l70 47h32z" />
    <glyph glyph-name="fi" unicode="fi" horiz-adv-x="505" 
d="M381 677c-107 0 -160 -44 -179 -144l-6 -33h269l-88 -500h-35l82 467h-234l-82 -467h-35l82 467h-88l5 33h89l6 33c21 119 94 178 220 178c33 0 66 -4 97 -11l-6 -32c-30 6 -62 9 -97 9z" />
    <glyph glyph-name="fl" unicode="fl" horiz-adv-x="505" 
d="M387 711c37 0 74 -4 113 -11l-123 -700h-35l118 673c-24 4 -50 6 -78 6c-107 0 -161 -46 -180 -146l-6 -33h124l-6 -33h-124l-82 -467h-35l82 467h-88l5 33h89l6 33c21 119 94 178 220 178z" />
    <glyph glyph-name="f_f" unicode="ff" horiz-adv-x="575" 
d="M430 500l8 43c20 123 97 187 220 178l-5 -34c-101 9 -161 -39 -180 -144l-8 -43h154l-5 -33h-154l-83 -467h-35l83 467h-235l-82 -467h-35l82 467h-88l5 33h89l6 33c21 123 96 187 220 178l-6 -34c-100 9 -160 -39 -179 -144l-6 -33h234z" />
    <glyph glyph-name="f_f_i" unicode="ffi" horiz-adv-x="774" 
d="M653 687c-108 0 -161 -44 -180 -144l-8 -43h270l-88 -500h-36l82 467h-233l-83 -467h-35l83 467h-235l-82 -467h-35l82 467h-88l5 33h89l6 33c21 123 96 187 220 178l-6 -34c-100 9 -160 -39 -179 -144l-6 -33h234l8 43c19 119 93 178 220 178c33 0 66 -4 97 -11l-5 -32
c-30 6 -62 9 -97 9z" />
    <glyph glyph-name="f_f_l" unicode="ffl" horiz-adv-x="774" 
d="M658 721c37 0 75 -4 114 -11l-125 -710h-36l120 683c-24 4 -50 6 -78 6c-107 0 -161 -46 -180 -146l-8 -43h124l-5 -33h-124l-83 -467h-35l83 467h-235l-82 -467h-35l82 467h-88l5 33h89l6 33c21 123 96 187 220 178l-6 -34c-100 9 -160 -39 -179 -144l-6 -33h234l8 43
c19 119 93 178 220 178z" />
    <glyph glyph-name=".notdef" horiz-adv-x="500" 
d="M93 800h317v-1000h-317v1000zM333 700v33h-165v-33h65v-37h-66v-33h166v33h-66v37h66zM267 534v70h-100v-104h166v34h-66zM200 570h33v-36h-33v36zM333 440v33h-166v-33h66v-37h-66v-33h100v70h66zM333 313v100h-33v-66h-133v-34h166zM333 178v113h-100v-56h34v23h33v-47
h-100v80h-33v-113h166zM333 5v113h-166v-113h166zM200 85h100v-47h-100v47zM333 -51v33h-166v-33h70l-70 -47v-33h166v33h-102l70 47h32z" />
    <glyph glyph-name="NULL" horiz-adv-x="0" 
 />
    <glyph glyph-name="CR" horiz-adv-x="333" 
 />
    <glyph glyph-name="space" unicode=" " horiz-adv-x="283" 
 />
    <glyph glyph-name="exclam" unicode="!" horiz-adv-x="210" 
d="M106 170h-30l53 330l35 200h40l-35 -200zM60 -10c-20 0 -32 16 -29 36c5 45 81 44 70 -2c-5 -23 -18 -34 -41 -34z" />
    <glyph glyph-name="quotedbl" unicode="&#x22;" horiz-adv-x="277" 
d="M139 527h-30l27 173h36zM265 527h-30l27 173h37z" />
    <glyph glyph-name="numbersign" unicode="#" horiz-adv-x="608" 
d="M601 457l-11 -34h-119l-50 -146h119l-12 -34h-118l-66 -193h-36l66 193h-176l-66 -193h-36l66 193h-120l12 34h119l50 146h-120l11 34h120l66 193h36l-66 -193h176l66 193h36l-66 -193h119zM209 277h176l50 146h-176z" />
    <glyph glyph-name="dollar" unicode="$" horiz-adv-x="554" 
d="M545 586l-32 -16c-21 62 -64 97 -131 104l-55 -309c55 -21 87 -38 124 -70s52 -77 41 -134c-20 -105 -107 -167 -231 -172l-16 -89h-33l16 89c-108 5 -183 57 -202 140l33 17c13 -75 78 -119 175 -122l56 317c-55 21 -86 37 -123 69c-36 32 -51 77 -40 134
c10 51 36 91 79 121c43 31 93 46 148 46h1l16 89h33l-16 -91c80 -9 137 -56 157 -123zM164 540c-16 -84 37 -126 132 -163l53 299c-47 -1 -88 -14 -123 -40c-34 -25 -55 -57 -62 -96zM455 165c16 83 -35 125 -134 164l-54 -304c105 5 172 60 188 140z" />
    <glyph glyph-name="percent" unicode="%" horiz-adv-x="723" 
d="M250 413c-43 0 -77 15 -102 44c-25 30 -33 66 -26 108s28 77 61 104c34 28 73 42 118 42c43 0 76 -15 101 -45c25 -29 33 -65 26 -107s-28 -77 -61 -105c-33 -27 -72 -41 -117 -41zM254 445c35 0 65 11 91 33c27 23 43 51 48 84c12 67 -29 117 -97 117
c-34 0 -64 -11 -91 -34c-27 -22 -43 -50 -48 -83c-12 -67 29 -117 97 -117zM103 70l-26 15l575 543l26 -15zM458 -11c-43 0 -77 15 -102 44c-25 30 -33 66 -26 108s28 77 61 104c34 28 73 42 118 42c43 0 76 -15 101 -45c25 -29 33 -65 26 -107s-28 -77 -61 -105
c-33 -27 -72 -41 -117 -41zM462 21c35 0 65 11 91 33c27 23 43 51 48 84c12 67 -29 117 -97 117c-34 0 -64 -11 -91 -34c-27 -22 -43 -50 -48 -83c-12 -67 29 -117 97 -117z" />
    <glyph glyph-name="ampersand" unicode="&#x26;" horiz-adv-x="658" 
d="M555 289l28 -19c-21 -62 -47 -114 -80 -156l84 -105l-31 -16l-76 95c-63 -66 -139 -99 -230 -99c-66 0 -118 19 -155 56c-37 38 -50 87 -39 146c16 87 84 157 181 202c-31 46 -43 94 -35 145c9 51 33 93 72 125c40 32 87 48 141 48c89 0 155 -47 183 -127l-32 -17
c-25 73 -76 109 -153 109c-44 0 -82 -13 -115 -40c-33 -26 -53 -59 -60 -100c-11 -63 10 -103 58 -164l185 -231c30 39 55 89 74 148zM252 24c81 0 150 30 207 91l-189 236l-12 15c-91 -39 -152 -105 -165 -178c-9 -50 2 -90 32 -120c31 -29 73 -44 127 -44z" />
    <glyph glyph-name="quotesingle" unicode="'" horiz-adv-x="143" 
d="M139 527h-30l27 173h36z" />
    <glyph glyph-name="parenleft" unicode="(" horiz-adv-x="236" 
d="M144 -100h-36c-47 151 -57 302 -30 453c28 158 91 307 189 447h36c-199 -292 -252 -608 -159 -900z" />
    <glyph glyph-name="parenright" unicode=")" horiz-adv-x="235" 
d="M127 800h36c47 -151 57 -302 30 -453c-28 -158 -91 -307 -189 -447h-36c199 292 252 608 159 900z" />
    <glyph glyph-name="asterisk" unicode="*" horiz-adv-x="382" 
d="M279 611l100 2l-6 -31l-99 2l40 -84l-29 -16l-37 86l-64 -86l-28 17l68 83l-99 -2l6 31l98 -2l-39 84l29 16l36 -87l65 87l28 -17z" />
    <glyph glyph-name="plus" unicode="+" horiz-adv-x="527" 
d="M301 367h179l-5 -34h-179l-32 -180h-35l32 180h-180l6 34h179l32 180h35z" />
    <glyph glyph-name="comma" unicode="," horiz-adv-x="207" 
d="M64 52h44l-81 -192h-33z" />
    <glyph glyph-name="hyphen" unicode="-" horiz-adv-x="547" 
d="M461 292h-360l6 34h360z" />
    <glyph glyph-name="period" unicode="." horiz-adv-x="197" 
d="M52 -10c-19 0 -32 16 -28 36c5 23 18 34 41 34c19 0 32 -16 28 -36c-5 -23 -18 -34 -41 -34z" />
    <glyph glyph-name="slash" unicode="/" horiz-adv-x="523" 
d="M574 800l-558 -900h-31l557 900h32z" />
    <glyph glyph-name="zero" unicode="0" horiz-adv-x="631" 
d="M271 -11c-80 0 -138 33 -173 100s-42 156 -23 265c19 110 57 197 113 261s125 96 207 96c80 0 137 -34 172 -101s43 -155 24 -264c-19 -110 -57 -197 -113 -261s-125 -96 -207 -96zM112 350c-19 -101 -13 -181 16 -239s78 -87 147 -87s128 29 177 86
c50 58 84 138 102 240c36 204 -26 326 -163 326c-69 0 -128 -29 -178 -87s-84 -138 -101 -239z" />
    <glyph glyph-name="one" unicode="1" horiz-adv-x="324" 
d="M86 637l194 63h30l-123 -700h-37l116 659l-175 -54z" />
    <glyph glyph-name="two" unicode="2" horiz-adv-x="528" 
d="M438 0h-435l5 33l310 274c94 83 146 153 155 210c9 47 0 86 -27 115c-26 29 -63 44 -111 44c-83 0 -149 -38 -198 -113l-28 18c53 83 137 130 230 130c57 0 102 -18 135 -55c34 -36 46 -84 35 -143c-13 -77 -71 -146 -168 -231l-279 -247h382z" />
    <glyph glyph-name="three" unicode="3" horiz-adv-x="549" 
d="M141 700h396l-5 -34l-217 -256c59 -5 104 -27 137 -66c33 -38 45 -87 34 -146c-11 -64 -42 -115 -92 -153c-49 -37 -108 -56 -175 -56c-100 0 -175 48 -196 129l32 17c17 -71 77 -111 168 -111c58 0 108 16 150 49s68 76 77 128s-1 94 -32 127c-30 33 -74 50 -132 50h-11
l-11 24l223 264h-352z" />
    <glyph glyph-name="four" unicode="4" horiz-adv-x="563" 
d="M441 187h89l-5 -34h-90l-27 -153h-37l27 153h-383l5 34l361 513h42l-361 -513h342l40 226h36z" />
    <glyph glyph-name="five" unicode="5" horiz-adv-x="544" 
d="M551 700l-6 -34h-332l-62 -253h146c64 0 115 -20 153 -61c39 -40 52 -92 41 -155s-42 -114 -92 -152c-49 -37 -108 -56 -175 -56c-101 0 -176 50 -197 133l32 17c16 -72 77 -115 169 -115c59 0 109 16 150 49c42 33 68 75 77 127c9 53 -1 95 -31 128
c-29 33 -74 50 -133 50h-184l79 322h365z" />
    <glyph glyph-name="six" unicode="6" horiz-adv-x="544" 
d="M307 449c67 0 119 -22 156 -66s50 -100 38 -167c-13 -68 -44 -123 -95 -165c-51 -41 -111 -62 -180 -62c-67 0 -120 22 -157 66c-37 45 -49 101 -37 169c10 55 32 101 67 138l298 338h43l-236 -269c32 12 66 18 103 18zM465 220c10 57 0 103 -30 140
c-29 37 -74 55 -134 55c-61 0 -112 -18 -155 -55c-42 -37 -68 -83 -78 -140s0 -104 29 -141s74 -55 135 -55s112 18 154 55c43 37 69 84 79 141z" />
    <glyph glyph-name="seven" unicode="7" horiz-adv-x="490" 
d="M100 666l6 34h416l-5 -34l-395 -666h-40l396 666h-378z" />
    <glyph glyph-name="eight" unicode="8" horiz-adv-x="553" 
d="M532 523c-13 -77 -69 -135 -145 -162c79 -28 121 -97 106 -182c-21 -120 -123 -190 -263 -190c-67 0 -119 18 -156 54c-37 37 -50 85 -39 144c15 88 78 151 170 176c-65 29 -100 91 -87 167c10 56 37 100 81 132c45 33 97 49 157 49c58 0 104 -17 139 -52s47 -80 37 -136
zM298 377c52 0 96 14 132 42s58 64 65 108c16 89 -40 149 -144 149c-103 0 -181 -60 -196 -149c-16 -88 42 -150 143 -150zM457 183c16 97 -45 160 -165 160s-204 -63 -220 -160c-17 -96 44 -159 164 -159c121 0 202 62 221 159z" />
    <glyph glyph-name="nine" unicode="9" horiz-adv-x="544" 
d="M353 711c67 0 119 -22 156 -67c37 -44 50 -100 38 -168c-10 -54 -33 -100 -68 -139l-296 -337h-44l236 269c-32 -12 -66 -18 -103 -18c-67 0 -119 22 -156 66c-37 45 -50 101 -38 168s43 122 94 163c51 42 112 63 181 63zM511 480c10 57 0 104 -29 141s-74 55 -135 55
s-112 -18 -155 -55c-42 -37 -68 -84 -78 -141s0 -103 29 -140s74 -55 135 -55s112 18 154 55c43 37 69 83 79 140z" />
    <glyph glyph-name="colon" unicode=":" horiz-adv-x="197" 
d="M128 420c-19 0 -32 16 -28 36c5 23 18 34 41 34c19 0 32 -16 28 -36c-5 -23 -18 -34 -41 -34zM52 -10c-19 0 -32 16 -28 36c5 23 18 34 41 34c19 0 32 -16 28 -36c-5 -23 -18 -34 -41 -34z" />
    <glyph glyph-name="semicolon" unicode=";" horiz-adv-x="215" 
d="M146 420c-19 0 -32 16 -28 36c5 23 18 34 41 34c19 0 32 -16 28 -36c-5 -23 -18 -34 -41 -34zM64 52h44l-81 -192h-33z" />
    <glyph glyph-name="less" unicode="&#x3c;" horiz-adv-x="533" 
d="M87 368l432 180l-7 -40l-388 -160l331 -160l-6 -36l-368 180l4 18z" />
    <glyph glyph-name="equal" unicode="=" horiz-adv-x="533" 
d="M499 433h-400l6 34h400zM463 233h-400l7 34h400z" />
    <glyph glyph-name="greater" unicode="&#x3e;" horiz-adv-x="533" 
d="M113 512l7 36l367 -180l-6 -36l-431 -180l6 40l389 160z" />
    <glyph glyph-name="question" unicode="?" horiz-adv-x="528" 
d="M252 170h-36c12 65 53 124 98 167c66 62 147 121 160 199c16 85 -35 140 -138 140c-81 0 -156 -44 -191 -111l-30 18c21 39 53 70 94 93c42 23 86 35 133 35c57 0 101 -16 134 -49c33 -32 45 -75 35 -130c-9 -55 -49 -106 -94 -146c-66 -58 -148 -124 -165 -216zM202 -10
c-19 0 -32 16 -28 36c5 23 18 34 41 34c19 0 32 -16 28 -36c-5 -23 -18 -34 -41 -34z" />
    <glyph glyph-name="at" unicode="@" horiz-adv-x="822" 
d="M482 612c218 0 318 -181 289 -345c-25 -141 -95 -202 -171 -202c-57 0 -86 39 -81 96c-35 -47 -83 -71 -142 -71c-45 0 -81 16 -107 47c-26 32 -35 71 -27 116s30 83 65 112c35 30 77 45 124 45c56 0 98 -29 118 -76l12 69h34l-41 -229c-10 -57 8 -86 53 -86
c65 0 119 63 140 182c15 91 -3 167 -55 228c-51 62 -123 93 -215 93c-96 0 -183 -33 -260 -98s-124 -146 -141 -242c-17 -98 2 -180 59 -245s136 -97 239 -97c66 0 124 9 175 27l1 -21c-53 -18 -112 -27 -179 -27c-109 0 -194 35 -255 105s-82 157 -63 262
c17 101 67 185 148 254c82 69 175 103 280 103zM383 122c69 0 133 49 150 117l3 21c8 68 -38 118 -107 118c-37 0 -70 -12 -99 -37c-29 -24 -46 -54 -53 -91c-13 -73 34 -128 106 -128z" />
    <glyph glyph-name="A" unicode="A" horiz-adv-x="629" 
d="M565 0h-38l-39 185h-367l-105 -185h-40l397 700h41zM388 657l-248 -438h341z" />
    <glyph glyph-name="B" unicode="B" horiz-adv-x="627" 
d="M597 518c-12 -71 -62 -130 -130 -157c73 -23 114 -93 101 -176c-8 -51 -33 -95 -74 -131s-90 -54 -148 -54h-297l123 700h263c53 0 95 -18 126 -53c32 -35 44 -78 36 -129zM152 374h239c39 0 76 14 109 42c34 29 54 63 61 104c7 40 -1 74 -26 103s-58 43 -100 43h-232z
M532 187c7 42 -1 78 -25 108s-57 45 -98 45h-263l-54 -306h258c45 0 84 15 119 44c35 30 56 66 63 109z" />
    <glyph glyph-name="C" unicode="C" horiz-adv-x="757" 
d="M369 -11c-103 0 -182 35 -239 106c-56 71 -75 158 -58 260c17 101 65 186 144 254s168 102 269 102c129 0 231 -65 279 -166l-32 -17c-43 91 -131 148 -248 148c-93 0 -175 -32 -246 -95s-114 -140 -130 -231s1 -168 50 -231c50 -63 121 -95 213 -95
c119 0 229 59 298 155l30 -19c-37 -51 -85 -93 -144 -124c-58 -31 -120 -47 -186 -47z" />
    <glyph glyph-name="D" unicode="D" horiz-adv-x="734" 
d="M172 700h257c93 0 166 -35 217 -105c51 -69 68 -153 51 -251s-62 -180 -135 -246c-73 -65 -158 -98 -256 -98h-257zM661 349c16 89 2 164 -43 225s-110 92 -195 92h-220l-111 -632h220c86 0 162 30 227 91c66 61 107 135 122 224z" />
    <glyph glyph-name="E" unicode="E" horiz-adv-x="537" 
d="M564 700l-6 -34h-355l-52 -296h330l-6 -34h-330l-53 -302h360l-6 -34h-397l123 700h392z" />
    <glyph glyph-name="F" unicode="F" horiz-adv-x="522" 
d="M554 700l-6 -34h-345l-53 -302h337l-6 -34h-337l-58 -330h-37l123 700h382z" />
    <glyph glyph-name="G" unicode="G" horiz-adv-x="811" 
d="M419 320h350l-3 -19c-17 -90 -61 -165 -131 -224s-154 -88 -251 -88c-108 0 -191 36 -250 108c-58 73 -78 160 -61 263c16 99 63 182 142 249c79 68 169 102 271 102c133 0 232 -67 280 -166l-32 -17c-43 89 -130 148 -250 148c-93 0 -176 -31 -247 -93
s-113 -138 -128 -229c-15 -92 3 -170 54 -234c52 -64 126 -96 223 -96c85 0 159 25 221 75s102 112 120 187h-314z" />
    <glyph glyph-name="H" unicode="H" horiz-adv-x="693" 
d="M585 377l57 323h37l-123 -700h-37l60 343h-433l-60 -343h-37l123 700h37l-57 -323h433z" />
    <glyph glyph-name="I" unicode="I" horiz-adv-x="223" 
d="M49 0l123 700h37l-123 -700h-37z" />
    <glyph glyph-name="J" unicode="J" horiz-adv-x="554" 
d="M212 -11c-100 0 -170 42 -191 117l33 17c17 -66 71 -99 160 -99c109 0 191 63 208 162l90 514h37l-90 -515c-11 -62 -40 -110 -86 -145c-45 -34 -99 -51 -161 -51z" />
    <glyph glyph-name="K" unicode="K" horiz-adv-x="563" 
d="M572 700h52l-434 -343l319 -357h-44l-317 352l-62 -352h-37l123 700h37l-58 -331z" />
    <glyph glyph-name="L" unicode="L" horiz-adv-x="497" 
d="M209 700l-117 -666h340l-6 -34h-377l123 700h37z" />
    <glyph glyph-name="M" unicode="M" horiz-adv-x="813" 
d="M752 700h47l-123 -700h-37l113 644l-348 -443h-9l-195 449l-114 -650h-37l123 700h44l191 -439z" />
    <glyph glyph-name="N" unicode="N" horiz-adv-x="693" 
d="M86 0h-37l123 700h32l327 -634l111 634h37l-123 -700h-31l-327 634z" />
    <glyph glyph-name="O" unicode="O" horiz-adv-x="829" 
d="M370 -11c-100 0 -179 36 -238 108c-58 72 -78 158 -60 258c17 100 67 184 148 253s172 103 273 103c99 0 178 -36 237 -109s79 -159 62 -259c-17 -99 -67 -183 -148 -252c-81 -68 -173 -102 -274 -102zM375 24c91 0 173 31 246 94s118 139 135 230c15 91 -3 168 -55 232
c-51 64 -122 96 -213 96s-173 -32 -246 -95s-118 -140 -134 -231c-16 -90 2 -167 54 -231c52 -63 123 -95 213 -95z" />
    <glyph glyph-name="P" unicode="P" horiz-adv-x="583" 
d="M172 700h223c64 0 113 -20 147 -61s46 -91 36 -152s-39 -112 -87 -153s-106 -61 -174 -61h-183l-48 -273h-37zM542 490c9 51 0 93 -28 126s-68 50 -121 50h-190l-63 -359h180c57 0 106 17 147 52s66 78 75 131z" />
    <glyph glyph-name="Q" unicode="Q" horiz-adv-x="834" 
d="M792 343c-17 -104 -77 -197 -161 -262l67 -80l-26 -23l-69 83c-73 -48 -150 -72 -233 -72c-100 0 -179 36 -238 108c-58 72 -78 158 -60 258c17 100 67 184 148 253s172 103 273 103c99 0 178 -36 237 -109s79 -159 62 -259zM476 267l133 -159c80 63 129 143 147 240
c15 91 -3 168 -55 232c-51 64 -122 96 -213 96s-173 -32 -246 -95s-118 -140 -134 -231c-16 -90 2 -167 54 -231c52 -63 123 -95 213 -95c72 0 141 21 206 64l-131 157z" />
    <glyph glyph-name="R" unicode="R" horiz-adv-x="617" 
d="M172 700h274c55 0 98 -21 131 -63c33 -41 45 -90 36 -146c-9 -47 -31 -89 -66 -124s-77 -58 -124 -69l123 -298h-38l-120 293h-14h-237l-51 -293h-37zM577 497c9 47 -1 86 -28 119s-63 50 -109 50h-237l-60 -339h237c47 0 89 17 127 50c39 33 62 73 70 120z" />
    <glyph glyph-name="S" unicode="S" horiz-adv-x="562" 
d="M253 -11c-125 0 -210 61 -231 160l32 17c16 -88 87 -142 200 -142c119 0 194 55 211 139c11 49 -2 87 -41 114c-37 28 -66 41 -123 61c-66 25 -111 48 -136 70c-40 35 -55 81 -44 137c9 51 35 92 78 121c43 30 93 45 148 45c109 0 180 -59 205 -144l-32 -16
c-26 83 -84 125 -174 125c-47 0 -89 -12 -124 -37s-57 -57 -65 -98c-9 -49 4 -87 44 -115c21 -14 39 -25 54 -32s38 -15 67 -26c100 -38 203 -83 179 -209c-21 -109 -119 -170 -248 -170z" />
    <glyph glyph-name="T" unicode="T" horiz-adv-x="540" 
d="M106 700h486l-5 -34h-226l-117 -666h-36l117 666h-225z" />
    <glyph glyph-name="U" unicode="U" horiz-adv-x="673" 
d="M297 -11c-78 0 -137 22 -177 67c-39 45 -53 103 -40 173l83 471h37l-83 -471c-21 -120 41 -205 180 -205c69 0 126 19 170 58s71 88 82 147l83 471h37l-83 -471c-13 -73 -45 -131 -97 -175c-52 -43 -116 -65 -192 -65z" />
    <glyph glyph-name="V" unicode="V" horiz-adv-x="601" 
d="M277 0h-40l-141 700h36l130 -656l361 656h41z" />
    <glyph glyph-name="W" unicode="W" horiz-adv-x="987" 
d="M240 0h-44l-80 700h35l74 -653l324 653h43l95 -653l303 653h39l-326 -700h-44l-95 653z" />
    <glyph glyph-name="X" unicode="X" horiz-adv-x="567" 
d="M564 700h44l-285 -344l173 -356h-38l-159 327l-272 -327h-44l299 361l-165 339h38l151 -311z" />
    <glyph glyph-name="Y" unicode="Y" horiz-adv-x="565" 
d="M585 700h42l-313 -372l-57 -328h-37l58 328l-182 372h38l166 -339z" />
    <glyph glyph-name="Z" unicode="Z" horiz-adv-x="527" 
d="M136 700h423l-6 -34l-502 -632h401l-6 -34h-443l6 34l502 632h-381z" />
    <glyph glyph-name="bracketleft" unicode="[" horiz-adv-x="273" 
d="M350 800l-5 -34h-152l-147 -832h152l-7 -34h-186l159 900h186z" />
    <glyph glyph-name="backslash" unicode="\" horiz-adv-x="523" 
d="M415 -100h-29l-242 900h28z" />
    <glyph glyph-name="bracketright" unicode="]" horiz-adv-x="273" 
d="M117 800h187l-159 -900h-187l7 34h150l147 832h-151z" />
    <glyph glyph-name="asciicircum" unicode="^" horiz-adv-x="504" 
d="M313 700h34l123 -300h-37l-107 260l-197 -260h-43z" />
    <glyph glyph-name="underscore" unicode="_" horiz-adv-x="493" 
d="M387 -126h-413l5 34h414z" />
    <glyph glyph-name="grave" unicode="`" horiz-adv-x="162" 
d="M198 570h-32l-68 123h40z" />
    <glyph glyph-name="a" unicode="a" horiz-adv-x="654" 
d="M553 354l26 146h36l-88 -500h-36l21 118c-52 -81 -142 -129 -243 -129c-71 0 -129 27 -173 81c-44 55 -60 119 -47 192c13 75 47 136 102 181s119 68 190 68c51 0 95 -14 134 -43s65 -67 78 -114zM276 23c61 0 115 19 162 56c47 38 78 87 93 146l5 33
c7 63 -9 115 -48 156c-38 42 -87 63 -148 63c-62 0 -117 -20 -166 -60c-48 -40 -78 -93 -90 -159c-11 -64 2 -119 39 -166c38 -46 89 -69 153 -69z" />
    <glyph glyph-name="b" unicode="b" horiz-adv-x="653" 
d="M386 511c71 0 128 -27 172 -81c44 -53 60 -116 47 -189c-13 -74 -48 -135 -103 -182s-120 -70 -195 -70c-101 0 -181 64 -206 157l-26 -146h-36l123 700h36l-56 -321c53 83 143 132 244 132zM379 477c-62 0 -117 -20 -166 -60c-48 -40 -78 -91 -91 -152l-3 -16
c-9 -62 6 -115 43 -160c37 -44 87 -66 149 -66c64 0 120 21 169 63s79 95 90 159s-2 119 -40 164c-37 45 -88 68 -151 68z" />
    <glyph glyph-name="c" unicode="c" horiz-adv-x="571" 
d="M263 -11c-74 0 -132 26 -173 77c-41 52 -55 115 -42 190c13 73 49 134 106 182c58 49 124 73 199 73c96 0 172 -49 199 -125l-31 -16c-21 67 -84 107 -172 107c-65 0 -122 -22 -173 -65s-82 -97 -93 -161s0 -118 35 -162s85 -66 150 -66c87 0 166 42 210 109l28 -18
c-51 -79 -140 -125 -243 -125z" />
    <glyph glyph-name="d" unicode="d" horiz-adv-x="654" 
d="M553 354l61 346h36l-123 -700h-36l21 118c-52 -81 -142 -129 -243 -129c-71 0 -129 27 -173 81c-44 55 -60 119 -47 192c13 75 47 136 102 181s119 68 190 68c51 0 95 -14 134 -43s65 -67 78 -114zM276 23c61 0 114 19 161 56s78 86 93 145l7 35c6 63 -10 115 -49 156
s-88 62 -148 62c-63 0 -118 -20 -167 -61c-48 -40 -78 -93 -89 -158c-11 -64 2 -119 39 -166c38 -46 89 -69 153 -69z" />
    <glyph glyph-name="e" unicode="e" horiz-adv-x="593" 
d="M548 249c0 -4 -4 -14 -4 -18h-464c-7 -63 7 -113 41 -151s82 -57 145 -57c85 0 160 37 201 97l28 -18c-49 -71 -137 -113 -234 -113c-76 0 -134 25 -174 76s-53 114 -40 190c13 74 47 135 102 183c55 49 120 73 195 73s130 -26 167 -78c37 -51 50 -113 37 -184zM85 264
h430c8 65 -4 117 -37 155c-32 39 -77 58 -136 58c-63 0 -118 -20 -165 -59s-78 -91 -92 -154z" />
    <glyph glyph-name="f" unicode="f" horiz-adv-x="306" 
d="M161 500l6 33c21 123 96 187 220 178l-6 -34c-100 9 -160 -39 -179 -144l-6 -33h154l-6 -33h-154l-82 -467h-35l82 467h-88l5 33h89z" />
    <glyph glyph-name="g" unicode="g" horiz-adv-x="661" 
d="M560 354l26 146h35l-83 -473c-25 -148 -135 -238 -287 -238c-112 0 -189 49 -216 120l31 16c20 -59 84 -102 187 -102c135 0 227 76 250 204l16 93c-52 -81 -141 -131 -238 -131c-75 0 -135 27 -178 80s-59 118 -48 193c12 73 46 132 101 179c56 47 119 70 188 70
c105 0 189 -61 216 -157zM286 23c61 0 116 20 165 61s78 94 89 157c12 67 -2 123 -41 168s-90 68 -154 68c-61 0 -117 -21 -166 -62s-78 -93 -88 -157c-11 -65 2 -121 40 -167c38 -45 90 -68 155 -68z" />
    <glyph glyph-name="h" unicode="h" horiz-adv-x="569" 
d="M350 511c58 0 102 -18 132 -55c30 -36 40 -83 29 -142l-55 -314h-35l55 314c16 97 -31 163 -131 163c-104 0 -191 -71 -219 -190l-51 -287h-36l123 700h36l-53 -303c48 76 124 114 205 114z" />
    <glyph glyph-name="i" unicode="i" horiz-adv-x="202" 
d="M169 636c-17 0 -29 15 -26 31c5 21 18 32 37 32c40 0 31 -63 -11 -63zM75 0h-36l88 500h36z" />
    <glyph glyph-name="j" unicode="j" horiz-adv-x="216" 
d="M194 699c40 0 31 -63 -11 -63c-17 0 -29 15 -26 31c5 21 18 32 37 32zM40 -73l101 573h36l-101 -573c-19 -102 -78 -148 -177 -138l6 34c77 -9 122 26 135 104z" />
    <glyph glyph-name="k" unicode="k" horiz-adv-x="472" 
d="M431 500h52l-326 -241l244 -259h-44l-238 252l-44 -252h-36l123 700h36l-75 -429z" />
    <glyph glyph-name="l" unicode="l" horiz-adv-x="203" 
d="M76 0h-36l55 314l73 416h36l-74 -416z" />
    <glyph glyph-name="m" unicode="m" horiz-adv-x="866" 
d="M665 511c50 0 89 -17 117 -50c29 -33 38 -79 27 -139l-56 -322h-36l57 322c16 100 -30 155 -115 155c-96 0 -173 -69 -196 -196l-49 -281h-36l57 322c16 100 -27 155 -111 155c-91 0 -168 -61 -196 -173l-53 -304h-36l88 500h36l-16 -93c45 69 106 104 184 104
c75 0 130 -40 141 -115c45 77 118 115 193 115z" />
    <glyph glyph-name="n" unicode="n" horiz-adv-x="569" 
d="M350 511c58 0 102 -18 132 -55c30 -36 40 -83 29 -142l-55 -314h-35l55 314c16 97 -31 163 -131 163c-51 0 -97 -17 -137 -50s-67 -79 -82 -138l-51 -289h-36l88 500h36l-18 -103c48 76 124 114 205 114z" />
    <glyph glyph-name="o" unicode="o" horiz-adv-x="617" 
d="M265 -11c-72 0 -130 25 -173 75c-43 51 -58 114 -44 190c13 76 50 138 109 185c59 48 125 72 197 72c71 0 128 -25 171 -76s57 -114 44 -189c-13 -76 -49 -138 -108 -186c-58 -47 -123 -71 -196 -71zM268 23c63 0 120 21 171 64c52 43 84 98 95 164c12 65 0 119 -37 162
s-86 64 -148 64c-63 0 -120 -21 -171 -64s-83 -97 -95 -163c-11 -66 1 -121 37 -164c37 -43 86 -64 148 -63z" />
    <glyph glyph-name="p" unicode="p" horiz-adv-x="654" 
d="M385 511c71 0 128 -27 172 -82c45 -54 61 -118 48 -191c-13 -75 -48 -136 -103 -181s-118 -68 -189 -68c-51 0 -95 14 -134 42c-39 29 -65 67 -78 114l-61 -345h-36l123 700h36l-21 -118c53 81 142 129 243 129zM570 242c11 64 -2 119 -40 165c-37 47 -88 70 -152 70
c-61 0 -115 -19 -162 -56s-77 -86 -92 -145l-7 -35c-6 -63 10 -115 49 -156s88 -62 148 -62c63 0 118 20 166 60c49 41 79 94 90 159z" />
    <glyph glyph-name="q" unicode="q" horiz-adv-x="654" 
d="M553 354l26 146h36l-123 -700h-36l56 318c-53 -81 -140 -129 -243 -129c-71 0 -129 27 -173 81c-44 55 -60 119 -47 192c13 75 47 136 102 181s119 68 190 68c51 0 95 -14 134 -43s65 -67 78 -114zM276 23c61 0 115 19 162 56c47 38 78 87 93 147l5 31
c7 63 -9 115 -48 157c-38 42 -87 63 -148 63c-62 0 -117 -20 -166 -60c-48 -40 -78 -93 -90 -159c-11 -64 2 -119 39 -166c38 -46 89 -69 153 -69z" />
    <glyph glyph-name="r" unicode="r" horiz-adv-x="322" 
d="M163 500l-18 -101c48 76 120 111 195 108l-6 -34c-49 0 -94 -17 -134 -51c-40 -33 -65 -81 -76 -144l-49 -278h-36l88 500h36z" />
    <glyph glyph-name="s" unicode="s" horiz-adv-x="469" 
d="M204 -11c-93 0 -152 37 -177 110l32 16c18 -61 67 -92 148 -92c79 0 141 36 152 97c30 154 -303 79 -269 263c13 77 86 128 181 128c75 0 136 -38 160 -98l-31 -16c-17 51 -70 80 -131 80c-72 0 -132 -35 -144 -100c-9 -53 35 -85 94 -102c29 -9 59 -18 88 -28
c59 -19 100 -63 88 -132c-15 -79 -90 -126 -191 -126z" />
    <glyph glyph-name="t" unicode="t" horiz-adv-x="378" 
d="M369 467h-154l-61 -349c-15 -84 26 -100 139 -87l-6 -31c-129 -20 -186 15 -169 118l61 349h-114l6 33h114l23 129l37 11l-24 -140h154z" />
    <glyph glyph-name="u" unicode="u" horiz-adv-x="569" 
d="M443 211l51 289h36l-88 -500h-36l18 103c-48 -76 -124 -114 -205 -114c-58 0 -102 18 -132 54c-30 37 -40 84 -29 143l55 314h35l-55 -314c-16 -97 31 -163 131 -163c51 0 97 17 137 50s67 79 82 138z" />
    <glyph glyph-name="v" unicode="v" horiz-adv-x="485" 
d="M203 37l269 463h40l-293 -500h-41l-117 500h35z" />
    <glyph glyph-name="w" unicode="w" horiz-adv-x="770" 
d="M515 45l224 455h38l-248 -500h-39l-70 452l-228 -452h-39l-72 500h34l64 -454l230 454h37z" />
    <glyph glyph-name="x" unicode="x" horiz-adv-x="503" 
d="M464 500h46l-236 -245l159 -255h-40l-143 230l-222 -230h-45l249 259l-150 241h39l135 -216z" />
    <glyph glyph-name="y" unicode="y" horiz-adv-x="510" 
d="M226 24l272 476h39l-312 -546c-59 -101 -139 -161 -223 -154l6 33c67 -7 134 44 182 129l13 22l-142 516h35z" />
    <glyph glyph-name="z" unicode="z" horiz-adv-x="477" 
d="M107 500h360l-4 -22l-397 -445h329l-6 -33h-380l4 22l398 445h-309z" />
    <glyph glyph-name="braceleft" unicode="{" horiz-adv-x="344" 
d="M266 -75l-6 -34c-101 -9 -145 41 -129 134l37 209c13 73 -17 100 -97 100l6 34c80 0 119 27 132 100l37 208c18 99 77 144 176 134l-5 -33c-77 8 -123 -26 -136 -101l-37 -208c-12 -69 -46 -108 -101 -119c51 -11 71 -50 60 -115l-36 -209c-15 -79 16 -109 99 -100z" />
    <glyph glyph-name="bar" unicode="|" horiz-adv-x="222" 
d="M50 -200h-36l162 920h36z" />
    <glyph glyph-name="braceright" unicode="}" horiz-adv-x="344" 
d="M113 777l6 34c101 9 145 -41 129 -134l-37 -209c-13 -73 17 -100 97 -100l-6 -34c-80 0 -119 -27 -132 -100l-37 -208c-18 -99 -77 -144 -176 -134l5 33c77 -8 123 26 136 101l37 208c12 69 46 108 101 119c-51 11 -71 50 -60 115l36 209c15 79 -16 109 -99 100z" />
    <glyph glyph-name="asciitilde" unicode="~" horiz-adv-x="580" 
d="M107 293l-30 14c16 37 42 68 81 91c40 24 99 15 160 -33c52 -41 98 -50 129 -30s48 41 61 72l31 -14c-16 -37 -41 -68 -80 -91s-98 -15 -161 33c-52 41 -99 49 -130 29c-31 -19 -46 -40 -61 -71z" />
    <glyph glyph-name="exclamdown" unicode="&#xa1;" horiz-adv-x="210" 
d="M150 510c20 0 32 -16 29 -36c-5 -45 -81 -44 -70 2c5 23 18 34 41 34zM104 330h30l-53 -330l-35 -200h-40l35 200z" />
    <glyph glyph-name="cent" unicode="&#xa2;" horiz-adv-x="571" 
d="M569 486l-31 -16c-15 47 -48 79 -98 96l-218 -434c19 -6 40 -9 63 -9c87 0 166 42 210 109l28 -18c-51 -79 -140 -125 -243 -125c-26 0 -51 4 -75 11l-50 -100h-32l56 111c-88 40 -133 136 -114 245c13 73 49 134 106 182c58 49 124 73 199 73c21 0 40 -2 58 -6l48 95h32
l-52 -104c57 -21 94 -57 113 -110zM195 142l217 431c-13 3 -28 4 -46 4c-65 0 -122 -22 -173 -65s-82 -97 -93 -161c-16 -93 20 -174 95 -209z" />
    <glyph glyph-name="sterling" unicode="&#xa3;" horiz-adv-x="595" 
d="M415 676c-95 0 -163 -62 -179 -159l-33 -187h249l-5 -33h-250l-47 -262h389l-6 -35h-530l6 35h104l47 262h-85l6 33h85l33 187c21 121 104 194 219 194c84 0 146 -48 174 -128l-30 -16c-28 73 -77 109 -147 109z" />
    <glyph glyph-name="currency" unicode="&#xa4;" horiz-adv-x="553" 
d="M543 580l18 -20l-83 -71c29 -41 38 -89 28 -142c-10 -55 -35 -101 -76 -138l57 -70l-22 -18l-58 69c-46 -34 -96 -51 -149 -51c-52 0 -95 17 -129 51l-82 -70l-18 20l83 70c-29 41 -39 89 -29 143c10 55 36 101 77 139l-58 69l22 18l58 -69c46 34 96 51 149 51
c52 0 95 -17 129 -51zM397 224c41 34 65 76 74 126s-1 92 -29 126s-67 51 -116 51s-94 -17 -135 -51c-40 -34 -64 -76 -73 -126s1 -92 29 -126s67 -51 116 -51s94 17 134 51z" />
    <glyph glyph-name="yen" unicode="&#xa5;" horiz-adv-x="565" 
d="M585 700h42l-303 -360h183l-5 -31h-191l-16 -93h191l-6 -32h-191l-32 -184h-37l33 184h-189l5 32h189l17 93h-190l6 31h181l-176 360h38l166 -339z" />
    <glyph glyph-name="brokenbar" unicode="&#xa6;" horiz-adv-x="222" 
d="M147 350h-36l65 370h36zM50 -200h-36l65 370h36z" />
    <glyph glyph-name="section" unicode="&#xa7;" horiz-adv-x="508" 
d="M331 677c-77 0 -138 -42 -149 -109c-7 -41 13 -77 60 -107c13 -8 40 -23 83 -44c49 -24 69 -36 101 -64c32 -27 43 -61 35 -104c-9 -49 -39 -87 -92 -115c29 -31 39 -67 32 -109c-15 -83 -88 -137 -193 -137c-93 0 -159 45 -180 128l31 16c17 -74 68 -111 153 -111
c81 0 142 40 155 107c7 37 -5 68 -36 93s-57 39 -106 62c-47 21 -71 35 -103 62s-44 62 -36 105c9 49 40 88 93 115c-29 30 -39 66 -32 107c15 83 88 139 188 139c77 0 139 -42 164 -114l-30 -17c-22 65 -68 97 -138 97zM425 252c12 63 -29 92 -120 135
c-50 23 -84 42 -103 57c-47 -22 -74 -55 -81 -98c-9 -63 34 -93 123 -133c47 -22 81 -41 102 -58c46 23 72 56 79 97z" />
    <glyph glyph-name="dieresis" unicode="&#xa8;" horiz-adv-x="267" 
d="M83 607c5 36 66 36 57 0c-6 -37 -63 -38 -57 0zM253 607c5 36 66 36 57 0c-6 -37 -63 -38 -57 0z" />
    <glyph glyph-name="copyright" unicode="&#xa9;" horiz-adv-x="831" 
d="M369 -11c-99 0 -177 36 -236 108s-79 158 -61 258c17 100 67 184 149 253s174 103 276 103c99 0 177 -36 236 -108s79 -158 62 -258c-18 -100 -68 -184 -150 -253s-174 -103 -276 -103zM373 11c94 0 180 33 257 99s125 146 142 240c16 94 -3 174 -58 240
c-54 66 -128 99 -221 99c-94 0 -180 -33 -257 -99s-124 -146 -141 -240s2 -174 56 -240c55 -66 129 -99 222 -99zM403 158c-55 0 -98 19 -129 57s-41 84 -32 138s35 99 77 135s91 54 147 54c68 0 125 -37 150 -93l-30 -16c-23 51 -65 76 -126 76c-46 0 -86 -15 -120 -46
s-55 -68 -63 -113c-7 -44 1 -82 25 -113s59 -46 105 -46c59 0 115 29 148 77l27 -17c-40 -57 -106 -93 -179 -93z" />
    <glyph glyph-name="guillemotleft" unicode="&#xab;" horiz-adv-x="450" 
d="M233 476h45l-135 -170l73 -164h-42l-74 167zM355 476h45l-136 -170l73 -164h-41l-75 167z" />
    <glyph glyph-name="logicalnot" unicode="&#xac;" horiz-adv-x="520" 
d="M90 382h386l-29 -167h-35l23 134h-351z" />
    <glyph glyph-name="registered" unicode="&#xae;" horiz-adv-x="831" 
d="M497 711c99 0 177 -36 236 -108s79 -158 62 -258c-18 -100 -68 -184 -150 -253s-174 -103 -276 -103c-99 0 -177 36 -236 108s-79 158 -61 258c17 100 67 184 149 253s174 103 276 103zM772 350c16 94 -3 174 -58 240c-54 66 -128 99 -221 99c-94 0 -180 -33 -257 -99
s-124 -146 -141 -240s2 -174 56 -240c55 -66 129 -99 222 -99c94 0 180 33 257 99s125 146 142 240zM362 535h109c84 0 123 -55 112 -115c-11 -57 -45 -92 -102 -105l65 -150h-36l-62 146c-3 -1 -9 -1 -17 -1h-75l-25 -145h-34zM549 423c8 47 -21 80 -82 80h-77l-28 -161h76
c64 0 101 27 111 81z" />
    <glyph glyph-name="overscore" unicode="&#xaf;" horiz-adv-x="287" 
d="M327 594h-246l5 30h247z" />
    <glyph glyph-name="degree" unicode="&#xb0;" horiz-adv-x="386" 
d="M241 523c-40 0 -72 14 -96 43c-23 29 -32 63 -25 103s27 73 59 100c33 27 70 41 113 41c41 0 74 -14 97 -43s31 -63 24 -103c-15 -81 -83 -141 -172 -141zM247 555c65 0 120 48 131 112c11 63 -28 111 -92 111c-31 0 -60 -11 -85 -32s-41 -48 -46 -79
c-11 -64 28 -112 92 -112z" />
    <glyph glyph-name="plusminus" unicode="&#xb1;" horiz-adv-x="527" 
d="M343 603l-31 -175h180l-6 -33h-179l-31 -175h-35l31 175h-179l5 33h180l31 175h34zM433 97h-393l6 33h393z" />
    <glyph glyph-name="acute" unicode="&#xb4;" horiz-adv-x="160" 
d="M76 570l100 123h42l-107 -123h-35z" />
    <glyph glyph-name="uni00B5" unicode="&#xb5;" horiz-adv-x="609" 
d="M544 500l-74 -420c-5 -31 7 -47 37 -47h27l-6 -33h-29c-45 0 -73 32 -64 80l4 23c-49 -76 -117 -114 -205 -114c-74 0 -122 29 -145 88l-49 -277h-36l123 700h36l-58 -332c-8 -87 40 -145 133 -145c55 0 103 19 144 56s68 89 80 155l47 266h35z" />
    <glyph glyph-name="paragraph" unicode="&#xb6;" horiz-adv-x="560" 
d="M312 700h280l-5 -33h-61l-152 -867h-34l152 867h-151l-152 -867h-35l93 527c-52 1 -93 20 -123 57c-29 38 -39 82 -30 133c9 52 34 95 76 130c43 35 90 53 142 53z" />
    <glyph glyph-name="middot" unicode="&#xb7;" horiz-adv-x="196" 
d="M107 305c-19 0 -32 16 -28 36c5 23 18 34 41 34c19 0 32 -16 28 -36c-5 -23 -18 -34 -41 -34z" />
    <glyph glyph-name="cedilla" unicode="&#xb8;" horiz-adv-x="225" 
d="M71 0l-12 -68c48 -3 85 -29 77 -70c-9 -59 -75 -82 -197 -69l5 29c101 -11 154 4 161 43c7 29 -23 47 -82 43l16 92h32z" />
    <glyph glyph-name="guillemotright" unicode="&#xbb;" horiz-adv-x="451" 
d="M134 476h41l75 -167l-134 -167h-45l136 170zM255 476h42l74 -167l-133 -167h-45l135 170z" />
    <glyph glyph-name="onequarter" unicode="&#xbc;" horiz-adv-x="836" 
d="M178 300h-34l63 358l-115 -38l-5 31l138 49h24zM95 0l533 700h37l-533 -700h-37zM727 116h59l-5 -31h-59l-15 -85h-34l15 85h-220l6 31l202 284h37l-201 -284h181l20 113h34z" />
    <glyph glyph-name="onehalf" unicode="&#xbd;" horiz-adv-x="824" 
d="M178 300h-34l63 358l-115 -38l-5 31l138 49h24zM95 0l533 700h37l-533 -700h-37zM787 294c-5 -40 -31 -79 -77 -117l-178 -145h217l-6 -32h-270l4 27l212 173c39 32 60 64 65 96c8 47 -23 84 -79 84c-48 0 -90 -28 -113 -71l-28 16c27 52 82 87 145 87
c75 0 117 -51 108 -118z" />
    <glyph glyph-name="threequarters" unicode="&#xbe;" horiz-adv-x="936" 
d="M332 410c-12 -72 -71 -122 -158 -122c-64 0 -104 26 -121 77l30 16c11 -41 43 -61 95 -61c67 0 112 39 121 94c8 53 -21 93 -88 93h-3l-12 25l124 136h-203l5 32h245l-5 -32l-123 -134c68 -9 104 -60 93 -124zM195 0l533 700h37l-533 -700h-37zM827 116h59l-5 -31h-59
l-15 -85h-34l15 85h-220l6 31l202 284h37l-201 -284h181l20 113h34z" />
    <glyph glyph-name="questiondown" unicode="&#xbf;" horiz-adv-x="528" 
d="M326 510c19 0 32 -16 28 -36c-5 -23 -18 -34 -41 -34c-19 0 -32 16 -28 36c5 23 18 34 41 34zM276 330h36c-12 -65 -53 -124 -98 -167c-66 -62 -147 -121 -160 -199c-16 -85 35 -140 138 -140c81 0 156 44 191 111l30 -18c-21 -39 -53 -70 -95 -93
c-41 -23 -85 -35 -132 -35c-57 0 -102 16 -135 49c-33 32 -44 75 -34 130c9 55 49 106 94 146c66 58 148 124 165 216z" />
    <glyph glyph-name="Agrave" unicode="&#xc0;" horiz-adv-x="629" 
d="M376 893l60 -123h-32l-68 123h40zM565 0h-38l-39 185h-367l-105 -185h-40l397 700h41zM388 657l-248 -438h341z" />
    <glyph glyph-name="Aacute" unicode="&#xc1;" horiz-adv-x="629" 
d="M473 893h42l-107 -123h-35zM565 0h-38l-39 185h-367l-105 -185h-40l397 700h41zM388 657l-248 -438h341z" />
    <glyph glyph-name="Acircumflex" unicode="&#xc2;" horiz-adv-x="629" 
d="M498 770l-73 102l-108 -102h-42l131 123h41l88 -123h-37zM565 0h-38l-39 185h-367l-105 -185h-40l397 700h41zM388 657l-248 -438h341z" />
    <glyph glyph-name="Atilde" unicode="&#xc3;" horiz-adv-x="629" 
d="M411 818c-51 57 -91 45 -104 -31h-31c9 51 28 82 58 94s59 1 88 -33c49 -56 91 -44 104 31h31c-9 -51 -28 -82 -58 -94c-30 -11 -59 0 -88 33zM565 0h-38l-39 185h-367l-105 -185h-40l397 700h41zM388 657l-248 -438h341z" />
    <glyph glyph-name="Adieresis" unicode="&#xc4;" horiz-adv-x="629" 
d="M298 807c5 36 66 36 57 0c-6 -37 -63 -38 -57 0zM468 807c5 36 66 36 57 0c-6 -37 -63 -38 -57 0zM565 0h-38l-39 185h-367l-105 -185h-40l397 700h41zM388 657l-248 -438h341z" />
    <glyph glyph-name="Aring" unicode="&#xc5;" horiz-adv-x="629" 
d="M565 0h-38l-39 185h-367l-105 -185h-40l388 683c-43 11 -63 47 -56 91c9 53 56 92 113 92c59 0 93 -39 84 -94c-8 -45 -42 -80 -87 -89zM338 773c-7 -39 16 -66 57 -66s73 27 80 66c7 40 -17 66 -57 66s-72 -26 -80 -66zM388 657l-248 -438h341z" />
    <glyph glyph-name="AE" unicode="&#xc6;" horiz-adv-x="865" 
d="M893 700l-6 -34h-329l-52 -296h307l-6 -34h-307l-53 -302h334l-6 -34h-370l34 193h-280l-152 -193h-44l551 700h379zM520 652l-335 -425h260z" />
    <glyph glyph-name="Ccedilla" unicode="&#xc7;" horiz-adv-x="757" 
d="M484 676c-93 0 -175 -32 -246 -95s-114 -140 -130 -231s1 -168 50 -231c50 -63 121 -95 213 -95c119 0 229 59 298 155l30 -19c-35 -49 -81 -90 -136 -121s-113 -47 -176 -50l-10 -57c48 -3 85 -29 77 -70c-9 -59 -75 -82 -197 -69l5 29c101 -11 154 4 161 43
c7 29 -23 47 -82 43l14 81c-99 3 -175 40 -229 111c-53 71 -71 156 -54 255c17 101 65 186 144 254s168 102 269 102c129 0 231 -65 279 -166l-32 -17c-43 91 -131 148 -248 148z" />
    <glyph glyph-name="Egrave" unicode="&#xc8;" horiz-adv-x="537" 
d="M348 893l60 -123h-32l-68 123h40zM564 700l-6 -34h-355l-52 -296h330l-6 -34h-330l-53 -302h360l-6 -34h-397l123 700h392z" />
    <glyph glyph-name="Eacute" unicode="&#xc9;" horiz-adv-x="537" 
d="M445 893h42l-107 -123h-35zM564 700l-6 -34h-355l-52 -296h330l-6 -34h-330l-53 -302h360l-6 -34h-397l123 700h392z" />
    <glyph glyph-name="Ecircumflex" unicode="&#xca;" horiz-adv-x="537" 
d="M470 770l-73 102l-108 -102h-42l131 123h41l88 -123h-37zM564 700l-6 -34h-355l-52 -296h330l-6 -34h-330l-53 -302h360l-6 -34h-397l123 700h392z" />
    <glyph glyph-name="Edieresis" unicode="&#xcb;" horiz-adv-x="537" 
d="M270 807c5 36 66 36 57 0c-6 -37 -63 -38 -57 0zM440 807c5 36 66 36 57 0c-6 -37 -63 -38 -57 0zM564 700l-6 -34h-355l-52 -296h330l-6 -34h-330l-53 -302h360l-6 -34h-397l123 700h392z" />
    <glyph glyph-name="Igrave" unicode="&#xcc;" horiz-adv-x="223" 
d="M234 770h-32l-68 123h40zM172 700l-123 -700h37l123 700h-37z" />
    <glyph glyph-name="Iacute" unicode="&#xcd;" horiz-adv-x="223" 
d="M171 770l100 123h42l-107 -123h-35zM172 700l-123 -700h37l123 700h-37z" />
    <glyph glyph-name="Icircumflex" unicode="&#xce;" horiz-adv-x="223" 
d="M245 893l88 -123h-37l-73 102l-108 -102h-42l131 123h41zM86 0h-37l123 700h37z" />
    <glyph glyph-name="Idieresis" unicode="&#xcf;" horiz-adv-x="223" 
d="M96 807c5 36 66 36 57 0c-6 -37 -63 -38 -57 0zM266 807c5 36 66 36 57 0c-6 -37 -63 -38 -57 0zM49 0l123 700h37l-123 -700h-37z" />
    <glyph glyph-name="Eth" unicode="&#xd0;" horiz-adv-x="754" 
d="M192 700h257c93 0 166 -35 217 -105c51 -69 68 -153 51 -251s-62 -180 -135 -246c-73 -65 -158 -98 -256 -98h-257l59 333h-63l6 34h62zM681 349c16 89 2 164 -43 225s-110 92 -195 92h-220l-53 -299h261l-6 -34h-260l-53 -299h220c86 0 162 30 227 91
c66 61 107 135 122 224z" />
    <glyph glyph-name="Ntilde" unicode="&#xd1;" horiz-adv-x="693" 
d="M340 787h-31c9 51 28 82 58 94s59 1 88 -33c49 -56 91 -44 104 31h31c-9 -51 -28 -82 -58 -94c-30 -11 -59 0 -88 33c-51 57 -91 45 -104 -31zM86 0h-37l123 700h32l327 -634l111 634h37l-123 -700h-31l-327 634z" />
    <glyph glyph-name="Ograve" unicode="&#xd2;" horiz-adv-x="829" 
d="M536 770h-32l-68 123h40zM370 -11c101 0 193 34 274 102c81 69 131 153 148 252c17 100 -3 186 -62 259s-138 109 -237 109c-101 0 -192 -34 -273 -103s-131 -153 -148 -253c-18 -100 2 -186 60 -258c59 -72 138 -108 238 -108zM375 24c-90 0 -161 32 -213 95
c-52 64 -70 141 -54 231c16 91 61 168 134 231s155 95 246 95s162 -32 213 -96c52 -64 70 -141 55 -232c-17 -91 -62 -167 -135 -230s-155 -94 -246 -94z" />
    <glyph glyph-name="Oacute" unicode="&#xd3;" horiz-adv-x="829" 
d="M473 770l100 123h42l-107 -123h-35zM370 -11c101 0 193 34 274 102c81 69 131 153 148 252c17 100 -3 186 -62 259s-138 109 -237 109c-101 0 -192 -34 -273 -103s-131 -153 -148 -253c-18 -100 2 -186 60 -258c59 -72 138 -108 238 -108zM375 24c-90 0 -161 32 -213 95
c-52 64 -70 141 -54 231c16 91 61 168 134 231s155 95 246 95s162 -32 213 -96c52 -64 70 -141 55 -232c-17 -91 -62 -167 -135 -230s-155 -94 -246 -94z" />
    <glyph glyph-name="Ocircumflex" unicode="&#xd4;" horiz-adv-x="829" 
d="M598 770l-73 102l-108 -102h-42l131 123h41l88 -123h-37zM493 711c99 0 178 -36 237 -109s79 -159 62 -259c-17 -99 -67 -183 -148 -252c-81 -68 -173 -102 -274 -102c-100 0 -179 36 -238 108c-58 72 -78 158 -60 258c17 100 67 184 148 253s172 103 273 103zM756 348
c15 91 -3 168 -55 232c-51 64 -122 96 -213 96s-173 -32 -246 -95s-118 -140 -134 -231c-16 -90 2 -167 54 -231c52 -63 123 -95 213 -95c91 0 173 31 246 94s118 139 135 230z" />
    <glyph glyph-name="Otilde" unicode="&#xd5;" horiz-adv-x="829" 
d="M407 787h-31c9 51 28 82 58 94s59 1 88 -33c49 -56 91 -44 104 31h31c-9 -51 -28 -82 -58 -94c-30 -11 -59 0 -88 33c-51 57 -91 45 -104 -31zM370 -11c-100 0 -179 36 -238 108c-58 72 -78 158 -60 258c17 100 67 184 148 253s172 103 273 103c99 0 178 -36 237 -109
s79 -159 62 -259c-17 -99 -67 -183 -148 -252c-81 -68 -173 -102 -274 -102zM375 24c91 0 173 31 246 94s118 139 135 230c15 91 -3 168 -55 232c-51 64 -122 96 -213 96s-173 -32 -246 -95s-118 -140 -134 -231c-16 -90 2 -167 54 -231c52 -63 123 -95 213 -95z" />
    <glyph glyph-name="Odieresis" unicode="&#xd6;" horiz-adv-x="829" 
d="M398 807c5 36 66 36 57 0c-6 -37 -63 -38 -57 0zM568 807c5 36 66 36 57 0c-6 -37 -63 -38 -57 0zM370 -11c-100 0 -179 36 -238 108c-58 72 -78 158 -60 258c17 100 67 184 148 253s172 103 273 103c99 0 178 -36 237 -109s79 -159 62 -259c-17 -99 -67 -183 -148 -252
c-81 -68 -173 -102 -274 -102zM375 24c91 0 173 31 246 94s118 139 135 230c15 91 -3 168 -55 232c-51 64 -122 96 -213 96s-173 -32 -246 -95s-118 -140 -134 -231c-16 -90 2 -167 54 -231c52 -63 123 -95 213 -95z" />
    <glyph glyph-name="multiply" unicode="&#xd7;" horiz-adv-x="466" 
d="M423 519l24 -22l-173 -148l121 -146l-26 -22l-121 146l-170 -146l-23 22l173 148l-121 146l25 22l121 -146z" />
    <glyph glyph-name="Oslash" unicode="&#xd8;" horiz-adv-x="839" 
d="M804 684l-73 -71c65 -73 89 -163 71 -270c-17 -99 -67 -183 -148 -252c-81 -68 -173 -102 -274 -102c-82 0 -151 26 -208 77l-68 -66l-25 16l72 71c-61 68 -88 165 -69 268c17 100 67 184 148 253s172 103 273 103c83 0 152 -26 208 -78l68 67zM118 350
c-17 -94 3 -173 60 -238l507 496c-49 45 -112 68 -187 68c-91 0 -173 -32 -246 -95s-118 -140 -134 -231zM766 348c16 95 -4 175 -61 240l-507 -496c49 -45 112 -68 187 -68c91 0 173 31 246 94s118 139 135 230z" />
    <glyph glyph-name="Ugrave" unicode="&#xd9;" horiz-adv-x="673" 
d="M456 770h-32l-68 123h40zM297 -11c76 0 140 22 192 65c52 44 84 102 97 175l83 471h-37l-83 -471c-11 -59 -38 -108 -82 -147s-101 -58 -170 -58c-139 0 -201 85 -180 205l83 471h-37l-83 -471c-13 -70 1 -128 40 -173c40 -45 99 -67 177 -67z" />
    <glyph glyph-name="Uacute" unicode="&#xda;" horiz-adv-x="673" 
d="M393 770l100 123h42l-107 -123h-35zM297 -11c76 0 140 22 192 65c52 44 84 102 97 175l83 471h-37l-83 -471c-11 -59 -38 -108 -82 -147s-101 -58 -170 -58c-139 0 -201 85 -180 205l83 471h-37l-83 -471c-13 -70 1 -128 40 -173c40 -45 99 -67 177 -67z" />
    <glyph glyph-name="Ucircumflex" unicode="&#xdb;" horiz-adv-x="673" 
d="M518 770l-73 102l-108 -102h-42l131 123h41l88 -123h-37zM549 229l83 471h37l-83 -471c-13 -73 -45 -131 -97 -175c-52 -43 -116 -65 -192 -65c-78 0 -137 22 -177 67c-39 45 -53 103 -40 173l83 471h37l-83 -471c-21 -120 41 -205 180 -205c69 0 126 19 170 58
s71 88 82 147z" />
    <glyph glyph-name="Udieresis" unicode="&#xdc;" horiz-adv-x="673" 
d="M318 807c5 36 66 36 57 0c-6 -37 -63 -38 -57 0zM488 807c5 36 66 36 57 0c-6 -37 -63 -38 -57 0zM297 -11c-78 0 -137 22 -177 67c-39 45 -53 103 -40 173l83 471h37l-83 -471c-21 -120 41 -205 180 -205c69 0 126 19 170 58s71 88 82 147l83 471h37l-83 -471
c-13 -73 -45 -131 -97 -175c-52 -43 -116 -65 -192 -65z" />
    <glyph glyph-name="Yacute" unicode="&#xdd;" horiz-adv-x="565" 
d="M440 893h42l-107 -123h-35zM585 700h42l-313 -372l-57 -328h-37l58 328l-182 372h38l166 -339z" />
    <glyph glyph-name="Thorn" unicode="&#xde;" horiz-adv-x="583" 
d="M185 563h186c64 0 113 -20 147 -61s46 -91 37 -152c-10 -61 -39 -111 -87 -152s-106 -61 -174 -61h-184l-24 -137h-37l123 700h37zM519 353c9 52 -1 94 -29 127c-27 33 -67 49 -120 49h-191l-63 -358h181c57 0 105 17 146 51c41 35 67 78 76 131z" />
    <glyph glyph-name="germandbls" unicode="&#xdf;" horiz-adv-x="517" 
d="M245 -4l7 32c100 -7 172 37 183 113c7 47 -21 99 -52 134c-29 35 -59 81 -54 117c1 50 118 110 126 178c11 64 -35 107 -112 107c-89 0 -159 -56 -176 -157l-92 -520h-36l93 522c21 123 104 189 216 189c49 0 86 -14 113 -43c27 -28 36 -62 29 -102
c-7 -37 -39 -79 -67 -104c-28 -24 -57 -55 -58 -75c-3 -29 27 -72 56 -107c29 -33 56 -90 49 -143c-13 -95 -98 -150 -225 -141z" />
    <glyph glyph-name="agrave" unicode="&#xe0;" horiz-adv-x="654" 
d="M334 693l60 -123h-32l-68 123h40zM553 354l26 146h36l-88 -500h-36l21 118c-52 -81 -142 -129 -243 -129c-71 0 -129 27 -173 81c-44 55 -60 119 -47 192c13 75 47 136 102 181s119 68 190 68c51 0 95 -14 134 -43s65 -67 78 -114zM276 23c61 0 115 19 162 56
c47 38 78 87 93 146l5 33c7 63 -9 115 -48 156c-38 42 -87 63 -148 63c-62 0 -117 -20 -166 -60c-48 -40 -78 -93 -90 -159c-11 -64 2 -119 39 -166c38 -46 89 -69 153 -69z" />
    <glyph glyph-name="aacute" unicode="&#xe1;" horiz-adv-x="654" 
d="M431 693h42l-107 -123h-35zM553 354l26 146h36l-88 -500h-36l21 118c-52 -81 -142 -129 -243 -129c-71 0 -129 27 -173 81c-44 55 -60 119 -47 192c13 75 47 136 102 181s119 68 190 68c51 0 95 -14 134 -43s65 -67 78 -114zM276 23c61 0 115 19 162 56
c47 38 78 87 93 146l5 33c7 63 -9 115 -48 156c-38 42 -87 63 -148 63c-62 0 -117 -20 -166 -60c-48 -40 -78 -93 -90 -159c-11 -64 2 -119 39 -166c38 -46 89 -69 153 -69z" />
    <glyph glyph-name="acircumflex" unicode="&#xe2;" horiz-adv-x="654" 
d="M456 570l-73 102l-108 -102h-42l131 123h41l88 -123h-37zM553 354l26 146h36l-88 -500h-36l21 118c-52 -81 -142 -129 -243 -129c-71 0 -129 27 -173 81c-44 55 -60 119 -47 192c13 75 47 136 102 181s119 68 190 68c51 0 95 -14 134 -43s65 -67 78 -114zM276 23
c61 0 115 19 162 56c47 38 78 87 93 146l5 33c7 63 -9 115 -48 156c-38 42 -87 63 -148 63c-62 0 -117 -20 -166 -60c-48 -40 -78 -93 -90 -159c-11 -64 2 -119 39 -166c38 -46 89 -69 153 -69z" />
    <glyph glyph-name="atilde" unicode="&#xe3;" horiz-adv-x="654" 
d="M369 618c-51 57 -91 45 -104 -31h-31c9 51 28 82 58 94s59 1 88 -33c49 -56 91 -44 104 31h31c-9 -51 -28 -82 -58 -94c-30 -11 -59 0 -88 33zM553 354l26 146h36l-88 -500h-36l21 118c-52 -81 -142 -129 -243 -129c-71 0 -129 27 -173 81c-44 55 -60 119 -47 192
c13 75 47 136 102 181s119 68 190 68c51 0 95 -14 134 -43s65 -67 78 -114zM276 23c61 0 115 19 162 56c47 38 78 87 93 146l5 33c7 63 -9 115 -48 156c-38 42 -87 63 -148 63c-62 0 -117 -20 -166 -60c-48 -40 -78 -93 -90 -159c-11 -64 2 -119 39 -166
c38 -46 89 -69 153 -69z" />
    <glyph glyph-name="adieresis" unicode="&#xe4;" horiz-adv-x="654" 
d="M256 607c5 36 66 36 57 0c-6 -37 -63 -38 -57 0zM426 607c5 36 66 36 57 0c-6 -37 -63 -38 -57 0zM553 354l26 146h36l-88 -500h-36l21 118c-52 -81 -142 -129 -243 -129c-71 0 -129 27 -173 81c-44 55 -60 119 -47 192c13 75 47 136 102 181s119 68 190 68
c51 0 95 -14 134 -43s65 -67 78 -114zM276 23c61 0 115 19 162 56c47 38 78 87 93 146l5 33c7 63 -9 115 -48 156c-38 42 -87 63 -148 63c-62 0 -117 -20 -166 -60c-48 -40 -78 -93 -90 -159c-11 -64 2 -119 39 -166c38 -46 89 -69 153 -69z" />
    <glyph glyph-name="aring" unicode="&#xe5;" horiz-adv-x="654" 
d="M363 557c-60 0 -93 41 -84 94s56 92 113 92c59 0 93 -39 84 -94s-56 -92 -113 -92zM309 650c-7 -39 16 -66 57 -66s73 27 80 66c7 40 -17 66 -57 66s-72 -26 -80 -66zM553 354l26 146h36l-88 -500h-36l21 118c-52 -81 -142 -129 -243 -129c-71 0 -129 27 -173 81
c-44 55 -60 119 -47 192c13 75 47 136 102 181s119 68 190 68c51 0 95 -14 134 -43s65 -67 78 -114zM276 23c61 0 115 19 162 56c47 38 78 87 93 146l5 33c7 63 -9 115 -48 156c-38 42 -87 63 -148 63c-62 0 -117 -20 -166 -60c-48 -40 -78 -93 -90 -159
c-11 -64 2 -119 39 -166c38 -46 89 -69 153 -69z" />
    <glyph glyph-name="ae" unicode="&#xe6;" horiz-adv-x="1081" 
d="M836 511c73 0 127 -26 164 -78s49 -113 36 -184l-4 -18h-464c-13 -125 60 -208 185 -208c87 0 160 37 203 97l27 -18c-51 -71 -137 -113 -233 -113c-105 0 -178 56 -201 147l-24 -136h-34l22 124c-56 -84 -148 -135 -251 -135c-71 0 -128 26 -170 78s-57 115 -44 188
c13 76 49 138 106 185s122 71 193 71c99 0 180 -57 208 -146l24 135h34l-23 -132c52 88 141 143 246 143zM269 23c61 0 117 20 167 60s82 90 96 151l5 28c8 63 -7 114 -44 154c-37 41 -85 61 -146 61c-62 0 -119 -21 -170 -64c-51 -42 -82 -96 -94 -161
c-11 -64 1 -118 37 -163c36 -44 86 -66 149 -66zM574 264h429c15 131 -56 213 -173 213c-62 0 -117 -20 -164 -59s-78 -91 -92 -154z" />
    <glyph glyph-name="ccedilla" unicode="&#xe7;" horiz-adv-x="571" 
d="M349 477c-65 0 -122 -22 -173 -65s-82 -97 -93 -161s0 -118 35 -162s85 -66 150 -66c87 0 166 42 210 109l28 -18c-49 -75 -133 -121 -229 -125l-10 -57c48 -3 85 -29 77 -70c-9 -59 -75 -82 -197 -69l5 29c101 -11 154 4 161 43c7 29 -23 47 -82 43l14 82
c-69 5 -122 32 -160 83c-37 51 -50 112 -37 183c13 73 49 134 106 182c58 49 124 73 199 73c96 0 172 -49 199 -125l-31 -16c-21 67 -84 107 -172 107z" />
    <glyph glyph-name="egrave" unicode="&#xe8;" horiz-adv-x="593" 
d="M328 693l60 -123h-32l-68 123h40zM548 249c0 -4 -4 -14 -4 -18h-464c-7 -63 7 -113 41 -151s82 -57 145 -57c85 0 160 37 201 97l28 -18c-49 -71 -137 -113 -234 -113c-76 0 -134 25 -174 76s-53 114 -40 190c13 74 47 135 102 183c55 49 120 73 195 73s130 -26 167 -78
c37 -51 50 -113 37 -184zM85 264h430c8 65 -4 117 -37 155c-32 39 -77 58 -136 58c-63 0 -118 -20 -165 -59s-78 -91 -92 -154z" />
    <glyph glyph-name="eacute" unicode="&#xe9;" horiz-adv-x="593" 
d="M425 693h42l-107 -123h-35zM548 249c0 -4 -4 -14 -4 -18h-464c-7 -63 7 -113 41 -151s82 -57 145 -57c85 0 160 37 201 97l28 -18c-49 -71 -137 -113 -234 -113c-76 0 -134 25 -174 76s-53 114 -40 190c13 74 47 135 102 183c55 49 120 73 195 73s130 -26 167 -78
c37 -51 50 -113 37 -184zM85 264h430c8 65 -4 117 -37 155c-32 39 -77 58 -136 58c-63 0 -118 -20 -165 -59s-78 -91 -92 -154z" />
    <glyph glyph-name="ecircumflex" unicode="&#xea;" horiz-adv-x="593" 
d="M450 570l-73 102l-108 -102h-42l131 123h41l88 -123h-37zM548 249c0 -4 -4 -14 -4 -18h-464c-7 -63 7 -113 41 -151s82 -57 145 -57c85 0 160 37 201 97l28 -18c-49 -71 -137 -113 -234 -113c-76 0 -134 25 -174 76s-53 114 -40 190c13 74 47 135 102 183
c55 49 120 73 195 73s130 -26 167 -78c37 -51 50 -113 37 -184zM85 264h430c8 65 -4 117 -37 155c-32 39 -77 58 -136 58c-63 0 -118 -20 -165 -59s-78 -91 -92 -154z" />
    <glyph glyph-name="edieresis" unicode="&#xeb;" horiz-adv-x="593" 
d="M250 607c5 36 66 36 57 0c-6 -37 -63 -38 -57 0zM420 607c5 36 66 36 57 0c-6 -37 -63 -38 -57 0zM548 249c0 -4 -4 -14 -4 -18h-464c-7 -63 7 -113 41 -151s82 -57 145 -57c85 0 160 37 201 97l28 -18c-49 -71 -137 -113 -234 -113c-76 0 -134 25 -174 76
s-53 114 -40 190c13 74 47 135 102 183c55 49 120 73 195 73s130 -26 167 -78c37 -51 50 -113 37 -184zM85 264h430c8 65 -4 117 -37 155c-32 39 -77 58 -136 58c-63 0 -118 -20 -165 -59s-78 -91 -92 -154z" />
    <glyph glyph-name="igrave" unicode="&#xec;" horiz-adv-x="202" 
d="M179 570h-33l-46 123h40zM75 0l88 500h-36l-88 -500h36z" />
    <glyph glyph-name="iacute" unicode="&#xed;" horiz-adv-x="202" 
d="M135 570l81 123h41l-89 -123h-33zM39 0h36l88 500h-36z" />
    <glyph glyph-name="icircumflex" unicode="&#xee;" horiz-adv-x="202" 
d="M200 693l62 -123h-40l-48 95l-80 -95h-40l105 123h41zM75 0h-36l88 500h36z" />
    <glyph glyph-name="idieresis" unicode="&#xef;" horiz-adv-x="202" 
d="M96 578c-15 0 -26 13 -23 29c1 15 18 28 33 28c16 0 26 -13 23 -28c-3 -16 -17 -29 -33 -29zM222 578c-15 0 -26 13 -23 29c1 15 18 28 33 28c16 0 26 -13 23 -28c-3 -16 -17 -29 -33 -29zM75 0h-36l88 500h36z" />
    <glyph glyph-name="eth" unicode="&#xf0;" horiz-adv-x="589" 
d="M377 607l137 -241c24 -42 31 -92 22 -150c-13 -71 -46 -127 -97 -167s-110 -60 -179 -60s-125 24 -169 73c-43 49 -58 109 -45 181c11 67 42 121 93 160s110 59 175 59c51 0 94 -12 129 -36l-93 166l-144 -80l6 35l124 69l-47 84h35l39 -69l123 68l-6 -35zM501 220
c9 52 5 94 -14 127c-32 56 -90 84 -173 84c-59 0 -111 -18 -154 -53s-69 -81 -79 -138c-11 -61 1 -113 36 -155c35 -41 85 -62 148 -62c60 0 112 18 155 53c43 36 70 84 81 144z" />
    <glyph glyph-name="ntilde" unicode="&#xf1;" horiz-adv-x="569" 
d="M344 618c-51 57 -91 45 -104 -31h-31c9 51 28 82 58 94s59 1 88 -33c49 -56 91 -44 104 31h31c-9 -51 -28 -82 -58 -94c-30 -11 -59 0 -88 33zM350 511c58 0 102 -18 132 -55c30 -36 40 -83 29 -142l-55 -314h-35l55 314c16 97 -31 163 -131 163c-51 0 -97 -17 -137 -50
s-67 -79 -82 -138l-51 -289h-36l88 500h36l-18 -103c48 76 124 114 205 114z" />
    <glyph glyph-name="ograve" unicode="&#xf2;" horiz-adv-x="617" 
d="M390 570h-32l-68 123h40zM265 -11c73 0 138 24 196 71c59 48 95 110 108 186c13 75 -1 138 -44 189s-100 76 -171 76c-72 0 -138 -24 -197 -72c-59 -47 -96 -109 -109 -185c-14 -76 1 -139 44 -190c43 -50 101 -75 173 -75zM268 23c-62 -1 -111 20 -148 63
c-36 43 -48 98 -37 164c12 66 44 120 95 163s108 64 171 64c62 0 111 -21 148 -64s49 -97 37 -162c-11 -66 -43 -121 -95 -164c-51 -43 -108 -64 -171 -64z" />
    <glyph glyph-name="oacute" unicode="&#xf3;" horiz-adv-x="617" 
d="M327 570l100 123h42l-107 -123h-35zM265 -11c73 0 138 24 196 71c59 48 95 110 108 186c13 75 -1 138 -44 189s-100 76 -171 76c-72 0 -138 -24 -197 -72c-59 -47 -96 -109 -109 -185c-14 -76 1 -139 44 -190c43 -50 101 -75 173 -75zM268 23c-62 -1 -111 20 -148 63
c-36 43 -48 98 -37 164c12 66 44 120 95 163s108 64 171 64c62 0 111 -21 148 -64s49 -97 37 -162c-11 -66 -43 -121 -95 -164c-51 -43 -108 -64 -171 -64z" />
    <glyph glyph-name="ocircumflex" unicode="&#xf4;" horiz-adv-x="617" 
d="M452 570l-73 102l-108 -102h-42l131 123h41l88 -123h-37zM354 511c71 0 128 -25 171 -76s57 -114 44 -189c-13 -76 -49 -138 -108 -186c-58 -47 -123 -71 -196 -71c-72 0 -130 25 -173 75c-43 51 -58 114 -44 190c13 76 50 138 109 185c59 48 125 72 197 72zM534 251
c12 65 0 119 -37 162s-86 64 -148 64c-63 0 -120 -21 -171 -64s-83 -97 -95 -163c-11 -66 1 -121 37 -164c37 -43 86 -64 148 -63c63 0 120 21 171 64c52 43 84 98 95 164z" />
    <glyph glyph-name="otilde" unicode="&#xf5;" horiz-adv-x="617" 
d="M261 587h-31c9 51 28 82 58 94s59 1 88 -33c49 -56 91 -44 104 31h31c-9 -51 -28 -82 -58 -94c-30 -11 -59 0 -88 33c-51 57 -91 45 -104 -31zM265 -11c-72 0 -130 25 -173 75c-43 51 -58 114 -44 190c13 76 50 138 109 185c59 48 125 72 197 72c71 0 128 -25 171 -76
s57 -114 44 -189c-13 -76 -49 -138 -108 -186c-58 -47 -123 -71 -196 -71zM268 23c63 0 120 21 171 64c52 43 84 98 95 164c12 65 0 119 -37 162s-86 64 -148 64c-63 0 -120 -21 -171 -64s-83 -97 -95 -163c-11 -66 1 -121 37 -164c37 -43 86 -64 148 -63z" />
    <glyph glyph-name="odieresis" unicode="&#xf6;" horiz-adv-x="617" 
d="M252 607c5 36 66 36 57 0c-6 -37 -63 -38 -57 0zM422 607c5 36 66 36 57 0c-6 -37 -63 -38 -57 0zM265 -11c-72 0 -130 25 -173 75c-43 51 -58 114 -44 190c13 76 50 138 109 185c59 48 125 72 197 72c71 0 128 -25 171 -76s57 -114 44 -189c-13 -76 -49 -138 -108 -186
c-58 -47 -123 -71 -196 -71zM268 23c63 0 120 21 171 64c52 43 84 98 95 164c12 65 0 119 -37 162s-86 64 -148 64c-63 0 -120 -21 -171 -64s-83 -97 -95 -163c-11 -66 1 -121 37 -164c37 -43 86 -64 148 -63z" />
    <glyph glyph-name="divide" unicode="&#xf7;" horiz-adv-x="580" 
d="M334 502c-19 0 -32 17 -28 36c3 20 21 34 41 34c19 0 32 -17 29 -36c-4 -20 -21 -34 -42 -34zM528 333h-447l6 34h447zM268 128c-19 0 -32 17 -28 36c3 20 21 34 41 34c19 0 32 -17 29 -36c-4 -20 -21 -34 -42 -34z" />
    <glyph glyph-name="oslash" unicode="&#xf8;" horiz-adv-x="617" 
d="M562 502l23 -15l-58 -54c41 -51 55 -114 42 -187c-13 -76 -49 -138 -108 -186c-58 -47 -123 -71 -196 -71c-62 0 -114 19 -156 58l-53 -49l-23 15l58 53c-43 51 -57 114 -43 188c13 76 50 138 109 185c59 48 125 72 197 72c62 0 113 -20 154 -59zM83 250
c-11 -64 1 -117 34 -159l365 337c-36 33 -80 49 -133 49c-63 0 -120 -21 -171 -64s-83 -97 -95 -163zM534 251c11 62 -1 115 -34 158l-365 -338c35 -32 80 -48 133 -48c63 0 120 21 171 64c52 43 84 98 95 164z" />
    <glyph glyph-name="ugrave" unicode="&#xf9;" horiz-adv-x="569" 
d="M305 693l60 -123h-32l-68 123h40zM443 211l51 289h36l-88 -500h-36l18 103c-48 -76 -124 -114 -205 -114c-58 0 -102 18 -132 54c-30 37 -40 84 -29 143l55 314h35l-55 -314c-16 -97 31 -163 131 -163c51 0 97 17 137 50s67 79 82 138z" />
    <glyph glyph-name="uacute" unicode="&#xfa;" horiz-adv-x="569" 
d="M402 693h42l-107 -123h-35zM443 211l51 289h36l-88 -500h-36l18 103c-48 -76 -124 -114 -205 -114c-58 0 -102 18 -132 54c-30 37 -40 84 -29 143l55 314h35l-55 -314c-16 -97 31 -163 131 -163c51 0 97 17 137 50s67 79 82 138z" />
    <glyph glyph-name="ucircumflex" unicode="&#xfb;" horiz-adv-x="569" 
d="M427 570l-73 102l-108 -102h-42l131 123h41l88 -123h-37zM443 211l51 289h36l-88 -500h-36l18 103c-48 -76 -124 -114 -205 -114c-58 0 -102 18 -132 54c-30 37 -40 84 -29 143l55 314h35l-55 -314c-16 -97 31 -163 131 -163c51 0 97 17 137 50s67 79 82 138z" />
    <glyph glyph-name="udieresis" unicode="&#xfc;" horiz-adv-x="569" 
d="M227 607c5 36 66 36 57 0c-6 -37 -63 -38 -57 0zM397 607c5 36 66 36 57 0c-6 -37 -63 -38 -57 0zM443 211l51 289h36l-88 -500h-36l18 103c-48 -76 -124 -114 -205 -114c-58 0 -102 18 -132 54c-30 37 -40 84 -29 143l55 314h35l-55 -314c-16 -97 31 -163 131 -163
c51 0 97 17 137 50s67 79 82 138z" />
    <glyph glyph-name="yacute" unicode="&#xfd;" horiz-adv-x="510" 
d="M365 693h42l-107 -123h-35zM226 24l272 476h39l-312 -546c-59 -101 -139 -161 -223 -154l6 33c67 -7 134 44 182 129l13 22l-142 516h35z" />
    <glyph glyph-name="thorn" unicode="&#xfe;" horiz-adv-x="654" 
d="M385 511c71 0 128 -27 172 -82c45 -54 61 -118 48 -191c-13 -75 -48 -136 -103 -181s-118 -68 -189 -68c-51 0 -95 14 -134 43s-65 67 -78 114l-61 -346h-36l158 900h36l-56 -319c53 81 142 130 243 130zM570 242c11 64 -2 119 -40 165c-37 47 -88 70 -152 70
c-61 0 -115 -19 -162 -57c-47 -37 -78 -86 -93 -145l-5 -33c-7 -63 9 -115 47 -157c39 -41 88 -62 149 -62c63 0 118 20 166 60c49 41 79 94 90 159z" />
    <glyph glyph-name="ydieresis" unicode="&#xff;" horiz-adv-x="510" 
d="M190 607c5 36 66 36 57 0c-6 -37 -63 -38 -57 0zM360 607c5 36 66 36 57 0c-6 -37 -63 -38 -57 0zM226 24l272 476h39l-312 -546c-59 -101 -139 -161 -223 -154l6 33c67 -7 134 44 182 129l13 22l-142 516h35z" />
    <glyph glyph-name="Amacron" unicode="&#x100;" horiz-adv-x="629" 
d="M292 824h247l-6 -30h-246zM565 0h-38l-39 185h-367l-105 -185h-40l397 700h41zM388 657l-248 -438h341z" />
    <glyph glyph-name="amacron" unicode="&#x101;" horiz-adv-x="654" 
d="M250 624h247l-6 -30h-246zM553 354l26 146h36l-88 -500h-36l21 118c-52 -81 -142 -129 -243 -129c-71 0 -129 27 -173 81c-44 55 -60 119 -47 192c13 75 47 136 102 181s119 68 190 68c51 0 95 -14 134 -43s65 -67 78 -114zM276 23c61 0 115 19 162 56
c47 38 78 87 93 146l5 33c7 63 -9 115 -48 156c-38 42 -87 63 -148 63c-62 0 -117 -20 -166 -60c-48 -40 -78 -93 -90 -159c-11 -64 2 -119 39 -166c38 -46 89 -69 153 -69z" />
    <glyph glyph-name="Abreve" unicode="&#x102;" horiz-adv-x="629" 
d="M408 769c-76 0 -122 44 -110 113h34c-9 -52 22 -83 79 -83s98 31 107 83h34c-13 -71 -67 -113 -144 -113zM565 0h-38l-39 185h-367l-105 -185h-40l397 700h41zM388 657l-248 -438h341z" />
    <glyph glyph-name="abreve" unicode="&#x103;" horiz-adv-x="654" 
d="M366 569c-76 0 -122 44 -110 113h34c-9 -52 22 -83 79 -83s98 31 107 83h34c-13 -71 -67 -113 -144 -113zM553 354l26 146h36l-88 -500h-36l21 118c-52 -81 -142 -129 -243 -129c-71 0 -129 27 -173 81c-44 55 -60 119 -47 192c13 75 47 136 102 181s119 68 190 68
c51 0 95 -14 134 -43s65 -67 78 -114zM276 23c61 0 115 19 162 56c47 38 78 87 93 146l5 33c7 63 -9 115 -48 156c-38 42 -87 63 -148 63c-62 0 -117 -20 -166 -60c-48 -40 -78 -93 -90 -159c-11 -64 2 -119 39 -166c38 -46 89 -69 153 -69z" />
    <glyph glyph-name="Aogonek" unicode="&#x104;" horiz-adv-x="629" 
d="M451 -137c-5 -27 10 -44 38 -44c16 0 31 3 45 9l-5 -29c-13 -7 -30 -10 -51 -10c-44 0 -70 30 -62 73c7 43 44 90 110 141l-38 182h-367l-105 -185h-40l397 700h41l151 -700c-70 -53 -108 -98 -114 -137zM388 657l-248 -438h341z" />
    <glyph glyph-name="aogonek" unicode="&#x105;" horiz-adv-x="654" 
d="M615 500l-88 -500c-71 -53 -109 -99 -114 -137c-5 -28 10 -44 38 -44c17 0 32 3 45 9l-5 -30c-16 -6 -33 -9 -51 -9c-45 0 -70 30 -62 73c7 44 46 93 115 148l19 108c-52 -81 -142 -129 -243 -129c-71 0 -129 27 -173 81c-44 55 -60 119 -47 192c13 75 47 136 102 181
s119 68 190 68c51 0 95 -14 134 -43s65 -67 78 -114l26 146h36zM276 23c61 0 115 19 162 56c47 38 78 87 93 146l5 33c7 63 -9 115 -48 156c-38 42 -87 63 -148 63c-62 0 -117 -20 -166 -60c-48 -40 -78 -93 -90 -159c-11 -64 2 -119 39 -166c38 -46 89 -69 153 -69z" />
    <glyph glyph-name="Cacute" unicode="&#x106;" horiz-adv-x="757" 
d="M474 770l100 123h42l-107 -123h-35zM369 -11c66 0 128 16 186 47c59 31 107 73 144 124l-30 19c-69 -96 -179 -155 -298 -155c-92 0 -163 32 -213 95c-49 63 -66 140 -50 231s59 168 130 231s153 95 246 95c117 0 205 -57 248 -148l32 17c-48 101 -150 166 -279 166
c-101 0 -190 -34 -269 -102s-127 -153 -144 -254c-17 -102 2 -189 58 -260c57 -71 136 -106 239 -106z" />
    <glyph glyph-name="cacute" unicode="&#x107;" horiz-adv-x="571" 
d="M325 570l100 123h42l-107 -123h-35zM263 -11c103 0 192 46 243 125l-28 18c-44 -67 -123 -109 -210 -109c-65 0 -115 22 -150 66s-46 98 -35 162s42 118 93 161s108 65 173 65c88 0 151 -40 172 -107l31 16c-27 76 -103 125 -199 125c-75 0 -141 -24 -199 -73
c-57 -48 -93 -109 -106 -182c-13 -75 1 -138 42 -190c41 -51 99 -77 173 -77z" />
    <glyph glyph-name="Cdotaccent" unicode="&#x10a;" horiz-adv-x="757" 
d="M508 777c-51 0 -36 76 13 76c21 0 35 -17 32 -38c-4 -21 -24 -38 -45 -38zM369 -11c-103 0 -182 35 -239 106c-56 71 -75 158 -58 260c17 101 65 186 144 254s168 102 269 102c129 0 231 -65 279 -166l-32 -17c-43 91 -131 148 -248 148c-93 0 -175 -32 -246 -95
s-114 -140 -130 -231s1 -168 50 -231c50 -63 121 -95 213 -95c119 0 229 59 298 155l30 -19c-37 -51 -85 -93 -144 -124c-58 -31 -120 -47 -186 -47z" />
    <glyph glyph-name="cdotaccent" unicode="&#x10b;" horiz-adv-x="571" 
d="M359 577c-51 0 -36 76 13 76c21 0 35 -17 32 -38c-4 -21 -24 -38 -45 -38zM263 -11c-74 0 -132 26 -173 77c-41 52 -55 115 -42 190c13 73 49 134 106 182c58 49 124 73 199 73c96 0 172 -49 199 -125l-31 -16c-21 67 -84 107 -172 107c-65 0 -122 -22 -173 -65
s-82 -97 -93 -161s0 -118 35 -162s85 -66 150 -66c87 0 166 42 210 109l28 -18c-51 -79 -140 -125 -243 -125z" />
    <glyph glyph-name="Ccaron" unicode="&#x10c;" horiz-adv-x="757" 
d="M526 770h-41l-89 123h38l72 -101l109 101h42zM484 676c-93 0 -175 -32 -246 -95s-114 -140 -130 -231s1 -168 50 -231c50 -63 121 -95 213 -95c119 0 229 59 298 155l30 -19c-37 -51 -85 -93 -144 -124c-58 -31 -120 -47 -186 -47c-103 0 -182 35 -239 106
c-56 71 -75 158 -58 260c17 101 65 186 144 254s168 102 269 102c129 0 231 -65 279 -166l-32 -17c-43 91 -131 148 -248 148z" />
    <glyph glyph-name="ccaron" unicode="&#x10d;" horiz-adv-x="571" 
d="M377 570h-41l-89 123h38l72 -101l109 101h42zM349 477c-65 0 -122 -22 -173 -65s-82 -97 -93 -161s0 -118 35 -162s85 -66 150 -66c87 0 166 42 210 109l28 -18c-51 -79 -140 -125 -243 -125c-74 0 -132 26 -173 77c-41 52 -55 115 -42 190c13 73 49 134 106 182
c58 49 124 73 199 73c96 0 172 -49 199 -125l-31 -16c-21 67 -84 107 -172 107z" />
    <glyph glyph-name="Dcaron" unicode="&#x10e;" horiz-adv-x="734" 
d="M451 770h-41l-89 123h38l72 -101l109 101h42zM172 700h257c93 0 166 -35 217 -105c51 -69 68 -153 51 -251s-62 -180 -135 -246c-73 -65 -158 -98 -256 -98h-257zM661 349c16 89 2 164 -43 225s-110 92 -195 92h-220l-111 -632h220c86 0 162 30 227 91
c66 61 107 135 122 224z" />
    <glyph glyph-name="dcaron" unicode="&#x10f;" horiz-adv-x="692" 
d="M553 354l61 346h36l-123 -700h-36l21 118c-52 -81 -142 -129 -243 -129c-71 0 -129 27 -173 81c-44 55 -60 119 -47 192c13 75 47 136 102 181s119 68 190 68c51 0 95 -14 134 -43s65 -67 78 -114zM699 530l40 170h35l-49 -170h-26zM276 23c61 0 114 19 161 56
s78 86 93 145l7 35c6 63 -10 115 -49 156s-88 62 -148 62c-63 0 -118 -20 -167 -61c-48 -40 -78 -93 -89 -158c-11 -64 2 -119 39 -166c38 -46 89 -69 153 -69z" />
    <glyph glyph-name="Dcroat" unicode="&#x110;" horiz-adv-x="754" 
d="M192 700h257c93 0 166 -35 217 -105c51 -69 68 -153 51 -251s-62 -180 -135 -246c-73 -65 -158 -98 -256 -98h-257l59 333h-63l6 34h62zM681 349c16 89 2 164 -43 225s-110 92 -195 92h-220l-53 -299h261l-6 -34h-260l-53 -299h220c86 0 162 30 227 91
c66 61 107 135 122 224z" />
    <glyph glyph-name="dslash" unicode="&#x111;" horiz-adv-x="659" 
d="M635 618h66l-5 -29h-67l-103 -589h-35l21 118c-52 -81 -142 -129 -243 -129c-71 0 -129 27 -173 81c-44 55 -60 119 -47 192c13 75 47 136 102 181s119 68 190 68c51 0 95 -14 134 -43s65 -67 78 -114l41 235h-218l5 29h219l14 82h35zM276 23c61 0 114 18 161 55
s78 86 93 145l7 36c6 62 -10 114 -49 155c-39 42 -88 63 -148 63c-62 0 -117 -20 -166 -60c-48 -40 -78 -93 -90 -159c-11 -64 2 -119 39 -166c38 -46 89 -69 153 -69z" />
    <glyph glyph-name="Emacron" unicode="&#x112;" horiz-adv-x="537" 
d="M264 824h247l-6 -30h-246zM564 700l-6 -34h-355l-52 -296h330l-6 -34h-330l-53 -302h360l-6 -34h-397l123 700h392z" />
    <glyph glyph-name="emacron" unicode="&#x113;" horiz-adv-x="593" 
d="M244 624h247l-6 -30h-246zM548 249c0 -4 -4 -14 -4 -18h-464c-7 -63 7 -113 41 -151s82 -57 145 -57c85 0 160 37 201 97l28 -18c-49 -71 -137 -113 -234 -113c-76 0 -134 25 -174 76s-53 114 -40 190c13 74 47 135 102 183c55 49 120 73 195 73s130 -26 167 -78
c37 -51 50 -113 37 -184zM85 264h430c8 65 -4 117 -37 155c-32 39 -77 58 -136 58c-63 0 -118 -20 -165 -59s-78 -91 -92 -154z" />
    <glyph glyph-name="Edotaccent" unicode="&#x116;" horiz-adv-x="537" 
d="M379 777c-51 0 -36 76 13 76c21 0 35 -17 32 -38c-4 -21 -24 -38 -45 -38zM564 700l-6 -34h-355l-52 -296h330l-6 -34h-330l-53 -302h360l-6 -34h-397l123 700h392z" />
    <glyph glyph-name="edotaccent" unicode="&#x117;" horiz-adv-x="593" 
d="M359 577c-51 0 -36 76 13 76c21 0 35 -17 32 -38c-4 -21 -24 -38 -45 -38zM548 249c0 -4 -4 -14 -4 -18h-464c-7 -63 7 -113 41 -151s82 -57 145 -57c85 0 160 37 201 97l28 -18c-49 -71 -137 -113 -234 -113c-76 0 -134 25 -174 76s-53 114 -40 190
c13 74 47 135 102 183c55 49 120 73 195 73s130 -26 167 -78c37 -51 50 -113 37 -184zM85 264h430c8 65 -4 117 -37 155c-32 39 -77 58 -136 58c-63 0 -118 -20 -165 -59s-78 -91 -92 -154z" />
    <glyph glyph-name="Eogonek" unicode="&#x118;" horiz-adv-x="538" 
d="M564 700l-6 -34h-355l-52 -296h330l-6 -34h-330l-53 -302h360l-6 -34c-69 -51 -107 -96 -114 -135c-5 -27 12 -46 40 -46c15 0 30 3 45 9l-5 -30c-15 -6 -32 -9 -51 -9c-47 0 -71 33 -63 76c7 44 44 89 109 135h-358l123 700h392z" />
    <glyph glyph-name="eogonek" unicode="&#x119;" horiz-adv-x="593" 
d="M548 249c0 -4 -4 -14 -4 -18h-464c-7 -63 7 -113 41 -151s82 -57 145 -57c85 0 160 37 201 97l28 -18c-10 -14 -23 -28 -38 -43c-62 -53 -106 -93 -133 -122c-26 -29 -41 -53 -45 -74c-5 -29 10 -44 43 -44c15 0 29 3 42 8l-5 -29c-16 -6 -32 -9 -48 -9
c-49 0 -74 30 -66 73c8 41 45 88 112 141c-31 -9 -63 -14 -96 -14c-76 0 -134 25 -174 76s-53 114 -40 190c13 74 47 135 102 183c55 49 120 73 195 73s130 -26 167 -78c37 -51 50 -113 37 -184zM85 264h430c8 65 -4 117 -37 155c-32 39 -77 58 -136 58
c-63 0 -118 -20 -165 -59s-78 -91 -92 -154z" />
    <glyph glyph-name="Ecaron" unicode="&#x11a;" horiz-adv-x="537" 
d="M397 770h-41l-89 123h38l72 -101l109 101h42zM564 700l-6 -34h-355l-52 -296h330l-6 -34h-330l-53 -302h360l-6 -34h-397l123 700h392z" />
    <glyph glyph-name="ecaron" unicode="&#x11b;" horiz-adv-x="593" 
d="M377 570h-41l-89 123h38l72 -101l109 101h42zM548 249c0 -4 -4 -14 -4 -18h-464c-7 -63 7 -113 41 -151s82 -57 145 -57c85 0 160 37 201 97l28 -18c-49 -71 -137 -113 -234 -113c-76 0 -134 25 -174 76s-53 114 -40 190c13 74 47 135 102 183c55 49 120 73 195 73
s130 -26 167 -78c37 -51 50 -113 37 -184zM85 264h430c8 65 -4 117 -37 155c-32 39 -77 58 -136 58c-63 0 -118 -20 -165 -59s-78 -91 -92 -154z" />
    <glyph glyph-name="Gbreve" unicode="&#x11e;" horiz-adv-x="811" 
d="M505 769c-76 0 -122 44 -110 113h34c-9 -52 22 -83 79 -83s98 31 107 83h34c-13 -71 -67 -113 -144 -113zM419 320h350l-3 -19c-17 -90 -61 -165 -131 -224s-154 -88 -251 -88c-108 0 -191 36 -250 108c-58 73 -78 160 -61 263c16 99 63 182 142 249
c79 68 169 102 271 102c133 0 232 -67 280 -166l-32 -17c-43 89 -130 148 -250 148c-93 0 -176 -31 -247 -93s-113 -138 -128 -229c-15 -92 3 -170 54 -234c52 -64 126 -96 223 -96c85 0 159 25 221 75s102 112 120 187h-314z" />
    <glyph glyph-name="gbreve" unicode="&#x11f;" horiz-adv-x="661" 
d="M381 569c-76 0 -122 44 -110 113h34c-9 -52 22 -83 79 -83s98 31 107 83h34c-13 -71 -67 -113 -144 -113zM560 354l26 146h35l-83 -473c-25 -148 -135 -238 -287 -238c-112 0 -189 49 -216 120l31 16c20 -59 84 -102 187 -102c135 0 227 76 250 204l16 93
c-52 -81 -141 -131 -238 -131c-75 0 -135 27 -178 80s-59 118 -48 193c12 73 46 132 101 179c56 47 119 70 188 70c105 0 189 -61 216 -157zM286 23c61 0 116 20 165 61s78 94 89 157c12 67 -2 123 -41 168s-90 68 -154 68c-61 0 -117 -21 -166 -62s-78 -93 -88 -157
c-11 -65 2 -121 40 -167c38 -45 90 -68 155 -68z" />
    <glyph glyph-name="Gdotaccent" unicode="&#x120;" horiz-adv-x="811" 
d="M504 777c-51 0 -36 76 13 76c21 0 35 -17 32 -38c-4 -21 -24 -38 -45 -38zM419 320h350l-3 -19c-17 -90 -61 -165 -131 -224s-154 -88 -251 -88c-108 0 -191 36 -250 108c-58 73 -78 160 -61 263c16 99 63 182 142 249c79 68 169 102 271 102c133 0 232 -67 280 -166
l-32 -17c-43 89 -130 148 -250 148c-93 0 -176 -31 -247 -93s-113 -138 -128 -229c-15 -92 3 -170 54 -234c52 -64 126 -96 223 -96c85 0 159 25 221 75s102 112 120 187h-314z" />
    <glyph glyph-name="gdotaccent" unicode="&#x121;" horiz-adv-x="661" 
d="M380 577c-51 0 -36 76 13 76c21 0 35 -17 32 -38c-4 -21 -24 -38 -45 -38zM560 354l26 146h35l-83 -473c-25 -148 -135 -238 -287 -238c-112 0 -189 49 -216 120l31 16c20 -59 84 -102 187 -102c135 0 227 76 250 204l16 93c-52 -81 -141 -131 -238 -131
c-75 0 -135 27 -178 80s-59 118 -48 193c12 73 46 132 101 179c56 47 119 70 188 70c105 0 189 -61 216 -157zM286 23c61 0 116 20 165 61s78 94 89 157c12 67 -2 123 -41 168s-90 68 -154 68c-61 0 -117 -21 -166 -62s-78 -93 -88 -157c-11 -65 2 -121 40 -167
c38 -45 90 -68 155 -68z" />
    <glyph glyph-name="Gcommaaccent" unicode="&#x122;" horiz-adv-x="811" 
d="M419 320h350l-3 -19c-17 -90 -61 -165 -131 -224s-154 -88 -251 -88c-108 0 -191 36 -250 108c-58 73 -78 160 -61 263c16 99 63 182 142 249c79 68 169 102 271 102c133 0 232 -67 280 -166l-32 -17c-43 89 -130 148 -250 148c-93 0 -176 -31 -247 -93
s-113 -138 -128 -229c-15 -92 3 -170 54 -234c52 -64 126 -96 223 -96c85 0 159 25 221 75s102 112 120 187h-314zM343 -240h-26l40 170h35z" />
    <glyph glyph-name="gcommaaccent" unicode="&#x123;" horiz-adv-x="661" 
d="M405 760h26l-40 -170h-35zM560 354l26 146h35l-83 -473c-25 -148 -135 -238 -287 -238c-112 0 -189 49 -216 120l31 16c20 -59 84 -102 187 -102c135 0 227 76 250 204l16 93c-52 -81 -141 -131 -238 -131c-75 0 -135 27 -178 80s-59 118 -48 193c12 73 46 132 101 179
c56 47 119 70 188 70c105 0 189 -61 216 -157zM286 23c61 0 116 20 165 61s78 94 89 157c12 67 -2 123 -41 168s-90 68 -154 68c-61 0 -117 -21 -166 -62s-78 -93 -88 -157c-11 -65 2 -121 40 -167c38 -45 90 -68 155 -68z" />
    <glyph glyph-name="Hbar" unicode="&#x126;" horiz-adv-x="750" 
d="M682 555h69l-6 -30h-69l-92 -525h-36l60 343h-434l-60 -343h-36l92 525h-68l5 30h69l25 145h36l-25 -145h434l25 145h36zM180 377h434l26 148h-434z" />
    <glyph glyph-name="hbar" unicode="&#x127;" horiz-adv-x="586" 
d="M367 511c58 0 102 -18 131 -55c30 -36 40 -83 30 -142l-55 -314h-36l56 314c16 97 -31 163 -131 163c-55 0 -104 -19 -145 -56s-67 -89 -79 -155l-47 -266h-35l103 589h-76l5 29h77l14 82h35l-14 -82h168l-5 -29h-169l-34 -194c48 76 124 116 207 116z" />
    <glyph glyph-name="Imacron" unicode="&#x12a;" horiz-adv-x="223" 
d="M331 794h-246l5 30h247zM49 0l123 700h37l-123 -700h-37z" />
    <glyph glyph-name="imacron" unicode="&#x12b;" horiz-adv-x="202" 
d="M248 594h-173l5 30h174zM75 0h-36l88 500h36z" />
    <glyph glyph-name="Iogonek" unicode="&#x12e;" horiz-adv-x="223" 
d="M13 -134c-5 -29 11 -47 39 -47c17 0 32 3 45 9l-5 -30c-15 -6 -32 -9 -51 -9c-45 0 -69 30 -62 74c6 38 30 85 71 140l122 697h37l-123 -700c-43 -59 -68 -103 -73 -134z" />
    <glyph glyph-name="iogonek" unicode="&#x12f;" horiz-adv-x="202" 
d="M180 699c40 0 31 -63 -11 -63c-17 0 -29 15 -26 31c5 21 18 32 37 32zM163 500l-88 -500c-45 -61 -64 -92 -72 -131c-5 -28 11 -50 39 -50c17 0 32 3 45 8l-5 -29c-16 -6 -33 -9 -51 -9c-45 0 -70 34 -62 77c5 34 29 80 71 138l87 496h36z" />
    <glyph glyph-name="Idot" unicode="&#x130;" horiz-adv-x="223" 
d="M205 777c-51 0 -36 76 13 76c21 0 35 -17 32 -38c-4 -21 -24 -38 -45 -38zM49 0l123 700h37l-123 -700h-37z" />
    <glyph glyph-name="dotlessi" unicode="&#x131;" horiz-adv-x="202" 
d="M75 0h-36l88 500h36z" />
    <glyph glyph-name="Kcommaaccent" unicode="&#x136;" horiz-adv-x="563" 
d="M572 700h52l-434 -343l319 -357h-44l-317 352l-62 -352h-37l123 700h37l-58 -331zM228 -240h-26l40 170h35z" />
    <glyph glyph-name="kcommaaccent" unicode="&#x137;" horiz-adv-x="472" 
d="M431 500h52l-326 -241l244 -259h-44l-238 252l-44 -252h-36l123 700h36l-75 -429zM172 -240h-26l40 170h35z" />
    <glyph glyph-name="Lacute" unicode="&#x139;" horiz-adv-x="497" 
d="M284 893h42l-107 -123h-35zM209 700l-117 -666h340l-6 -34h-377l123 700h37z" />
    <glyph glyph-name="lacute" unicode="&#x13a;" horiz-adv-x="203" 
d="M176 770l100 123h42l-107 -123h-35zM40 0h36l54 314l74 416h-36l-73 -416z" />
    <glyph glyph-name="Lcommaaccent" unicode="&#x13b;" horiz-adv-x="497" 
d="M209 700l-117 -666h340l-6 -34h-377l123 700h37zM202 -240h-26l40 170h35z" />
    <glyph glyph-name="lcommaaccent" unicode="&#x13c;" horiz-adv-x="203" 
d="M76 0h-36l55 314l73 416h36l-74 -416zM14 -240h-26l40 170h35z" />
    <glyph glyph-name="Lcaron" unicode="&#x13d;" horiz-adv-x="497" 
d="M209 700l-117 -666h340l-6 -34h-377l123 700h37zM362 700h36l-50 -170h-26z" />
    <glyph glyph-name="lcaron" unicode="&#x13e;" horiz-adv-x="231" 
d="M76 0h-36l55 314l73 416h36l-74 -416zM270 560h-26l40 170h36z" />
    <glyph glyph-name="Lslash" unicode="&#x141;" horiz-adv-x="513" 
d="M153 283l-44 -249h340l-6 -34h-377l45 258l-70 -41l7 39l70 41l71 403h37l-66 -378l215 127l-6 -39z" />
    <glyph glyph-name="lslash" unicode="&#x142;" horiz-adv-x="240" 
d="M162 390l93 57l-7 -37l-93 -57l-7 -39l-54 -314h-36l55 314l3 15l-92 -56l6 37l92 56l64 364h36z" />
    <glyph glyph-name="Nacute" unicode="&#x143;" horiz-adv-x="693" 
d="M406 770l100 123h42l-107 -123h-35zM49 0h37l112 634l327 -634h31l123 700h-37l-111 -634l-327 634h-32z" />
    <glyph glyph-name="nacute" unicode="&#x144;" horiz-adv-x="569" 
d="M406 693h42l-107 -123h-35zM350 511c58 0 102 -18 132 -55c30 -36 40 -83 29 -142l-55 -314h-35l55 314c16 97 -31 163 -131 163c-51 0 -97 -17 -137 -50s-67 -79 -82 -138l-51 -289h-36l88 500h36l-18 -103c48 76 124 114 205 114z" />
    <glyph glyph-name="Ncommaaccent" unicode="&#x145;" horiz-adv-x="693" 
d="M86 0h-37l123 700h32l327 -634l111 634h37l-123 -700h-31l-327 634zM261 -240h-26l40 170h35z" />
    <glyph glyph-name="ncommaaccent" unicode="&#x146;" horiz-adv-x="569" 
d="M350 511c58 0 102 -18 132 -55c30 -36 40 -83 29 -142l-55 -314h-35l55 314c16 97 -31 163 -131 163c-51 0 -97 -17 -137 -50s-67 -79 -82 -138l-51 -289h-36l88 500h36l-18 -103c48 76 124 114 205 114zM219 -240h-26l40 170h35z" />
    <glyph glyph-name="Ncaron" unicode="&#x147;" horiz-adv-x="693" 
d="M458 770h-41l-89 123h38l72 -101l109 101h42zM531 66l111 634h37l-123 -700h-31l-327 634l-112 -634h-37l123 700h32z" />
    <glyph glyph-name="ncaron" unicode="&#x148;" horiz-adv-x="569" 
d="M358 570h-41l-89 123h38l72 -101l109 101h42zM350 511c58 0 102 -18 132 -55c30 -36 40 -83 29 -142l-55 -314h-35l55 314c16 97 -31 163 -131 163c-51 0 -97 -17 -137 -50s-67 -79 -82 -138l-51 -289h-36l88 500h36l-18 -103c48 76 124 114 205 114z" />
    <glyph glyph-name="Eng" unicode="&#x14a;" horiz-adv-x="693" 
d="M531 66l111 634h37l-123 -700c-25 -148 -103 -201 -235 -200l6 35c111 -1 172 46 192 165l2 8l-323 626l-112 -634h-37l123 700h32z" />
    <glyph glyph-name="eng" unicode="&#x14b;" horiz-adv-x="569" 
d="M350 511c58 0 102 -18 132 -55c30 -36 40 -83 29 -142l-68 -387c-16 -96 -80 -147 -177 -138l6 34c77 -9 123 26 136 104l68 387c16 97 -31 163 -131 163c-51 0 -97 -17 -137 -50s-67 -79 -82 -138l-51 -289h-36l88 500h36l-18 -103c48 76 124 114 205 114z" />
    <glyph glyph-name="Omacron" unicode="&#x14c;" horiz-adv-x="829" 
d="M633 794h-246l5 30h247zM370 -11c-100 0 -179 36 -238 108c-58 72 -78 158 -60 258c17 100 67 184 148 253s172 103 273 103c99 0 178 -36 237 -109s79 -159 62 -259c-17 -99 -67 -183 -148 -252c-81 -68 -173 -102 -274 -102zM375 24c91 0 173 31 246 94
s118 139 135 230c15 91 -3 168 -55 232c-51 64 -122 96 -213 96s-173 -32 -246 -95s-118 -140 -134 -231c-16 -90 2 -167 54 -231c52 -63 123 -95 213 -95z" />
    <glyph glyph-name="omacron" unicode="&#x14d;" horiz-adv-x="617" 
d="M487 594h-246l5 30h247zM265 -11c-72 0 -130 25 -173 75c-43 51 -58 114 -44 190c13 76 50 138 109 185c59 48 125 72 197 72c71 0 128 -25 171 -76s57 -114 44 -189c-13 -76 -49 -138 -108 -186c-58 -47 -123 -71 -196 -71zM268 23c63 0 120 21 171 64
c52 43 84 98 95 164c12 65 0 119 -37 162s-86 64 -148 64c-63 0 -120 -21 -171 -64s-83 -97 -95 -163c-11 -66 1 -121 37 -164c37 -43 86 -64 148 -63z" />
    <glyph glyph-name="Ohungarumlaut" unicode="&#x150;" horiz-adv-x="829" 
d="M388 770l92 130h40l-96 -130h-36zM529 770l101 130h40l-105 -130h-36zM370 -11c101 0 193 34 274 102c81 69 131 153 148 252c17 100 -3 186 -62 259s-138 109 -237 109c-101 0 -192 -34 -273 -103s-131 -153 -148 -253c-18 -100 2 -186 60 -258
c59 -72 138 -108 238 -108zM375 24c-90 0 -161 32 -213 95c-52 64 -70 141 -54 231c16 91 61 168 134 231s155 95 246 95s162 -32 213 -96c52 -64 70 -141 55 -232c-17 -91 -62 -167 -135 -230s-155 -94 -246 -94z" />
    <glyph glyph-name="ohungarumlaut" unicode="&#x151;" horiz-adv-x="617" 
d="M242 570l92 130h40l-96 -130h-36zM383 570l101 130h40l-105 -130h-36zM265 -11c73 0 138 24 196 71c59 48 95 110 108 186c13 75 -1 138 -44 189s-100 76 -171 76c-72 0 -138 -24 -197 -72c-59 -47 -96 -109 -109 -185c-14 -76 1 -139 44 -190c43 -50 101 -75 173 -75z
M268 23c-62 -1 -111 20 -148 63c-36 43 -48 98 -37 164c12 66 44 120 95 163s108 64 171 64c62 0 111 -21 148 -64s49 -97 37 -162c-11 -66 -43 -121 -95 -164c-51 -43 -108 -64 -171 -64z" />
    <glyph glyph-name="OE" unicode="&#x152;" horiz-adv-x="916" 
d="M943 700l-5 -34h-329l-52 -296h307l-6 -34h-307l-53 -302h333l-6 -34h-370c-29 -7 -62 -11 -97 -11c-101 0 -179 35 -233 106c-53 71 -71 157 -53 258s66 186 143 255s167 103 270 103c35 0 66 -4 93 -11h365zM461 36l111 628c-26 8 -57 12 -92 12
c-92 0 -173 -31 -243 -94s-113 -140 -129 -232s0 -169 47 -232s117 -94 209 -94c36 0 68 4 97 12z" />
    <glyph glyph-name="oe" unicode="&#x153;" horiz-adv-x="1077" 
d="M831 511c72 0 127 -26 164 -78s50 -113 37 -184c-1 -8 -3 -14 -4 -18h-464c-7 -63 7 -113 41 -151c35 -38 83 -57 145 -57c87 0 161 37 202 97l27 -18c-48 -71 -136 -113 -231 -113c-116 0 -197 69 -213 173c-25 -52 -63 -94 -112 -126c-49 -31 -102 -47 -160 -47
c-73 0 -130 26 -172 77c-41 51 -56 114 -43 188c13 73 49 134 107 183c59 49 125 74 200 74c55 0 101 -16 138 -48c38 -31 62 -73 71 -124c49 105 148 172 267 172zM268 23c63 0 120 22 171 65c51 44 82 98 93 162s-1 118 -36 161c-35 44 -84 66 -147 66
c-64 0 -122 -22 -173 -66c-51 -43 -82 -97 -93 -161s1 -118 36 -162c35 -43 85 -65 149 -65zM569 264h430c16 131 -54 213 -173 213c-63 0 -118 -20 -165 -59s-78 -91 -92 -154z" />
    <glyph glyph-name="Racute" unicode="&#x154;" horiz-adv-x="617" 
d="M452 893h42l-107 -123h-35zM172 700h274c55 0 98 -21 131 -63c33 -41 45 -90 36 -146c-9 -47 -31 -89 -66 -124s-77 -58 -124 -69l123 -298h-38l-120 293h-14h-237l-51 -293h-37zM577 497c9 47 -1 86 -28 119s-63 50 -109 50h-237l-60 -339h237c47 0 89 17 127 50
c39 33 62 73 70 120z" />
    <glyph glyph-name="racute" unicode="&#x155;" horiz-adv-x="322" 
d="M313 693h42l-107 -123h-35zM163 500l-18 -101c48 76 120 111 195 108l-6 -34c-49 0 -94 -17 -134 -51c-40 -33 -65 -81 -76 -144l-49 -278h-36l88 500h36z" />
    <glyph glyph-name="Rcommaaccent" unicode="&#x156;" horiz-adv-x="617" 
d="M172 700h274c55 0 98 -21 131 -63c33 -41 45 -90 36 -146c-9 -47 -31 -89 -66 -124s-77 -58 -124 -69l123 -298h-38l-120 293h-14h-237l-51 -293h-37zM577 497c9 47 -1 86 -28 119s-63 50 -109 50h-237l-60 -339h237c47 0 89 17 127 50c39 33 62 73 70 120zM259 -240h-26
l40 170h35z" />
    <glyph glyph-name="rcommaaccent" unicode="&#x157;" horiz-adv-x="322" 
d="M163 500l-18 -101c48 76 120 111 195 108l-6 -34c-49 0 -94 -17 -134 -51c-40 -33 -65 -81 -76 -144l-49 -278h-36l88 500h36zM14 -240h-26l40 170h35z" />
    <glyph glyph-name="Rcaron" unicode="&#x158;" horiz-adv-x="617" 
d="M404 770h-41l-89 123h38l72 -101l109 101h42zM172 700h274c55 0 98 -21 131 -63c33 -41 45 -90 36 -146c-9 -47 -31 -89 -66 -124s-77 -58 -124 -69l123 -298h-38l-120 293h-14h-237l-51 -293h-37zM577 497c9 47 -1 86 -28 119s-63 50 -109 50h-237l-60 -339h237
c47 0 89 17 127 50c39 33 62 73 70 120z" />
    <glyph glyph-name="rcaron" unicode="&#x159;" horiz-adv-x="322" 
d="M265 570h-41l-89 123h38l72 -101l109 101h42zM163 500l-18 -101c48 76 120 111 195 108l-6 -34c-49 0 -94 -17 -134 -51c-40 -33 -65 -81 -76 -144l-49 -278h-36l88 500h36z" />
    <glyph glyph-name="Sacute" unicode="&#x15a;" horiz-adv-x="562" 
d="M337 770l100 123h42l-107 -123h-35zM253 -11c129 0 227 61 248 170c24 126 -79 171 -179 209c-29 11 -52 19 -67 26s-33 18 -54 32c-40 28 -53 66 -44 115c8 41 30 73 65 98s77 37 124 37c90 0 148 -42 174 -125l32 16c-25 85 -96 144 -205 144c-55 0 -105 -15 -148 -45
c-43 -29 -69 -70 -78 -121c-11 -56 4 -102 44 -137c25 -22 70 -45 136 -70c57 -20 86 -33 123 -61c39 -27 52 -65 41 -114c-17 -84 -92 -139 -211 -139c-113 0 -184 54 -200 142l-32 -17c21 -99 106 -160 231 -160z" />
    <glyph glyph-name="sacute" unicode="&#x15b;" horiz-adv-x="469" 
d="M257 570l100 123h42l-107 -123h-35zM204 -11c101 0 176 47 191 126c12 69 -29 113 -88 132c-29 10 -59 19 -88 28c-59 17 -103 49 -94 102c12 65 72 100 144 100c61 0 114 -29 131 -80l31 16c-24 60 -85 98 -160 98c-95 0 -168 -51 -181 -128c-34 -184 299 -109 269 -263
c-11 -61 -73 -97 -152 -97c-81 0 -130 31 -148 92l-32 -16c25 -73 84 -110 177 -110z" />
    <glyph glyph-name="Scedilla" unicode="&#x15e;" horiz-adv-x="562" 
d="M346 676c-47 0 -89 -12 -124 -37s-57 -57 -65 -98c-9 -49 4 -87 44 -115c21 -14 39 -25 54 -32s38 -15 67 -26c100 -38 203 -83 179 -209c-21 -108 -116 -167 -243 -170l-10 -57c48 -3 85 -29 77 -70c-9 -59 -75 -82 -197 -69l5 29c101 -11 154 4 161 43
c7 29 -23 47 -82 43l14 82c-111 8 -185 67 -204 159l32 17c16 -88 87 -142 200 -142c119 0 194 55 211 139c11 49 -2 87 -41 114c-37 28 -66 41 -123 61c-66 25 -111 48 -136 70c-40 35 -55 81 -44 137c9 51 35 92 78 121c43 30 93 45 148 45c109 0 180 -59 205 -144
l-32 -16c-26 83 -84 125 -174 125z" />
    <glyph glyph-name="scedilla" unicode="&#x15f;" horiz-adv-x="469" 
d="M269 477c-72 0 -132 -35 -144 -100c-9 -53 35 -85 94 -102c29 -9 59 -18 88 -28c59 -19 100 -63 88 -132c-15 -77 -85 -123 -182 -126l-10 -57c48 -3 85 -29 77 -70c-9 -59 -75 -82 -197 -69l5 29c101 -11 154 4 161 43c7 29 -23 47 -82 43l14 82c-81 6 -132 42 -154 109
l32 16c18 -61 67 -92 148 -92c79 0 141 36 152 97c30 154 -303 79 -269 263c13 77 86 128 181 128c75 0 136 -38 160 -98l-31 -16c-17 51 -70 80 -131 80z" />
    <glyph glyph-name="Scaron" unicode="&#x160;" horiz-adv-x="562" 
d="M389 770h-41l-89 123h38l72 -101l109 101h42zM346 676c-47 0 -89 -12 -124 -37s-57 -57 -65 -98c-9 -49 4 -87 44 -115c21 -14 39 -25 54 -32s38 -15 67 -26c100 -38 203 -83 179 -209c-21 -109 -119 -170 -248 -170c-125 0 -210 61 -231 160l32 17
c16 -88 87 -142 200 -142c119 0 194 55 211 139c11 49 -2 87 -41 114c-37 28 -66 41 -123 61c-66 25 -111 48 -136 70c-40 35 -55 81 -44 137c9 51 35 92 78 121c43 30 93 45 148 45c109 0 180 -59 205 -144l-32 -16c-26 83 -84 125 -174 125z" />
    <glyph glyph-name="scaron" unicode="&#x161;" horiz-adv-x="469" 
d="M309 570h-41l-89 123h38l72 -101l109 101h42zM271 511c75 0 136 -38 160 -98l-31 -16c-17 51 -70 80 -131 80c-72 0 -132 -35 -144 -100c-9 -53 35 -85 94 -102c29 -9 59 -18 88 -28c59 -19 100 -63 88 -132c-15 -79 -90 -126 -191 -126c-93 0 -152 37 -177 110l32 16
c18 -61 67 -92 148 -92c79 0 141 36 152 97c30 154 -303 79 -269 263c13 77 86 128 181 128z" />
    <glyph glyph-name="uni0162" unicode="&#x162;" horiz-adv-x="540" 
d="M106 700h486l-5 -34h-226l-117 -666h-36l117 666h-225zM184 -240h-26l40 170h35z" />
    <glyph glyph-name="uni0163" unicode="&#x163;" horiz-adv-x="378" 
d="M369 467h-154l-61 -349c-15 -84 26 -100 139 -87l-6 -31c-129 -20 -186 15 -169 118l61 349h-114l6 33h114l23 129l37 11l-24 -140h154zM150 -240h-26l40 170h35z" />
    <glyph glyph-name="Tcaron" unicode="&#x164;" horiz-adv-x="540" 
d="M381 770h-41l-89 123h38l72 -101l109 101h42zM106 700h486l-5 -34h-226l-117 -666h-36l117 666h-225z" />
    <glyph glyph-name="tcaron" unicode="&#x165;" horiz-adv-x="378" 
d="M332 713h35l-46 -153h-26zM369 467h-154l-61 -349c-15 -84 26 -100 139 -87l-6 -31c-129 -20 -186 15 -169 118l61 349h-114l6 33h114l23 129l37 11l-24 -140h154z" />
    <glyph glyph-name="Tbar" unicode="&#x166;" horiz-adv-x="540" 
d="M592 700l-5 -34h-226l-53 -299h163l-6 -34h-162l-59 -333h-36l59 333h-162l6 34h161l53 299h-225l6 34h486z" />
    <glyph glyph-name="tbar" unicode="&#x167;" horiz-adv-x="378" 
d="M375 500l-6 -33h-154l-33 -189h102l-5 -29h-102l-23 -131c-15 -84 26 -100 139 -87l-6 -31c-129 -20 -186 15 -169 118l23 131h-72l5 29h72l33 189h-114l6 33h114l23 129l37 11l-24 -140h154z" />
    <glyph glyph-name="Umacron" unicode="&#x16a;" horiz-adv-x="673" 
d="M553 794h-246l5 30h247zM297 -11c-78 0 -137 22 -177 67c-39 45 -53 103 -40 173l83 471h37l-83 -471c-21 -120 41 -205 180 -205c69 0 126 19 170 58s71 88 82 147l83 471h37l-83 -471c-13 -73 -45 -131 -97 -175c-52 -43 -116 -65 -192 -65z" />
    <glyph glyph-name="umacron" unicode="&#x16b;" horiz-adv-x="569" 
d="M221 624h247l-6 -30h-246zM443 211l51 289h36l-88 -500h-36l18 103c-48 -76 -124 -114 -205 -114c-58 0 -102 18 -132 54c-30 37 -40 84 -29 143l55 314h35l-55 -314c-16 -97 31 -163 131 -163c51 0 97 17 137 50s67 79 82 138z" />
    <glyph glyph-name="Uring" unicode="&#x16e;" horiz-adv-x="673" 
d="M419 720c-60 0 -93 41 -84 94s56 92 113 92c59 0 93 -39 84 -94s-56 -92 -113 -92zM502 813c7 40 -17 66 -57 66s-72 -26 -80 -66c-7 -39 16 -66 57 -66s73 27 80 66zM297 -11c-78 0 -137 22 -177 67c-39 45 -53 103 -40 173l83 471h37l-83 -471
c-21 -120 41 -205 180 -205c69 0 126 19 170 58s71 88 82 147l83 471h37l-83 -471c-13 -73 -45 -131 -97 -175c-52 -43 -116 -65 -192 -65z" />
    <glyph glyph-name="uring" unicode="&#x16f;" horiz-adv-x="569" 
d="M334 557c-60 0 -93 41 -84 94s56 92 113 92c59 0 93 -39 84 -94s-56 -92 -113 -92zM280 650c-7 -39 16 -66 57 -66s73 27 80 66c7 40 -17 66 -57 66s-72 -26 -80 -66zM443 211l51 289h36l-88 -500h-36l18 103c-48 -76 -124 -114 -205 -114c-58 0 -102 18 -132 54
c-30 37 -40 84 -29 143l55 314h35l-55 -314c-16 -97 31 -163 131 -163c51 0 97 17 137 50s67 79 82 138z" />
    <glyph glyph-name="Uhungarumlaut" unicode="&#x170;" horiz-adv-x="673" 
d="M308 770l92 130h40l-96 -130h-36zM449 770l101 130h40l-105 -130h-36zM297 -11c76 0 140 22 192 65c52 44 84 102 97 175l83 471h-37l-83 -471c-11 -59 -38 -108 -82 -147s-101 -58 -170 -58c-139 0 -201 85 -180 205l83 471h-37l-83 -471c-13 -70 1 -128 40 -173
c40 -45 99 -67 177 -67z" />
    <glyph glyph-name="uhungarumlaut" unicode="&#x171;" horiz-adv-x="569" 
d="M309 700h40l-96 -130h-36zM459 700h40l-105 -130h-36zM443 211l51 289h36l-88 -500h-36l18 103c-48 -76 -124 -114 -205 -114c-58 0 -102 18 -132 54c-30 37 -40 84 -29 143l55 314h35l-55 -314c-16 -97 31 -163 131 -163c51 0 97 17 137 50s67 79 82 138z" />
    <glyph glyph-name="Uogonek" unicode="&#x172;" horiz-adv-x="673" 
d="M549 229l83 471h37l-83 -471c-15 -88 -58 -153 -127 -196c-58 -43 -98 -76 -121 -99s-36 -46 -39 -68c-5 -31 9 -47 44 -47c15 0 28 3 41 9l-5 -30c-15 -6 -30 -9 -47 -9c-51 0 -75 32 -67 75c7 40 42 84 106 133c-25 -5 -49 -8 -74 -8c-78 0 -137 22 -177 67
c-39 45 -53 103 -40 173l83 471h37l-83 -471c-21 -120 41 -205 180 -205c69 0 126 19 170 58s71 88 82 147z" />
    <glyph glyph-name="uogonek" unicode="&#x173;" 
d="M530 500l-88 -500c-69 -51 -107 -97 -114 -137c-5 -28 10 -44 38 -44c17 0 32 3 45 8l-5 -29c-15 -6 -32 -9 -51 -9c-45 0 -69 28 -61 71c7 41 45 90 113 146l17 97c-48 -76 -124 -114 -205 -114c-58 0 -102 18 -132 54c-30 37 -40 84 -29 143l55 314h35l-55 -314
c-16 -97 31 -163 131 -163c51 0 97 17 137 50s67 79 82 138l51 289h36z" />
    <glyph glyph-name="Wcircumflex" unicode="&#x174;" horiz-adv-x="987" 
d="M677 770l-73 102l-108 -102h-42l131 123h41l88 -123h-37zM687 47l303 653h39l-326 -700h-44l-95 653l-324 -653h-44l-80 700h35l74 -653l324 653h43z" />
    <glyph glyph-name="wcircumflex" unicode="&#x175;" horiz-adv-x="770" 
d="M503 570l-73 102l-108 -102h-42l131 123h41l88 -123h-37zM515 45l224 455h38l-248 -500h-39l-70 452l-228 -452h-39l-72 500h34l64 -454l230 454h37z" />
    <glyph glyph-name="Ycircumflex" unicode="&#x176;" horiz-adv-x="565" 
d="M465 770l-73 102l-108 -102h-42l131 123h41l88 -123h-37zM585 700h42l-313 -372l-57 -328h-37l58 328l-182 372h38l166 -339z" />
    <glyph glyph-name="ycircumflex" unicode="&#x177;" horiz-adv-x="510" 
d="M390 570l-73 102l-108 -102h-42l131 123h41l88 -123h-37zM226 24l272 476h39l-312 -546c-59 -101 -139 -161 -223 -154l6 33c67 -7 134 44 182 129l13 22l-142 516h35z" />
    <glyph glyph-name="Ydieresis" unicode="&#x178;" horiz-adv-x="565" 
d="M265 807c5 36 66 36 57 0c-6 -37 -63 -38 -57 0zM435 807c5 36 66 36 57 0c-6 -37 -63 -38 -57 0zM585 700h42l-313 -372l-57 -328h-37l58 328l-182 372h38l166 -339z" />
    <glyph glyph-name="Zacute" unicode="&#x179;" horiz-adv-x="527" 
d="M427 893h42l-107 -123h-35zM136 700h423l-6 -34l-502 -632h401l-6 -34h-443l6 34l502 632h-381z" />
    <glyph glyph-name="zacute" unicode="&#x17a;" horiz-adv-x="477" 
d="M368 693h42l-107 -123h-35zM107 500h360l-4 -22l-397 -445h329l-6 -33h-380l4 22l398 445h-309z" />
    <glyph glyph-name="Zdotaccent" unicode="&#x17b;" horiz-adv-x="527" 
d="M361 777c-51 0 -36 76 13 76c21 0 35 -17 32 -38c-4 -21 -24 -38 -45 -38zM136 700h423l-6 -34l-502 -632h401l-6 -34h-443l6 34l502 632h-381z" />
    <glyph glyph-name="zdotaccent" unicode="&#x17c;" horiz-adv-x="477" 
d="M302 577c-51 0 -36 76 13 76c21 0 35 -17 32 -38c-4 -21 -24 -38 -45 -38zM107 500h360l-4 -22l-397 -445h329l-6 -33h-380l4 22l398 445h-309z" />
    <glyph glyph-name="Zcaron" unicode="&#x17d;" horiz-adv-x="527" 
d="M379 770h-41l-89 123h38l72 -101l109 101h42zM136 700h423l-6 -34l-502 -632h401l-6 -34h-443l6 34l502 632h-381z" />
    <glyph glyph-name="zcaron" unicode="&#x17e;" horiz-adv-x="477" 
d="M320 570h-41l-89 123h38l72 -101l109 101h42zM107 500h360l-4 -22l-397 -445h329l-6 -33h-380l4 22l398 445h-309z" />
    <glyph glyph-name="florin" unicode="&#x192;" horiz-adv-x="434" 
d="M239 368l75 216c36 105 116 147 200 118l-7 -34c-64 29 -129 -7 -157 -87l-74 -213h125l-6 -34h-131l-145 -420c-35 -104 -115 -147 -199 -118l6 34c64 -29 130 7 157 87l144 417h-119l6 34h125z" />
    <glyph glyph-name="Scommaaccent" unicode="&#x218;" horiz-adv-x="562" 
d="M253 -11c-125 0 -210 61 -231 160l32 17c16 -88 87 -142 200 -142c119 0 194 55 211 139c11 49 -2 87 -41 114c-37 28 -66 41 -123 61c-66 25 -111 48 -136 70c-40 35 -55 81 -44 137c9 51 35 92 78 121c43 30 93 45 148 45c109 0 180 -59 205 -144l-32 -16
c-26 83 -84 125 -174 125c-47 0 -89 -12 -124 -37s-57 -57 -65 -98c-9 -49 4 -87 44 -115c21 -14 39 -25 54 -32s38 -15 67 -26c100 -38 203 -83 179 -209c-21 -109 -119 -170 -248 -170zM205 -240h-26l40 170h35z" />
    <glyph glyph-name="scommaaccent" unicode="&#x219;" horiz-adv-x="469" 
d="M204 -11c-93 0 -152 37 -177 110l32 16c18 -61 67 -92 148 -92c79 0 141 36 152 97c30 154 -303 79 -269 263c13 77 86 128 181 128c75 0 136 -38 160 -98l-31 -16c-17 51 -70 80 -131 80c-72 0 -132 -35 -144 -100c-9 -53 35 -85 94 -102c29 -9 59 -18 88 -28
c59 -19 100 -63 88 -132c-15 -79 -90 -126 -191 -126zM160 -240h-26l40 170h35z" />
    <glyph glyph-name="uni021A" unicode="&#x21a;" horiz-adv-x="540" 
d="M106 700h486l-5 -34h-226l-117 -666h-36l117 666h-225zM184 -240h-26l40 170h35z" />
    <glyph glyph-name="uni021B" unicode="&#x21b;" horiz-adv-x="378" 
d="M369 467h-154l-61 -349c-15 -84 26 -100 139 -87l-6 -31c-129 -20 -186 15 -169 118l61 349h-114l6 33h114l23 129l37 11l-24 -140h154zM150 -240h-26l40 170h35z" />
    <glyph glyph-name="circumflex" unicode="&#x2c6;" horiz-adv-x="301" 
d="M248 693l88 -123h-37l-73 102l-108 -102h-42l131 123h41z" />
    <glyph glyph-name="caron" unicode="&#x2c7;" horiz-adv-x="301" 
d="M208 592l109 101h42l-131 -123h-41l-89 123h38z" />
    <glyph glyph-name="breve" unicode="&#x2d8;" horiz-adv-x="293" 
d="M206 569c-76 0 -122 44 -110 113h34c-9 -52 22 -83 79 -83s98 31 107 83h34c-13 -71 -67 -113 -144 -113z" />
    <glyph glyph-name="dotaccent" unicode="&#x2d9;" horiz-adv-x="83" 
d="M114 577c-51 0 -36 76 13 76c21 0 35 -17 32 -38c-4 -21 -24 -38 -45 -38z" />
    <glyph glyph-name="ring" unicode="&#x2da;" horiz-adv-x="238" 
d="M175 557c-60 0 -93 41 -84 94s56 92 113 92c59 0 93 -39 84 -94s-56 -92 -113 -92zM258 650c7 40 -17 66 -57 66s-72 -26 -80 -66c-7 -39 16 -66 57 -66s73 27 80 66z" />
    <glyph glyph-name="ogonek" unicode="&#x2db;" horiz-adv-x="166" 
d="M15 -211c-47 0 -71 33 -63 76c7 44 44 89 109 135h39c-69 -51 -107 -96 -114 -135c-5 -27 12 -46 40 -46c15 0 30 3 45 9l-5 -30c-15 -6 -32 -9 -51 -9z" />
    <glyph glyph-name="tilde" unicode="&#x2dc;" horiz-adv-x="304" 
d="M110 587h-31c9 51 28 82 58 94s59 1 88 -33c49 -56 91 -44 104 31h31c-9 -51 -28 -82 -58 -94c-30 -11 -59 0 -88 33c-51 57 -91 45 -104 -31z" />
    <glyph glyph-name="hungarumlaut" unicode="&#x2dd;" horiz-adv-x="299" 
d="M76 570l92 130h40l-96 -130h-36zM217 570l101 130h40l-105 -130h-36z" />
    <glyph glyph-name="gravecomb" unicode="&#x300;" horiz-adv-x="0" 
d="M37 570h-32l-68 123h40z" />
    <glyph glyph-name="acutecomb" unicode="&#x301;" horiz-adv-x="0" 
d="M-84 570l100 123h42l-107 -123h-35z" />
    <glyph glyph-name="uni0302" unicode="&#x302;" horiz-adv-x="0" 
d="M-52 693l88 -123h-37l-73 102l-108 -102h-42l131 123h41z" />
    <glyph glyph-name="tildecomb" unicode="&#x303;" horiz-adv-x="0" 
d="M-194 587h-31c9 51 28 82 58 94s59 1 88 -33c49 -56 91 -44 104 31h31c-9 -51 -28 -82 -58 -94c-30 -11 -59 0 -88 33c-51 57 -91 45 -104 -31z" />
    <glyph glyph-name="uni0304" unicode="&#x304;" horiz-adv-x="0" 
d="M40 594h-246l5 30h247z" />
    <glyph glyph-name="uni0306" unicode="&#x306;" horiz-adv-x="0" 
d="M-101 569c-76 0 -122 44 -110 113h34c-9 -52 22 -83 79 -83s98 31 107 83h34c-13 -71 -67 -113 -144 -113z" />
    <glyph glyph-name="uni0307" unicode="&#x307;" horiz-adv-x="0" 
d="M-1 577c-51 0 -36 76 13 76c21 0 35 -17 32 -38c-4 -21 -24 -38 -45 -38z" />
    <glyph glyph-name="uni0308" unicode="&#x308;" horiz-adv-x="0" 
d="M-184 607c5 36 66 36 57 0c-6 -37 -63 -38 -57 0zM-14 607c5 36 66 36 57 0c-6 -37 -63 -38 -57 0z" />
    <glyph glyph-name="uni030A" unicode="&#x30a;" horiz-adv-x="0" 
d="M-63 557c-60 0 -93 41 -84 94s56 92 113 92c59 0 93 -39 84 -94s-56 -92 -113 -92zM20 650c7 40 -17 66 -57 66s-72 -26 -80 -66c-7 -39 16 -66 57 -66s73 27 80 66z" />
    <glyph glyph-name="uni030B" unicode="&#x30b;" horiz-adv-x="0" 
d="M-216 570l92 130h40l-96 -130h-36zM-75 570l101 130h40l-105 -130h-36z" />
    <glyph glyph-name="uni030C" unicode="&#x30c;" horiz-adv-x="0" 
d="M-93 592l109 101h42l-131 -123h-41l-89 123h38z" />
    <glyph glyph-name="uni0312" unicode="&#x312;" horiz-adv-x="0" 
d="M79 960h26l-40 -170h-35z" />
    <glyph glyph-name="uni0326" unicode="&#x326;" horiz-adv-x="0" 
d="M-125 -240h-26l40 170h35z" />
    <glyph glyph-name="uni0327" unicode="&#x327;" horiz-adv-x="0" 
d="M-154 0l-12 -68c48 -3 85 -29 77 -70c-9 -59 -75 -82 -197 -69l5 29c101 -11 154 4 161 43c7 29 -23 47 -82 43l16 92h32z" />
    <glyph glyph-name="uni0328" unicode="&#x328;" horiz-adv-x="0" 
d="M-151 -211c-47 0 -71 33 -63 76c7 44 44 89 109 135h39c-69 -51 -107 -96 -114 -135c-5 -27 12 -46 40 -46c15 0 30 3 45 9l-5 -30c-15 -6 -32 -9 -51 -9z" />
    <glyph glyph-name="uni0394" unicode="&#x394;" horiz-adv-x="622" 
d="M370 700h40l151 -700h-588zM385 657l-353 -623h486z" />
    <glyph glyph-name="uni03A9" unicode="&#x3a9;" horiz-adv-x="830" 
d="M793 345c-12 -69 -41 -131 -87 -187c-45 -55 -100 -97 -164 -124h184l-6 -34h-269l1 8l5 26c74 18 139 56 195 114c56 59 91 126 104 202c16 90 -2 167 -54 230c-51 64 -122 96 -212 96c-91 0 -173 -32 -247 -95s-119 -140 -135 -231c-13 -76 -2 -143 33 -202
c35 -58 87 -96 155 -114l-4 -27h-1l-1 -7h-270l6 34h188c-54 29 -94 72 -121 130c-26 58 -33 122 -21 191c17 100 67 184 148 253s173 103 276 103c98 0 176 -36 235 -109c59 -72 79 -158 62 -257z" />
    <glyph glyph-name="pi" unicode="&#x3c0;" horiz-adv-x="650" 
d="M81 500h576l-5 -33h-84l-82 -467h-35l82 467h-336l-82 -467h-35l82 467h-87z" />
    <glyph glyph-name="uni0401" unicode="&#x401;" horiz-adv-x="537" 
d="M270 807c5 36 66 36 57 0c-6 -37 -63 -38 -57 0zM440 807c5 36 66 36 57 0c-6 -37 -63 -38 -57 0zM564 700l-6 -34h-355l-52 -296h330l-6 -34h-330l-53 -302h360l-6 -34h-397l123 700h392z" />
    <glyph glyph-name="uni0402" unicode="&#x402;" horiz-adv-x="696" 
d="M480 471c115 0 178 -64 158 -179l-28 -161c-16 -96 -76 -148 -177 -137l6 33c76 -7 121 27 134 104l29 161c16 97 -31 145 -124 145c-55 0 -117 -17 -186 -51l-68 -386h-36l117 666h-205l6 34h483l-6 -34h-242l-42 -242c65 31 125 47 181 47z" />
    <glyph glyph-name="uni0403" unicode="&#x403;" horiz-adv-x="497" 
d="M435 892h42l-107 -123h-35zM172 700h377l-6 -34h-340l-117 -666h-37z" />
    <glyph glyph-name="uni0404" unicode="&#x404;" horiz-adv-x="757" 
d="M484 676c-91 0 -171 -30 -240 -89s-114 -132 -133 -220h407l-6 -34h-407c-11 -87 8 -160 57 -220c50 -59 120 -89 209 -89c119 0 229 59 298 155l30 -19c-37 -51 -85 -93 -144 -124c-58 -31 -120 -47 -186 -47c-103 0 -182 35 -239 106c-56 71 -75 158 -58 260
c17 101 65 186 144 254s168 102 269 102c129 0 231 -65 279 -166l-32 -17c-43 91 -131 148 -248 148z" />
    <glyph glyph-name="uni0405" unicode="&#x405;" horiz-adv-x="562" 
d="M253 -11c-125 0 -210 61 -231 160l32 17c16 -88 87 -142 200 -142c119 0 194 55 211 139c11 49 -2 87 -41 114c-37 28 -66 41 -123 61c-66 25 -111 48 -136 70c-40 35 -55 81 -44 137c9 51 35 92 78 121c43 30 93 45 148 45c109 0 180 -59 205 -144l-32 -16
c-26 83 -84 125 -174 125c-47 0 -89 -12 -124 -37s-57 -57 -65 -98c-9 -49 4 -87 44 -115c21 -14 39 -25 54 -32s38 -15 67 -26c100 -38 203 -83 179 -209c-21 -109 -119 -170 -248 -170z" />
    <glyph glyph-name="uni0406" unicode="&#x406;" horiz-adv-x="223" 
d="M49 0l123 700h37l-123 -700h-37z" />
    <glyph glyph-name="uni0407" unicode="&#x407;" horiz-adv-x="223" 
d="M96 807c5 36 66 36 57 0c-6 -37 -63 -38 -57 0zM266 807c5 36 66 36 57 0c-6 -37 -63 -38 -57 0zM49 0l123 700h37l-123 -700h-37z" />
    <glyph glyph-name="uni0408" unicode="&#x408;" horiz-adv-x="554" 
d="M212 -11c-100 0 -170 42 -191 117l33 17c17 -66 71 -99 160 -99c109 0 191 63 208 162l90 514h37l-90 -515c-11 -62 -40 -110 -86 -145c-45 -34 -99 -51 -161 -51z" />
    <glyph glyph-name="uni0409" unicode="&#x409;" horiz-adv-x="997" 
d="M596 387h173c55 0 100 -20 134 -59s46 -86 36 -141s-38 -100 -83 -135s-96 -52 -155 -52h-210l117 666h-321l-67 -383c-37 -207 -113 -296 -242 -285l5 33c97 -9 165 61 200 253l73 416h395zM763 353h-173l-56 -319h173c47 0 89 15 126 45c38 30 61 68 69 114
s-2 84 -29 114c-27 31 -63 46 -110 46z" />
    <glyph glyph-name="uni040A" unicode="&#x40a;" horiz-adv-x="988" 
d="M587 387h174c55 0 100 -20 133 -59c34 -39 46 -86 36 -141s-37 -100 -82 -135s-96 -52 -155 -52h-210l62 353h-397l-62 -353h-37l123 700h37l-55 -313h397l55 313h36zM755 353h-174l-56 -319h174c47 0 89 15 126 45c38 30 61 68 69 114s-2 84 -29 114
c-27 31 -63 46 -110 46z" />
    <glyph glyph-name="uni040B" unicode="&#x40b;" horiz-adv-x="704" 
d="M480 471c115 0 178 -64 158 -179l-51 -292h-37l52 292c16 97 -31 145 -124 145c-55 0 -117 -17 -186 -51l-68 -386h-36l117 666h-205l6 34h483l-6 -34h-242l-42 -242c65 31 125 47 181 47z" />
    <glyph glyph-name="uni040C" unicode="&#x40c;" horiz-adv-x="563" 
d="M445 892h42l-107 -123h-35zM572 700h52l-434 -343l319 -357h-44l-317 352l-62 -352h-37l123 700h37l-58 -331z" />
    <glyph glyph-name="uni040E" unicode="&#x40e;" horiz-adv-x="563" 
d="M266 823h247l-6 -30h-246zM301 224l285 476h39l-325 -546c-71 -117 -142 -161 -231 -154l6 33c71 -6 134 36 188 127l15 26l-162 514h34z" />
    <glyph glyph-name="uni040F" unicode="&#x40f;" horiz-adv-x="687" 
d="M519 34l117 666h36l-123 -700h-232l-23 -134h-37l24 134h-232l123 700h37l-117 -666h427z" />
    <glyph glyph-name="uni0410" unicode="&#x410;" horiz-adv-x="629" 
d="M565 0h-38l-39 185h-367l-105 -185h-40l397 700h41zM388 657l-248 -438h341z" />
    <glyph glyph-name="uni0411" unicode="&#x411;" horiz-adv-x="586" 
d="M569 700l-6 -34h-360l-45 -259h210c54 0 98 -21 131 -63c34 -41 46 -90 36 -146c-9 -56 -37 -103 -83 -141s-98 -57 -156 -57h-247l123 700h397zM361 373h-209l-60 -339h210c47 0 89 16 127 49c39 33 62 73 70 120c9 48 -1 88 -28 121s-63 49 -110 49z" />
    <glyph glyph-name="uni0412" unicode="&#x412;" horiz-adv-x="627" 
d="M597 518c-12 -71 -62 -130 -130 -157c73 -23 114 -93 101 -176c-8 -51 -33 -95 -74 -131s-90 -54 -148 -54h-297l123 700h263c53 0 95 -18 126 -53c32 -35 44 -78 36 -129zM152 374h239c39 0 76 14 109 42c34 29 54 63 61 104c7 40 -1 74 -26 103s-58 43 -100 43h-232z
M532 187c7 42 -1 78 -25 108s-57 45 -98 45h-263l-54 -306h258c45 0 84 15 119 44c35 30 56 66 63 109z" />
    <glyph glyph-name="uni0413" unicode="&#x413;" horiz-adv-x="497" 
d="M172 700h377l-6 -34h-340l-117 -666h-37z" />
    <glyph glyph-name="uni0414" unicode="&#x414;" horiz-adv-x="690" 
d="M656 700l-117 -666h71l-29 -168h-37l24 134h-554l-23 -134h-37l30 168h54c59 55 99 140 119 253l72 413h427zM260 666l-67 -380c-19 -109 -55 -193 -108 -252h417l111 632h-353z" />
    <glyph glyph-name="uni0415" unicode="&#x415;" horiz-adv-x="537" 
d="M564 700l-6 -34h-355l-52 -296h330l-6 -34h-330l-53 -302h360l-6 -34h-397l123 700h392z" />
    <glyph glyph-name="uni0416" unicode="&#x416;" horiz-adv-x="821" 
d="M827 700h47l-387 -344l270 -356h-39l-269 350l-62 -350h-37l62 352l-388 -352h-48l400 363l-264 337h40l263 -332l58 332h37l-58 -330z" />
    <glyph glyph-name="uni0417" unicode="&#x417;" horiz-adv-x="548" 
d="M531 522c-13 -76 -64 -137 -143 -162c81 -25 123 -94 108 -179c-10 -57 -38 -103 -83 -139c-45 -35 -102 -53 -172 -53c-121 0 -194 50 -220 150l33 17c21 -89 86 -133 193 -133c57 0 105 15 143 46c39 31 62 70 70 117c16 89 -39 154 -146 154h-78l6 34h58
c51 0 94 15 129 44c36 29 58 65 66 108c15 89 -44 151 -148 151c-90 0 -159 -41 -208 -123l-29 19c55 92 136 138 243 138c61 0 109 -18 142 -55c33 -36 45 -81 36 -134z" />
    <glyph glyph-name="uni0418" unicode="&#x418;" horiz-adv-x="693" 
d="M83 0h-34l123 700h37l-111 -630l548 630h33l-123 -700h-37l111 631z" />
    <glyph glyph-name="uni0419" unicode="&#x419;" horiz-adv-x="693" 
d="M559 794h-246l5 30h247zM83 0h-34l123 700h37l-111 -630l548 630h33l-123 -700h-37l111 631z" />
    <glyph glyph-name="uni041A" unicode="&#x41a;" horiz-adv-x="563" 
d="M572 700h52l-434 -343l319 -357h-44l-317 352l-62 -352h-37l123 700h37l-58 -331z" />
    <glyph glyph-name="uni041B" unicode="&#x41b;" horiz-adv-x="702" 
d="M-22 -2l5 33c97 -9 165 61 200 253l73 416h431l-123 -700h-36l117 666h-358l-67 -383c-37 -208 -114 -296 -242 -285z" />
    <glyph glyph-name="uni041C" unicode="&#x41c;" horiz-adv-x="813" 
d="M752 700h47l-123 -700h-37l113 644l-348 -443h-9l-195 449l-114 -650h-37l123 700h44l191 -439z" />
    <glyph glyph-name="uni041D" unicode="&#x41d;" horiz-adv-x="693" 
d="M585 377l57 323h37l-123 -700h-37l60 343h-433l-60 -343h-37l123 700h37l-57 -323h433z" />
    <glyph glyph-name="uni041E" unicode="&#x41e;" horiz-adv-x="829" 
d="M370 -11c-100 0 -179 36 -238 108c-58 72 -78 158 -60 258c17 100 67 184 148 253s172 103 273 103c99 0 178 -36 237 -109s79 -159 62 -259c-17 -99 -67 -183 -148 -252c-81 -68 -173 -102 -274 -102zM375 24c91 0 173 31 246 94s118 139 135 230c15 91 -3 168 -55 232
c-51 64 -122 96 -213 96s-173 -32 -246 -95s-118 -140 -134 -231c-16 -90 2 -167 54 -231c52 -63 123 -95 213 -95z" />
    <glyph glyph-name="uni041F" unicode="&#x41f;" horiz-adv-x="687" 
d="M172 700h500l-123 -700h-36l117 666h-427l-117 -666h-37z" />
    <glyph glyph-name="uni0420" unicode="&#x420;" horiz-adv-x="583" 
d="M172 700h223c64 0 113 -20 147 -61s46 -91 36 -152s-39 -112 -87 -153s-106 -61 -174 -61h-183l-48 -273h-37zM542 490c9 51 0 93 -28 126s-68 50 -121 50h-190l-63 -359h180c57 0 106 17 147 52s66 78 75 131z" />
    <glyph glyph-name="uni0421" unicode="&#x421;" horiz-adv-x="757" 
d="M369 -11c-103 0 -182 35 -239 106c-56 71 -75 158 -58 260c17 101 65 186 144 254s168 102 269 102c129 0 231 -65 279 -166l-32 -17c-43 91 -131 148 -248 148c-93 0 -175 -32 -246 -95s-114 -140 -130 -231s1 -168 50 -231c50 -63 121 -95 213 -95
c119 0 229 59 298 155l30 -19c-37 -51 -85 -93 -144 -124c-58 -31 -120 -47 -186 -47z" />
    <glyph glyph-name="uni0422" unicode="&#x422;" horiz-adv-x="540" 
d="M106 700h486l-5 -34h-226l-117 -666h-36l117 666h-225z" />
    <glyph glyph-name="uni0423" unicode="&#x423;" horiz-adv-x="563" 
d="M301 224l285 476h39l-325 -546c-71 -117 -142 -161 -231 -154l6 33c71 -6 134 36 188 127l15 26l-162 514h34z" />
    <glyph glyph-name="uni0424" unicode="&#x424;" horiz-adv-x="805" 
d="M500 700l-14 -78c101 -3 180 -29 237 -78c57 -48 78 -114 63 -198s-58 -149 -130 -195s-160 -70 -265 -73l-14 -78h-37l14 78c-101 3 -180 29 -237 77c-56 49 -77 115 -62 199s58 149 129 195c72 46 160 70 265 73l14 78h37zM92 350c-27 -147 77 -234 268 -239l83 478
c-95 -3 -175 -25 -238 -67c-63 -41 -100 -99 -113 -172zM480 589l-83 -478c96 3 175 25 238 66c63 42 101 100 114 173c25 147 -78 234 -269 239z" />
    <glyph glyph-name="uni0425" unicode="&#x425;" horiz-adv-x="567" 
d="M564 700h44l-285 -344l173 -356h-38l-159 327l-272 -327h-44l299 361l-165 339h38l151 -311z" />
    <glyph glyph-name="uni0426" unicode="&#x426;" horiz-adv-x="690" 
d="M659 700l-117 -666h72l-30 -168h-37l24 134h-522l123 700h37l-117 -666h413l117 666h37z" />
    <glyph glyph-name="uni0427" unicode="&#x427;" horiz-adv-x="628" 
d="M514 342l63 358h37l-123 -700h-37l53 304c-63 -27 -128 -41 -195 -41c-152 0 -220 79 -201 194l43 243h37l-43 -243c-17 -99 37 -160 168 -160c63 0 129 15 198 45z" />
    <glyph glyph-name="uni0428" unicode="&#x428;" horiz-adv-x="963" 
d="M795 34l117 666h37l-123 -700h-777l123 700h37l-117 -666h333l117 666h37l-117 -666h333z" />
    <glyph glyph-name="uni0429" unicode="&#x429;" horiz-adv-x="980" 
d="M949 700l-117 -666h71l-29 -168h-37l24 134h-812l123 700h37l-117 -666h333l117 666h37l-117 -666h333l117 666h37z" />
    <glyph glyph-name="uni042A" unicode="&#x42a;" horiz-adv-x="687" 
d="M379 0h-226l117 666h-197l6 34h233l-48 -273h189c61 0 109 -21 144 -64c35 -42 47 -93 36 -154s-41 -112 -88 -151s-102 -58 -166 -58zM259 393l-64 -359h189c53 0 99 17 139 51s65 77 74 128c9 53 0 96 -28 129c-28 34 -69 51 -123 51h-187z" />
    <glyph glyph-name="uni042B" unicode="&#x42b;" horiz-adv-x="752" 
d="M276 0h-227l123 700h37l-48 -273h188c61 0 110 -21 145 -64c35 -42 47 -93 36 -154s-41 -112 -88 -151s-102 -58 -166 -58zM614 0h-36l123 700h36zM155 393l-63 -359h189c52 0 98 17 138 51s65 77 74 128c9 53 0 96 -28 130s-69 51 -122 50h-188z" />
    <glyph glyph-name="uni042C" unicode="&#x42c;" horiz-adv-x="584" 
d="M161 427h188c61 0 110 -21 145 -64c35 -42 47 -93 36 -154s-41 -112 -88 -151s-102 -58 -166 -58h-227l123 700h37zM493 213c9 53 0 96 -28 130s-69 51 -122 50h-188l-63 -359h189c52 0 98 17 138 51s65 77 74 128z" />
    <glyph glyph-name="uni042D" unicode="&#x42d;" horiz-adv-x="755" 
d="M423 711c103 0 182 -36 238 -107s75 -157 57 -258c-17 -101 -65 -185 -143 -254s-170 -103 -276 -103c-128 0 -230 64 -271 167l33 17c36 -92 126 -149 242 -149c91 0 171 29 241 88s115 133 135 221h-407l6 34h407c11 88 -8 161 -58 220c-49 59 -119 89 -209 89
c-119 0 -228 -60 -295 -155l-31 19c37 52 85 93 144 124s121 47 187 47z" />
    <glyph glyph-name="uni042E" unicode="&#x42e;" horiz-adv-x="1054" 
d="M718 711c99 0 178 -36 237 -109s79 -159 62 -259c-17 -99 -67 -183 -148 -252c-81 -68 -173 -102 -274 -102c-97 0 -175 35 -233 104s-80 153 -66 250h-150l-60 -343h-37l123 700h37l-57 -323h150c23 95 73 175 152 238c79 64 167 96 264 96zM713 676
c-91 0 -174 -32 -247 -95s-118 -140 -133 -231c-16 -90 2 -167 53 -231c52 -63 123 -95 214 -95s173 31 246 94s118 139 134 230s-2 168 -54 232c-51 64 -122 96 -213 96z" />
    <glyph glyph-name="uni042F" unicode="&#x42f;" horiz-adv-x="633" 
d="M347 700h272l-123 -700h-37l51 293h-215l-251 -293h-45l253 295c-49 7 -88 31 -116 71c-28 41 -38 86 -29 137c10 57 37 104 82 141s98 56 158 56zM284 327h232l60 339h-235c-47 0 -89 -16 -128 -48c-38 -32 -61 -71 -70 -118c-8 -47 2 -87 29 -122
c27 -34 65 -51 112 -51z" />
    <glyph glyph-name="uni0430" unicode="&#x430;" horiz-adv-x="654" 
d="M553 354l26 146h36l-88 -500h-36l21 118c-52 -81 -142 -129 -243 -129c-71 0 -129 27 -173 81c-44 55 -60 119 -47 192c13 75 47 136 102 181s119 68 190 68c51 0 95 -14 134 -43s65 -67 78 -114zM276 23c61 0 115 19 162 56c47 38 78 87 93 146l5 33
c7 63 -9 115 -48 156c-38 42 -87 63 -148 63c-62 0 -117 -20 -166 -60c-48 -40 -78 -93 -90 -159c-11 -64 2 -119 39 -166c38 -46 89 -69 153 -69z" />
    <glyph glyph-name="uni0431" unicode="&#x431;" horiz-adv-x="576" 
d="M253 -11c-71 0 -126 24 -167 71c-40 47 -53 109 -40 185c14 82 37 146 68 191c32 46 88 87 168 124c19 9 41 18 68 28l64 25c49 21 99 50 113 97l27 -16c-12 -35 -35 -62 -74 -83c-19 -11 -36 -20 -52 -27s-38 -15 -66 -26l-67 -27c-56 -25 -99 -52 -128 -82
c-29 -29 -51 -69 -66 -120c63 83 153 125 240 125c64 0 115 -23 153 -68s51 -101 39 -168c-11 -67 -43 -122 -95 -165s-114 -64 -185 -64zM257 23c61 0 113 18 158 55s73 85 83 143s-1 106 -32 143c-31 38 -76 57 -133 57c-54 0 -105 -17 -153 -51c-48 -33 -81 -76 -99 -129
c-11 -65 -1 -117 32 -158c33 -40 81 -60 144 -60z" />
    <glyph glyph-name="uni0432" unicode="&#x432;" horiz-adv-x="513" 
d="M473 369c-10 -55 -40 -92 -90 -111c57 -17 84 -65 73 -125c-13 -80 -72 -133 -175 -133h-242l88 500h224c88 0 135 -58 122 -131zM123 272h185c69 0 119 37 130 98c11 60 -25 97 -93 97h-188zM421 137c11 64 -26 102 -99 102h-205l-36 -206h206c72 0 122 39 134 104z" />
    <glyph glyph-name="uni0433" unicode="&#x433;" horiz-adv-x="398" 
d="M127 500h307l-6 -33h-271l-82 -467h-36z" />
    <glyph glyph-name="uni0434" unicode="&#x434;" horiz-adv-x="591" 
d="M527 500l-82 -467h71l-31 -167h-35l24 134h-456l-24 -134h-35l30 167h55c48 54 80 125 95 213l44 254h344zM90 33h320l76 434h-273l-39 -221c-15 -87 -43 -158 -84 -213z" />
    <glyph glyph-name="uni0435" unicode="&#x435;" horiz-adv-x="593" 
d="M548 249c0 -4 -4 -14 -4 -18h-464c-7 -63 7 -113 41 -151s82 -57 145 -57c85 0 160 37 201 97l28 -18c-49 -71 -137 -113 -234 -113c-76 0 -134 25 -174 76s-53 114 -40 190c13 74 47 135 102 183c55 49 120 73 195 73s130 -26 167 -78c37 -51 50 -113 37 -184zM85 264
h430c8 65 -4 117 -37 155c-32 39 -77 58 -136 58c-63 0 -118 -20 -165 -59s-78 -91 -92 -154z" />
    <glyph glyph-name="uni0436" unicode="&#x436;" horiz-adv-x="651" 
d="M615 500h46l-282 -243l201 -257h-39l-197 251l-44 -251h-35l44 250l-282 -250h-44l295 263l-195 237h40l189 -231l41 231h35l-41 -231z" />
    <glyph glyph-name="uni0437" unicode="&#x437;" horiz-adv-x="445" 
d="M405 371c-10 -57 -42 -95 -96 -114c59 -20 89 -72 78 -131c-15 -79 -88 -137 -204 -137c-101 0 -159 39 -172 117l31 16c9 -66 57 -99 146 -99c88 0 152 44 164 109c11 64 -30 107 -106 107h-65l6 33h47c72 0 125 41 136 102c11 60 -36 103 -113 103
c-73 0 -125 -29 -158 -87l-27 18c41 69 104 103 190 103c49 0 87 -14 113 -42c27 -28 37 -61 30 -98z" />
    <glyph glyph-name="uni0438" unicode="&#x438;" horiz-adv-x="573" 
d="M85 61l417 439h32l-88 -500h-35l77 439l-417 -439h-32l88 500h36z" />
    <glyph glyph-name="uni0439" unicode="&#x439;" horiz-adv-x="573" 
d="M471 594h-246l5 30h247zM85 61l417 439h32l-88 -500h-35l77 439l-417 -439h-32l88 500h36z" />
    <glyph glyph-name="uni043A" unicode="&#x43a;" horiz-adv-x="472" 
d="M431 500h52l-326 -241l244 -259h-44l-238 252l-44 -252h-36l88 500h36l-40 -229z" />
    <glyph glyph-name="uni043B" unicode="&#x43b;" 
d="M183 500h348l-88 -500h-36l82 467h-276l-46 -261c-15 -81 -38 -137 -71 -167s-74 -43 -123 -39l5 33c81 -7 131 46 154 173z" />
    <glyph glyph-name="uni043C" unicode="&#x43c;" horiz-adv-x="643" 
d="M559 500h45l-88 -500h-35l79 449l-255 -307h-6l-145 307l-79 -449h-36l88 500h40l142 -299z" />
    <glyph glyph-name="uni043D" unicode="&#x43d;" horiz-adv-x="573" 
d="M458 267l41 233h35l-88 -500h-35l41 233h-336l-41 -233h-36l88 500h36l-41 -233h336z" />
    <glyph glyph-name="uni043E" unicode="&#x43e;" horiz-adv-x="617" 
d="M265 -11c-72 0 -130 25 -173 75c-43 51 -58 114 -44 190c13 76 50 138 109 185c59 48 125 72 197 72c71 0 128 -25 171 -76s57 -114 44 -189c-13 -76 -49 -138 -108 -186c-58 -47 -123 -71 -196 -71zM268 23c63 0 120 21 171 64c52 43 84 98 95 164c12 65 0 119 -37 162
s-86 64 -148 64c-63 0 -120 -21 -171 -64s-83 -97 -95 -163c-11 -66 1 -121 37 -164c37 -43 86 -64 148 -63z" />
    <glyph glyph-name="uni043F" unicode="&#x43f;" horiz-adv-x="573" 
d="M127 500h407l-88 -500h-35l82 467h-336l-82 -467h-36z" />
    <glyph glyph-name="uni0440" unicode="&#x440;" horiz-adv-x="654" 
d="M385 511c71 0 128 -27 172 -82c45 -54 61 -118 48 -191c-13 -75 -48 -136 -103 -181s-118 -68 -189 -68c-51 0 -95 14 -134 42c-39 29 -65 67 -78 114l-61 -345h-36l123 700h36l-21 -118c53 81 142 129 243 129zM570 242c11 64 -2 119 -40 165c-37 47 -88 70 -152 70
c-61 0 -115 -19 -162 -56s-77 -86 -92 -145l-7 -35c-6 -63 10 -115 49 -156s88 -62 148 -62c63 0 118 20 166 60c49 41 79 94 90 159z" />
    <glyph glyph-name="uni0441" unicode="&#x441;" horiz-adv-x="571" 
d="M263 -11c-74 0 -132 26 -173 77c-41 52 -55 115 -42 190c13 73 49 134 106 182c58 49 124 73 199 73c96 0 172 -49 199 -125l-31 -16c-21 67 -84 107 -172 107c-65 0 -122 -22 -173 -65s-82 -97 -93 -161s0 -118 35 -162s85 -66 150 -66c87 0 166 42 210 109l28 -18
c-51 -79 -140 -125 -243 -125z" />
    <glyph glyph-name="uni0442" unicode="&#x442;" horiz-adv-x="440" 
d="M61 500h406l-5 -33h-186l-82 -467h-36l82 467h-185z" />
    <glyph glyph-name="uni0443" unicode="&#x443;" horiz-adv-x="510" 
d="M226 24l272 476h39l-312 -546c-59 -101 -139 -161 -223 -154l6 33c67 -7 134 44 182 129l13 22l-142 516h35z" />
    <glyph glyph-name="uni0444" unicode="&#x444;" horiz-adv-x="672" 
d="M433 700l-33 -188c78 -5 138 -32 180 -83s57 -112 44 -184s-48 -132 -106 -180c-58 -47 -128 -73 -210 -77l-33 -188h-36l33 188c-78 5 -138 32 -180 83s-57 112 -44 184s48 132 106 179c59 48 129 74 210 78l33 188h36zM278 21l80 458c-71 -4 -131 -27 -182 -70
s-82 -96 -93 -159s1 -116 37 -159s89 -66 158 -70zM394 479l-80 -458c70 4 130 27 181 70s83 96 94 159s-1 116 -37 159s-89 66 -158 70z" />
    <glyph glyph-name="uni0445" unicode="&#x445;" horiz-adv-x="503" 
d="M464 500h46l-236 -245l159 -255h-40l-143 230l-222 -230h-45l249 259l-150 241h39l135 -216z" />
    <glyph glyph-name="uni0446" unicode="&#x446;" horiz-adv-x="597" 
d="M524 500l-82 -467h80l-30 -167h-35l24 134h-442l88 500h36l-83 -467h326l83 467h35z" />
    <glyph glyph-name="uni0447" unicode="&#x447;" horiz-adv-x="543" 
d="M422 235l47 265h35l-88 -500h-35l35 200c-60 -22 -116 -33 -167 -33c-127 0 -189 69 -170 173l28 160h36l-28 -160c-16 -87 30 -141 133 -141c49 0 107 12 174 36z" />
    <glyph glyph-name="uni0448" unicode="&#x448;" horiz-adv-x="823" 
d="M667 33l82 467h35l-88 -500h-657l88 500h36l-82 -467h275l82 467h35l-82 -467h276z" />
    <glyph glyph-name="uni0449" unicode="&#x449;" horiz-adv-x="847" 
d="M784 500l-82 -467h70l-30 -167h-35l23 134h-691l88 500h36l-82 -467h275l82 467h35l-82 -467h276l82 467h35z" />
    <glyph glyph-name="uni044A" unicode="&#x44a;" horiz-adv-x="540" 
d="M191 302h158c44 0 80 -15 107 -44c28 -29 38 -65 30 -110s-30 -81 -66 -108s-77 -40 -124 -40h-193l82 467h-147l6 33h182zM450 152c13 68 -34 117 -107 117h-158l-41 -236h157c73 0 137 50 149 119z" />
    <glyph glyph-name="uni044B" unicode="&#x44b;" horiz-adv-x="642" 
d="M128 302h158c44 0 80 -15 107 -44s37 -65 29 -110s-30 -81 -66 -108s-77 -40 -124 -40h-193l88 500h36zM479 0l88 500h36l-88 -500h-36zM387 152c13 68 -35 117 -108 117h-157l-41 -236h157c73 0 137 50 149 119z" />
    <glyph glyph-name="uni044C" unicode="&#x44c;" horiz-adv-x="477" 
d="M128 302h158c44 0 80 -15 107 -44s37 -65 29 -110s-30 -81 -66 -108s-77 -40 -124 -40h-193l88 500h36zM387 152c13 68 -35 117 -108 117h-157l-41 -236h157c73 0 137 50 149 119z" />
    <glyph glyph-name="uni044D" unicode="&#x44d;" horiz-adv-x="571" 
d="M308 511c75 0 132 -26 173 -78c41 -51 55 -114 42 -189c-13 -73 -49 -134 -107 -183c-57 -48 -123 -72 -198 -72c-96 0 -172 49 -199 125l31 16c21 -67 84 -107 172 -107c62 0 117 20 166 59c49 40 82 90 97 151h-268l7 34h266c7 60 -7 110 -42 150
c-34 40 -82 60 -145 60c-87 0 -166 -42 -210 -109l-28 18c51 79 140 125 243 125z" />
    <glyph glyph-name="uni044E" unicode="&#x44e;" horiz-adv-x="807" 
d="M544 511c71 0 128 -25 171 -76s57 -114 44 -189c-13 -76 -49 -138 -108 -186c-59 -47 -124 -71 -196 -71c-68 0 -123 23 -166 69c-42 46 -60 104 -53 175h-120l-41 -233h-36l88 500h36l-41 -233h120c15 73 52 131 109 176c58 45 122 68 193 68zM724 251
c12 65 0 119 -37 162s-86 64 -148 64c-63 0 -120 -21 -171 -64s-83 -97 -95 -163s0 -121 37 -164s86 -64 148 -63c63 0 120 21 171 64s83 98 95 164z" />
    <glyph glyph-name="uni044F" unicode="&#x44f;" horiz-adv-x="500" 
d="M268 500h193l-88 -500h-36l35 199h-130l-194 -199h-45l196 200c-40 4 -72 20 -97 48c-24 28 -32 63 -24 104c8 45 30 80 66 107s77 41 124 41zM221 231h157l41 236h-157c-73 0 -137 -50 -149 -119c-13 -68 33 -117 108 -117z" />
    <glyph glyph-name="uni0451" unicode="&#x451;" horiz-adv-x="593" 
d="M250 607c5 36 66 36 57 0c-6 -37 -63 -38 -57 0zM420 607c5 36 66 36 57 0c-6 -37 -63 -38 -57 0zM548 249c0 -4 -4 -14 -4 -18h-464c-7 -63 7 -113 41 -151s82 -57 145 -57c85 0 160 37 201 97l28 -18c-49 -71 -137 -113 -234 -113c-76 0 -134 25 -174 76
s-53 114 -40 190c13 74 47 135 102 183c55 49 120 73 195 73s130 -26 167 -78c37 -51 50 -113 37 -184zM85 264h430c8 65 -4 117 -37 155c-32 39 -77 58 -136 58c-63 0 -118 -20 -165 -59s-78 -91 -92 -154z" />
    <glyph glyph-name="uni0452" unicode="&#x452;" horiz-adv-x="586" 
d="M367 511c58 0 102 -18 131 -55c30 -36 40 -83 30 -142l-68 -387c-18 -102 -77 -148 -177 -138l6 34c76 -9 121 26 135 104l69 387c16 97 -31 163 -131 163c-55 0 -104 -19 -145 -56s-67 -89 -79 -155l-47 -266h-35l103 589h-76l5 29h77l14 82h35l-14 -82h168l-5 -29h-169
l-34 -194c48 76 124 116 207 116z" />
    <glyph glyph-name="uni0453" unicode="&#x453;" horiz-adv-x="398" 
d="M337 693h42l-107 -123h-35zM127 500h307l-6 -33h-271l-82 -467h-36z" />
    <glyph glyph-name="uni0454" unicode="&#x454;" horiz-adv-x="571" 
d="M349 477c-62 0 -118 -20 -167 -60c-49 -39 -81 -89 -96 -150h268l-7 -34h-266c-7 -60 7 -110 42 -150s83 -60 145 -60c87 0 166 42 210 109l28 -18c-51 -79 -140 -125 -243 -125c-74 0 -132 26 -173 77c-41 52 -55 115 -42 190c13 73 49 134 106 182c58 49 124 73 199 73
c96 0 172 -49 199 -125l-31 -16c-21 67 -84 107 -172 107z" />
    <glyph glyph-name="uni0455" unicode="&#x455;" horiz-adv-x="469" 
d="M204 -11c-93 0 -152 37 -177 110l32 16c18 -61 67 -92 148 -92c79 0 141 36 152 97c30 154 -303 79 -269 263c13 77 86 128 181 128c75 0 136 -38 160 -98l-31 -16c-17 51 -70 80 -131 80c-72 0 -132 -35 -144 -100c-9 -53 35 -85 94 -102c29 -9 59 -18 88 -28
c59 -19 100 -63 88 -132c-15 -79 -90 -126 -191 -126z" />
    <glyph glyph-name="uni0456" unicode="&#x456;" horiz-adv-x="202" 
d="M169 636c-17 0 -29 15 -26 31c5 21 18 32 37 32c40 0 31 -63 -11 -63zM75 0h-36l88 500h36z" />
    <glyph glyph-name="uni0457" unicode="&#x457;" horiz-adv-x="202" 
d="M50 607c5 36 66 36 57 0c-6 -37 -63 -38 -57 0zM220 607c5 36 66 36 57 0c-6 -37 -63 -38 -57 0zM75 0h-36l88 500h36z" />
    <glyph glyph-name="uni0458" unicode="&#x458;" horiz-adv-x="216" 
d="M194 699c40 0 31 -63 -11 -63c-17 0 -29 15 -26 31c5 21 18 32 37 32zM40 -73l101 573h36l-101 -573c-19 -102 -78 -148 -177 -138l6 34c77 -9 122 26 135 104z" />
    <glyph glyph-name="uni0459" unicode="&#x459;" horiz-adv-x="818" 
d="M483 282h149c42 0 76 -13 102 -40c26 -26 35 -61 27 -105c-16 -88 -90 -137 -179 -137h-185l82 467h-266l-46 -261c-28 -161 -95 -215 -194 -206l5 33c83 -8 130 44 154 173l51 294h338zM726 142c12 67 -29 107 -100 107h-149l-38 -216h149c69 0 126 41 138 109z" />
    <glyph glyph-name="uni045A" unicode="&#x45a;" horiz-adv-x="811" 
d="M476 282h149c42 0 76 -13 102 -40c26 -26 35 -61 27 -105c-16 -88 -88 -137 -179 -137h-184l44 249h-316l-44 -249h-36l88 500h36l-38 -218h316l38 218h35zM719 142c12 67 -29 107 -100 107h-149l-38 -216h149c71 0 126 41 138 109z" />
    <glyph glyph-name="uni045B" unicode="&#x45b;" horiz-adv-x="586" 
d="M367 511c58 0 102 -18 131 -55c30 -36 40 -83 30 -142l-55 -314h-36l56 314c16 97 -31 163 -131 163c-55 0 -104 -19 -145 -56s-67 -89 -79 -155l-47 -266h-35l103 589h-76l5 29h77l14 82h35l-14 -82h168l-5 -29h-169l-34 -194c48 76 124 116 207 116z" />
    <glyph glyph-name="uni045C" unicode="&#x45c;" horiz-adv-x="472" 
d="M357 693h42l-107 -123h-35zM431 500h52l-326 -241l244 -259h-44l-238 252l-44 -252h-36l88 500h36l-40 -229z" />
    <glyph glyph-name="uni045E" unicode="&#x45e;" horiz-adv-x="510" 
d="M184 624h247l-6 -30h-246zM226 24l272 476h39l-312 -546c-59 -101 -139 -161 -223 -154l6 33c67 -7 134 44 182 129l13 22l-142 516h35z" />
    <glyph glyph-name="uni045F" unicode="&#x45f;" horiz-adv-x="573" 
d="M417 33l82 467h35l-88 -500h-186l-24 -134h-35l24 134h-186l88 500h36l-82 -467h336z" />
    <glyph glyph-name="uni0490" unicode="&#x490;" horiz-adv-x="497" 
d="M513 700l21 120h37l-28 -154h-340l-117 -666h-37l123 700h341z" />
    <glyph glyph-name="uni0491" unicode="&#x491;" horiz-adv-x="398" 
d="M399 500l18 104h35l-24 -137h-271l-82 -467h-36l88 500h272z" />
    <glyph glyph-name="Wgrave" unicode="&#x1e80;" horiz-adv-x="987" 
d="M615 770h-32l-68 123h40zM196 0h44l324 653l95 -653h44l326 700h-39l-303 -653l-95 653h-43l-324 -653l-74 653h-35z" />
    <glyph glyph-name="wgrave" unicode="&#x1e81;" horiz-adv-x="770" 
d="M381 693l60 -123h-32l-68 123h40zM515 45l224 455h38l-248 -500h-39l-70 452l-228 -452h-39l-72 500h34l64 -454l230 454h37z" />
    <glyph glyph-name="Wacute" unicode="&#x1e82;" horiz-adv-x="987" 
d="M552 770l100 123h42l-107 -123h-35zM196 0h44l324 653l95 -653h44l326 700h-39l-303 -653l-95 653h-43l-324 -653l-74 653h-35z" />
    <glyph glyph-name="wacute" unicode="&#x1e83;" horiz-adv-x="770" 
d="M478 693h42l-107 -123h-35zM515 45l224 455h38l-248 -500h-39l-70 452l-228 -452h-39l-72 500h34l64 -454l230 454h37z" />
    <glyph glyph-name="Wdieresis" unicode="&#x1e84;" horiz-adv-x="987" 
d="M477 807c5 36 66 36 57 0c-6 -37 -63 -38 -57 0zM647 807c5 36 66 36 57 0c-6 -37 -63 -38 -57 0zM240 0h-44l-80 700h35l74 -653l324 653h43l95 -653l303 653h39l-326 -700h-44l-95 653z" />
    <glyph glyph-name="wdieresis" unicode="&#x1e85;" horiz-adv-x="770" 
d="M303 607c5 36 66 36 57 0c-6 -37 -63 -38 -57 0zM473 607c5 36 66 36 57 0c-6 -37 -63 -38 -57 0zM515 45l224 455h38l-248 -500h-39l-70 452l-228 -452h-39l-72 500h34l64 -454l230 454h37z" />
    <glyph glyph-name="Ygrave" unicode="&#x1ef2;" horiz-adv-x="565" 
d="M343 893l60 -123h-32l-68 123h40zM585 700h42l-313 -372l-57 -328h-37l58 328l-182 372h38l166 -339z" />
    <glyph glyph-name="ygrave" unicode="&#x1ef3;" horiz-adv-x="510" 
d="M268 693l60 -123h-32l-68 123h40zM226 24l272 476h39l-312 -546c-59 -101 -139 -161 -223 -154l6 33c67 -7 134 44 182 129l13 22l-142 516h35z" />
    <glyph glyph-name="endash" unicode="&#x2013;" horiz-adv-x="681" 
d="M595 292h-494l6 34h494z" />
    <glyph glyph-name="emdash" unicode="&#x2014;" horiz-adv-x="781" 
d="M695 292h-594l6 34h594z" />
    <glyph glyph-name="quoteleft" unicode="&#x2018;" horiz-adv-x="207" 
d="M153 508h-44l81 192h33z" />
    <glyph glyph-name="quoteright" unicode="&#x2019;" horiz-adv-x="207" 
d="M178 700h44l-81 -192h-33z" />
    <glyph glyph-name="quotesinglbase" unicode="&#x201a;" horiz-adv-x="207" 
d="M64 52h44l-81 -192h-33z" />
    <glyph glyph-name="quotedblleft" unicode="&#x201c;" horiz-adv-x="320" 
d="M153 508h-44l81 192h33zM266 508h-44l81 192h33z" />
    <glyph glyph-name="quotedblright" unicode="&#x201d;" horiz-adv-x="320" 
d="M178 700h44l-81 -192h-33zM291 700h44l-81 -192h-33z" />
    <glyph glyph-name="quotedblbase" unicode="&#x201e;" horiz-adv-x="320" 
d="M64 52h44l-81 -192h-33zM177 52h44l-81 -192h-33z" />
    <glyph glyph-name="dagger" unicode="&#x2020;" horiz-adv-x="467" 
d="M298 520h149l-5 -34h-150l-85 -486h-35l85 486h-149l6 34h149l32 180h35z" />
    <glyph glyph-name="daggerdbl" unicode="&#x2021;" horiz-adv-x="467" 
d="M447 520l-5 -34h-150l-47 -272h148l-5 -34h-149l-32 -180h-35l32 180h-150l6 34h150l47 272h-149l6 34h149l32 180h35l-32 -180h149z" />
    <glyph glyph-name="bullet" unicode="&#x2022;" horiz-adv-x="261" 
d="M75 354c7 40 43 69 86 69c64 4 83 -87 30 -126c-16 -13 -34 -20 -55 -20c-41 0 -68 34 -61 77z" />
    <glyph glyph-name="ellipsis" unicode="&#x2026;" horiz-adv-x="577" 
d="M52 -10c-19 0 -32 16 -28 36c5 23 18 34 41 34c19 0 32 -16 28 -36c-5 -23 -18 -34 -41 -34zM242 -10c-19 0 -32 16 -28 36c5 23 18 34 41 34c19 0 32 -16 28 -36c-5 -23 -18 -34 -41 -34zM432 -10c-19 0 -32 16 -28 36c5 23 18 34 41 34c19 0 32 -16 28 -36
c-5 -23 -18 -34 -41 -34z" />
    <glyph glyph-name="perthousand" unicode="&#x2030;" horiz-adv-x="1088" 
d="M250 413c-43 0 -77 15 -102 44c-25 30 -33 66 -26 108s28 77 61 104c34 28 73 42 118 42c43 0 76 -15 101 -45c25 -29 33 -65 26 -107s-28 -77 -61 -105c-33 -27 -72 -41 -117 -41zM254 445c35 0 65 11 91 33c27 23 43 51 48 84c12 67 -29 117 -97 117
c-34 0 -64 -11 -91 -34c-27 -22 -43 -50 -48 -83c-12 -67 29 -117 97 -117zM103 70l-26 15l575 543l26 -15zM458 -11c-43 0 -77 15 -102 44c-25 30 -33 66 -26 108s28 77 61 104c34 28 73 42 118 42c43 0 76 -15 101 -45c25 -29 33 -65 26 -107s-28 -77 -61 -105
c-33 -27 -72 -41 -117 -41zM823 -11c-43 0 -77 15 -102 44c-25 30 -33 66 -26 108s28 77 61 104c34 28 73 42 118 42c43 0 76 -15 101 -45c25 -29 33 -65 26 -107s-28 -77 -61 -105c-33 -27 -72 -41 -117 -41zM462 21c35 0 65 11 91 33c27 23 43 51 48 84
c12 67 -29 117 -97 117c-34 0 -64 -11 -91 -34c-27 -22 -43 -50 -48 -83c-12 -67 29 -117 97 -117zM827 21c35 0 65 11 91 33c27 23 43 51 48 84c12 67 -29 117 -97 117c-34 0 -64 -11 -91 -34c-27 -22 -43 -50 -48 -83c-12 -67 29 -117 97 -117z" />
    <glyph glyph-name="guilsinglleft" unicode="&#x2039;" horiz-adv-x="328" 
d="M233 476h45l-135 -170l73 -164h-42l-74 167z" />
    <glyph glyph-name="guilsinglright" unicode="&#x203a;" horiz-adv-x="329" 
d="M133 476h42l74 -167l-133 -167h-45l135 170z" />
    <glyph glyph-name="fraction" unicode="&#x2044;" horiz-adv-x="233" 
d="M419 700l-533 -700h-37l533 700h37z" />
    <glyph glyph-name="Euro" unicode="&#x20ac;" horiz-adv-x="612" 
d="M448 711c92 0 157 -50 184 -134l-33 -17c-22 77 -74 116 -155 116c-117 0 -213 -90 -260 -243h281l-5 -32h-285c-5 -20 -8 -37 -11 -51l-7 -49h285l-5 -31h-282c-8 -155 56 -246 173 -246c84 0 150 39 197 118l30 -18c-56 -90 -134 -135 -233 -135
c-137 0 -212 109 -204 281h-88l6 31h84c1 10 3 27 7 52c4 21 7 37 10 48h-84l6 32h87c52 173 161 278 302 278z" />
    <glyph glyph-name="uni20BD" unicode="&#x20bd;" horiz-adv-x="564" 
d="M176 700h230c54 0 98 -21 131 -62c34 -41 46 -90 36 -146s-38 -103 -84 -142c-45 -38 -97 -57 -155 -57h-194l-19 -112h273l-5 -32h-274l-26 -149h-36l26 149h-90l5 32h91l19 112h-90l6 34h90zM537 497c9 47 -1 86 -28 119s-63 50 -109 50h-194l-60 -339h194
c47 0 89 17 127 50c39 33 62 73 70 120z" />
    <glyph glyph-name="uni2116" unicode="&#x2116;" horiz-adv-x="1023" 
d="M860 424c-40 0 -72 14 -96 43c-23 29 -32 63 -25 103s27 73 59 100c33 27 70 41 113 41c41 0 74 -14 97 -43s31 -63 24 -103c-15 -81 -83 -141 -172 -141zM86 0h-37l123 700h32l327 -634l111 634h37l-123 -700h-31l-327 634zM866 456c65 0 120 48 131 112
c11 63 -28 111 -92 111c-31 0 -60 -11 -85 -32s-41 -48 -46 -79c-11 -64 28 -112 92 -112zM974 302h-271l6 33h272z" />
    <glyph glyph-name="trademark" unicode="&#x2122;" horiz-adv-x="492" 
d="M286 700l-5 -25h-60l-31 -175h-26l31 175h-60l4 25h147zM481 700h30l-35 -200h-27l27 153l-89 -111h-4l-49 113l-27 -155h-26l35 200h26l49 -115z" />
    <glyph glyph-name="estimated" unicode="&#x212e;" horiz-adv-x="847" 
d="M504 710c107 0 190 -35 247 -105c58 -69 78 -154 60 -255c-2 -10 -8 -15 -18 -15h-560c-10 0 -16 -5 -18 -15l-33 -192c-2 -7 -1 -14 3 -19c46 -59 119 -89 218 -89c95 0 179 32 250 97c6 6 12 9 19 9h35c13 0 17 -10 6 -19c-87 -78 -192 -117 -316 -117
c-115 0 -203 36 -263 108c-59 72 -80 159 -62 262c18 101 67 185 146 251c80 66 175 99 286 99zM666 380l35 194c1 7 -1 14 -4 19c-45 58 -111 87 -198 87c-86 0 -162 -30 -229 -89c-6 -6 -9 -12 -10 -19l-34 -192c-2 -10 2 -15 12 -15h410c10 0 16 5 18 15z" />
    <glyph glyph-name="oneeighth" unicode="&#x215b;" horiz-adv-x="828" 
d="M178 300h-34l63 358l-115 -38l-5 31l138 49h24zM95 0l533 700h37l-533 -700h-37zM789 299c-7 -41 -33 -71 -80 -90c43 -20 66 -60 57 -109c-12 -69 -74 -112 -157 -112c-81 0 -134 48 -121 117c9 51 45 89 97 106c-39 20 -56 51 -49 93c12 68 73 108 145 108
c69 0 120 -45 108 -113zM755 301c9 49 -25 80 -78 80c-55 0 -98 -31 -107 -80c-8 -45 27 -76 79 -76s98 31 106 76zM733 105c9 55 -28 88 -89 88c-64 0 -112 -33 -121 -88c-9 -52 26 -85 90 -85c63 0 111 33 120 85z" />
    <glyph glyph-name="threeeighths" unicode="&#x215c;" horiz-adv-x="928" 
d="M332 410c-12 -72 -71 -122 -158 -122c-64 0 -104 26 -121 77l30 16c11 -41 43 -61 95 -61c67 0 112 39 121 94c8 53 -21 93 -88 93h-3l-12 25l124 136h-203l5 32h245l-5 -32l-123 -134c68 -9 104 -60 93 -124zM195 0l533 700h37l-533 -700h-37zM889 299
c-7 -41 -33 -71 -80 -90c43 -20 66 -60 57 -109c-12 -69 -74 -112 -157 -112c-81 0 -134 48 -121 117c9 51 45 89 97 106c-39 20 -56 51 -49 93c12 68 73 108 145 108c69 0 120 -45 108 -113zM855 301c9 49 -25 80 -78 80c-55 0 -98 -31 -107 -80c-8 -45 27 -76 79 -76
s98 31 106 76zM833 105c9 55 -28 88 -89 88c-64 0 -112 -33 -121 -88c-9 -52 26 -85 90 -85c63 0 111 33 120 85z" />
    <glyph glyph-name="fiveeighths" unicode="&#x215d;" horiz-adv-x="921" 
d="M329 410c-13 -73 -74 -122 -157 -122c-62 0 -102 25 -119 76l30 15c11 -39 42 -59 93 -59c63 0 109 37 120 94c9 57 -24 95 -87 95h-114l49 191h219l-5 -31h-189l-33 -128h79c79 0 127 -56 114 -131zM188 0l533 700h37l-533 -700h-37zM882 299c-7 -41 -33 -71 -80 -90
c43 -20 66 -60 57 -109c-12 -69 -74 -112 -157 -112c-81 0 -134 48 -121 117c9 51 45 89 97 106c-39 20 -56 51 -49 93c12 68 73 108 145 108c69 0 120 -45 108 -113zM848 301c9 49 -25 80 -78 80c-55 0 -98 -31 -107 -80c-8 -45 27 -76 79 -76s98 31 106 76zM826 105
c9 55 -28 88 -89 88c-64 0 -112 -33 -121 -88c-9 -52 26 -85 90 -85c63 0 111 33 120 85z" />
    <glyph glyph-name="seveneighths" unicode="&#x215e;" horiz-adv-x="905" 
d="M102 700h266l-4 -27l-226 -373h-38l223 368h-226zM172 0l533 700h37l-533 -700h-37zM866 299c-7 -41 -33 -71 -80 -90c43 -20 66 -60 57 -109c-12 -69 -74 -112 -157 -112c-81 0 -134 48 -121 117c9 51 45 89 97 106c-39 20 -56 51 -49 93c12 68 73 108 145 108
c69 0 120 -45 108 -113zM832 301c9 49 -25 80 -78 80c-55 0 -98 -31 -107 -80c-8 -45 27 -76 79 -76s98 31 106 76zM810 105c9 55 -28 88 -89 88c-64 0 -112 -33 -121 -88c-9 -52 26 -85 90 -85c63 0 111 33 120 85z" />
    <glyph glyph-name="arrowleft" unicode="&#x2190;" horiz-adv-x="833" 
d="M154 367h633l-6 -34h-637l233 -283h-45l-247 300l353 300h49z" />
    <glyph glyph-name="arrowup" unicode="&#x2191;" horiz-adv-x="733" 
d="M446 700l247 -300l-8 -46l-232 283l-113 -637h-35l111 631l-332 -282l9 51z" />
    <glyph glyph-name="arrowright" unicode="&#x2192;" horiz-adv-x="833" 
d="M493 650h45l247 -300l-352 -300h-50l331 283h-633l6 34h638z" />
    <glyph glyph-name="arrowdown" unicode="&#x2193;" horiz-adv-x="733" 
d="M463 700l-110 -632l331 282l-9 -50l-352 -300l-247 300l7 44l233 -282l112 638h35z" />
    <glyph glyph-name="arrowboth" unicode="&#x2194;" horiz-adv-x="1027" 
d="M733 593h45l200 -243l-286 -243h-51l266 226h-764l186 -226h-45l-199 243l285 243h51l-266 -226h764z" />
    <glyph glyph-name="arrowupdn" unicode="&#x2195;" horiz-adv-x="633" 
d="M613 554l-8 -46l-185 225l-136 -763l266 227l-9 -51l-286 -243l-199 243l7 46l184 -224l137 762l-265 -227l9 51l284 243z" />
    <glyph glyph-name="uni2196" unicode="&#x2196;" horiz-adv-x="641" 
d="M551 587l27 -34h-402l372 -450l-28 -23l-370 451l-71 -402l-27 34l75 424h424z" />
    <glyph glyph-name="uni2197" unicode="&#x2197;" horiz-adv-x="641" 
d="M170 553l40 34h423l-75 -424l-40 -34l69 397l-524 -447l-22 27l526 447h-397z" />
    <glyph glyph-name="uni2198" unicode="&#x2198;" horiz-adv-x="641" 
d="M522 145l71 402l27 -34l-74 -424h-424l-28 34h400l-370 450l27 23z" />
    <glyph glyph-name="uni2199" unicode="&#x2199;" horiz-adv-x="641" 
d="M608 596l22 -27l-526 -446h398l-39 -34h-424l74 424l40 34l-70 -398z" />
    <glyph glyph-name="partialdiff" unicode="&#x2202;" horiz-adv-x="579" 
d="M316 711c77 0 137 -34 179 -102c43 -68 54 -156 35 -264c-21 -114 -60 -202 -117 -264c-57 -61 -123 -92 -198 -92c-61 0 -106 20 -137 61c-30 41 -40 92 -29 153c12 69 42 124 89 165s106 62 175 62c73 0 135 -20 185 -59c13 88 2 161 -32 219c-33 58 -85 87 -156 87
c-47 0 -90 -11 -129 -34l6 36c40 21 83 32 129 32zM220 23c64 0 120 28 169 83s83 131 102 228c-49 42 -110 63 -183 63c-57 0 -107 -18 -148 -53s-66 -83 -77 -144c-19 -104 34 -177 137 -177z" />
    <glyph glyph-name="emptyset" unicode="&#x2205;" horiz-adv-x="832" 
d="M783 720h42l-104 -104c64 -68 93 -166 74 -271c-18 -100 -68 -184 -150 -253c-81 -69 -173 -103 -274 -103c-80 0 -148 25 -205 74l-83 -83h-42l104 104c-64 68 -92 166 -73 271c17 100 67 184 148 253c82 69 174 103 276 103c79 0 147 -25 204 -74zM105 350
c-17 -97 4 -178 63 -243l509 507c-51 43 -113 65 -186 65c-91 0 -175 -32 -250 -96s-120 -142 -136 -233zM762 350c17 97 -5 178 -64 243l-509 -507c51 -43 113 -65 186 -65c91 0 174 32 249 96s121 142 138 233z" />
    <glyph glyph-name="product" unicode="&#x220f;" horiz-adv-x="640" 
d="M50 -200h-36l158 900h454l-158 -900h-36l153 867h-383z" />
    <glyph glyph-name="summation" unicode="&#x2211;" horiz-adv-x="541" 
d="M426 -200h-442l6 35l341 429l-181 405l6 31h413l-6 -33h-376l184 -409l-339 -425h399z" />
    <glyph glyph-name="minus" unicode="&#x2212;" horiz-adv-x="540" 
d="M488 333h-407l6 34h407z" />
    <glyph glyph-name="radical" unicode="&#x221a;" horiz-adv-x="634" 
d="M298 0h-38l-110 267h-80l6 33h96l108 -260l385 760h39z" />
    <glyph glyph-name="infinity" unicode="&#x221e;" horiz-adv-x="813" 
d="M640 503c42 0 75 -15 100 -45c25 -29 33 -66 25 -111c-16 -91 -88 -150 -176 -150c-41 0 -78 15 -106 43c-27 28 -42 48 -62 83c-23 -25 -42 -45 -59 -60s-39 -29 -68 -44s-57 -22 -86 -22c-43 0 -76 15 -101 44c-24 30 -32 67 -24 112c16 91 88 150 176 150
c27 0 53 -7 76 -22c48 -29 65 -56 94 -104c22 25 41 44 58 59s39 30 67 45c29 15 57 22 86 22zM212 229c24 0 49 7 74 21s46 28 61 42c15 15 35 34 58 59c-20 35 -33 53 -58 80c-24 27 -56 40 -92 40c-68 0 -124 -49 -137 -121c-13 -71 26 -121 94 -121zM730 350
c13 71 -25 121 -94 121c-24 0 -49 -7 -74 -21c-49 -27 -74 -53 -117 -101c19 -35 32 -53 56 -80s56 -40 92 -40c68 0 124 49 137 121z" />
    <glyph glyph-name="integral" unicode="&#x222b;" horiz-adv-x="434" 
d="M-80 -203l7 34c63 -29 123 7 150 87l231 667c37 107 114 147 206 118l-6 -34c-75 28 -136 -6 -163 -87l-231 -667c-36 -105 -113 -147 -194 -118z" />
    <glyph glyph-name="approxequal" unicode="&#x2248;" horiz-adv-x="579" 
d="M312 415c-52 41 -99 49 -130 29c-31 -19 -46 -40 -61 -71l-30 14c16 37 41 68 80 91c40 24 99 15 160 -33c83 -65 147 -51 191 42l30 -14c-16 -37 -41 -68 -80 -91s-97 -15 -160 33zM93 213l-31 14c16 37 42 68 81 91c40 24 99 15 160 -33c83 -65 147 -51 191 42l30 -14
c-16 -37 -40 -68 -80 -91c-39 -23 -97 -15 -160 33c-53 41 -100 49 -131 29c-29 -19 -47 -40 -60 -71z" />
    <glyph glyph-name="notequal" unicode="&#x2260;" horiz-adv-x="533" 
d="M505 467l-6 -34h-143l-104 -166h218l-7 -34h-233l-101 -160h-32l101 160h-135l7 34h150l104 166h-225l6 34h241l101 160h32l-101 -160h127z" />
    <glyph glyph-name="lessequal" unicode="&#x2264;" horiz-adv-x="533" 
d="M98 426l427 161l-6 -40l-382 -140l332 -140l-6 -36l-371 161zM442 113h-399l5 34h400z" />
    <glyph glyph-name="greaterequal" unicode="&#x2265;" horiz-adv-x="533" 
d="M120 551l6 36l371 -161l-6 -34l-427 -161l6 40l382 140zM442 113h-399l5 34h400z" />
    <glyph glyph-name="lozenge" unicode="&#x25ca;" horiz-adv-x="536" 
d="M242 0h-36l-125 350l248 350h36l126 -350zM119 345l109 -306l225 316l-110 306z" />
    <glyph glyph-name="i.loclTRK" horiz-adv-x="202" 
d="M159 577c-51 0 -36 76 13 76c21 0 35 -17 32 -38c-4 -21 -24 -38 -45 -38zM75 0h-36l88 500h36z" />
    <glyph glyph-name="f_f_j" horiz-adv-x="774" 
d="M653 687c-108 0 -161 -44 -180 -144l-8 -43h270l-101 -573c-17 -96 -80 -147 -177 -138l6 34c77 -9 122 26 135 104l95 540h-233l-83 -467h-35l83 467h-235l-82 -467h-35l82 467h-88l5 33h89l6 33c21 123 96 187 220 178l-6 -34c-100 9 -160 -39 -179 -144l-6 -33h234
l8 43c19 119 93 178 220 178c33 0 66 -4 97 -11l-5 -32c-30 6 -62 9 -97 9z" />
    <glyph glyph-name="f_j" horiz-adv-x="505" 
d="M381 677c-107 0 -160 -44 -179 -144l-6 -33h269l-101 -573c-16 -96 -79 -147 -176 -138l5 34c77 -9 123 26 136 104l95 540h-234l-82 -467h-35l82 467h-88l5 33h89l6 33c21 119 94 178 220 178c33 0 66 -4 97 -11l-6 -32c-30 6 -62 9 -97 9z" />
    <glyph glyph-name="uni0414.loclBGR" horiz-adv-x="707" 
d="M577 34h63l-6 -34l-24 -134h-36l24 134h-577l-24 -134h-37l30 168h63l359 666h41zM427 657l-334 -623h448z" />
    <glyph glyph-name="uni041B.loclBGR" horiz-adv-x="601" 
d="M13 0h-40l387 700h40l141 -700h-37l-129 656z" />
    <glyph glyph-name="uni0424.loclBGR" horiz-adv-x="859" 
d="M544 800l-16 -89c103 -4 183 -40 238 -107c56 -67 75 -154 56 -259c-19 -106 -67 -191 -144 -255s-169 -98 -277 -101l-16 -89h-36l16 89c-103 4 -183 40 -238 107s-74 154 -55 259c19 106 66 191 143 255s170 98 277 101l16 89h36zM108 350c-17 -94 -1 -171 46 -231
c48 -60 120 -92 217 -96l115 654c-99 -4 -183 -36 -251 -96c-68 -59 -110 -136 -127 -231zM786 350c17 94 1 171 -47 231s-120 92 -217 96l-115 -654c99 4 183 36 251 95c68 60 111 137 128 232z" />
    <glyph glyph-name="uni0414.ss01" horiz-adv-x="690" 
d="M229 700h427l-117 -666h71l-6 -34h-626l6 34h54c59 55 99 140 119 253zM260 666l-67 -380c-19 -109 -55 -193 -108 -252h417l111 632h-353z" />
    <glyph glyph-name="uni0426.ss01" horiz-adv-x="690" 
d="M659 700l-117 -666h72l-6 -34h-559l123 700h37l-117 -666h413l117 666h37z" />
    <glyph glyph-name="uni0429.ss01" horiz-adv-x="980" 
d="M949 700l-117 -666h72l-6 -34h-849l123 700h37l-117 -666h333l117 666h37l-117 -666h333l117 666h37z" />
    <glyph glyph-name="uni0414.loclBGR.ss01" horiz-adv-x="707" 
d="M453 700l124 -666h63l-6 -34h-650l6 34h63l359 666h41zM427 657l-334 -623h448z" />
    <glyph glyph-name="uni0432.loclBGR" horiz-adv-x="578" 
d="M401 400c93 -23 139 -99 120 -206c-23 -132 -116 -205 -257 -205c-68 0 -119 22 -153 65c-33 44 -43 103 -30 178l44 251c25 147 110 228 239 228c52 0 92 -16 121 -48s40 -70 33 -113c-11 -60 -50 -110 -117 -150zM358 677c-104 0 -177 -70 -198 -194l-19 -107l131 25
c26 5 54 7 83 6c72 37 118 94 127 147c12 67 -37 123 -124 123zM486 199c24 129 -58 198 -219 169l-131 -25l-20 -113c-23 -132 34 -207 153 -207c117 0 198 64 217 176z" />
    <glyph glyph-name="uni0433.loclBGR" horiz-adv-x="462" 
d="M186 -11c-53 0 -94 14 -123 42c-29 29 -39 63 -32 103c12 68 66 105 129 120c93 21 204 29 219 114c11 64 -39 109 -111 109c-69 0 -126 -34 -154 -87l-28 18c33 61 101 103 186 103c47 0 84 -14 111 -43s38 -63 31 -102c-11 -65 -65 -102 -128 -117
c-92 -21 -204 -30 -219 -116c-13 -65 42 -110 122 -110c81 0 143 37 174 97l28 -17c-40 -76 -108 -114 -205 -114z" />
    <glyph glyph-name="uni0434.loclBGR" horiz-adv-x="661" 
d="M560 354l26 146h35l-83 -473c-25 -148 -135 -238 -287 -238c-112 0 -189 49 -216 120l31 16c20 -59 84 -102 187 -102c135 0 227 76 250 204l16 93c-52 -81 -141 -131 -238 -131c-75 0 -135 27 -178 80s-59 118 -48 193c12 73 46 132 101 179c56 47 119 70 188 70
c105 0 189 -61 216 -157zM286 23c61 0 116 20 165 61s78 94 89 157c12 67 -2 123 -41 168s-90 68 -154 68c-61 0 -117 -21 -166 -62s-78 -93 -88 -157c-11 -65 2 -121 40 -167c38 -45 90 -68 155 -68z" />
    <glyph glyph-name="uni0436.loclBGR" horiz-adv-x="651" 
d="M27 0h-44l295 263l-195 237h40l189 -229l76 429h36l-77 -431l268 231h46l-282 -243l201 -257h-39l-197 250l-44 -250h-35l43 250z" />
    <glyph glyph-name="uni0438.loclBGR" horiz-adv-x="569" 
d="M443 211l51 289h36l-88 -500h-36l18 103c-48 -76 -124 -114 -205 -114c-58 0 -102 18 -132 54c-30 37 -40 84 -29 143l55 314h35l-55 -314c-16 -97 31 -163 131 -163c51 0 97 17 137 50s67 79 82 138z" />
    <glyph glyph-name="uni0439.loclBGR" horiz-adv-x="569" 
d="M221 624h247l-6 -30h-246zM443 211l51 289h36l-88 -500h-36l18 103c-48 -76 -124 -114 -205 -114c-58 0 -102 18 -132 54c-30 37 -40 84 -29 143l55 314h35l-55 -314c-16 -97 31 -163 131 -163c51 0 97 17 137 50s67 79 82 138z" />
    <glyph glyph-name="uni043A.loclBGR" horiz-adv-x="472" 
d="M431 500h52l-326 -241l244 -259h-44l-238 252l-44 -252h-36l123 700h36l-75 -429z" />
    <glyph glyph-name="uni043B.loclBGR" horiz-adv-x="485" 
d="M307 500l117 -500h-35l-107 463l-270 -463h-39l293 500h41z" />
    <glyph glyph-name="uni043F.loclBGR" horiz-adv-x="569" 
d="M350 511c58 0 102 -18 132 -55c30 -36 40 -83 29 -142l-55 -314h-35l55 314c16 97 -31 163 -131 163c-51 0 -97 -17 -137 -50s-67 -79 -82 -138l-51 -289h-36l88 500h36l-18 -103c48 76 124 114 205 114z" />
    <glyph glyph-name="uni0442.loclBGR" horiz-adv-x="866" 
d="M665 511c50 0 89 -17 117 -50c29 -33 38 -79 27 -139l-56 -322h-36l57 322c16 100 -30 155 -115 155c-96 0 -173 -69 -196 -196l-49 -281h-36l57 322c16 100 -27 155 -111 155c-91 0 -168 -61 -196 -173l-53 -304h-36l88 500h36l-16 -93c45 69 106 104 184 104
c75 0 130 -40 141 -115c45 77 118 115 193 115z" />
    <glyph glyph-name="uni0446.loclBGR" horiz-adv-x="595" 
d="M530 500l-74 -420c-5 -31 7 -47 37 -47h27l-31 -174h-35l25 141c-43 3 -67 35 -58 80l4 23c-49 -76 -117 -114 -206 -114c-58 0 -102 18 -132 54c-29 37 -39 84 -29 143l55 314h36l-56 -314c-16 -97 31 -163 131 -163c55 0 103 19 144 56s68 89 80 155l47 266h35z" />
    <glyph glyph-name="uni0448.loclBGR" horiz-adv-x="866" 
d="M738 196l53 304h36l-88 -500h-36l16 93c-45 -69 -106 -104 -184 -104c-75 0 -130 40 -141 115c-45 -77 -118 -115 -193 -115c-50 0 -89 16 -118 49c-28 33 -37 80 -26 140l56 322h36l-57 -322c-16 -100 30 -155 115 -155c96 0 173 69 196 196l49 281h36l-57 -322
c-16 -100 27 -155 111 -155c91 0 168 61 196 173z" />
    <glyph glyph-name="uni0449.loclBGR" horiz-adv-x="891" 
d="M827 500l-74 -420c-5 -29 9 -47 37 -47h26l-29 -167h-36l25 134c-43 3 -67 35 -59 80l2 9c-46 -67 -107 -100 -184 -100c-75 0 -130 40 -141 115c-45 -77 -118 -115 -193 -115c-50 0 -89 16 -118 49c-28 33 -37 80 -26 140l56 322h36l-57 -322c-16 -100 30 -155 115 -155
c96 0 173 69 196 196l49 281h36l-57 -322c-16 -100 27 -155 111 -155c91 0 167 60 195 172l54 305h36z" />
    <glyph glyph-name="uni044C.loclBGR" horiz-adv-x="483" 
d="M118 326h153c55 0 98 -16 127 -49c30 -33 41 -74 32 -125c-17 -97 -98 -163 -210 -163c-60 0 -105 17 -135 50c-29 33 -40 75 -31 124l59 337h36zM394 158c15 80 -37 135 -129 135h-153l-23 -130c-15 -84 34 -140 134 -140c91 0 158 56 171 135z" />
    <glyph glyph-name="uni044A.loclBGR" horiz-adv-x="567" 
d="M202 326h153c55 0 98 -17 127 -50c30 -33 41 -74 32 -124c-17 -97 -98 -163 -210 -163c-60 0 -105 17 -135 50c-29 33 -40 75 -31 124l53 304h-153l6 33h189zM478 158c15 80 -37 135 -129 135h-153l-23 -130c-15 -84 34 -140 134 -140c91 0 158 56 171 135z" />
    <glyph glyph-name="uni044E.loclBGR" horiz-adv-x="807" 
d="M544 511c71 0 128 -25 171 -76s57 -114 44 -189c-13 -76 -49 -138 -108 -186c-59 -47 -124 -71 -196 -71c-68 0 -123 23 -166 69c-42 46 -60 104 -53 175h-120l-41 -233h-36l123 700h36l-76 -433h120c15 73 52 131 109 176c58 45 122 68 193 68zM724 251
c12 65 0 119 -37 162s-86 64 -148 64c-63 0 -120 -21 -171 -64s-83 -97 -95 -163s0 -121 37 -164s86 -64 148 -63c63 0 120 21 171 64s83 98 95 164z" />
    <glyph glyph-name="zero.sinf" horiz-adv-x="411" 
d="M133 -172c-51 0 -88 20 -113 60c-25 39 -31 91 -20 154c23 128 100 210 204 210c51 0 88 -20 113 -60c25 -39 31 -91 20 -154c-23 -128 -100 -210 -204 -210zM137 -140c83 0 146 68 166 180s-20 180 -103 180s-146 -68 -166 -180s19 -180 103 -180z" />
    <glyph glyph-name="one.sinf" horiz-adv-x="237" 
d="M6 191l138 49h24l-71 -400h-34l63 358l-115 -38z" />
    <glyph glyph-name="two.sinf" horiz-adv-x="344" 
d="M235 -160h-270l4 27l212 173c39 32 60 64 65 96c8 47 -23 84 -79 84c-48 0 -90 -28 -113 -71l-28 16c27 52 82 87 145 87c75 0 117 -51 108 -118c-5 -40 -31 -79 -77 -117l-178 -145h217z" />
    <glyph glyph-name="three.sinf" horiz-adv-x="341" 
d="M40 240h245l-5 -32l-123 -134c68 -9 104 -60 93 -124c-12 -72 -71 -122 -158 -122c-64 0 -104 26 -121 77l30 16c11 -41 43 -61 95 -61c67 0 112 39 121 94c8 53 -21 93 -88 93h-3l-12 25l124 136h-203z" />
    <glyph glyph-name="four.sinf" horiz-adv-x="357" 
d="M220 -44h59l-5 -31h-59l-15 -85h-34l15 85h-220l6 31l202 284h37l-201 -284h181l20 113h34z" />
    <glyph glyph-name="five.sinf" horiz-adv-x="323" 
d="M281 240l-5 -31h-189l-33 -128h79c79 0 127 -56 114 -131c-13 -73 -74 -122 -157 -122c-62 0 -102 25 -119 76l30 15c11 -39 42 -59 93 -59c63 0 109 37 120 94c9 57 -24 95 -87 95h-114l49 191h219z" />
    <glyph glyph-name="six.sinf" horiz-adv-x="337" 
d="M140 94c39 0 71 -13 94 -39s32 -58 25 -97c-13 -77 -83 -130 -164 -130c-39 0 -71 13 -94 40c-23 26 -32 58 -25 97c5 25 16 48 33 70l171 205h43l-128 -152c15 4 30 6 45 6zM10 -39c-11 -60 28 -101 89 -101c32 0 60 9 83 28c24 19 38 43 43 73s-1 54 -18 73
s-41 28 -72 28c-63 0 -116 -41 -125 -101z" />
    <glyph glyph-name="seven.sinf" horiz-adv-x="323" 
d="M16 208l5 32h266l-4 -27l-226 -373h-38l223 368h-226z" />
    <glyph glyph-name="eight.sinf" horiz-adv-x="349" 
d="M282 139c-7 -41 -33 -71 -80 -90c43 -20 66 -60 57 -109c-12 -69 -74 -112 -157 -112c-81 0 -134 48 -121 117c9 51 45 89 97 106c-39 20 -56 51 -49 93c12 68 73 108 145 108c69 0 120 -45 108 -113zM248 141c9 49 -25 80 -78 80c-55 0 -98 -31 -107 -80
c-8 -45 27 -76 79 -76s98 31 106 76zM226 -55c9 55 -28 88 -89 88c-64 0 -112 -33 -121 -88c-9 -52 26 -85 90 -85c63 0 111 33 120 85z" />
    <glyph glyph-name="nine.sinf" horiz-adv-x="337" 
d="M168 252c39 0 71 -13 94 -40c23 -26 32 -58 25 -97c-5 -29 -17 -54 -38 -75l-166 -200h-42l129 152c-15 -4 -30 -6 -47 -6c-39 0 -70 13 -94 39c-23 27 -32 59 -25 97c13 77 83 130 164 130zM253 119c11 60 -28 101 -89 101c-32 0 -60 -9 -84 -28
c-23 -19 -37 -43 -42 -73s1 -54 18 -73s41 -28 72 -28c63 0 116 41 125 101z" />
    <glyph glyph-name="zero.tf" 
d="M240 -11c-80 0 -137 33 -172 100s-42 155 -23 264c19 110 57 197 113 261c57 65 126 97 207 97c80 0 137 -33 172 -100s42 -155 23 -264c-19 -110 -57 -197 -113 -262c-56 -64 -125 -96 -207 -96zM524 350c35 204 -27 326 -164 326c-69 0 -128 -29 -178 -87
c-49 -58 -83 -138 -100 -239c-19 -101 -13 -181 16 -239s78 -87 147 -87c137 0 242 122 279 326z" />
    <glyph glyph-name="one.tf" 
d="M404 700l-117 -665h218l-6 -35h-500l7 35h245l110 624l-176 -54l-4 32l193 63h30z" />
    <glyph glyph-name="two.tf" 
d="M486 0h-475l6 33l325 249c103 77 164 143 176 215c19 108 -42 179 -158 179c-87 0 -161 -47 -208 -123l-30 18c52 87 144 140 244 140c65 0 115 -20 151 -59c37 -39 49 -91 38 -156c-13 -75 -76 -155 -188 -239l-294 -222h419z" />
    <glyph glyph-name="three.tf" 
d="M137 700h430l-5 -34l-232 -256c65 -5 115 -26 150 -65c35 -38 47 -87 36 -147c-11 -65 -43 -116 -94 -153s-114 -56 -189 -56c-111 0 -190 51 -213 135l33 17c17 -72 84 -117 184 -117c65 0 120 16 163 49c44 33 71 75 80 128c19 105 -49 177 -181 177h-10l-12 23
l240 265h-385z" />
    <glyph glyph-name="four.tf" 
d="M434 187h91l-5 -34h-92l-27 -153h-37l27 153h-381l5 34l361 513h42l-361 -513h340l39 220h37z" />
    <glyph glyph-name="five.tf" 
d="M577 700l-5 -34h-359l-62 -253h163c68 0 122 -20 161 -60s54 -92 43 -156s-42 -115 -93 -152s-112 -56 -184 -56c-109 0 -190 52 -211 137l33 17c16 -72 83 -119 182 -119c63 0 115 16 158 49s69 75 78 128c19 105 -48 177 -173 177h-201l79 322h391z" />
    <glyph glyph-name="six.tf" 
d="M315 450c73 0 129 -22 168 -66s53 -100 41 -169c-13 -68 -45 -123 -97 -164s-116 -62 -191 -62c-73 0 -129 22 -168 66s-52 100 -39 169c10 57 34 104 73 143l305 333h44l-243 -267c33 11 68 17 107 17zM487 220c20 115 -44 195 -176 195c-66 0 -121 -18 -165 -55
c-44 -36 -71 -83 -81 -140c-20 -116 45 -196 177 -196c66 0 121 18 164 54c44 37 71 84 81 142z" />
    <glyph glyph-name="seven.tf" 
d="M113 666l6 34h477l-6 -34l-421 -666h-40l421 666h-437z" />
    <glyph glyph-name="eight.tf" 
d="M555 524c-13 -77 -69 -135 -149 -163c84 -28 125 -95 110 -180c-21 -121 -125 -192 -276 -192c-73 0 -129 18 -168 53c-39 36 -53 84 -42 144c15 85 78 149 173 177c-68 29 -103 90 -90 166c10 56 38 100 84 133s102 49 168 49c64 0 114 -17 150 -52
c36 -34 49 -79 40 -135zM518 527c15 89 -43 149 -158 149s-195 -60 -210 -149c-16 -88 42 -150 157 -150s195 62 211 150zM479 183c16 97 -45 160 -178 160c-132 0 -218 -63 -234 -160c-17 -96 47 -159 178 -159c133 0 217 63 234 159z" />
    <glyph glyph-name="nine.tf" 
d="M369 711c73 0 128 -22 167 -66s53 -100 41 -168c-10 -57 -35 -106 -75 -146l-303 -331h-45l243 267c-33 -11 -68 -17 -107 -17c-73 0 -129 22 -168 66s-53 100 -41 168s44 123 96 164c53 42 117 63 192 63zM540 480c20 116 -44 196 -176 196c-133 0 -225 -80 -246 -196
c-20 -115 44 -195 176 -195c67 0 122 18 165 54c43 37 70 84 81 141z" />
    <glyph glyph-name="zero.dnom" horiz-adv-x="411" 
d="M161 -12c-51 0 -88 20 -113 59c-25 40 -31 92 -20 155c23 128 100 210 204 210c51 0 88 -20 113 -60c25 -39 31 -91 20 -154c-23 -128 -99 -210 -204 -210zM165 20c83 0 146 68 166 180s-20 180 -103 180s-146 -68 -166 -180s19 -180 103 -180z" />
    <glyph glyph-name="one.dnom" horiz-adv-x="246" 
d="M34 351l138 49h24l-71 -400h-34l63 358l-115 -38z" />
    <glyph glyph-name="two.dnom" horiz-adv-x="345" 
d="M264 0h-270l4 27l212 173c39 32 60 64 65 96c8 47 -23 84 -79 84c-48 0 -90 -28 -113 -71l-28 16c27 52 82 87 145 87c75 0 117 -51 108 -118c-5 -40 -31 -79 -77 -117l-178 -145h217z" />
    <glyph glyph-name="three.dnom" horiz-adv-x="347" 
d="M69 400h245l-5 -32l-123 -134c68 -9 104 -60 93 -124c-12 -72 -71 -122 -158 -122c-64 0 -104 26 -121 77l30 16c11 -41 43 -61 95 -61c67 0 112 39 121 94c8 53 -21 93 -88 93h-3l-12 25l124 136h-203z" />
    <glyph glyph-name="four.dnom" horiz-adv-x="357" 
d="M248 116h59l-5 -31h-59l-15 -85h-34l15 85h-220l6 31l202 284h37l-201 -284h181l20 113h34z" />
    <glyph glyph-name="five.dnom" horiz-adv-x="339" 
d="M310 400l-5 -31h-189l-33 -128h79c79 0 127 -56 114 -131c-13 -73 -74 -122 -157 -122c-62 0 -102 25 -119 76l30 15c11 -39 42 -59 93 -59c63 0 109 37 120 94c9 57 -24 95 -87 95h-114l49 191h219z" />
    <glyph glyph-name="six.dnom" horiz-adv-x="337" 
d="M168 254c39 0 71 -13 94 -39s32 -58 25 -97c-13 -77 -83 -130 -164 -130c-39 0 -71 13 -94 39c-23 27 -32 59 -25 98c5 25 16 48 33 70l171 205h43l-128 -152c15 4 30 6 45 6zM38 121c-11 -60 28 -101 89 -101c32 0 60 9 83 28c24 19 38 43 43 73s-1 54 -18 73
s-41 28 -72 28c-63 0 -116 -41 -125 -101z" />
    <glyph glyph-name="seven.dnom" horiz-adv-x="323" 
d="M44 368l5 32h266l-4 -27l-226 -373h-38l223 368h-226z" />
    <glyph glyph-name="eight.dnom" horiz-adv-x="349" 
d="M310 299c-7 -41 -33 -71 -80 -90c43 -20 66 -60 57 -109c-12 -69 -74 -112 -157 -112c-81 0 -134 48 -121 117c9 51 45 89 97 106c-39 20 -56 51 -49 93c12 68 73 108 145 108c69 0 120 -45 108 -113zM276 301c9 49 -25 80 -78 80c-55 0 -98 -31 -107 -80
c-8 -45 27 -76 79 -76s98 31 106 76zM254 105c9 55 -28 88 -89 88c-64 0 -112 -33 -121 -88c-9 -52 26 -85 90 -85c63 0 111 33 120 85z" />
    <glyph glyph-name="nine.dnom" horiz-adv-x="337" 
d="M196 412c39 0 71 -13 94 -40c23 -26 32 -58 25 -97c-5 -29 -17 -54 -38 -75l-166 -200h-42l129 152c-15 -4 -30 -6 -47 -6c-39 0 -70 13 -94 39c-23 27 -32 59 -25 97c13 77 83 130 164 130zM281 279c11 60 -28 101 -89 101c-32 0 -60 -9 -84 -28
c-23 -19 -37 -43 -42 -73s1 -54 18 -73s41 -28 72 -28c63 0 116 41 125 101z" />
    <glyph glyph-name="zero.numr" horiz-adv-x="411" 
d="M214 288c-51 0 -88 20 -113 59c-25 40 -31 92 -20 155c23 128 99 210 204 210c51 0 88 -20 113 -60c25 -39 31 -91 20 -154c-23 -128 -100 -210 -204 -210zM218 320c83 0 146 68 166 180s-20 180 -103 180s-146 -68 -166 -180s19 -180 103 -180z" />
    <glyph glyph-name="one.numr" horiz-adv-x="246" 
d="M87 651l138 49h24l-71 -400h-34l63 358l-115 -38z" />
    <glyph glyph-name="two.numr" horiz-adv-x="344" 
d="M316 300h-270l4 27l212 173c39 32 60 64 65 96c8 47 -23 84 -79 84c-48 0 -90 -28 -113 -71l-28 16c27 52 82 87 145 87c75 0 117 -51 108 -118c-5 -40 -31 -79 -77 -117l-178 -145h217z" />
    <glyph glyph-name="three.numr" horiz-adv-x="346" 
d="M122 700h245l-5 -32l-123 -134c68 -9 104 -60 93 -124c-12 -72 -71 -122 -158 -122c-64 0 -104 26 -121 77l30 16c11 -41 43 -61 95 -61c67 0 112 39 121 94c8 53 -21 93 -88 93h-3l-12 25l124 136h-203z" />
    <glyph glyph-name="four.numr" horiz-adv-x="357" 
d="M301 416h59l-5 -31h-59l-15 -85h-34l15 85h-220l6 31l202 284h37l-201 -284h181l20 113h34z" />
    <glyph glyph-name="five.numr" horiz-adv-x="339" 
d="M363 700l-5 -31h-189l-33 -128h79c79 0 127 -56 114 -131c-13 -73 -74 -122 -157 -122c-62 0 -102 25 -119 76l30 15c11 -39 42 -59 93 -59c63 0 109 37 120 94c9 57 -24 95 -87 95h-114l49 191h219z" />
    <glyph glyph-name="six.numr" horiz-adv-x="337" 
d="M221 554c39 0 71 -13 94 -39s32 -58 25 -97c-13 -77 -83 -130 -164 -130c-39 0 -71 13 -94 39c-23 27 -32 59 -25 98c5 25 16 48 33 70l171 205h43l-128 -152c15 4 30 6 45 6zM91 421c-11 -60 28 -101 89 -101c32 0 60 9 83 28c24 19 38 43 43 73s-1 54 -18 73
s-41 28 -72 28c-63 0 -116 -41 -125 -101z" />
    <glyph glyph-name="seven.numr" horiz-adv-x="323" 
d="M97 668l5 32h266l-4 -27l-226 -373h-38l223 368h-226z" />
    <glyph glyph-name="eight.numr" horiz-adv-x="349" 
d="M363 599c-7 -41 -33 -71 -80 -90c43 -20 66 -60 57 -109c-12 -69 -74 -112 -157 -112c-81 0 -134 48 -121 117c9 51 45 89 97 106c-39 20 -56 51 -49 93c12 68 73 108 145 108c69 0 120 -45 108 -113zM329 601c9 49 -25 80 -78 80c-55 0 -98 -31 -107 -80
c-8 -45 27 -76 79 -76s98 31 106 76zM307 405c9 55 -28 88 -89 88c-64 0 -112 -33 -121 -88c-9 -52 26 -85 90 -85c63 0 111 33 120 85z" />
    <glyph glyph-name="nine.numr" horiz-adv-x="337" 
d="M249 712c39 0 71 -13 94 -40c23 -26 32 -58 25 -97c-5 -29 -17 -54 -38 -75l-166 -200h-42l129 152c-15 -4 -30 -6 -47 -6c-39 0 -70 13 -94 39c-23 27 -32 59 -25 97c13 77 83 130 164 130zM334 579c11 60 -28 101 -89 101c-32 0 -60 -9 -84 -28
c-23 -19 -37 -43 -42 -73s1 -54 18 -73s41 -28 72 -28c63 0 116 41 125 101z" />
    <glyph glyph-name="zero.sups" horiz-adv-x="411" 
d="M242 448c-51 0 -88 20 -113 59c-25 40 -31 92 -20 155c23 128 99 210 204 210c51 0 88 -20 113 -60c25 -39 31 -91 20 -154c-23 -128 -100 -210 -204 -210zM246 480c83 0 146 68 166 180s-20 180 -103 180s-146 -68 -166 -180s19 -180 103 -180z" />
    <glyph glyph-name="one.sups" horiz-adv-x="246" 
d="M115 811l138 49h24l-71 -400h-34l63 358l-115 -38z" />
    <glyph glyph-name="two.sups" horiz-adv-x="345" 
d="M345 460h-270l4 27l212 173c39 32 60 64 65 96c8 47 -23 84 -79 84c-48 0 -90 -28 -113 -71l-28 16c27 52 82 87 145 87c75 0 117 -51 108 -118c-5 -40 -31 -79 -77 -117l-178 -145h217z" />
    <glyph glyph-name="three.sups" horiz-adv-x="346" 
d="M150 860h245l-5 -32l-123 -134c68 -9 104 -60 93 -124c-12 -72 -71 -122 -158 -122c-64 0 -104 26 -121 77l30 16c11 -41 43 -61 95 -61c67 0 112 39 121 94c8 53 -21 93 -88 93h-3l-12 25l124 136h-203z" />
    <glyph glyph-name="four.sups" horiz-adv-x="357" 
d="M329 576h59l-5 -31h-59l-15 -85h-34l15 85h-220l6 31l202 284h37l-201 -284h181l20 113h34z" />
    <glyph glyph-name="five.sups" horiz-adv-x="339" 
d="M391 860l-5 -31h-189l-33 -128h79c79 0 127 -56 114 -131c-13 -73 -74 -122 -157 -122c-62 0 -102 25 -119 76l30 15c11 -39 42 -59 93 -59c63 0 109 37 120 94c9 57 -24 95 -87 95h-114l49 191h219z" />
    <glyph glyph-name="six.sups" horiz-adv-x="337" 
d="M249 714c39 0 71 -13 94 -39s32 -58 25 -97c-13 -77 -83 -130 -164 -130c-39 0 -71 13 -94 39c-23 27 -32 59 -25 98c5 25 16 48 33 70l171 205h43l-128 -152c15 4 30 6 45 6zM119 581c-11 -60 28 -101 89 -101c32 0 60 9 83 28c24 19 38 43 43 73s-1 54 -18 73
s-41 28 -72 28c-63 0 -116 -41 -125 -101z" />
    <glyph glyph-name="seven.sups" horiz-adv-x="323" 
d="M126 828l5 32h266l-4 -27l-226 -373h-38l223 368h-226z" />
    <glyph glyph-name="eight.sups" horiz-adv-x="349" 
d="M391 759c-7 -41 -33 -71 -80 -90c43 -20 66 -60 57 -109c-12 -69 -74 -112 -157 -112c-81 0 -134 48 -121 117c9 51 45 89 97 106c-39 20 -56 51 -49 93c12 68 73 108 145 108c69 0 120 -45 108 -113zM357 761c9 49 -25 80 -78 80c-55 0 -98 -31 -107 -80
c-8 -45 27 -76 79 -76s98 31 106 76zM335 565c9 55 -28 88 -89 88c-64 0 -112 -33 -121 -88c-9 -52 26 -85 90 -85c63 0 111 33 120 85z" />
    <glyph glyph-name="nine.sups" horiz-adv-x="337" 
d="M277 872c39 0 71 -13 94 -40c23 -26 32 -58 25 -97c-5 -29 -17 -54 -38 -75l-166 -200h-42l129 152c-15 -4 -31 -6 -47 -6c-39 0 -70 13 -94 39c-23 27 -32 59 -25 97c13 77 83 130 164 130zM362 739c11 60 -28 101 -89 101c-32 0 -60 -9 -84 -28
c-23 -19 -37 -43 -42 -73s1 -54 18 -73s41 -28 72 -28c63 0 116 41 125 101z" />
    <glyph glyph-name="cent.tf" 
d="M571 486l-31 -16c-15 47 -48 79 -98 96l-218 -434c19 -6 40 -9 63 -9c87 0 166 42 210 109l28 -18c-51 -79 -140 -125 -243 -125c-26 0 -51 4 -75 11l-50 -100h-32l56 111c-88 40 -133 136 -114 245c13 73 49 134 106 182c58 49 124 73 199 73c21 0 40 -2 58 -6l48 95h32
l-52 -104c57 -21 94 -57 113 -110zM197 142l217 431c-13 3 -28 4 -46 4c-65 0 -122 -22 -173 -65s-82 -97 -93 -161c-16 -93 20 -174 95 -209z" />
    <glyph glyph-name="dollar.tf" 
d="M558 586l-31 -16c-22 65 -69 100 -140 105l-55 -308c56 -20 91 -37 130 -69s54 -78 43 -137c-19 -107 -110 -168 -239 -172l-16 -89h-33l16 89c-111 5 -185 57 -204 140l33 17c13 -75 77 -118 177 -122l56 319c-53 19 -88 36 -123 67c-35 32 -49 77 -38 134
c9 51 35 91 77 120c43 30 92 46 149 47l16 89h33l-16 -90c85 -9 144 -55 165 -124zM171 540c-16 -83 37 -125 130 -162l53 298c-96 -4 -170 -60 -183 -136zM469 165c8 45 -2 81 -33 106c-29 27 -61 43 -110 60l-54 -307c112 5 181 60 197 141z" />
    <glyph glyph-name="Euro.tf" 
d="M409 676c-109 0 -198 -88 -245 -243h265l-5 -32h-269c-5 -20 -8 -37 -11 -51l-7 -49h269l-5 -31h-266c-9 -155 50 -246 159 -246c77 0 149 47 192 130l29 -18c-48 -92 -133 -147 -226 -147c-129 0 -200 109 -191 281h-76l5 31h73c1 11 4 29 8 53c4 21 7 37 10 47h-73
l5 32h76c51 173 155 278 288 278c88 0 156 -55 175 -144l-32 -17c-15 80 -72 126 -148 126z" />
    <glyph glyph-name="florin.tf" 
d="M316 368l88 216c43 105 120 147 209 118l-6 -34c-72 28 -135 -7 -168 -87l-87 -213h156l-6 -34h-164l-172 -420c-43 -105 -120 -147 -209 -118l6 34c72 -28 135 7 168 87l171 417h-154l6 34h162z" />
    <glyph glyph-name="uni20BD.tf" 
d="M179 700h237c54 0 98 -21 131 -62c34 -41 46 -90 36 -146s-38 -103 -84 -142c-45 -38 -97 -57 -155 -57h-200l-19 -112h279l-5 -32h-280l-26 -149h-37l26 149h-90l6 32h90l19 112h-89l6 34h89zM547 497c9 47 -1 86 -28 119s-63 50 -109 50h-200l-60 -339h200
c47 0 89 17 127 50c39 33 62 73 70 120z" />
    <glyph glyph-name="sterling.tf" 
d="M405 676c-95 0 -163 -62 -179 -159l-33 -187h249l-5 -33h-250l-47 -262h389l-6 -35h-530l6 35h104l47 262h-85l6 33h85l33 187c21 121 104 194 219 194c84 0 146 -48 174 -128l-30 -16c-28 73 -77 109 -147 109z" />
    <glyph glyph-name="yen.tf" 
d="M587 700h43l-303 -360h183l-5 -31h-191l-17 -93h191l-5 -32h-191l-33 -184h-36l32 184h-189l6 32h189l16 93h-189l5 31h182l-177 360h39l166 -339z" />
    <glyph glyph-name="brevecy" horiz-adv-x="287" 
d="M327 594h-246l5 30h247z" />
    </font>
</defs>
</svg>
