<?xml version="1.0" standalone="no"?>
<!DOCTYPE svg PUBLIC "-//W3C//DTD SVG 1.1//EN" "http://www.w3.org/Graphics/SVG/1.1/DTD/svg11.dtd" >
<svg xmlns="http://www.w3.org/2000/svg" xmlns:xlink="http://www.w3.org/1999/xlink" version="1.1">
<metadata>
Created by FontForge 20170924 at Thu Jul 21 23:24:45 2016
 By www-data
Copyright \251 2016 by Radomir Tinkov. All rights reserved.
</metadata>
<defs>
<font id="Gilroy-Light" horiz-adv-x="564" >
  <font-face 
    font-family="Gilroy"
    font-weight="300"
    font-stretch="normal"
    units-per-em="1000"
    panose-1="0 0 4 0 0 0 0 0 0 0"
    ascent="776"
    descent="-224"
    x-height="500"
    cap-height="700"
    bbox="-295 -240 1021 960"
    underline-thickness="50"
    underline-position="-100"
    unicode-range="U+0020-FB02"
  />
<missing-glyph horiz-adv-x="500" 
d="M93 800h317v-1000h-317v1000zM333 700v33h-165v-33h65v-37h-66v-33h166v33h-66v37h66zM267 534v70h-100v-104h166v34h-66zM200 570h33v-36h-33v36zM333 440v33h-166v-33h66v-37h-66v-33h100v70h66zM333 313v100h-33v-66h-133v-34h166zM333 178v113h-100v-56h34v23h33v-47
h-100v80h-33v-113h166zM333 5v113h-166v-113h166zM200 85h100v-47h-100v47zM333 -51v33h-166v-33h70l-70 -47v-33h166v33h-102l70 47h32z" />
    <glyph glyph-name="fi" unicode="fi" horiz-adv-x="510" 
d="M164 500h270v-500h-51v451h-219v-451h-51v451h-86v49h86v27c0 123 67 184 200 184c30 0 62 -4 97 -11v-46c-33 6 -66 9 -97 9c-103 0 -149 -40 -149 -136v-27z" />
    <glyph glyph-name="fl" unicode="fl" horiz-adv-x="510" 
d="M313 711c37 0 77 -4 121 -11v-700h-51v661c-21 3 -44 4 -70 4c-103 0 -149 -42 -149 -138v-27h119v-49h-119v-451h-51v451h-86v49h86v27c0 123 67 184 200 184z" />
    <glyph glyph-name="f_f" unicode="ff" horiz-adv-x="583" 
d="M583 721v-48c-99 8 -149 -37 -149 -136v-37h149v-49h-149v-451h-51v451h-219v-451h-51v451h-86v49h86v27c0 125 71 193 200 184v-48c-99 8 -149 -37 -149 -136v-27h219v37c0 125 71 193 200 184z" />
    <glyph glyph-name="f_f_i" unicode="ffi" horiz-adv-x="780" 
d="M434 500h269v-500h-50v451h-219v-451h-51v451h-219v-451h-51v451h-86v49h86v27c0 125 71 193 200 184v-48c-99 8 -149 -37 -149 -136v-27h219v37c0 123 67 184 200 184c29 0 62 -4 97 -11v-46c-33 6 -66 9 -97 9c-104 0 -149 -40 -149 -136v-37z" />
    <glyph glyph-name="f_f_l" unicode="ffl" horiz-adv-x="780" 
d="M583 721c37 0 77 -4 120 -11v-710h-50v671c-21 3 -44 4 -70 4c-104 0 -149 -42 -149 -138v-37h119v-49h-119v-451h-51v451h-219v-451h-51v451h-86v49h86v27c0 125 71 193 200 184v-48c-99 8 -149 -37 -149 -136v-27h219v37c0 123 67 184 200 184z" />
    <glyph glyph-name=".notdef" horiz-adv-x="500" 
d="M93 800h317v-1000h-317v1000zM333 700v33h-165v-33h65v-37h-66v-33h166v33h-66v37h66zM267 534v70h-100v-104h166v34h-66zM200 570h33v-36h-33v36zM333 440v33h-166v-33h66v-37h-66v-33h100v70h66zM333 313v100h-33v-66h-133v-34h166zM333 178v113h-100v-56h34v23h33v-47
h-100v80h-33v-113h166zM333 5v113h-166v-113h166zM200 85h100v-47h-100v47zM333 -51v33h-166v-33h70l-70 -47v-33h166v33h-102l70 47h32z" />
    <glyph glyph-name="NULL" horiz-adv-x="0" 
 />
    <glyph glyph-name="CR" horiz-adv-x="333" 
 />
    <glyph glyph-name="space" unicode=" " horiz-adv-x="267" 
 />
    <glyph glyph-name="exclam" unicode="!" horiz-adv-x="220" 
d="M130 180h-40l-10 320v200h60v-200zM142 3c-17 -17 -47 -17 -64 0s-17 47 0 64s47 17 64 0s17 -47 0 -64z" />
    <glyph glyph-name="quotedbl" unicode="&#x22;" horiz-adv-x="293" 
d="M100 513h-40l-7 187h54zM233 513h-40l-6 187h53z" />
    <glyph glyph-name="numbersign" unicode="#" horiz-adv-x="603" 
d="M567 463l-8 -46h-119l-22 -134h120l-8 -46h-120l-31 -187h-50l31 187h-154l-31 -187h-50l31 187h-119l7 46h120l22 134h-120l7 46h121l31 187h50l-31 -187h154l31 187h50l-31 -187h119zM214 283h154l22 134h-154z" />
    <glyph glyph-name="dollar" unicode="$" horiz-adv-x="550" 
d="M507 179c0 -52 -18 -95 -54 -130c-35 -34 -82 -54 -140 -59v-90h-47v89c-111 5 -192 57 -223 142l46 26c24 -73 83 -112 177 -117v297c-63 21 -92 35 -132 64s-58 71 -58 128c0 51 18 93 54 126s81 52 136 55v90h47v-90c81 -9 146 -53 177 -126l-45 -25
c-23 58 -67 91 -132 99v-284c48 -17 75 -27 112 -50c53 -32 79 -72 82 -145zM129 529c0 -72 45 -105 137 -138v268c-81 -7 -137 -59 -137 -130zM313 321v-279c88 9 140 64 140 137s-47 109 -140 142z" />
    <glyph glyph-name="percent" unicode="%" horiz-adv-x="716" 
d="M216 413c-44 0 -81 14 -110 43s-43 64 -43 106s14 77 43 106s66 43 110 43s80 -14 109 -43s44 -64 44 -106s-14 -77 -43 -106s-65 -43 -110 -43zM142 488c19 -19 44 -29 74 -29s55 10 74 29c20 20 30 45 30 74s-10 54 -30 73c-19 20 -44 30 -74 30s-55 -10 -74 -30
c-19 -19 -29 -44 -29 -73s10 -54 29 -74zM134 71l-33 19l475 534l34 -19zM608 32c-29 -29 -65 -43 -109 -43s-81 14 -110 43s-43 64 -43 106s14 77 43 106s66 43 110 43s80 -14 109 -43s44 -64 44 -106s-15 -77 -44 -106zM425 64c19 -19 44 -29 74 -29s55 10 74 29
c20 20 30 45 30 74s-10 54 -30 73c-19 20 -44 30 -74 30s-55 -10 -74 -30c-19 -19 -29 -44 -29 -73s10 -54 29 -74z" />
    <glyph glyph-name="ampersand" unicode="&#x26;" horiz-adv-x="655" 
d="M532 120l96 -101l-47 -27l-81 85c-51 -59 -121 -88 -209 -88c-69 0 -125 18 -166 53c-41 36 -62 84 -62 144c0 88 50 165 139 204c-37 43 -56 89 -56 137c0 55 19 100 58 133c39 34 85 51 140 51c89 0 166 -49 195 -132l-44 -26c-21 65 -79 107 -150 107
c-84 0 -145 -55 -145 -131c0 -52 25 -89 76 -141l219 -229c21 39 35 86 42 139l47 -27c-9 -58 -27 -108 -52 -151zM289 40c73 0 131 25 175 75l-225 236c-83 -31 -122 -95 -122 -164c0 -92 67 -147 172 -147z" />
    <glyph glyph-name="quotesingle" unicode="'" horiz-adv-x="157" 
d="M100 513h-40l-7 187h54z" />
    <glyph glyph-name="parenleft" unicode="(" horiz-adv-x="261" 
d="M221 -100h-51c-147 293 -147 607 0 900h51c-147 -293 -147 -607 0 -900z" />
    <glyph glyph-name="parenright" unicode=")" horiz-adv-x="261" 
d="M91 -100h-51c147 293 147 607 0 900h51c147 -293 147 -607 0 -900z" />
    <glyph glyph-name="asterisk" unicode="*" horiz-adv-x="387" 
d="M228 609l95 2v-43l-95 2l53 -79l-39 -23l-49 84l-48 -84l-40 23l53 79l-95 -2v43l95 -2l-53 79l40 23l48 -83l49 83l39 -23z" />
    <glyph glyph-name="plus" unicode="+" horiz-adv-x="533" 
d="M291 374h179v-48h-179v-179h-49v179h-179v48h179v179h49v-179z" />
    <glyph glyph-name="comma" unicode="," horiz-adv-x="223" 
d="M100 68h62l-54 -208h-46z" />
    <glyph glyph-name="hyphen" unicode="-" horiz-adv-x="533" 
d="M447 285h-360v48h360v-48z" />
    <glyph glyph-name="period" unicode="." horiz-adv-x="213" 
d="M139 3c-17 -17 -47 -17 -64 0s-17 47 0 64s47 17 64 0s17 -47 0 -64z" />
    <glyph glyph-name="slash" unicode="/" horiz-adv-x="527" 
d="M483 800l-400 -900h-40l400 900h40z" />
    <glyph glyph-name="zero" unicode="0" horiz-adv-x="630" 
d="M508 87c-46 -65 -110 -98 -193 -98s-147 33 -193 98s-69 153 -69 263s23 198 69 263s110 98 193 98s147 -33 193 -98s69 -153 69 -263s-23 -198 -69 -263zM162 121c37 -54 88 -81 153 -81s116 27 153 81c37 55 55 131 55 229s-18 174 -55 228c-37 55 -88 82 -153 82
s-116 -27 -153 -82c-37 -54 -55 -130 -55 -228s18 -174 55 -229z" />
    <glyph glyph-name="one" unicode="1" horiz-adv-x="332" 
d="M17 637l183 63h45v-700h-53v642l-162 -51z" />
    <glyph glyph-name="two" unicode="2" horiz-adv-x="527" 
d="M483 0h-440v48l257 264c75 78 113 144 113 198c0 93 -66 150 -154 150c-78 0 -134 -35 -167 -106l-45 27c41 84 119 130 212 130c57 0 105 -18 146 -54s62 -85 62 -147c0 -80 -48 -152 -131 -236l-217 -223h364v-51z" />
    <glyph glyph-name="three" unicode="3" horiz-adv-x="539" 
d="M459 650l-169 -241c59 -6 107 -27 145 -63s57 -84 57 -144c0 -65 -22 -117 -67 -156c-45 -38 -99 -57 -164 -57c-104 0 -190 49 -223 133l44 26c25 -69 91 -108 179 -108c104 0 178 63 178 162c0 49 -17 89 -51 118c-33 29 -76 44 -129 44v1l-1 -1h-14l-23 35l177 251
h-342v50h403v-50z" />
    <glyph glyph-name="four" unicode="4" horiz-adv-x="573" 
d="M458 197h90v-50h-90v-147h-53v147h-377v50l266 503h58l-265 -503h318v220h53v-220z" />
    <glyph glyph-name="five" unicode="5" horiz-adv-x="541" 
d="M134 415h132c65 0 120 -19 165 -58c45 -38 68 -90 68 -155s-23 -117 -68 -156c-45 -38 -100 -57 -165 -57c-103 0 -190 52 -221 141l45 26c23 -75 89 -116 176 -116c53 0 96 15 129 44c34 29 51 69 51 118s-17 89 -51 118c-33 29 -76 44 -129 44h-187l24 336h370v-50
h-323z" />
    <glyph glyph-name="six" unicode="6" horiz-adv-x="537" 
d="M268 450c69 0 125 -22 169 -65s66 -98 66 -166c0 -67 -22 -123 -66 -166s-100 -64 -169 -64s-125 21 -169 64s-66 99 -66 166c0 53 14 99 43 140l235 341h60l-179 -261c25 7 51 11 76 11zM450 219c0 53 -17 97 -50 130s-77 50 -132 50s-99 -17 -132 -50s-49 -77 -49 -130
c0 -105 72 -179 181 -179s182 74 182 179z" />
    <glyph glyph-name="seven" unicode="7" horiz-adv-x="490" 
d="M23 650v50h424v-50l-272 -650h-55l272 650h-369z" />
    <glyph glyph-name="eight" unicode="8" horiz-adv-x="550" 
d="M382 362c77 -31 125 -95 125 -175c0 -62 -22 -111 -65 -146s-99 -52 -167 -52s-124 17 -167 52s-65 84 -65 146c0 80 48 144 125 175c-63 31 -102 88 -102 160c0 59 20 106 60 139c41 33 90 50 149 50s108 -17 148 -50c41 -33 61 -80 61 -139c0 -72 -39 -129 -102 -160z
M119 522c0 -84 65 -137 156 -137s156 53 156 137c0 87 -64 138 -156 138s-156 -51 -156 -138zM145 79c32 -26 75 -39 130 -39s98 13 130 39s48 62 48 108s-16 82 -48 107c-32 26 -75 39 -130 39s-98 -13 -130 -39c-32 -25 -48 -61 -48 -107s16 -82 48 -108z" />
    <glyph glyph-name="nine" unicode="9" horiz-adv-x="537" 
d="M503 481c0 -53 -14 -99 -43 -140l-234 -341h-60l179 261c-25 -7 -51 -11 -77 -11c-69 0 -125 21 -169 64s-66 99 -66 167c0 67 22 122 66 165s100 65 169 65s125 -22 169 -65s66 -98 66 -165zM87 481c0 -53 16 -97 49 -130s77 -50 132 -50s99 17 132 50s50 77 50 130
c0 105 -73 179 -182 179s-181 -74 -181 -179z" />
    <glyph glyph-name="colon" unicode=":" horiz-adv-x="213" 
d="M139 423c-17 -17 -47 -17 -64 0s-17 47 0 64s47 17 64 0s17 -47 0 -64zM139 3c-17 -17 -47 -17 -64 0s-17 47 0 64s47 17 64 0s17 -47 0 -64z" />
    <glyph glyph-name="semicolon" unicode=";" horiz-adv-x="230" 
d="M156 423c-17 -17 -47 -17 -64 0s-17 47 0 64s47 17 64 0s17 -47 0 -64zM100 68h62l-54 -208h-46z" />
    <glyph glyph-name="less" unicode="&#x3c;" horiz-adv-x="527" 
d="M64 376l400 178v-56l-343 -148l343 -148v-56l-400 178v52z" />
    <glyph glyph-name="equal" unicode="=" horiz-adv-x="537" 
d="M473 426h-410v48h410v-48zM473 226h-410v48h410v-48z" />
    <glyph glyph-name="greater" unicode="&#x3e;" horiz-adv-x="527" 
d="M63 498v56l400 -178v-52l-400 -178v56l343 148z" />
    <glyph glyph-name="question" unicode="?" horiz-adv-x="530" 
d="M273 180h-53c0 65 31 122 68 162c54 58 125 114 125 189c0 83 -59 129 -152 129c-80 0 -142 -38 -163 -106l-45 25c29 85 112 132 208 132c59 0 108 -16 147 -48c39 -31 59 -75 59 -132c0 -56 -30 -106 -69 -146c-54 -56 -125 -116 -125 -205zM279 3
c-17 -17 -47 -17 -64 0s-17 47 0 64s47 17 64 0s17 -47 0 -64z" />
    <glyph glyph-name="at" unicode="@" horiz-adv-x="807" 
d="M411 612c71 0 133 -17 188 -52c109 -68 162 -177 162 -290c0 -141 -64 -209 -140 -209c-56 0 -96 33 -105 92c-29 -42 -69 -63 -120 -63c-46 0 -85 15 -116 46s-46 69 -46 114s15 83 46 114s70 46 116 46c51 0 90 -20 118 -60v53h48v-223c0 -61 22 -91 66 -91
c63 0 106 61 106 181c0 90 -31 165 -93 226s-139 91 -230 91c-94 0 -174 -32 -240 -97c-65 -65 -98 -145 -98 -240c0 -97 34 -178 101 -242c67 -63 152 -95 255 -95c67 0 124 9 171 28l3 -26c-50 -18 -108 -27 -174 -27c-109 0 -200 34 -273 103c-73 68 -109 154 -109 259
c0 101 35 186 104 256c70 71 157 106 260 106zM315 168c23 -21 50 -32 83 -32s60 11 82 32c23 21 34 49 34 82s-11 61 -34 82c-22 21 -49 32 -82 32s-60 -11 -83 -32c-22 -21 -33 -49 -33 -82s11 -61 33 -82z" />
    <glyph glyph-name="A" unicode="A" horiz-adv-x="629" 
d="M614 0h-56l-68 178h-351l-68 -178h-56l272 700h56zM315 635l-156 -407h312z" />
    <glyph glyph-name="B" unicode="B" horiz-adv-x="623" 
d="M460 363c72 -28 120 -93 120 -172c0 -53 -19 -98 -56 -135s-82 -56 -135 -56h-302v700h279c51 0 94 -18 130 -54s54 -79 54 -130c0 -67 -35 -124 -90 -153zM366 650h-226v-268h226c36 0 67 13 92 39c26 27 39 58 39 95s-13 68 -39 94c-25 27 -56 40 -92 40zM140 50h249
c38 0 70 14 97 41c27 28 41 61 41 100s-14 72 -41 99c-27 28 -59 42 -97 42h-249v-282z" />
    <glyph glyph-name="C" unicode="C" horiz-adv-x="751" 
d="M411 -11c-105 0 -192 35 -261 104c-69 70 -103 156 -103 257s34 187 103 256c69 70 156 105 261 105c64 0 123 -15 176 -46c53 -30 95 -71 124 -122l-47 -27c-23 43 -58 78 -103 104c-45 27 -95 40 -150 40c-91 0 -165 -30 -224 -90c-58 -59 -87 -133 -87 -220
s29 -161 87 -221c59 -59 133 -89 224 -89c109 0 208 58 255 147l47 -27c-57 -104 -173 -171 -302 -171z" />
    <glyph glyph-name="D" unicode="D" horiz-adv-x="727" 
d="M87 700h263c95 0 174 -34 236 -102c63 -67 94 -150 94 -248s-31 -181 -94 -249c-62 -67 -141 -101 -236 -101h-263v700zM140 50h210c81 0 148 29 200 86c52 58 78 129 78 214s-26 156 -78 213c-52 58 -119 87 -200 87h-210v-600z" />
    <glyph glyph-name="E" unicode="E" horiz-adv-x="533" 
d="M140 328v-278h350v-50h-403v700h398v-50h-345v-272h320v-50h-320z" />
    <glyph glyph-name="F" unicode="F" horiz-adv-x="518" 
d="M475 700v-50h-335v-280h323v-50h-323v-320h-53v700h388z" />
    <glyph glyph-name="G" unicode="G" horiz-adv-x="799" 
d="M402 326h351v-27c0 -87 -31 -161 -93 -221c-62 -59 -144 -89 -245 -89c-107 0 -195 35 -264 104c-69 70 -104 156 -104 257s34 187 103 256c69 70 156 105 261 105c64 0 123 -15 176 -46c54 -31 96 -72 125 -123l-47 -28c-23 44 -58 79 -104 106c-45 27 -95 40 -150 40
c-91 0 -165 -30 -224 -90c-58 -59 -87 -133 -87 -220s29 -161 88 -221c59 -59 134 -89 227 -89c82 0 148 22 199 67s79 101 85 169h-297v50z" />
    <glyph glyph-name="H" unicode="H" horiz-adv-x="687" 
d="M547 385v315h53v-700h-53v335h-407v-335h-53v700h53v-315h407z" />
    <glyph glyph-name="I" unicode="I" horiz-adv-x="227" 
d="M87 0v700h53v-700h-53z" />
    <glyph glyph-name="J" unicode="J" horiz-adv-x="553" 
d="M252 -11c-97 0 -176 41 -209 117l45 27c25 -62 79 -93 164 -93c104 0 171 55 171 152v508h54v-508c0 -65 -21 -115 -64 -150c-42 -35 -96 -53 -161 -53z" />
    <glyph glyph-name="K" unicode="K" horiz-adv-x="572" 
d="M198 360l364 -360h-71l-351 345v-345h-53v700h53v-326l341 326h71z" />
    <glyph glyph-name="L" unicode="L" horiz-adv-x="493" 
d="M140 700v-650h330v-50h-383v700h53z" />
    <glyph glyph-name="M" unicode="M" horiz-adv-x="807" 
d="M653 700h67v-700h-53v622l-259 -430h-9l-259 430v-622h-53v700h66l250 -414z" />
    <glyph glyph-name="N" unicode="N" horiz-adv-x="687" 
d="M547 98v602h53v-700h-47l-413 602v-602h-53v700h46z" />
    <glyph glyph-name="O" unicode="O" horiz-adv-x="816" 
d="M664 94c-70 -70 -155 -105 -256 -105s-186 35 -256 105c-70 71 -105 156 -105 256s35 185 105 255c70 71 155 106 256 106s186 -35 256 -106c70 -70 105 -155 105 -255s-35 -185 -105 -256zM189 130c60 -60 133 -90 219 -90s159 30 218 90c60 61 90 134 90 220
s-30 159 -90 219c-59 61 -132 91 -218 91s-159 -30 -219 -91c-59 -60 -89 -133 -89 -219s30 -159 89 -220z" />
    <glyph glyph-name="P" unicode="P" horiz-adv-x="587" 
d="M87 700h238c63 0 115 -21 156 -62s62 -93 62 -155s-21 -114 -62 -155s-93 -61 -156 -61h-185v-267h-53v700zM140 317h185c48 0 87 16 118 47s47 71 47 119c0 49 -16 89 -47 120s-70 47 -118 47h-185v-333z" />
    <glyph glyph-name="Q" unicode="Q" horiz-adv-x="821" 
d="M769 350c0 -102 -37 -189 -110 -260l82 -81l-36 -33l-84 82c-63 -46 -134 -69 -213 -69c-100 0 -185 35 -256 105c-70 71 -105 156 -105 256s35 185 105 255c71 71 156 106 256 106s185 -35 255 -106c71 -70 106 -155 106 -255zM408 40c65 0 123 18 176 55l-155 153
l36 33l157 -155c63 61 94 136 94 224c0 86 -30 159 -90 219c-60 61 -133 91 -218 91s-158 -30 -218 -91c-60 -60 -90 -133 -90 -219s30 -159 90 -220c60 -60 133 -90 218 -90z" />
    <glyph glyph-name="R" unicode="R" horiz-adv-x="613" 
d="M590 0h-61l-168 287h-221v-287h-53v700h276c57 0 105 -20 146 -61s61 -89 61 -146c0 -47 -15 -89 -44 -126s-65 -61 -110 -73zM363 650h-223v-313h223c43 0 79 15 109 45c30 31 45 68 45 111s-15 80 -45 111s-66 46 -109 46z" />
    <glyph glyph-name="S" unicode="S" horiz-adv-x="574" 
d="M301 -11c-129 0 -224 64 -256 165l46 27c25 -87 98 -141 210 -141c113 0 176 57 176 140c0 39 -15 68 -44 89s-75 41 -137 61l-50 16l-44 17c-19 8 -34 15 -43 21c-19 12 -50 34 -62 54c-12 21 -23 50 -23 85c0 57 20 102 60 136c41 35 91 52 152 52
c109 0 189 -60 225 -147l-45 -25c-33 81 -93 121 -180 121c-96 0 -158 -56 -158 -135c0 -38 13 -66 40 -85s70 -38 131 -58c39 -13 69 -24 90 -33c22 -9 45 -21 70 -37c51 -31 72 -74 72 -131c0 -58 -21 -105 -63 -140s-98 -52 -167 -52z" />
    <glyph glyph-name="T" unicode="T" horiz-adv-x="540" 
d="M23 700h494v-50h-220v-650h-54v650h-220v50z" />
    <glyph glyph-name="U" unicode="U" horiz-adv-x="667" 
d="M77 234v466h53v-466c0 -117 74 -194 203 -194s204 77 204 194v466h53v-466c0 -74 -24 -133 -71 -178s-109 -67 -186 -67s-139 22 -186 67s-70 104 -70 178z" />
    <glyph glyph-name="V" unicode="V" horiz-adv-x="605" 
d="M330 0h-56l-261 700h58l231 -631l232 631h57z" />
    <glyph glyph-name="W" unicode="W" horiz-adv-x="993" 
d="M300 0h-64l-203 700h56l181 -629l195 629h63l196 -629l180 629h56l-203 -700h-64l-196 631z" />
    <glyph glyph-name="X" unicode="X" horiz-adv-x="573" 
d="M317 360l233 -360h-61l-202 312l-202 -312h-62l233 360l-220 340h61l190 -293l189 293h61z" />
    <glyph glyph-name="Y" unicode="Y" horiz-adv-x="583" 
d="M513 700h60l-255 -412v-288h-53v288l-255 412h60l222 -361z" />
    <glyph glyph-name="Z" unicode="Z" horiz-adv-x="523" 
d="M480 650l-378 -600h388v-50h-447v50l378 600h-368v50h427v-50z" />
    <glyph glyph-name="bracketleft" unicode="[" horiz-adv-x="277" 
d="M257 800v-49h-143v-802h143v-49h-194v900h194z" />
    <glyph glyph-name="backslash" unicode="\" horiz-adv-x="527" 
d="M483 -100h-40l-400 900h40z" />
    <glyph glyph-name="bracketright" unicode="]" horiz-adv-x="277" 
d="M20 800h194v-900h-194v49h143v802h-143v49z" />
    <glyph glyph-name="asciicircum" unicode="^" horiz-adv-x="502" 
d="M226 700h50l176 -300h-59l-142 243l-142 -243h-59z" />
    <glyph glyph-name="underscore" unicode="_" horiz-adv-x="507" 
d="M467 -133h-427v48h427v-48z" />
    <glyph glyph-name="grave" unicode="`" horiz-adv-x="180" 
d="M160 570h-48l-92 127h60z" />
    <glyph glyph-name="a" unicode="a" horiz-adv-x="645" 
d="M517 387v113h51v-500h-51v113c-43 -77 -120 -124 -215 -124c-71 0 -132 25 -183 75c-51 51 -76 113 -76 186s25 135 76 185c51 51 112 76 183 76c95 0 172 -47 215 -124zM155 99c41 -41 92 -62 151 -62s109 21 150 62s61 92 61 151s-20 110 -61 151s-91 62 -150 62
s-110 -21 -151 -62s-61 -92 -61 -151s20 -110 61 -151z" />
    <glyph glyph-name="b" unicode="b" horiz-adv-x="645" 
d="M342 511c72 0 133 -25 183 -76c51 -50 76 -112 76 -185s-25 -135 -76 -186c-50 -50 -111 -75 -183 -75c-95 0 -174 48 -215 127v-116h-50v700h50v-316c41 79 120 127 215 127zM188 99c41 -41 92 -62 151 -62s109 21 150 62s62 92 62 151s-21 110 -62 151s-91 62 -150 62
s-110 -21 -151 -62s-61 -92 -61 -151s20 -110 61 -151z" />
    <glyph glyph-name="c" unicode="c" horiz-adv-x="561" 
d="M306 -11c-75 0 -138 25 -188 75s-75 112 -75 186s25 136 75 186s113 75 188 75c97 0 182 -49 218 -128l-41 -24c-29 64 -97 104 -177 104c-60 0 -110 -21 -151 -62s-61 -91 -61 -151s20 -111 61 -152s91 -61 151 -61c80 0 147 40 180 104l42 -25
c-40 -77 -125 -127 -222 -127z" />
    <glyph glyph-name="d" unicode="d" horiz-adv-x="645" 
d="M518 384v316h50v-700h-50v116c-41 -79 -120 -127 -215 -127c-72 0 -133 25 -184 75c-50 51 -75 113 -75 186s25 135 75 185c51 51 112 76 184 76c95 0 174 -48 215 -127zM155 99c41 -41 92 -62 151 -62s109 21 150 62s62 92 62 151s-21 110 -62 151s-91 62 -150 62
s-110 -21 -151 -62s-61 -92 -61 -151s20 -110 61 -151z" />
    <glyph glyph-name="e" unicode="e" horiz-adv-x="589" 
d="M302 511c73 0 133 -26 178 -78c46 -52 69 -114 69 -185c0 -5 -1 -19 -1 -24h-453c6 -56 28 -101 67 -136c39 -34 88 -51 145 -51c80 0 142 36 173 91l44 -26c-41 -69 -121 -113 -218 -113c-77 0 -140 24 -189 73s-74 112 -74 188c0 75 24 137 72 186c49 50 111 75 187 75
zM302 463c-57 0 -104 -18 -142 -53s-60 -81 -65 -137h402c-5 59 -27 106 -64 139c-37 34 -80 51 -131 51z" />
    <glyph glyph-name="f" unicode="f" horiz-adv-x="313" 
d="M313 711v-48c-99 8 -149 -37 -149 -136v-27h149v-49h-149v-451h-51v451h-86v49h86v27c0 125 71 193 200 184z" />
    <glyph glyph-name="g" unicode="g" horiz-adv-x="648" 
d="M521 384v116h50v-476c0 -73 -24 -130 -71 -172s-107 -63 -178 -63c-115 0 -199 45 -236 120l44 25c32 -65 96 -97 192 -97c124 0 199 72 199 187v92c-41 -79 -120 -127 -215 -127c-72 0 -133 25 -184 75c-50 51 -75 113 -75 186s25 135 75 185c51 51 112 76 184 76
c95 0 174 -48 215 -127zM158 99c41 -41 92 -62 151 -62s109 21 150 62s62 92 62 151s-21 110 -62 151s-91 62 -150 62s-110 -21 -151 -62s-61 -92 -61 -151s20 -110 61 -151z" />
    <glyph glyph-name="h" unicode="h" 
d="M306 511c119 0 194 -79 194 -200v-311h-51v311c0 93 -54 152 -147 152c-103 0 -175 -70 -175 -199v-264h-50v700h50v-295c36 71 96 106 179 106z" />
    <glyph glyph-name="i" unicode="i" horiz-adv-x="204" 
d="M62 661c-2 50 82 50 80 0c2 -52 -82 -52 -80 0zM127 0h-50v500h50v-500z" />
    <glyph glyph-name="j" unicode="j" horiz-adv-x="223" 
d="M161 661c4 -52 -84 -52 -80 0c-2 50 82 50 80 0zM96 -57v557h50v-557c0 -107 -59 -163 -166 -154v48c77 -8 116 27 116 106z" />
    <glyph glyph-name="k" unicode="k" horiz-adv-x="483" 
d="M181 260l279 -260h-68l-265 246v-246h-50v700h50v-427l253 227h70z" />
    <glyph glyph-name="l" unicode="l" horiz-adv-x="204" 
d="M127 0h-50v730h50v-730z" />
    <glyph glyph-name="m" unicode="m" horiz-adv-x="857" 
d="M611 511c109 0 182 -71 182 -194v-317h-50v317c0 93 -53 146 -133 146c-89 0 -150 -61 -150 -184v-279h-50v317c0 93 -49 146 -128 146c-88 0 -155 -63 -155 -184v-279h-50v500h50v-86c35 65 88 97 161 97s131 -37 156 -102c35 68 98 102 167 102z" />
    <glyph glyph-name="n" unicode="n" 
d="M306 511c119 0 194 -79 194 -200v-311h-51v311c0 93 -54 152 -147 152c-103 0 -175 -70 -175 -199v-264h-50v500h50v-95c36 71 96 106 179 106z" />
    <glyph glyph-name="o" unicode="o" horiz-adv-x="611" 
d="M306 -11c-73 0 -136 25 -187 75c-51 51 -76 113 -76 186s25 135 76 185c51 51 114 76 187 76s134 -25 185 -76c51 -50 77 -112 77 -185s-26 -135 -77 -186c-51 -50 -112 -75 -185 -75zM155 99c41 -41 92 -62 151 -62s109 21 150 62s61 92 61 151s-20 110 -61 151
s-91 62 -150 62s-110 -21 -151 -62s-61 -92 -61 -151s20 -110 61 -151z" />
    <glyph glyph-name="p" unicode="p" horiz-adv-x="645" 
d="M342 511c72 0 133 -25 183 -76c51 -50 76 -112 76 -185s-25 -135 -76 -186c-50 -50 -111 -75 -183 -75c-95 0 -174 48 -215 127v-316h-50v700h50v-116c41 79 120 127 215 127zM188 99c41 -41 92 -62 151 -62s109 21 150 62s62 92 62 151s-21 110 -62 151s-91 62 -150 62
s-110 -21 -151 -62s-61 -92 -61 -151s20 -110 61 -151z" />
    <glyph glyph-name="q" unicode="q" horiz-adv-x="645" 
d="M518 384v116h50v-700h-50v316c-41 -79 -120 -127 -215 -127c-72 0 -133 25 -184 75c-50 51 -75 113 -75 186s25 135 75 185c51 51 112 76 184 76c95 0 174 -48 215 -127zM155 99c41 -41 92 -62 151 -62s109 21 150 62s62 92 62 151s-21 110 -62 151s-91 62 -150 62
s-110 -21 -151 -62s-61 -92 -61 -151s20 -110 61 -151z" />
    <glyph glyph-name="r" unicode="r" horiz-adv-x="318" 
d="M127 500v-98c30 70 86 105 167 105v-48c-95 0 -167 -61 -167 -181v-278h-50v500h50z" />
    <glyph glyph-name="s" unicode="s" horiz-adv-x="458" 
d="M111 369c0 -49 47 -75 107 -90c87 -19 196 -41 196 -148c0 -83 -72 -142 -179 -142c-96 0 -165 44 -190 111l43 25c19 -55 72 -88 147 -88s129 34 129 94c0 49 -47 78 -107 91c-87 21 -196 42 -196 147c0 40 16 74 47 101c32 27 73 41 123 41c80 0 142 -39 170 -100
l-42 -24c-20 49 -71 76 -128 76c-68 0 -120 -37 -120 -94z" />
    <glyph glyph-name="t" unicode="t" horiz-adv-x="376" 
d="M333 500v-49h-149v-325c0 -87 47 -91 149 -81v-45c-135 -20 -200 15 -200 126v325h-110v49h110v125l51 15v-140h149z" />
    <glyph glyph-name="u" unicode="u" 
d="M437 236v264h50v-500h-50v95c-36 -71 -96 -106 -179 -106c-119 0 -194 79 -194 200v311h51v-311c0 -93 54 -152 147 -152c103 0 175 70 175 199z" />
    <glyph glyph-name="v" unicode="v" horiz-adv-x="511" 
d="M255 52l189 448h53l-211 -500h-61l-212 500h54z" />
    <glyph glyph-name="w" unicode="w" horiz-adv-x="770" 
d="M551 65l133 435h53l-158 -500h-55l-139 426l-139 -426h-55l-158 500h53l133 -435l140 435h52z" />
    <glyph glyph-name="x" unicode="x" horiz-adv-x="507" 
d="M284 258l199 -258h-61l-169 218l-169 -218h-61l200 257l-188 243h61l157 -203l158 203h60z" />
    <glyph glyph-name="y" unicode="y" horiz-adv-x="510" 
d="M269 55l174 445h54l-216 -546c-39 -99 -114 -161 -198 -154v47c64 -5 117 40 149 117l11 27l-230 509h54z" />
    <glyph glyph-name="z" unicode="z" horiz-adv-x="477" 
d="M423 467l-299 -418h309v-49h-380v33l300 418h-290v49h360v-33z" />
    <glyph glyph-name="braceleft" unicode="{" horiz-adv-x="349" 
d="M329 -60v-48c-108 -11 -167 41 -167 148v187c0 77 -32 100 -109 100v48c77 0 109 23 109 100v187c0 107 59 159 167 148v-49c-80 9 -116 -19 -116 -99v-187c0 -69 -27 -111 -80 -124c53 -13 80 -55 80 -124v-187c0 -80 36 -108 116 -100z" />
    <glyph glyph-name="bar" unicode="|" horiz-adv-x="224" 
d="M137 -200h-50v920h50v-920z" />
    <glyph glyph-name="braceright" unicode="}" horiz-adv-x="349" 
d="M20 -108v48c80 -8 116 20 116 100v187c0 69 27 111 80 124c-53 13 -80 55 -80 124v187c0 80 -36 108 -116 99v49c108 11 167 -41 167 -148v-187c0 -77 32 -100 109 -100v-48c-77 0 -109 -23 -109 -100v-187c0 -107 -59 -159 -167 -148z" />
    <glyph glyph-name="asciitilde" unicode="~" horiz-adv-x="587" 
d="M477 411l46 -22c-25 -86 -100 -153 -241 -60c-92 61 -150 47 -173 -40l-46 22c25 86 103 152 242 60c93 -61 150 -47 172 40z" />
    <glyph glyph-name="exclamdown" unicode="&#xa1;" horiz-adv-x="220" 
d="M78 497c17 17 47 17 64 0s17 -47 0 -64s-47 -17 -64 0s-17 47 0 64zM80 0l10 320h40l10 -320v-200h-60v200z" />
    <glyph glyph-name="cent" unicode="&#xa2;" horiz-adv-x="561" 
d="M486 241l42 -25c-40 -77 -125 -127 -222 -127c-27 0 -51 3 -74 10l-32 -99h-40l36 111c-93 40 -153 131 -153 239c0 74 25 136 75 186s113 75 188 75c17 0 34 -2 53 -5l31 94h40l-34 -104c61 -21 103 -59 128 -113l-41 -24c-19 43 -53 73 -102 91l-133 -405
c19 -5 39 -8 58 -8c80 0 147 40 180 104zM94 350c0 -84 46 -157 118 -192l132 402c-12 2 -25 3 -38 3c-60 0 -110 -21 -151 -62s-61 -91 -61 -151z" />
    <glyph glyph-name="sterling" unicode="&#xa3;" horiz-adv-x="590" 
d="M196 293v-242h377v-51h-530v51h100v242h-80v47h80v170c0 63 20 112 59 147c39 36 87 54 142 54c91 0 153 -43 187 -130l-43 -25c-25 69 -73 104 -144 104c-85 0 -148 -55 -148 -150v-170h241v-47h-241z" />
    <glyph glyph-name="currency" unicode="&#xa4;" horiz-adv-x="553" 
d="M440 213l69 -70l-26 -26l-70 70c-39 -32 -85 -48 -137 -48c-51 0 -97 16 -136 48l-71 -70l-26 26l71 70c-33 39 -50 84 -50 137s17 98 50 137l-71 70l26 26l71 -70c39 32 85 48 136 48c52 0 98 -16 137 -48l70 70l26 -26l-69 -70c33 -40 49 -86 49 -137s-16 -97 -49 -137
zM161 465c-31 -31 -46 -70 -46 -115s15 -84 46 -116c31 -31 70 -47 115 -47s84 16 115 47c31 32 47 71 47 116s-16 84 -47 115c-31 32 -70 48 -115 48s-84 -16 -115 -48z" />
    <glyph glyph-name="yen" unicode="&#xa5;" horiz-adv-x="570" 
d="M513 700h60l-221 -356h145v-45h-172l-7 -11v-66h179v-44h-179v-178h-53v178h-191v44h191v66l-7 11h-184v45h157l-221 356h60l219 -356h5z" />
    <glyph glyph-name="brokenbar" unicode="&#xa6;" horiz-adv-x="224" 
d="M137 350h-50v370h50v-370zM137 -200h-50v370h50v-370z" />
    <glyph glyph-name="section" unicode="&#xa7;" horiz-adv-x="508" 
d="M399 137c31 -29 46 -63 46 -103c0 -42 -16 -77 -49 -104c-33 -28 -76 -42 -129 -42c-103 0 -170 43 -202 130l43 25c22 -71 75 -106 159 -106c75 0 127 37 127 97c0 33 -15 60 -55 84c-19 13 -36 22 -49 28c-13 7 -35 16 -64 29c-48 21 -75 34 -111 61
c-35 28 -52 63 -52 107c0 49 23 89 70 120c-29 29 -43 62 -43 101c0 41 16 76 47 104c32 29 73 43 123 43c85 0 149 -42 178 -117l-41 -23c-25 61 -70 92 -137 92s-119 -39 -119 -99c0 -37 25 -70 76 -98c13 -7 42 -20 87 -40c48 -21 74 -35 109 -63c35 -27 52 -62 52 -106
c0 -49 -22 -89 -66 -120zM114 343c0 -60 48 -93 132 -125c53 -20 91 -37 114 -51c36 23 54 53 54 90c0 60 -45 90 -132 126c-49 19 -86 36 -111 51c-38 -23 -57 -53 -57 -91z" />
    <glyph glyph-name="dieresis" unicode="&#xa8;" horiz-adv-x="293" 
d="M57 577c-21 0 -37 16 -37 36c0 21 16 37 37 37c20 0 36 -16 36 -37c0 -20 -16 -36 -36 -36zM237 577c-21 0 -37 16 -37 36c0 21 16 37 37 37c20 0 36 -16 36 -37c0 -20 -16 -36 -36 -36z" />
    <glyph glyph-name="copyright" unicode="&#xa9;" horiz-adv-x="817" 
d="M665 94c-71 -70 -156 -105 -256 -105s-185 35 -256 105c-71 71 -106 156 -106 256s35 185 106 255c71 71 156 106 256 106s185 -35 256 -106c71 -70 106 -155 106 -255s-35 -185 -106 -256zM171 111c66 -65 145 -98 238 -98s172 33 237 98c65 66 98 146 98 239
s-33 173 -98 238c-65 66 -144 99 -237 99s-172 -33 -238 -99c-65 -65 -98 -145 -98 -238s33 -173 98 -239zM412 158c-55 0 -102 18 -139 55s-55 83 -55 137s18 99 55 136s84 56 139 56c71 0 131 -36 163 -93l-42 -24c-21 44 -69 70 -121 70c-42 0 -77 -14 -104 -43
c-27 -28 -40 -62 -40 -102s13 -74 40 -103c27 -28 62 -42 104 -42c53 0 101 26 121 71l43 -25c-32 -57 -93 -93 -164 -93z" />
    <glyph glyph-name="guillemotleft" unicode="&#xab;" horiz-adv-x="469" 
d="M187 482h62l-107 -173l107 -173h-62l-107 173zM327 482h62l-106 -173l106 -173h-62l-106 173z" />
    <glyph glyph-name="logicalnot" unicode="&#xac;" horiz-adv-x="520" 
d="M63 333v49h394v-173h-51v124h-343z" />
    <glyph glyph-name="registered" unicode="&#xae;" horiz-adv-x="817" 
d="M153 605c71 71 156 106 256 106s185 -35 256 -106c71 -70 106 -155 106 -255s-35 -185 -106 -256c-71 -70 -156 -105 -256 -105s-185 35 -256 105c-71 71 -106 156 -106 256s35 185 106 255zM171 111c66 -65 145 -98 238 -98s172 33 237 98c65 66 98 146 98 239
s-33 173 -98 238c-65 66 -144 99 -237 99s-172 -33 -238 -99c-65 -65 -98 -145 -98 -238s33 -173 98 -239zM549 419c0 -55 -25 -90 -75 -106l84 -148h-53l-78 139h-14h-63v-139h-48v370h111c88 0 136 -52 136 -116zM350 489v-139h65c57 0 86 23 86 69c0 43 -30 70 -86 70
h-65z" />
    <glyph glyph-name="overscore" unicode="&#xaf;" horiz-adv-x="293" 
d="M273 587h-253v44h253v-44z" />
    <glyph glyph-name="degree" unicode="&#xb0;" horiz-adv-x="386" 
d="M193 517c-43 0 -78 14 -107 42c-29 29 -43 63 -43 104s14 75 43 104s64 43 107 43s78 -14 107 -43s43 -63 43 -104s-14 -76 -43 -104c-28 -28 -64 -42 -107 -42zM193 563c29 0 53 9 72 28s28 43 28 72s-10 53 -29 72s-42 29 -71 29c-57 0 -100 -44 -100 -101
c0 -56 43 -100 100 -100z" />
    <glyph glyph-name="plusminus" unicode="&#xb1;" horiz-adv-x="533" 
d="M291 607v-169h179v-49h-179v-169h-49v169h-179v49h179v169h49zM470 93h-407v49h407v-49z" />
    <glyph glyph-name="acute" unicode="&#xb4;" horiz-adv-x="180" 
d="M20 570l80 127h60l-91 -127h-49z" />
    <glyph glyph-name="uni00B5" unicode="&#xb5;" horiz-adv-x="607" 
d="M541 49h33v-49h-38c-53 0 -87 35 -87 90v3c-37 -69 -96 -104 -178 -104c-65 0 -113 22 -144 67v-256h-50v700h50v-311c0 -93 55 -152 148 -152c103 0 174 70 174 199v264h51v-410c0 -25 16 -41 41 -41z" />
    <glyph glyph-name="paragraph" unicode="&#xb6;" horiz-adv-x="570" 
d="M237 700h290v-47h-60v-853h-50v853h-131v-853h-49v513c-54 0 -100 19 -138 57c-37 38 -56 84 -56 137s19 99 56 136c38 38 84 57 138 57z" />
    <glyph glyph-name="middot" unicode="&#xb7;" horiz-adv-x="213" 
d="M139 313c-17 -17 -47 -17 -64 0s-17 47 0 64s47 17 64 0s17 -47 0 -64z" />
    <glyph glyph-name="cedilla" unicode="&#xb8;" horiz-adv-x="228" 
d="M120 0v-56c53 -7 91 -34 91 -75c0 -63 -65 -90 -195 -80v41c99 -9 151 6 151 39c0 29 -31 43 -92 43v88h45z" />
    <glyph glyph-name="guillemotright" unicode="&#xbb;" horiz-adv-x="469" 
d="M80 482h62l106 -173l-106 -173h-62l106 173zM220 482h62l107 -173l-107 -173h-62l107 173z" />
    <glyph glyph-name="onequarter" unicode="&#xbc;" horiz-adv-x="829" 
d="M174 700v-400h-48v346l-100 -33l-13 42l123 45h38zM133 0l406 700h47l-407 -700h-46zM751 125h54v-45h-54v-80h-48v80h-213v45l150 275h52l-150 -275h161v104h48v-104z" />
    <glyph glyph-name="onehalf" unicode="&#xbd;" horiz-adv-x="815" 
d="M174 700v-400h-48v346l-100 -33l-13 42l123 45h38zM133 0l406 700h47l-407 -700h-46zM715 171l-137 -125h204v-46h-275v39l175 163c29 26 44 56 44 90c0 43 -31 74 -83 74c-47 0 -78 -22 -95 -66l-40 22c21 56 70 90 135 90c79 0 131 -52 131 -120
c0 -44 -20 -84 -59 -121z" />
    <glyph glyph-name="threequarters" unicode="&#xbe;" horiz-adv-x="932" 
d="M308 415c0 -75 -55 -127 -142 -127c-67 0 -113 27 -138 81l40 23c17 -39 50 -58 98 -58c61 0 94 33 94 81s-35 82 -94 82h-4l-23 35l97 122h-196v46h252v-46l-96 -119c71 -9 112 -56 112 -120zM236 0l406 700h47l-407 -700h-46zM854 125h54v-45h-54v-80h-48v80h-213v45
l150 275h52l-150 -275h161v104h48v-104z" />
    <glyph glyph-name="questiondown" unicode="&#xbf;" horiz-adv-x="530" 
d="M251 497c17 17 47 17 64 0s17 -47 0 -64s-47 -17 -64 0s-17 47 0 64zM257 320h53c0 -65 -31 -122 -68 -162c-54 -58 -125 -114 -125 -189c0 -83 59 -129 152 -129c80 0 142 38 163 106l45 -25c-29 -85 -112 -132 -208 -132c-59 0 -108 16 -147 48c-39 31 -59 75 -59 132
c0 56 31 106 68 145c56 58 126 117 126 206z" />
    <glyph glyph-name="Agrave" unicode="&#xc0;" horiz-adv-x="629" 
d="M283 897l80 -127h-48l-92 127h60zM614 0h-56l-68 178h-351l-68 -178h-56l272 700h56zM315 635l-156 -407h312z" />
    <glyph glyph-name="Aacute" unicode="&#xc1;" horiz-adv-x="629" 
d="M353 897h60l-91 -127h-49zM614 0h-56l-68 178h-351l-68 -178h-56l272 700h56zM315 635l-156 -407h312z" />
    <glyph glyph-name="Acircumflex" unicode="&#xc2;" horiz-adv-x="629" 
d="M395 770l-80 95l-81 -95h-57l108 127h59l108 -127h-57zM614 0h-56l-68 178h-351l-68 -178h-56l272 700h56zM315 635l-156 -407h312z" />
    <glyph glyph-name="Atilde" unicode="&#xc3;" horiz-adv-x="629" 
d="M313 811c-56 51 -90 47 -90 -28h-44c0 113 68 134 138 74c60 -51 90 -42 90 28h44c0 -54 -14 -88 -43 -101s-60 -4 -95 27zM614 0h-56l-68 178h-351l-68 -178h-56l272 700h56zM315 635l-156 -407h312z" />
    <glyph glyph-name="Adieresis" unicode="&#xc4;" horiz-adv-x="629" 
d="M225 777c-21 0 -37 16 -37 36c0 21 16 37 37 37c20 0 36 -16 36 -37c0 -20 -16 -36 -36 -36zM405 777c-21 0 -37 16 -37 36c0 21 16 37 37 37c20 0 36 -16 36 -37c0 -20 -16 -36 -36 -36zM614 0h-56l-68 178h-351l-68 -178h-56l272 700h56zM315 635l-156 -407h312z" />
    <glyph glyph-name="Aring" unicode="&#xc5;" horiz-adv-x="629" 
d="M614 0h-56l-68 178h-351l-68 -178h-56l263 676c-41 13 -66 48 -66 91c0 56 42 97 102 97c61 0 103 -41 103 -97c0 -43 -25 -78 -65 -91zM314 710c80 -6 80 120 0 114c-36 0 -59 -24 -59 -57s23 -57 59 -57zM315 635l-156 -407h312z" />
    <glyph glyph-name="AE" unicode="&#xc6;" horiz-adv-x="873" 
d="M503 328v-278h326v-50h-380v183h-273l-112 -183h-61l429 700h392v-50h-321v-272h303v-50h-303zM449 631l-243 -398h243v398z" />
    <glyph glyph-name="Ccedilla" unicode="&#xc7;" horiz-adv-x="751" 
d="M666 187l47 -27c-55 -99 -159 -163 -280 -170v-46c53 -7 91 -34 91 -75c0 -63 -65 -90 -195 -80v41c99 -9 151 6 151 39c0 29 -31 43 -92 43v78c-99 5 -181 42 -245 111s-96 152 -96 249c0 101 34 187 103 256c69 70 156 105 261 105c64 0 123 -15 176 -46
c53 -30 95 -71 124 -122l-47 -27c-23 43 -58 78 -103 104c-45 27 -95 40 -150 40c-91 0 -165 -30 -224 -90c-58 -59 -87 -133 -87 -220s29 -161 87 -221c59 -59 133 -89 224 -89c109 0 208 58 255 147z" />
    <glyph glyph-name="Egrave" unicode="&#xc8;" horiz-adv-x="533" 
d="M254 897l80 -127h-48l-92 127h60zM140 328v-278h350v-50h-403v700h398v-50h-345v-272h320v-50h-320z" />
    <glyph glyph-name="Eacute" unicode="&#xc9;" horiz-adv-x="533" 
d="M324 897h60l-91 -127h-49zM140 328v-278h350v-50h-403v700h398v-50h-345v-272h320v-50h-320z" />
    <glyph glyph-name="Ecircumflex" unicode="&#xca;" horiz-adv-x="533" 
d="M366 770l-80 95l-81 -95h-57l108 127h59l108 -127h-57zM140 328v-278h350v-50h-403v700h398v-50h-345v-272h320v-50h-320z" />
    <glyph glyph-name="Edieresis" unicode="&#xcb;" horiz-adv-x="533" 
d="M196 777c-21 0 -37 16 -37 36c0 21 16 37 37 37c20 0 36 -16 36 -37c0 -20 -16 -36 -36 -36zM376 777c-21 0 -37 16 -37 36c0 21 16 37 37 37c20 0 36 -16 36 -37c0 -20 -16 -36 -36 -36zM140 328v-278h350v-50h-403v700h398v-50h-345v-272h320v-50h-320z" />
    <glyph glyph-name="Igrave" unicode="&#xcc;" horiz-adv-x="227" 
d="M161 770h-48l-92 127h60zM87 700v-700h53v700h-53z" />
    <glyph glyph-name="Iacute" unicode="&#xcd;" horiz-adv-x="227" 
d="M71 770l80 127h60l-91 -127h-49zM87 700v-700h53v700h-53z" />
    <glyph glyph-name="Icircumflex" unicode="&#xce;" horiz-adv-x="227" 
d="M83 897h59l108 -127h-57l-80 95l-81 -95h-57zM140 0h-53v700h53v-700z" />
    <glyph glyph-name="Idieresis" unicode="&#xcf;" horiz-adv-x="227" 
d="M23 777c-21 0 -37 16 -37 36c0 21 16 37 37 37c20 0 36 -16 36 -37c0 -20 -16 -36 -36 -36zM203 777c-21 0 -37 16 -37 36c0 21 16 37 37 37c20 0 36 -16 36 -37c0 -20 -16 -36 -36 -36zM87 0v700h53v-700h-53z" />
    <glyph glyph-name="Eth" unicode="&#xd0;" horiz-adv-x="747" 
d="M107 700h263c95 0 174 -34 236 -102c63 -67 94 -150 94 -248s-31 -181 -94 -249c-62 -67 -141 -101 -236 -101h-263v326h-67v48h67v326zM160 50h210c81 0 148 29 200 86c52 58 78 129 78 214s-26 156 -78 213c-52 58 -119 87 -200 87h-210v-276h240v-48h-240v-276z" />
    <glyph glyph-name="Ntilde" unicode="&#xd1;" horiz-adv-x="687" 
d="M248 783h-44c0 113 68 134 138 74c60 -51 90 -42 90 28h44c0 -54 -14 -88 -43 -101s-60 -4 -95 27c-56 51 -90 47 -90 -28zM547 98v602h53v-700h-47l-413 602v-602h-53v700h46z" />
    <glyph glyph-name="Ograve" unicode="&#xd2;" horiz-adv-x="816" 
d="M456 770h-48l-92 127h60zM664 94c70 71 105 156 105 256s-35 185 -105 255c-70 71 -155 106 -256 106s-186 -35 -256 -106c-70 -70 -105 -155 -105 -255s35 -185 105 -256c70 -70 155 -105 256 -105s186 35 256 105zM189 130c-59 61 -89 134 -89 220s30 159 89 219
c60 61 133 91 219 91s159 -30 218 -91c60 -60 90 -133 90 -219s-30 -159 -90 -220c-59 -60 -132 -90 -218 -90s-159 30 -219 90z" />
    <glyph glyph-name="Oacute" unicode="&#xd3;" horiz-adv-x="816" 
d="M366 770l80 127h60l-91 -127h-49zM664 94c70 71 105 156 105 256s-35 185 -105 255c-70 71 -155 106 -256 106s-186 -35 -256 -106c-70 -70 -105 -155 -105 -255s35 -185 105 -256c70 -70 155 -105 256 -105s186 35 256 105zM189 130c-59 61 -89 134 -89 220
s30 159 89 219c60 61 133 91 219 91s159 -30 218 -91c60 -60 90 -133 90 -219s-30 -159 -90 -220c-59 -60 -132 -90 -218 -90s-159 30 -219 90z" />
    <glyph glyph-name="Ocircumflex" unicode="&#xd4;" horiz-adv-x="816" 
d="M488 770l-80 95l-81 -95h-57l108 127h59l108 -127h-57zM152 605c70 71 155 106 256 106s186 -35 256 -106c70 -70 105 -155 105 -255s-35 -185 -105 -256c-70 -70 -155 -105 -256 -105s-186 35 -256 105c-70 71 -105 156 -105 256s35 185 105 255zM189 130
c60 -60 133 -90 219 -90s159 30 218 90c60 61 90 134 90 220s-30 159 -90 219c-59 61 -132 91 -218 91s-159 -30 -219 -91c-59 -60 -89 -133 -89 -219s30 -159 89 -220z" />
    <glyph glyph-name="Otilde" unicode="&#xd5;" horiz-adv-x="816" 
d="M316 783h-44c0 113 68 134 138 74c60 -51 90 -42 90 28h44c0 -54 -14 -88 -43 -101s-60 -4 -95 27c-56 51 -90 47 -90 -28zM664 94c-70 -70 -155 -105 -256 -105s-186 35 -256 105c-70 71 -105 156 -105 256s35 185 105 255c70 71 155 106 256 106s186 -35 256 -106
c70 -70 105 -155 105 -255s-35 -185 -105 -256zM189 130c60 -60 133 -90 219 -90s159 30 218 90c60 61 90 134 90 220s-30 159 -90 219c-59 61 -132 91 -218 91s-159 -30 -219 -91c-59 -60 -89 -133 -89 -219s30 -159 89 -220z" />
    <glyph glyph-name="Odieresis" unicode="&#xd6;" horiz-adv-x="816" 
d="M318 777c-21 0 -37 16 -37 36c0 21 16 37 37 37c20 0 36 -16 36 -37c0 -20 -16 -36 -36 -36zM498 777c-21 0 -37 16 -37 36c0 21 16 37 37 37c20 0 36 -16 36 -37c0 -20 -16 -36 -36 -36zM664 94c-70 -70 -155 -105 -256 -105s-186 35 -256 105c-70 71 -105 156 -105 256
s35 185 105 255c70 71 155 106 256 106s186 -35 256 -106c70 -70 105 -155 105 -255s-35 -185 -105 -256zM189 130c60 -60 133 -90 219 -90s159 30 218 90c60 61 90 134 90 220s-30 159 -90 219c-59 61 -132 91 -218 91s-159 -30 -219 -91c-59 -60 -89 -133 -89 -219
s30 -159 89 -220z" />
    <glyph glyph-name="multiply" unicode="&#xd7;" horiz-adv-x="469" 
d="M377 526l35 -32l-144 -144l144 -144l-35 -32l-143 143l-143 -143l-34 32l144 144l-144 144l34 32l143 -143z" />
    <glyph glyph-name="Oslash" unicode="&#xd8;" horiz-adv-x="826" 
d="M727 679l-58 -68c73 -71 110 -158 110 -261c0 -100 -35 -185 -105 -256c-70 -70 -155 -105 -256 -105c-83 0 -156 24 -219 73l-53 -62l-37 21l58 68c-73 71 -110 158 -110 261c0 100 35 185 105 255c70 71 155 106 256 106c82 0 155 -24 220 -73l53 62zM201 128l403 470
c-54 41 -116 62 -186 62c-86 0 -159 -30 -219 -91c-59 -60 -89 -133 -89 -219s30 -160 91 -222zM418 40c86 0 159 30 218 90c60 61 90 134 90 220c0 87 -30 160 -91 221l-402 -470c55 -41 116 -61 185 -61z" />
    <glyph glyph-name="Ugrave" unicode="&#xd9;" horiz-adv-x="667" 
d="M380 770h-48l-92 127h60zM77 234c0 -74 23 -133 70 -178s109 -67 186 -67s139 22 186 67s71 104 71 178v466h-53v-466c0 -117 -75 -194 -204 -194s-203 77 -203 194v466h-53v-466z" />
    <glyph glyph-name="Uacute" unicode="&#xda;" horiz-adv-x="667" 
d="M290 770l80 127h60l-91 -127h-49zM77 234c0 -74 23 -133 70 -178s109 -67 186 -67s139 22 186 67s71 104 71 178v466h-53v-466c0 -117 -75 -194 -204 -194s-203 77 -203 194v466h-53v-466z" />
    <glyph glyph-name="Ucircumflex" unicode="&#xdb;" horiz-adv-x="667" 
d="M412 770l-80 95l-81 -95h-57l108 127h59l108 -127h-57zM537 234v466h53v-466c0 -74 -24 -133 -71 -178s-109 -67 -186 -67s-139 22 -186 67s-70 104 -70 178v466h53v-466c0 -117 74 -194 203 -194s204 77 204 194z" />
    <glyph glyph-name="Udieresis" unicode="&#xdc;" horiz-adv-x="667" 
d="M242 777c-21 0 -37 16 -37 36c0 21 16 37 37 37c20 0 36 -16 36 -37c0 -20 -16 -36 -36 -36zM422 777c-21 0 -37 16 -37 36c0 21 16 37 37 37c20 0 36 -16 36 -37c0 -20 -16 -36 -36 -36zM77 234v466h53v-466c0 -117 74 -194 203 -194s204 77 204 194v466h53v-466
c0 -74 -24 -133 -71 -178s-109 -67 -186 -67s-139 22 -186 67s-70 104 -70 178z" />
    <glyph glyph-name="Yacute" unicode="&#xdd;" horiz-adv-x="583" 
d="M327 897h60l-91 -127h-49zM513 700h60l-255 -412v-288h-53v288l-255 412h60l222 -361z" />
    <glyph glyph-name="Thorn" unicode="&#xde;" horiz-adv-x="587" 
d="M140 567h185c63 0 115 -21 156 -62s62 -93 62 -155s-21 -114 -62 -155s-93 -62 -156 -62h-185v-133h-53v700h53v-133zM140 183h185c48 0 87 16 118 47c31 32 47 72 47 120c0 49 -16 89 -47 120s-70 47 -118 47h-185v-334z" />
    <glyph glyph-name="germandbls" unicode="&#xdf;" horiz-adv-x="516" 
d="M290 -4v46c95 -5 152 30 152 99c0 44 -37 97 -74 132c-36 36 -73 84 -73 121c0 62 91 97 91 164c0 63 -46 105 -118 105c-83 0 -141 -51 -141 -147v-516h-50v516c0 121 78 195 191 195c53 0 94 -15 124 -44s45 -66 45 -109c0 -47 -38 -89 -69 -122
c-31 -32 -28 -53 -8 -82c39 -54 133 -115 133 -213c0 -93 -76 -152 -203 -145z" />
    <glyph glyph-name="agrave" unicode="&#xe0;" horiz-adv-x="645" 
d="M275 697l80 -127h-48l-92 127h60zM517 387v113h51v-500h-51v113c-43 -77 -120 -124 -215 -124c-71 0 -132 25 -183 75c-51 51 -76 113 -76 186s25 135 76 185c51 51 112 76 183 76c95 0 172 -47 215 -124zM155 99c41 -41 92 -62 151 -62s109 21 150 62s61 92 61 151
s-20 110 -61 151s-91 62 -150 62s-110 -21 -151 -62s-61 -92 -61 -151s20 -110 61 -151z" />
    <glyph glyph-name="aacute" unicode="&#xe1;" horiz-adv-x="645" 
d="M345 697h60l-91 -127h-49zM517 387v113h51v-500h-51v113c-43 -77 -120 -124 -215 -124c-71 0 -132 25 -183 75c-51 51 -76 113 -76 186s25 135 76 185c51 51 112 76 183 76c95 0 172 -47 215 -124zM155 99c41 -41 92 -62 151 -62s109 21 150 62s61 92 61 151
s-20 110 -61 151s-91 62 -150 62s-110 -21 -151 -62s-61 -92 -61 -151s20 -110 61 -151z" />
    <glyph glyph-name="acircumflex" unicode="&#xe2;" horiz-adv-x="645" 
d="M387 570l-80 95l-81 -95h-57l108 127h59l108 -127h-57zM517 387v113h51v-500h-51v113c-43 -77 -120 -124 -215 -124c-71 0 -132 25 -183 75c-51 51 -76 113 -76 186s25 135 76 185c51 51 112 76 183 76c95 0 172 -47 215 -124zM155 99c41 -41 92 -62 151 -62
s109 21 150 62s61 92 61 151s-20 110 -61 151s-91 62 -150 62s-110 -21 -151 -62s-61 -92 -61 -151s20 -110 61 -151z" />
    <glyph glyph-name="atilde" unicode="&#xe3;" horiz-adv-x="645" 
d="M305 611c-56 51 -90 47 -90 -28h-44c0 113 68 134 138 74c60 -51 90 -42 90 28h44c0 -54 -14 -88 -43 -101s-60 -4 -95 27zM517 387v113h51v-500h-51v113c-43 -77 -120 -124 -215 -124c-71 0 -132 25 -183 75c-51 51 -76 113 -76 186s25 135 76 185c51 51 112 76 183 76
c95 0 172 -47 215 -124zM155 99c41 -41 92 -62 151 -62s109 21 150 62s61 92 61 151s-20 110 -61 151s-91 62 -150 62s-110 -21 -151 -62s-61 -92 -61 -151s20 -110 61 -151z" />
    <glyph glyph-name="adieresis" unicode="&#xe4;" horiz-adv-x="645" 
d="M217 577c-21 0 -37 16 -37 36c0 21 16 37 37 37c20 0 36 -16 36 -37c0 -20 -16 -36 -36 -36zM397 577c-21 0 -37 16 -37 36c0 21 16 37 37 37c20 0 36 -16 36 -37c0 -20 -16 -36 -36 -36zM517 387v113h51v-500h-51v113c-43 -77 -120 -124 -215 -124
c-71 0 -132 25 -183 75c-51 51 -76 113 -76 186s25 135 76 185c51 51 112 76 183 76c95 0 172 -47 215 -124zM155 99c41 -41 92 -62 151 -62s109 21 150 62s61 92 61 151s-20 110 -61 151s-91 62 -150 62s-110 -21 -151 -62s-61 -92 -61 -151s20 -110 61 -151z" />
    <glyph glyph-name="aring" unicode="&#xe5;" horiz-adv-x="645" 
d="M307 553c-60 0 -102 41 -102 97s42 97 102 97c61 0 103 -41 103 -97s-42 -97 -103 -97zM307 707c-36 0 -59 -24 -59 -57s23 -57 59 -57c80 -6 80 120 0 114zM517 387v113h51v-500h-51v113c-43 -77 -120 -124 -215 -124c-71 0 -132 25 -183 75c-51 51 -76 113 -76 186
s25 135 76 185c51 51 112 76 183 76c95 0 172 -47 215 -124zM155 99c41 -41 92 -62 151 -62s109 21 150 62s61 92 61 151s-20 110 -61 151s-91 62 -150 62s-110 -21 -151 -62s-61 -92 -61 -151s20 -110 61 -151z" />
    <glyph glyph-name="ae" unicode="&#xe6;" horiz-adv-x="1061" 
d="M777 511c75 0 135 -26 178 -77c44 -51 66 -113 66 -186c0 -5 -1 -19 -1 -24h-451c5 -57 27 -102 65 -136s86 -51 143 -51c83 0 146 36 177 91l44 -26c-41 -69 -120 -113 -215 -113c-100 0 -176 46 -216 125v-114h-50v113c-43 -77 -120 -124 -215 -124
c-71 0 -132 25 -183 75c-51 51 -76 113 -76 186s25 135 76 185c51 51 112 76 183 76c95 0 172 -47 215 -124v113h50v-116c39 79 113 127 210 127zM155 99c41 -41 92 -62 151 -62s109 21 150 62s61 92 61 151s-20 110 -61 151s-91 62 -150 62s-110 -21 -151 -62
s-61 -92 -61 -151s20 -110 61 -151zM775 463c-58 0 -106 -18 -143 -53s-58 -81 -63 -137h401c-5 59 -26 106 -63 139c-36 34 -80 51 -132 51z" />
    <glyph glyph-name="ccedilla" unicode="&#xe7;" horiz-adv-x="561" 
d="M486 141l42 -25c-37 -71 -112 -119 -200 -126v-46c53 -7 91 -34 91 -75c0 -63 -65 -90 -195 -80v41c99 -9 151 6 151 39c0 29 -31 43 -92 43v78c-69 5 -127 32 -172 81s-68 109 -68 179c0 74 25 136 75 186s113 75 188 75c97 0 182 -49 218 -128l-41 -24
c-29 64 -97 104 -177 104c-60 0 -110 -21 -151 -62s-61 -91 -61 -151s20 -111 61 -152s91 -61 151 -61c80 0 147 40 180 104z" />
    <glyph glyph-name="egrave" unicode="&#xe8;" horiz-adv-x="589" 
d="M264 697l80 -127h-48l-92 127h60zM302 511c73 0 133 -26 178 -78c46 -52 69 -114 69 -185c0 -5 -1 -19 -1 -24h-453c6 -56 28 -101 67 -136c39 -34 88 -51 145 -51c80 0 142 36 173 91l44 -26c-41 -69 -121 -113 -218 -113c-77 0 -140 24 -189 73s-74 112 -74 188
c0 75 24 137 72 186c49 50 111 75 187 75zM302 463c-57 0 -104 -18 -142 -53s-60 -81 -65 -137h402c-5 59 -27 106 -64 139c-37 34 -80 51 -131 51z" />
    <glyph glyph-name="eacute" unicode="&#xe9;" horiz-adv-x="589" 
d="M334 697h60l-91 -127h-49zM302 511c73 0 133 -26 178 -78c46 -52 69 -114 69 -185c0 -5 -1 -19 -1 -24h-453c6 -56 28 -101 67 -136c39 -34 88 -51 145 -51c80 0 142 36 173 91l44 -26c-41 -69 -121 -113 -218 -113c-77 0 -140 24 -189 73s-74 112 -74 188
c0 75 24 137 72 186c49 50 111 75 187 75zM302 463c-57 0 -104 -18 -142 -53s-60 -81 -65 -137h402c-5 59 -27 106 -64 139c-37 34 -80 51 -131 51z" />
    <glyph glyph-name="ecircumflex" unicode="&#xea;" horiz-adv-x="589" 
d="M376 570l-80 95l-81 -95h-57l108 127h59l108 -127h-57zM302 511c73 0 133 -26 178 -78c46 -52 69 -114 69 -185c0 -5 -1 -19 -1 -24h-453c6 -56 28 -101 67 -136c39 -34 88 -51 145 -51c80 0 142 36 173 91l44 -26c-41 -69 -121 -113 -218 -113c-77 0 -140 24 -189 73
s-74 112 -74 188c0 75 24 137 72 186c49 50 111 75 187 75zM302 463c-57 0 -104 -18 -142 -53s-60 -81 -65 -137h402c-5 59 -27 106 -64 139c-37 34 -80 51 -131 51z" />
    <glyph glyph-name="edieresis" unicode="&#xeb;" horiz-adv-x="589" 
d="M206 577c-21 0 -37 16 -37 36c0 21 16 37 37 37c20 0 36 -16 36 -37c0 -20 -16 -36 -36 -36zM386 577c-21 0 -37 16 -37 36c0 21 16 37 37 37c20 0 36 -16 36 -37c0 -20 -16 -36 -36 -36zM302 511c73 0 133 -26 178 -78c46 -52 69 -114 69 -185c0 -5 -1 -19 -1 -24h-453
c6 -56 28 -101 67 -136c39 -34 88 -51 145 -51c80 0 142 36 173 91l44 -26c-41 -69 -121 -113 -218 -113c-77 0 -140 24 -189 73s-74 112 -74 188c0 75 24 137 72 186c49 50 111 75 187 75zM302 463c-57 0 -104 -18 -142 -53s-60 -81 -65 -137h402c-5 59 -27 106 -64 139
c-37 34 -80 51 -131 51z" />
    <glyph glyph-name="igrave" unicode="&#xec;" horiz-adv-x="204" 
d="M128 570h-49l-66 127h60zM127 0v500h-50v-500h50z" />
    <glyph glyph-name="iacute" unicode="&#xed;" horiz-adv-x="204" 
d="M75 570l55 127h61l-67 -127h-49zM77 0h50v500h-50v-500z" />
    <glyph glyph-name="icircumflex" unicode="&#xee;" horiz-adv-x="204" 
d="M72 697h60l84 -127h-57l-57 86l-57 -86h-57zM127 0h-50v500h50v-500z" />
    <glyph glyph-name="idieresis" unicode="&#xef;" horiz-adv-x="204" 
d="M35 577c-20 0 -36 16 -36 36c0 21 16 37 36 37c21 0 37 -16 37 -37c0 -20 -16 -36 -37 -36zM169 577c-21 0 -37 16 -37 36c0 21 16 37 37 37c20 0 36 -16 36 -37c0 -20 -16 -36 -36 -36zM127 0h-50v500h50v-500z" />
    <glyph glyph-name="eth" unicode="&#xf0;" horiz-adv-x="587" 
d="M323 605l175 -235c31 -41 46 -88 46 -140c0 -71 -25 -129 -74 -174s-107 -67 -176 -67s-128 22 -177 67s-74 103 -74 174c0 69 24 125 72 169c49 44 106 66 171 66c37 0 70 -7 99 -22l-103 137l-119 -73v46l96 59l-66 88h59l47 -63l111 68v-46zM493 230
c0 45 -11 83 -33 112c-38 50 -93 75 -166 75c-57 0 -105 -18 -143 -53s-57 -79 -57 -134c0 -57 19 -103 58 -139s86 -54 142 -54s103 18 141 54c39 36 58 82 58 139z" />
    <glyph glyph-name="ntilde" unicode="&#xf1;" 
d="M290 611c-56 51 -90 47 -90 -28h-44c0 113 68 134 138 74c60 -51 90 -42 90 28h44c0 -54 -14 -88 -43 -101s-60 -4 -95 27zM306 511c119 0 194 -79 194 -200v-311h-51v311c0 93 -54 152 -147 152c-103 0 -175 -70 -175 -199v-264h-50v500h50v-95c36 71 96 106 179 106z
" />
    <glyph glyph-name="ograve" unicode="&#xf2;" horiz-adv-x="611" 
d="M351 570h-48l-92 127h60zM306 -11c73 0 134 25 185 75c51 51 77 113 77 186s-26 135 -77 185c-51 51 -112 76 -185 76s-136 -25 -187 -76c-51 -50 -76 -112 -76 -185s25 -135 76 -186c51 -50 114 -75 187 -75zM155 99c-41 41 -61 92 -61 151s20 110 61 151s92 62 151 62
s109 -21 150 -62s61 -92 61 -151s-20 -110 -61 -151s-91 -62 -150 -62s-110 21 -151 62z" />
    <glyph glyph-name="oacute" unicode="&#xf3;" horiz-adv-x="611" 
d="M261 570l80 127h60l-91 -127h-49zM306 -11c73 0 134 25 185 75c51 51 77 113 77 186s-26 135 -77 185c-51 51 -112 76 -185 76s-136 -25 -187 -76c-51 -50 -76 -112 -76 -185s25 -135 76 -186c51 -50 114 -75 187 -75zM155 99c-41 41 -61 92 -61 151s20 110 61 151
s92 62 151 62s109 -21 150 -62s61 -92 61 -151s-20 -110 -61 -151s-91 -62 -150 -62s-110 21 -151 62z" />
    <glyph glyph-name="ocircumflex" unicode="&#xf4;" horiz-adv-x="611" 
d="M383 570l-80 95l-81 -95h-57l108 127h59l108 -127h-57zM306 511c73 0 134 -25 185 -76c51 -50 77 -112 77 -185s-26 -135 -77 -186c-51 -50 -112 -75 -185 -75s-136 25 -187 75c-51 51 -76 113 -76 186s25 135 76 185c51 51 114 76 187 76zM155 99c41 -41 92 -62 151 -62
s109 21 150 62s61 92 61 151s-20 110 -61 151s-91 62 -150 62s-110 -21 -151 -62s-61 -92 -61 -151s20 -110 61 -151z" />
    <glyph glyph-name="otilde" unicode="&#xf5;" horiz-adv-x="611" 
d="M211 583h-44c0 113 68 134 138 74c60 -51 90 -42 90 28h44c0 -54 -14 -88 -43 -101s-60 -4 -95 27c-56 51 -90 47 -90 -28zM306 -11c-73 0 -136 25 -187 75c-51 51 -76 113 -76 186s25 135 76 185c51 51 114 76 187 76s134 -25 185 -76c51 -50 77 -112 77 -185
s-26 -135 -77 -186c-51 -50 -112 -75 -185 -75zM155 99c41 -41 92 -62 151 -62s109 21 150 62s61 92 61 151s-20 110 -61 151s-91 62 -150 62s-110 -21 -151 -62s-61 -92 -61 -151s20 -110 61 -151z" />
    <glyph glyph-name="odieresis" unicode="&#xf6;" horiz-adv-x="611" 
d="M213 577c-21 0 -37 16 -37 36c0 21 16 37 37 37c20 0 36 -16 36 -37c0 -20 -16 -36 -36 -36zM393 577c-21 0 -37 16 -37 36c0 21 16 37 37 37c20 0 36 -16 36 -37c0 -20 -16 -36 -36 -36zM306 -11c-73 0 -136 25 -187 75c-51 51 -76 113 -76 186s25 135 76 185
c51 51 114 76 187 76s134 -25 185 -76c51 -50 77 -112 77 -185s-26 -135 -77 -186c-51 -50 -112 -75 -185 -75zM155 99c41 -41 92 -62 151 -62s109 21 150 62s61 92 61 151s-20 110 -61 151s-91 62 -150 62s-110 -21 -151 -62s-61 -92 -61 -151s20 -110 61 -151z" />
    <glyph glyph-name="divide" unicode="&#xf7;" horiz-adv-x="580" 
d="M322 505c-17 -17 -47 -17 -64 0s-17 47 0 64s47 17 64 0s17 -47 0 -64zM517 326h-454v48h454v-48zM322 131c-17 -17 -47 -17 -64 0s-17 47 0 64s47 17 64 0s17 -47 0 -64z" />
    <glyph glyph-name="oslash" unicode="&#xf8;" horiz-adv-x="611" 
d="M542 485l-47 -52c49 -51 73 -112 73 -183c0 -73 -26 -135 -77 -186c-51 -50 -112 -75 -185 -75c-61 0 -116 18 -163 55l-42 -47l-31 18l47 52c-49 49 -74 110 -74 183s25 135 76 185c51 51 114 76 187 76c61 0 115 -18 162 -55l42 47zM94 250c0 -57 19 -105 56 -146
l285 316c-37 29 -80 43 -129 43c-59 0 -110 -21 -151 -62s-61 -92 -61 -151zM306 37c59 0 109 21 150 62s61 92 61 151c0 57 -19 105 -56 146l-285 -316c38 -29 81 -43 130 -43z" />
    <glyph glyph-name="ugrave" unicode="&#xf9;" 
d="M242 697l80 -127h-48l-92 127h60zM437 236v264h50v-500h-50v95c-36 -71 -96 -106 -179 -106c-119 0 -194 79 -194 200v311h51v-311c0 -93 54 -152 147 -152c103 0 175 70 175 199z" />
    <glyph glyph-name="uacute" unicode="&#xfa;" 
d="M312 697h60l-91 -127h-49zM437 236v264h50v-500h-50v95c-36 -71 -96 -106 -179 -106c-119 0 -194 79 -194 200v311h51v-311c0 -93 54 -152 147 -152c103 0 175 70 175 199z" />
    <glyph glyph-name="ucircumflex" unicode="&#xfb;" 
d="M354 570l-80 95l-81 -95h-57l108 127h59l108 -127h-57zM437 236v264h50v-500h-50v95c-36 -71 -96 -106 -179 -106c-119 0 -194 79 -194 200v311h51v-311c0 -93 54 -152 147 -152c103 0 175 70 175 199z" />
    <glyph glyph-name="udieresis" unicode="&#xfc;" 
d="M184 577c-21 0 -37 16 -37 36c0 21 16 37 37 37c20 0 36 -16 36 -37c0 -20 -16 -36 -36 -36zM364 577c-21 0 -37 16 -37 36c0 21 16 37 37 37c20 0 36 -16 36 -37c0 -20 -16 -36 -36 -36zM437 236v264h50v-500h-50v95c-36 -71 -96 -106 -179 -106
c-119 0 -194 79 -194 200v311h51v-311c0 -93 54 -152 147 -152c103 0 175 70 175 199z" />
    <glyph glyph-name="yacute" unicode="&#xfd;" horiz-adv-x="510" 
d="M296 697h60l-91 -127h-49zM269 55l174 445h54l-216 -546c-39 -99 -114 -161 -198 -154v47c64 -5 117 40 149 117l11 27l-230 509h54z" />
    <glyph glyph-name="thorn" unicode="&#xfe;" horiz-adv-x="645" 
d="M342 511c72 0 133 -25 183 -76c51 -50 76 -112 76 -185s-25 -135 -76 -186c-50 -50 -111 -75 -183 -75c-95 0 -174 48 -215 127v-316h-50v900h50v-316c41 79 120 127 215 127zM188 99c41 -41 92 -62 151 -62s109 21 150 62s62 92 62 151s-21 110 -62 151s-91 62 -150 62
s-110 -21 -151 -62s-61 -92 -61 -151s20 -110 61 -151z" />
    <glyph glyph-name="ydieresis" unicode="&#xff;" horiz-adv-x="510" 
d="M168 577c-21 0 -37 16 -37 36c0 21 16 37 37 37c20 0 36 -16 36 -37c0 -20 -16 -36 -36 -36zM348 577c-21 0 -37 16 -37 36c0 21 16 37 37 37c20 0 36 -16 36 -37c0 -20 -16 -36 -36 -36zM269 55l174 445h54l-216 -546c-39 -99 -114 -161 -198 -154v47
c64 -5 117 40 149 117l11 27l-230 509h54z" />
    <glyph glyph-name="Amacron" unicode="&#x100;" horiz-adv-x="629" 
d="M188 831h253v-44h-253v44zM614 0h-56l-68 178h-351l-68 -178h-56l272 700h56zM315 635l-156 -407h312z" />
    <glyph glyph-name="amacron" unicode="&#x101;" horiz-adv-x="645" 
d="M180 631h253v-44h-253v44zM517 387v113h51v-500h-51v113c-43 -77 -120 -124 -215 -124c-71 0 -132 25 -183 75c-51 51 -76 113 -76 186s25 135 76 185c51 51 112 76 183 76c95 0 172 -47 215 -124zM155 99c41 -41 92 -62 151 -62s109 21 150 62s61 92 61 151
s-20 110 -61 151s-91 62 -150 62s-110 -21 -151 -62s-61 -92 -61 -151s20 -110 61 -151z" />
    <glyph glyph-name="Abreve" unicode="&#x102;" horiz-adv-x="629" 
d="M182 887h48c0 -52 28 -78 85 -78s85 26 85 78h48c0 -76 -52 -122 -133 -122s-133 46 -133 122zM614 0h-56l-68 178h-351l-68 -178h-56l272 700h56zM315 635l-156 -407h312z" />
    <glyph glyph-name="abreve" unicode="&#x103;" horiz-adv-x="645" 
d="M174 687h48c0 -52 28 -78 85 -78s85 26 85 78h48c0 -76 -52 -122 -133 -122s-133 46 -133 122zM517 387v113h51v-500h-51v113c-43 -77 -120 -124 -215 -124c-71 0 -132 25 -183 75c-51 51 -76 113 -76 186s25 135 76 185c51 51 112 76 183 76c95 0 172 -47 215 -124z
M155 99c41 -41 92 -62 151 -62s109 21 150 62s61 92 61 151s-20 110 -61 151s-91 62 -150 62s-110 -21 -151 -62s-61 -92 -61 -151s20 -110 61 -151z" />
    <glyph glyph-name="Aogonek" unicode="&#x104;" horiz-adv-x="629" 
d="M531 -131c0 -25 13 -37 40 -37c15 0 30 3 43 9v-42c-14 -7 -32 -10 -54 -10c-49 0 -78 28 -78 72c0 43 26 90 77 139h-1l-68 178h-351l-68 -178h-56l272 700h56l271 -700c-55 -50 -83 -94 -83 -131zM315 635l-156 -407h312z" />
    <glyph glyph-name="aogonek" unicode="&#x105;" horiz-adv-x="645" 
d="M568 500v-500c-55 -50 -83 -94 -83 -131c0 -25 13 -37 40 -37c15 0 29 3 43 9v-42c-15 -7 -33 -10 -54 -10c-49 0 -78 28 -78 72c0 45 27 94 81 149v103c-43 -77 -120 -124 -215 -124c-71 0 -132 25 -183 75c-51 51 -76 113 -76 186s25 135 76 185c51 51 112 76 183 76
c95 0 172 -47 215 -124v113h51zM155 99c41 -41 92 -62 151 -62s109 21 150 62s61 92 61 151s-20 110 -61 151s-91 62 -150 62s-110 -21 -151 -62s-61 -92 -61 -151s20 -110 61 -151z" />
    <glyph glyph-name="Cacute" unicode="&#x106;" horiz-adv-x="751" 
d="M369 770l80 127h60l-91 -127h-49zM411 -11c129 0 245 67 302 171l-47 27c-47 -89 -146 -147 -255 -147c-91 0 -165 30 -224 89c-58 60 -87 134 -87 221s29 161 87 220c59 60 133 90 224 90c55 0 105 -13 150 -40c45 -26 80 -61 103 -104l47 27c-29 51 -71 92 -124 122
c-53 31 -112 46 -176 46c-105 0 -192 -35 -261 -105c-69 -69 -103 -155 -103 -256s34 -187 103 -257c69 -69 156 -104 261 -104z" />
    <glyph glyph-name="cacute" unicode="&#x107;" horiz-adv-x="561" 
d="M257 570l80 127h60l-91 -127h-49zM306 -11c97 0 182 50 222 127l-42 25c-33 -64 -100 -104 -180 -104c-60 0 -110 20 -151 61s-61 92 -61 152s20 110 61 151s91 62 151 62c80 0 148 -40 177 -104l41 24c-36 79 -121 128 -218 128c-75 0 -138 -25 -188 -75
s-75 -112 -75 -186s25 -136 75 -186s113 -75 188 -75z" />
    <glyph glyph-name="Cdotaccent" unicode="&#x10a;" horiz-adv-x="751" 
d="M411 773c-27 0 -47 20 -47 47s20 47 47 47c25 0 46 -20 46 -47s-21 -47 -46 -47zM411 -11c-105 0 -192 35 -261 104c-69 70 -103 156 -103 257s34 187 103 256c69 70 156 105 261 105c64 0 123 -15 176 -46c53 -30 95 -71 124 -122l-47 -27c-23 43 -58 78 -103 104
c-45 27 -95 40 -150 40c-91 0 -165 -30 -224 -90c-58 -59 -87 -133 -87 -220s29 -161 87 -221c59 -59 133 -89 224 -89c109 0 208 58 255 147l47 -27c-57 -104 -173 -171 -302 -171z" />
    <glyph glyph-name="cdotaccent" unicode="&#x10b;" horiz-adv-x="561" 
d="M299 573c-27 0 -47 20 -47 47s20 47 47 47c25 0 46 -20 46 -47s-21 -47 -46 -47zM306 -11c-75 0 -138 25 -188 75s-75 112 -75 186s25 136 75 186s113 75 188 75c97 0 182 -49 218 -128l-41 -24c-29 64 -97 104 -177 104c-60 0 -110 -21 -151 -62s-61 -91 -61 -151
s20 -111 61 -152s91 -61 151 -61c80 0 147 40 180 104l42 -25c-40 -77 -125 -127 -222 -127z" />
    <glyph glyph-name="Ccaron" unicode="&#x10c;" horiz-adv-x="751" 
d="M441 770h-60l-108 127h58l80 -95l80 95h58zM666 187l47 -27c-57 -104 -173 -171 -302 -171c-105 0 -192 35 -261 104c-69 70 -103 156 -103 257s34 187 103 256c69 70 156 105 261 105c64 0 123 -15 176 -46c53 -30 95 -71 124 -122l-47 -27c-23 43 -58 78 -103 104
c-45 27 -95 40 -150 40c-91 0 -165 -30 -224 -90c-58 -59 -87 -133 -87 -220s29 -161 87 -221c59 -59 133 -89 224 -89c109 0 208 58 255 147z" />
    <glyph glyph-name="ccaron" unicode="&#x10d;" horiz-adv-x="561" 
d="M329 570h-60l-108 127h58l80 -95l80 95h58zM486 141l42 -25c-40 -77 -125 -127 -222 -127c-75 0 -138 25 -188 75s-75 112 -75 186s25 136 75 186s113 75 188 75c97 0 182 -49 218 -128l-41 -24c-29 64 -97 104 -177 104c-60 0 -110 -21 -151 -62s-61 -91 -61 -151
s20 -111 61 -152s91 -61 151 -61c80 0 147 40 180 104z" />
    <glyph glyph-name="Dcaron" unicode="&#x10e;" horiz-adv-x="727" 
d="M380 770h-60l-108 127h58l80 -95l80 95h58zM87 700h263c95 0 174 -34 236 -102c63 -67 94 -150 94 -248s-31 -181 -94 -249c-62 -67 -141 -101 -236 -101h-263v700zM140 50h210c81 0 148 29 200 86c52 58 78 129 78 214s-26 156 -78 213c-52 58 -119 87 -200 87h-210
v-600z" />
    <glyph glyph-name="dcaron" unicode="&#x10f;" horiz-adv-x="697" 
d="M518 384v316h50v-700h-50v116c-41 -79 -120 -127 -215 -127c-72 0 -133 25 -184 75c-50 51 -75 113 -75 186s25 135 75 185c51 51 112 76 184 76c95 0 174 -48 215 -127zM643 530l10 170h50l-24 -170h-36zM155 99c41 -41 92 -62 151 -62s109 21 150 62s62 92 62 151
s-21 110 -62 151s-91 62 -150 62s-110 -21 -151 -62s-61 -92 -61 -151s20 -110 61 -151z" />
    <glyph glyph-name="Dcroat" unicode="&#x110;" horiz-adv-x="747" 
d="M107 700h263c95 0 174 -34 236 -102c63 -67 94 -150 94 -248s-31 -181 -94 -249c-62 -67 -141 -101 -236 -101h-263v326h-67v48h67v326zM160 50h210c81 0 148 29 200 86c52 58 78 129 78 214s-26 156 -78 213c-52 58 -119 87 -200 87h-210v-276h240v-48h-240v-276z" />
    <glyph glyph-name="dslash" unicode="&#x111;" horiz-adv-x="653" 
d="M568 624h68v-42h-68v-582h-51v114c-41 -77 -120 -125 -215 -125c-71 0 -132 25 -183 75c-51 51 -76 113 -76 186s25 135 76 185c51 51 112 76 183 76c95 0 174 -48 215 -125v196h-201v42h201v76h51v-76zM155 99c41 -41 92 -62 151 -62s109 21 150 62s61 92 61 151
s-20 110 -61 151s-91 62 -150 62s-110 -21 -151 -62s-61 -92 -61 -151s20 -110 61 -151z" />
    <glyph glyph-name="Emacron" unicode="&#x112;" horiz-adv-x="533" 
d="M159 831h253v-44h-253v44zM140 328v-278h350v-50h-403v700h398v-50h-345v-272h320v-50h-320z" />
    <glyph glyph-name="emacron" unicode="&#x113;" horiz-adv-x="589" 
d="M169 631h253v-44h-253v44zM302 511c73 0 133 -26 178 -78c46 -52 69 -114 69 -185c0 -5 -1 -19 -1 -24h-453c6 -56 28 -101 67 -136c39 -34 88 -51 145 -51c80 0 142 36 173 91l44 -26c-41 -69 -121 -113 -218 -113c-77 0 -140 24 -189 73s-74 112 -74 188
c0 75 24 137 72 186c49 50 111 75 187 75zM302 463c-57 0 -104 -18 -142 -53s-60 -81 -65 -137h402c-5 59 -27 106 -64 139c-37 34 -80 51 -131 51z" />
    <glyph glyph-name="Edotaccent" unicode="&#x116;" horiz-adv-x="533" 
d="M286 773c-27 0 -47 20 -47 47s20 47 47 47c25 0 46 -20 46 -47s-21 -47 -46 -47zM140 328v-278h350v-50h-403v700h398v-50h-345v-272h320v-50h-320z" />
    <glyph glyph-name="edotaccent" unicode="&#x117;" horiz-adv-x="589" 
d="M296 573c-27 0 -47 20 -47 47s20 47 47 47c25 0 46 -20 46 -47s-21 -47 -46 -47zM302 511c73 0 133 -26 178 -78c46 -52 69 -114 69 -185c0 -5 -1 -19 -1 -24h-453c6 -56 28 -101 67 -136c39 -34 88 -51 145 -51c80 0 142 36 173 91l44 -26c-41 -69 -121 -113 -218 -113
c-77 0 -140 24 -189 73s-74 112 -74 188c0 75 24 137 72 186c49 50 111 75 187 75zM302 463c-57 0 -104 -18 -142 -53s-60 -81 -65 -137h402c-5 59 -27 106 -64 139c-37 34 -80 51 -131 51z" />
    <glyph glyph-name="Eogonek" unicode="&#x118;" horiz-adv-x="534" 
d="M490 0h-1c-55 -50 -83 -94 -83 -131c0 -25 14 -37 41 -37c15 0 29 3 43 9v-42c-15 -7 -33 -10 -54 -10c-51 0 -79 28 -79 72c0 45 26 91 79 139h-349v700h398v-50h-345v-272h320v-50h-320v-278h350v-50z" />
    <glyph glyph-name="eogonek" unicode="&#x119;" horiz-adv-x="589" 
d="M302 511c73 0 133 -26 178 -78c46 -52 69 -114 69 -185c0 -5 -1 -19 -1 -24h-453c6 -56 28 -101 67 -136c39 -34 88 -51 145 -51c80 0 142 36 173 91l44 -26c-13 -20 -26 -36 -39 -47c-89 -100 -122 -149 -122 -186c0 -25 14 -37 41 -37c15 0 29 3 43 9v-42
c-15 -7 -34 -10 -55 -10c-49 0 -78 28 -78 72c0 41 25 88 75 140c-25 -8 -52 -12 -83 -12c-77 0 -140 24 -189 73s-74 112 -74 188c0 75 24 137 72 186c49 50 111 75 187 75zM302 463c-57 0 -104 -18 -142 -53s-60 -81 -65 -137h402c-5 59 -27 106 -64 139
c-37 34 -80 51 -131 51z" />
    <glyph glyph-name="Ecaron" unicode="&#x11a;" horiz-adv-x="533" 
d="M316 770h-60l-108 127h58l80 -95l80 95h58zM140 328v-278h350v-50h-403v700h398v-50h-345v-272h320v-50h-320z" />
    <glyph glyph-name="ecaron" unicode="&#x11b;" horiz-adv-x="589" 
d="M326 570h-60l-108 127h58l80 -95l80 95h58zM302 511c73 0 133 -26 178 -78c46 -52 69 -114 69 -185c0 -5 -1 -19 -1 -24h-453c6 -56 28 -101 67 -136c39 -34 88 -51 145 -51c80 0 142 36 173 91l44 -26c-41 -69 -121 -113 -218 -113c-77 0 -140 24 -189 73
s-74 112 -74 188c0 75 24 137 72 186c49 50 111 75 187 75zM302 463c-57 0 -104 -18 -142 -53s-60 -81 -65 -137h402c-5 59 -27 106 -64 139c-37 34 -80 51 -131 51z" />
    <glyph glyph-name="Gbreve" unicode="&#x11e;" horiz-adv-x="799" 
d="M268 887h48c0 -52 28 -78 85 -78s85 26 85 78h48c0 -76 -52 -122 -133 -122s-133 46 -133 122zM402 326h351v-27c0 -87 -31 -161 -93 -221c-62 -59 -144 -89 -245 -89c-107 0 -195 35 -264 104c-69 70 -104 156 -104 257s34 187 103 256c69 70 156 105 261 105
c64 0 123 -15 176 -46c54 -31 96 -72 125 -123l-47 -28c-23 44 -58 79 -104 106c-45 27 -95 40 -150 40c-91 0 -165 -30 -224 -90c-58 -59 -87 -133 -87 -220s29 -161 88 -221c59 -59 134 -89 227 -89c82 0 148 22 199 67s79 101 85 169h-297v50z" />
    <glyph glyph-name="gbreve" unicode="&#x11f;" horiz-adv-x="648" 
d="M182 687h48c0 -52 28 -78 85 -78s85 26 85 78h48c0 -76 -52 -122 -133 -122s-133 46 -133 122zM521 384v116h50v-476c0 -73 -24 -130 -71 -172s-107 -63 -178 -63c-115 0 -199 45 -236 120l44 25c32 -65 96 -97 192 -97c124 0 199 72 199 187v92
c-41 -79 -120 -127 -215 -127c-72 0 -133 25 -184 75c-50 51 -75 113 -75 186s25 135 75 185c51 51 112 76 184 76c95 0 174 -48 215 -127zM158 99c41 -41 92 -62 151 -62s109 21 150 62s62 92 62 151s-21 110 -62 151s-91 62 -150 62s-110 -21 -151 -62s-61 -92 -61 -151
s20 -110 61 -151z" />
    <glyph glyph-name="Gdotaccent" unicode="&#x120;" horiz-adv-x="799" 
d="M401 773c-27 0 -47 20 -47 47s20 47 47 47c25 0 46 -20 46 -47s-21 -47 -46 -47zM402 326h351v-27c0 -87 -31 -161 -93 -221c-62 -59 -144 -89 -245 -89c-107 0 -195 35 -264 104c-69 70 -104 156 -104 257s34 187 103 256c69 70 156 105 261 105c64 0 123 -15 176 -46
c54 -31 96 -72 125 -123l-47 -28c-23 44 -58 79 -104 106c-45 27 -95 40 -150 40c-91 0 -165 -30 -224 -90c-58 -59 -87 -133 -87 -220s29 -161 88 -221c59 -59 134 -89 227 -89c82 0 148 22 199 67s79 101 85 169h-297v50z" />
    <glyph glyph-name="gdotaccent" unicode="&#x121;" horiz-adv-x="648" 
d="M315 573c-27 0 -47 20 -47 47s20 47 47 47c25 0 46 -20 46 -47s-21 -47 -46 -47zM521 384v116h50v-476c0 -73 -24 -130 -71 -172s-107 -63 -178 -63c-115 0 -199 45 -236 120l44 25c32 -65 96 -97 192 -97c124 0 199 72 199 187v92c-41 -79 -120 -127 -215 -127
c-72 0 -133 25 -184 75c-50 51 -75 113 -75 186s25 135 75 185c51 51 112 76 184 76c95 0 174 -48 215 -127zM158 99c41 -41 92 -62 151 -62s109 21 150 62s62 92 62 151s-21 110 -62 151s-91 62 -150 62s-110 -21 -151 -62s-61 -92 -61 -151s20 -110 61 -151z" />
    <glyph glyph-name="Gcommaaccent" unicode="&#x122;" horiz-adv-x="799" 
d="M402 326h351v-27c0 -87 -31 -161 -93 -221c-62 -59 -144 -89 -245 -89c-107 0 -195 35 -264 104c-69 70 -104 156 -104 257s34 187 103 256c69 70 156 105 261 105c64 0 123 -15 176 -46c54 -31 96 -72 125 -123l-47 -28c-23 44 -58 79 -104 106c-45 27 -95 40 -150 40
c-91 0 -165 -30 -224 -90c-58 -59 -87 -133 -87 -220s29 -161 88 -221c59 -59 134 -89 227 -89c82 0 148 22 199 67s79 101 85 169h-297v50zM430 -240h-36l10 170h51z" />
    <glyph glyph-name="gcommaaccent" unicode="&#x123;" horiz-adv-x="648" 
d="M308 760h36l-10 -170h-51zM521 384v116h50v-476c0 -73 -24 -130 -71 -172s-107 -63 -178 -63c-115 0 -199 45 -236 120l44 25c32 -65 96 -97 192 -97c124 0 199 72 199 187v92c-41 -79 -120 -127 -215 -127c-72 0 -133 25 -184 75c-50 51 -75 113 -75 186s25 135 75 185
c51 51 112 76 184 76c95 0 174 -48 215 -127zM158 99c41 -41 92 -62 151 -62s109 21 150 62s62 92 62 151s-21 110 -62 151s-91 62 -150 62s-110 -21 -151 -62s-61 -92 -61 -151s20 -110 61 -151z" />
    <glyph glyph-name="Hbar" unicode="&#x126;" horiz-adv-x="740" 
d="M627 562h66v-44h-66v-518h-54v335h-406v-335h-54v518h-66v44h66v138h54v-138h406v138h54v-138zM167 385h406v133h-406v-133z" />
    <glyph glyph-name="hbar" unicode="&#x127;" horiz-adv-x="577" 
d="M319 511c119 0 194 -79 194 -200v-311h-50v311c0 93 -55 152 -148 152c-103 0 -174 -70 -174 -199v-264h-51v582h-73v42h73v76h51v-76h156v-42h-156v-175c37 69 96 104 178 104z" />
    <glyph glyph-name="Imacron" unicode="&#x12a;" horiz-adv-x="227" 
d="M239 787h-253v44h253v-44zM87 0v700h53v-700h-53z" />
    <glyph glyph-name="imacron" unicode="&#x12b;" horiz-adv-x="204" 
d="M195 587h-186v44h186v-44zM127 0h-50v500h50v-500z" />
    <glyph glyph-name="Iogonek" unicode="&#x12e;" horiz-adv-x="227" 
d="M133 -168c15 0 29 3 43 9v-42c-14 -7 -32 -10 -54 -10c-51 0 -79 28 -79 72c0 38 15 85 44 141v698h53v-700l-25 -47c-9 -20 -22 -56 -22 -84c0 -25 13 -37 40 -37z" />
    <glyph glyph-name="iogonek" unicode="&#x12f;" horiz-adv-x="204" 
d="M62 661c-2 50 82 50 80 0c2 -52 -82 -52 -80 0zM123 -168c15 0 29 3 43 9v-42c-14 -7 -32 -10 -54 -10c-49 0 -79 35 -79 80c0 36 15 82 44 137v494h50v-500c-29 -50 -44 -91 -44 -123c0 -25 16 -45 40 -45z" />
    <glyph glyph-name="Idot" unicode="&#x130;" horiz-adv-x="227" 
d="M113 773c-27 0 -47 20 -47 47s20 47 47 47c25 0 46 -20 46 -47s-21 -47 -46 -47zM87 0v700h53v-700h-53z" />
    <glyph glyph-name="dotlessi" unicode="&#x131;" horiz-adv-x="204" 
d="M127 0h-50v500h50v-500z" />
    <glyph glyph-name="Kcommaaccent" unicode="&#x136;" horiz-adv-x="572" 
d="M552 700l-354 -340l364 -360h-71l-351 345v-345h-53v700h53v-326l341 326h71zM312 -240h-36l10 170h51z" />
    <glyph glyph-name="kcommaaccent" unicode="&#x137;" horiz-adv-x="483" 
d="M450 500l-269 -240l279 -260h-68l-265 246v-246h-50v700h50v-427l253 227h70zM264 -240h-36l10 170h51z" />
    <glyph glyph-name="Lacute" unicode="&#x139;" horiz-adv-x="493" 
d="M167 897h60l-91 -127h-49zM140 700v-650h330v-50h-383v700h53z" />
    <glyph glyph-name="lacute" unicode="&#x13a;" horiz-adv-x="204" 
d="M76 770l80 127h60l-91 -127h-49zM77 0h50v730h-50v-730z" />
    <glyph glyph-name="Lcommaaccent" unicode="&#x13b;" horiz-adv-x="493" 
d="M140 700v-650h330v-50h-383v700h53zM287 -240h-36l10 170h51z" />
    <glyph glyph-name="lcommaaccent" unicode="&#x13c;" horiz-adv-x="204" 
d="M127 0h-50v730h50v-730zM104 -240h-36l10 170h51z" />
    <glyph glyph-name="Lcaron" unicode="&#x13d;" horiz-adv-x="493" 
d="M140 700v-650h330v-50h-383v700h53zM273 700h50l-24 -170h-36z" />
    <glyph glyph-name="lcaron" unicode="&#x13e;" horiz-adv-x="257" 
d="M127 0h-50v730h50v-730zM239 560h-36l10 170h50z" />
    <glyph glyph-name="Lslash" unicode="&#x141;" horiz-adv-x="510" 
d="M157 281v-231h330v-50h-383v250l-61 -36v49l61 36v401h53v-370l183 108v-49z" />
    <glyph glyph-name="lslash" unicode="&#x142;" horiz-adv-x="240" 
d="M145 402l75 51v-49l-75 -51v-353h-50v318l-75 -51v49l75 51v363h50v-328z" />
    <glyph glyph-name="Nacute" unicode="&#x143;" horiz-adv-x="687" 
d="M298 770l80 127h60l-91 -127h-49zM547 700v-602l-414 602h-46v-700h53v602l413 -602h47v700h-53z" />
    <glyph glyph-name="nacute" unicode="&#x144;" 
d="M330 697h60l-91 -127h-49zM306 511c119 0 194 -79 194 -200v-311h-51v311c0 93 -54 152 -147 152c-103 0 -175 -70 -175 -199v-264h-50v500h50v-95c36 71 96 106 179 106z" />
    <glyph glyph-name="Ncommaaccent" unicode="&#x145;" horiz-adv-x="687" 
d="M547 98v602h53v-700h-47l-413 602v-602h-53v700h46zM342 -240h-36l10 170h51z" />
    <glyph glyph-name="ncommaaccent" unicode="&#x146;" 
d="M306 511c119 0 194 -79 194 -200v-311h-51v311c0 93 -54 152 -147 152c-103 0 -175 -70 -175 -199v-264h-50v500h50v-95c36 71 96 106 179 106zM297 -240h-36l10 170h51z" />
    <glyph glyph-name="Ncaron" unicode="&#x147;" horiz-adv-x="687" 
d="M370 770h-60l-108 127h58l80 -95l80 95h58zM547 98v602h53v-700h-47l-413 602v-602h-53v700h46z" />
    <glyph glyph-name="ncaron" unicode="&#x148;" 
d="M322 570h-60l-108 127h58l80 -95l80 95h58zM306 511c119 0 194 -79 194 -200v-311h-51v311c0 93 -54 152 -147 152c-103 0 -175 -70 -175 -199v-264h-50v500h50v-95c36 71 96 106 179 106z" />
    <glyph glyph-name="Eng" unicode="&#x14a;" horiz-adv-x="687" 
d="M547 98v602h53v-700c0 -133 -68 -200 -205 -200v51c101 0 152 37 152 149v9l-407 593v-602h-53v700h46z" />
    <glyph glyph-name="eng" unicode="&#x14b;" 
d="M306 511c119 0 194 -79 194 -200v-368c0 -107 -59 -163 -166 -154v48c79 -8 115 26 115 106v368c0 93 -54 152 -147 152c-103 0 -175 -70 -175 -199v-264h-50v500h50v-95c36 71 96 106 179 106z" />
    <glyph glyph-name="Omacron" unicode="&#x14c;" horiz-adv-x="816" 
d="M534 787h-253v44h253v-44zM664 94c-70 -70 -155 -105 -256 -105s-186 35 -256 105c-70 71 -105 156 -105 256s35 185 105 255c70 71 155 106 256 106s186 -35 256 -106c70 -70 105 -155 105 -255s-35 -185 -105 -256zM189 130c60 -60 133 -90 219 -90s159 30 218 90
c60 61 90 134 90 220s-30 159 -90 219c-59 61 -132 91 -218 91s-159 -30 -219 -91c-59 -60 -89 -133 -89 -219s30 -159 89 -220z" />
    <glyph glyph-name="omacron" unicode="&#x14d;" horiz-adv-x="611" 
d="M429 587h-253v44h253v-44zM306 -11c-73 0 -136 25 -187 75c-51 51 -76 113 -76 186s25 135 76 185c51 51 114 76 187 76s134 -25 185 -76c51 -50 77 -112 77 -185s-26 -135 -77 -186c-51 -50 -112 -75 -185 -75zM155 99c41 -41 92 -62 151 -62s109 21 150 62
s61 92 61 151s-20 110 -61 151s-91 62 -150 62s-110 -21 -151 -62s-61 -92 -61 -151s20 -110 61 -151z" />
    <glyph glyph-name="Ohungarumlaut" unicode="&#x150;" horiz-adv-x="816" 
d="M285 770l70 130h56l-75 -130h-51zM427 770l80 130h56l-85 -130h-51zM664 94c70 71 105 156 105 256s-35 185 -105 255c-70 71 -155 106 -256 106s-186 -35 -256 -106c-70 -70 -105 -155 -105 -255s35 -185 105 -256c70 -70 155 -105 256 -105s186 35 256 105zM189 130
c-59 61 -89 134 -89 220s30 159 89 219c60 61 133 91 219 91s159 -30 218 -91c60 -60 90 -133 90 -219s-30 -159 -90 -220c-59 -60 -132 -90 -218 -90s-159 30 -219 90z" />
    <glyph glyph-name="ohungarumlaut" unicode="&#x151;" horiz-adv-x="611" 
d="M180 570l70 130h56l-75 -130h-51zM322 570l80 130h56l-85 -130h-51zM306 -11c73 0 134 25 185 75c51 51 77 113 77 186s-26 135 -77 185c-51 51 -112 76 -185 76s-136 -25 -187 -76c-51 -50 -76 -112 -76 -185s25 -135 76 -186c51 -50 114 -75 187 -75zM155 99
c-41 41 -61 92 -61 151s20 110 61 151s92 62 151 62s109 -21 150 -62s61 -92 61 -151s-20 -110 -61 -151s-91 -62 -150 -62s-110 21 -151 62z" />
    <glyph glyph-name="OE" unicode="&#x152;" horiz-adv-x="912" 
d="M545 328v-278h324v-50h-377c-29 -7 -61 -11 -94 -11c-102 0 -186 35 -252 104c-66 70 -99 156 -99 257s33 187 99 256c66 70 150 105 252 105c33 0 65 -4 94 -11h372v-50h-319v-272h300v-50h-300zM492 54v592c-29 9 -61 14 -94 14c-87 0 -159 -30 -215 -90
c-55 -59 -83 -133 -83 -220s28 -161 83 -221c56 -59 128 -89 215 -89c33 0 65 5 94 14z" />
    <glyph glyph-name="oe" unicode="&#x153;" horiz-adv-x="1061" 
d="M775 511c73 0 132 -26 177 -78c46 -52 69 -114 69 -185c0 -11 0 -19 -1 -24h-453c6 -56 28 -101 67 -136c39 -34 88 -51 145 -51c80 0 142 36 173 91l44 -26c-41 -69 -120 -113 -216 -113c-115 0 -203 62 -239 159c-37 -96 -127 -159 -235 -159c-75 0 -137 25 -188 75
c-50 50 -75 112 -75 186s25 136 75 186c51 50 113 75 188 75c108 0 198 -63 235 -160c36 97 123 160 234 160zM306 37c59 0 109 20 149 61c41 41 61 92 61 152s-20 110 -61 151c-40 41 -90 62 -149 62c-61 0 -111 -21 -152 -62c-40 -41 -60 -91 -60 -151s20 -111 60 -152
c41 -41 91 -61 152 -61zM774 463c-56 0 -103 -18 -142 -53c-38 -35 -60 -81 -65 -137h402c-5 59 -27 106 -64 139c-37 34 -80 51 -131 51z" />
    <glyph glyph-name="Racute" unicode="&#x154;" horiz-adv-x="613" 
d="M351 897h60l-91 -127h-49zM590 0h-61l-168 287h-221v-287h-53v700h276c57 0 105 -20 146 -61s61 -89 61 -146c0 -47 -15 -89 -44 -126s-65 -61 -110 -73zM363 650h-223v-313h223c43 0 79 15 109 45c30 31 45 68 45 111s-15 80 -45 111s-66 46 -109 46z" />
    <glyph glyph-name="racute" unicode="&#x155;" horiz-adv-x="318" 
d="M223 697h60l-91 -127h-49zM127 500v-98c30 70 86 105 167 105v-48c-95 0 -167 -61 -167 -181v-278h-50v500h50z" />
    <glyph glyph-name="Rcommaaccent" unicode="&#x156;" horiz-adv-x="613" 
d="M416 294l174 -294h-61l-168 287h-221v-287h-53v700h276c57 0 105 -20 146 -61s61 -89 61 -146c0 -47 -15 -89 -44 -126s-65 -61 -110 -73zM363 650h-223v-313h223c43 0 79 15 109 45c30 31 45 68 45 111s-15 80 -45 111s-66 46 -109 46zM335 -240h-36l10 170h51z" />
    <glyph glyph-name="rcommaaccent" unicode="&#x157;" horiz-adv-x="318" 
d="M127 500v-98c30 70 86 105 167 105v-48c-95 0 -167 -61 -167 -181v-278h-50v500h50zM103 -240h-36l10 170h51z" />
    <glyph glyph-name="Rcaron" unicode="&#x158;" horiz-adv-x="613" 
d="M343 770h-60l-108 127h58l80 -95l80 95h58zM590 0h-61l-168 287h-221v-287h-53v700h276c57 0 105 -20 146 -61s61 -89 61 -146c0 -47 -15 -89 -44 -126s-65 -61 -110 -73zM363 650h-223v-313h223c43 0 79 15 109 45c30 31 45 68 45 111s-15 80 -45 111s-66 46 -109 46z
" />
    <glyph glyph-name="rcaron" unicode="&#x159;" horiz-adv-x="318" 
d="M215 570h-60l-108 127h58l80 -95l80 95h58zM127 500v-98c30 70 86 105 167 105v-48c-95 0 -167 -61 -167 -181v-278h-50v500h50z" />
    <glyph glyph-name="Sacute" unicode="&#x15a;" horiz-adv-x="574" 
d="M238 770l80 127h60l-91 -127h-49zM301 -11c69 0 125 17 167 52s63 82 63 140c0 57 -21 100 -72 131c-25 16 -48 28 -70 37c-21 9 -51 20 -90 33c-61 20 -104 39 -131 58s-40 47 -40 85c0 79 62 135 158 135c87 0 147 -40 180 -121l45 25c-36 87 -116 147 -225 147
c-61 0 -111 -17 -152 -52c-40 -34 -60 -79 -60 -136c0 -35 11 -64 23 -85c12 -20 43 -42 62 -54c9 -6 24 -13 43 -21l44 -17l50 -16c62 -20 108 -40 137 -61s44 -50 44 -89c0 -83 -63 -140 -176 -140c-112 0 -185 54 -210 141l-46 -27c32 -101 127 -165 256 -165z" />
    <glyph glyph-name="sacute" unicode="&#x15b;" horiz-adv-x="458" 
d="M267 697h60l-91 -127h-49zM111 369c0 -49 47 -75 107 -90c87 -19 196 -41 196 -148c0 -83 -72 -142 -179 -142c-96 0 -165 44 -190 111l43 25c19 -55 72 -88 147 -88s129 34 129 94c0 49 -47 78 -107 91c-87 21 -196 42 -196 147c0 40 16 74 47 101c32 27 73 41 123 41
c80 0 142 -39 170 -100l-42 -24c-20 49 -71 76 -128 76c-68 0 -120 -37 -120 -94z" />
    <glyph glyph-name="Scedilla" unicode="&#x15e;" horiz-adv-x="574" 
d="M531 181c0 -57 -20 -103 -61 -138c-40 -35 -93 -53 -160 -54v-45c53 -7 91 -34 91 -75c0 -63 -65 -90 -195 -80v41c99 -9 151 6 151 39c0 29 -31 43 -92 43v79c-111 11 -191 72 -220 163l46 27c25 -87 98 -141 210 -141c113 0 176 57 176 140c0 39 -15 68 -44 89
s-75 41 -137 61l-50 16l-44 17c-19 8 -34 15 -43 21c-19 12 -50 34 -62 54c-12 21 -23 50 -23 85c0 57 20 102 60 136c41 35 91 52 152 52c109 0 189 -60 225 -147l-45 -25c-33 81 -93 121 -180 121c-96 0 -158 -56 -158 -135c0 -38 13 -66 40 -85s70 -38 131 -58
c39 -13 69 -24 90 -33c22 -9 45 -21 70 -37c51 -31 72 -74 72 -131z" />
    <glyph glyph-name="scedilla" unicode="&#x15f;" horiz-adv-x="458" 
d="M414 131c0 -77 -63 -134 -158 -141v-46c53 -7 91 -34 91 -75c0 -63 -65 -90 -195 -80v41c99 -9 151 6 151 39c0 29 -31 43 -92 43v78c-84 7 -143 49 -166 110l43 25c19 -55 72 -88 147 -88s129 34 129 94c0 49 -47 78 -107 91c-87 21 -196 42 -196 147c0 40 16 74 47 101
c32 27 73 41 123 41c80 0 142 -39 170 -100l-42 -24c-20 49 -71 76 -128 76c-68 0 -120 -37 -120 -94c0 -49 47 -75 107 -90c87 -19 196 -41 196 -148z" />
    <glyph glyph-name="Scaron" unicode="&#x160;" horiz-adv-x="574" 
d="M310 770h-60l-108 127h58l80 -95l80 95h58zM299 382c39 -13 69 -24 90 -33c22 -9 45 -21 70 -37c51 -31 72 -74 72 -131c0 -58 -21 -105 -63 -140s-98 -52 -167 -52c-129 0 -224 64 -256 165l46 27c25 -87 98 -141 210 -141c113 0 176 57 176 140c0 39 -15 68 -44 89
s-75 41 -137 61l-50 16l-44 17c-19 8 -34 15 -43 21c-19 12 -50 34 -62 54c-12 21 -23 50 -23 85c0 57 20 102 60 136c41 35 91 52 152 52c109 0 189 -60 225 -147l-45 -25c-33 81 -93 121 -180 121c-96 0 -158 -56 -158 -135c0 -38 13 -66 40 -85s70 -38 131 -58z" />
    <glyph glyph-name="scaron" unicode="&#x161;" horiz-adv-x="458" 
d="M259 570h-60l-108 127h58l80 -95l80 95h58zM111 369c0 -49 47 -75 107 -90c87 -19 196 -41 196 -148c0 -83 -72 -142 -179 -142c-96 0 -165 44 -190 111l43 25c19 -55 72 -88 147 -88s129 34 129 94c0 49 -47 78 -107 91c-87 21 -196 42 -196 147c0 40 16 74 47 101
c32 27 73 41 123 41c80 0 142 -39 170 -100l-42 -24c-20 49 -71 76 -128 76c-68 0 -120 -37 -120 -94z" />
    <glyph glyph-name="uni0162" unicode="&#x162;" horiz-adv-x="540" 
d="M23 700h494v-50h-220v-650h-54v650h-220v50zM272 -240h-36l10 170h51z" />
    <glyph glyph-name="uni0163" unicode="&#x163;" horiz-adv-x="376" 
d="M333 500v-49h-149v-325c0 -87 47 -91 149 -81v-45c-135 -20 -200 15 -200 126v325h-110v49h110v125l51 15v-140h149zM238 -240h-36l10 170h51z" />
    <glyph glyph-name="Tcaron" unicode="&#x164;" horiz-adv-x="540" 
d="M300 770h-60l-108 127h58l80 -95l80 95h58zM23 700h494v-50h-220v-650h-54v650h-220v50z" />
    <glyph glyph-name="tcaron" unicode="&#x165;" horiz-adv-x="376" 
d="M253 714h50l-24 -157h-36zM333 500v-49h-149v-325c0 -87 47 -91 149 -81v-45c-135 -20 -200 15 -200 126v325h-110v49h110v125l51 15v-140h149z" />
    <glyph glyph-name="Tbar" unicode="&#x166;" horiz-adv-x="540" 
d="M517 700v-50h-220v-276h153v-48h-153v-326h-54v326h-153v48h153v276h-220v50h494z" />
    <glyph glyph-name="tbar" unicode="&#x167;" horiz-adv-x="376" 
d="M333 500v-49h-149v-168h100v-42h-100v-115c0 -87 47 -91 149 -81v-45c-135 -20 -200 15 -200 126v115h-69v42h69v168h-110v49h110v125l51 15v-140h149z" />
    <glyph glyph-name="Umacron" unicode="&#x16a;" horiz-adv-x="667" 
d="M458 787h-253v44h253v-44zM77 234v466h53v-466c0 -117 74 -194 203 -194s204 77 204 194v466h53v-466c0 -74 -24 -133 -71 -178s-109 -67 -186 -67s-139 22 -186 67s-70 104 -70 178z" />
    <glyph glyph-name="umacron" unicode="&#x16b;" 
d="M147 631h253v-44h-253v44zM437 236v264h50v-500h-50v95c-36 -71 -96 -106 -179 -106c-119 0 -194 79 -194 200v311h51v-311c0 -93 54 -152 147 -152c103 0 175 70 175 199z" />
    <glyph glyph-name="Uring" unicode="&#x16e;" horiz-adv-x="667" 
d="M331 720c-60 0 -102 41 -102 97s42 97 102 97c61 0 103 -41 103 -97s-42 -97 -103 -97zM331 760c80 -6 80 120 0 114c-36 0 -59 -24 -59 -57s23 -57 59 -57zM77 234v466h53v-466c0 -117 74 -194 203 -194s204 77 204 194v466h53v-466c0 -74 -24 -133 -71 -178
s-109 -67 -186 -67s-139 22 -186 67s-70 104 -70 178z" />
    <glyph glyph-name="uring" unicode="&#x16f;" 
d="M274 553c-60 0 -102 41 -102 97s42 97 102 97c61 0 103 -41 103 -97s-42 -97 -103 -97zM274 707c-36 0 -59 -24 -59 -57s23 -57 59 -57c80 -6 80 120 0 114zM437 236v264h50v-500h-50v95c-36 -71 -96 -106 -179 -106c-119 0 -194 79 -194 200v311h51v-311
c0 -93 54 -152 147 -152c103 0 175 70 175 199z" />
    <glyph glyph-name="Uhungarumlaut" unicode="&#x170;" horiz-adv-x="667" 
d="M209 770l70 130h56l-75 -130h-51zM351 770l80 130h56l-85 -130h-51zM77 234c0 -74 23 -133 70 -178s109 -67 186 -67s139 22 186 67s71 104 71 178v466h-53v-466c0 -117 -75 -194 -204 -194s-203 77 -203 194v466h-53v-466z" />
    <glyph glyph-name="uhungarumlaut" unicode="&#x171;" 
d="M221 700h56l-75 -130h-51zM373 700h56l-85 -130h-51zM437 236v264h50v-500h-50v95c-36 -71 -96 -106 -179 -106c-119 0 -194 79 -194 200v311h51v-311c0 -93 54 -152 147 -152c103 0 175 70 175 199z" />
    <glyph glyph-name="Uogonek" unicode="&#x172;" horiz-adv-x="667" 
d="M537 234v466h53v-466c0 -83 -29 -148 -88 -193c-49 -43 -82 -77 -101 -101c-18 -24 -27 -48 -27 -71c0 -25 13 -37 40 -37c15 0 29 3 43 9v-42c-14 -7 -32 -10 -54 -10c-51 0 -79 28 -79 72c0 42 25 87 75 134c-21 -4 -43 -6 -66 -6c-77 0 -139 22 -186 67
s-70 104 -70 178v466h53v-466c0 -117 74 -194 203 -194s204 77 204 194z" />
    <glyph glyph-name="uogonek" unicode="&#x173;" 
d="M487 500v-500c-55 -50 -83 -94 -83 -131c0 -25 13 -37 40 -37c15 0 29 3 43 9v-42c-15 -7 -33 -10 -54 -10c-49 0 -78 28 -78 72c0 41 27 90 82 149v85c-36 -71 -96 -106 -179 -106c-119 0 -194 79 -194 200v311h51v-311c0 -93 54 -152 147 -152c103 0 175 70 175 199
v264h50z" />
    <glyph glyph-name="Wcircumflex" unicode="&#x174;" horiz-adv-x="993" 
d="M554 770l-80 95l-81 -95h-57l108 127h59l108 -127h-57zM724 71l180 629h56l-203 -700h-64l-196 631l-197 -631h-64l-203 700h56l181 -629l195 629h63z" />
    <glyph glyph-name="wcircumflex" unicode="&#x175;" horiz-adv-x="770" 
d="M465 570l-80 95l-81 -95h-57l108 127h59l108 -127h-57zM551 65l133 435h53l-158 -500h-55l-139 426l-139 -426h-55l-158 500h53l133 -435l140 435h52z" />
    <glyph glyph-name="Ycircumflex" unicode="&#x176;" horiz-adv-x="583" 
d="M369 770l-80 95l-81 -95h-57l108 127h59l108 -127h-57zM513 700h60l-255 -412v-288h-53v288l-255 412h60l222 -361z" />
    <glyph glyph-name="ycircumflex" unicode="&#x177;" horiz-adv-x="510" 
d="M338 570l-80 95l-81 -95h-57l108 127h59l108 -127h-57zM269 55l174 445h54l-216 -546c-39 -99 -114 -161 -198 -154v47c64 -5 117 40 149 117l11 27l-230 509h54z" />
    <glyph glyph-name="Ydieresis" unicode="&#x178;" horiz-adv-x="583" 
d="M199 777c-21 0 -37 16 -37 36c0 21 16 37 37 37c20 0 36 -16 36 -37c0 -20 -16 -36 -36 -36zM379 777c-21 0 -37 16 -37 36c0 21 16 37 37 37c20 0 36 -16 36 -37c0 -20 -16 -36 -36 -36zM513 700h60l-255 -412v-288h-53v288l-255 412h60l222 -361z" />
    <glyph glyph-name="Zacute" unicode="&#x179;" horiz-adv-x="523" 
d="M305 897h60l-91 -127h-49zM480 650l-378 -600h388v-50h-447v50l378 600h-368v50h427v-50z" />
    <glyph glyph-name="zacute" unicode="&#x17a;" horiz-adv-x="477" 
d="M283 697h60l-91 -127h-49zM423 467l-299 -418h309v-49h-380v33l300 418h-290v49h360v-33z" />
    <glyph glyph-name="Zdotaccent" unicode="&#x17b;" horiz-adv-x="523" 
d="M267 773c-27 0 -47 20 -47 47s20 47 47 47c25 0 46 -20 46 -47s-21 -47 -46 -47zM480 650l-378 -600h388v-50h-447v50l378 600h-368v50h427v-50z" />
    <glyph glyph-name="zdotaccent" unicode="&#x17c;" horiz-adv-x="477" 
d="M245 573c-27 0 -47 20 -47 47s20 47 47 47c25 0 46 -20 46 -47s-21 -47 -46 -47zM423 467l-299 -418h309v-49h-380v33l300 418h-290v49h360v-33z" />
    <glyph glyph-name="Zcaron" unicode="&#x17d;" horiz-adv-x="523" 
d="M297 770h-60l-108 127h58l80 -95l80 95h58zM480 650l-378 -600h388v-50h-447v50l378 600h-368v50h427v-50z" />
    <glyph glyph-name="zcaron" unicode="&#x17e;" horiz-adv-x="477" 
d="M275 570h-60l-108 127h58l80 -95l80 95h58zM423 467l-299 -418h309v-49h-380v33l300 418h-290v49h360v-33z" />
    <glyph glyph-name="florin" unicode="&#x192;" horiz-adv-x="436" 
d="M214 375l35 202c17 109 94 155 187 126v-50c-69 29 -124 -4 -137 -77l-34 -201h120v-49h-128l-69 -403c-19 -109 -95 -155 -188 -126v50c71 -29 125 4 137 77l69 402h-115v49h123z" />
    <glyph glyph-name="Scommaaccent" unicode="&#x218;" horiz-adv-x="574" 
d="M301 -11c-129 0 -224 64 -256 165l46 27c25 -87 98 -141 210 -141c113 0 176 57 176 140c0 39 -15 68 -44 89s-75 41 -137 61l-50 16l-44 17c-19 8 -34 15 -43 21c-19 12 -50 34 -62 54c-12 21 -23 50 -23 85c0 57 20 102 60 136c41 35 91 52 152 52
c109 0 189 -60 225 -147l-45 -25c-33 81 -93 121 -180 121c-96 0 -158 -56 -158 -135c0 -38 13 -66 40 -85s70 -38 131 -58c39 -13 69 -24 90 -33c22 -9 45 -21 70 -37c51 -31 72 -74 72 -131c0 -58 -21 -105 -63 -140s-98 -52 -167 -52zM300 -240h-36l10 170h51z" />
    <glyph glyph-name="scommaaccent" unicode="&#x219;" horiz-adv-x="458" 
d="M111 369c0 -49 47 -75 107 -90c87 -19 196 -41 196 -148c0 -83 -72 -142 -179 -142c-96 0 -165 44 -190 111l43 25c19 -55 72 -88 147 -88s129 34 129 94c0 49 -47 78 -107 91c-87 21 -196 42 -196 147c0 40 16 74 47 101c32 27 73 41 123 41c80 0 142 -39 170 -100
l-42 -24c-20 49 -71 76 -128 76c-68 0 -120 -37 -120 -94zM246 -240h-36l10 170h51z" />
    <glyph glyph-name="uni021A" unicode="&#x21a;" horiz-adv-x="540" 
d="M23 700h494v-50h-220v-650h-54v650h-220v50zM272 -240h-36l10 170h51z" />
    <glyph glyph-name="uni021B" unicode="&#x21b;" horiz-adv-x="376" 
d="M333 500v-49h-149v-325c0 -87 47 -91 149 -81v-45c-135 -20 -200 15 -200 126v325h-110v49h110v125l51 15v-140h149zM238 -240h-36l10 170h51z" />
    <glyph glyph-name="circumflex" unicode="&#x2c6;" horiz-adv-x="315" 
d="M187 697l108 -127h-57l-80 95l-81 -95h-57l108 127h59z" />
    <glyph glyph-name="caron" unicode="&#x2c7;" horiz-adv-x="315" 
d="M158 602l80 95h58l-108 -127h-60l-108 127h58z" />
    <glyph glyph-name="breve" unicode="&#x2d8;" horiz-adv-x="307" 
d="M20 687h48c0 -52 28 -78 85 -78s85 26 85 78h48c0 -76 -52 -122 -133 -122s-133 46 -133 122z" />
    <glyph glyph-name="dotaccent" unicode="&#x2d9;" horiz-adv-x="133" 
d="M67 573c-27 0 -47 20 -47 47s20 47 47 47c25 0 46 -20 46 -47s-21 -47 -46 -47z" />
    <glyph glyph-name="ring" unicode="&#x2da;" horiz-adv-x="245" 
d="M122 553c-60 0 -102 41 -102 97s42 97 102 97c61 0 103 -41 103 -97s-42 -97 -103 -97zM122 593c80 -6 80 120 0 114c-36 0 -59 -24 -59 -57s23 -57 59 -57z" />
    <glyph glyph-name="ogonek" unicode="&#x2db;" horiz-adv-x="173" 
d="M99 -211c-51 0 -79 28 -79 72c0 45 26 91 79 139h53c-55 -50 -83 -94 -83 -131c0 -25 14 -37 41 -37c15 0 29 3 43 9v-42c-15 -7 -33 -10 -54 -10z" />
    <glyph glyph-name="tilde" unicode="&#x2dc;" horiz-adv-x="312" 
d="M64 583h-44c0 113 68 134 138 74c60 -51 90 -42 90 28h44c0 -54 -14 -88 -43 -101s-60 -4 -95 27c-56 51 -90 47 -90 -28z" />
    <glyph glyph-name="hungarumlaut" unicode="&#x2dd;" horiz-adv-x="318" 
d="M20 570l70 130h56l-75 -130h-51zM162 570l80 130h56l-85 -130h-51z" />
    <glyph glyph-name="gravecomb" unicode="&#x300;" horiz-adv-x="0" 
d="M-20 570h-48l-92 127h60z" />
    <glyph glyph-name="acutecomb" unicode="&#x301;" horiz-adv-x="0" 
d="M-160 570l80 127h60l-91 -127h-49z" />
    <glyph glyph-name="uni0302" unicode="&#x302;" horiz-adv-x="0" 
d="M-128 697l108 -127h-57l-80 95l-81 -95h-57l108 127h59z" />
    <glyph glyph-name="tildecomb" unicode="&#x303;" horiz-adv-x="0" 
d="M-248 583h-44c0 113 68 134 138 74c60 -51 90 -42 90 28h44c0 -54 -14 -88 -43 -101s-60 -4 -95 27c-56 51 -90 47 -90 -28z" />
    <glyph glyph-name="uni0304" unicode="&#x304;" horiz-adv-x="0" 
d="M-20 587h-253v44h253v-44z" />
    <glyph glyph-name="uni0306" unicode="&#x306;" horiz-adv-x="0" 
d="M-293 687h48c0 -52 28 -78 85 -78s85 26 85 78h48c0 -76 -52 -122 -133 -122s-133 46 -133 122z" />
    <glyph glyph-name="uni0307" unicode="&#x307;" horiz-adv-x="0" 
d="M-66 573c-27 0 -47 20 -47 47s20 47 47 47c25 0 46 -20 46 -47s-21 -47 -46 -47z" />
    <glyph glyph-name="uni0308" unicode="&#x308;" horiz-adv-x="0" 
d="M-236 577c-21 0 -37 16 -37 36c0 21 16 37 37 37c20 0 36 -16 36 -37c0 -20 -16 -36 -36 -36zM-56 577c-21 0 -37 16 -37 36c0 21 16 37 37 37c20 0 36 -16 36 -37c0 -20 -16 -36 -36 -36z" />
    <glyph glyph-name="uni030A" unicode="&#x30a;" horiz-adv-x="0" 
d="M-123 553c-60 0 -102 41 -102 97s42 97 102 97c61 0 103 -41 103 -97s-42 -97 -103 -97zM-123 593c80 -6 80 120 0 114c-36 0 -59 -24 -59 -57s23 -57 59 -57z" />
    <glyph glyph-name="uni030B" unicode="&#x30b;" horiz-adv-x="0" 
d="M-295 570l70 130h56l-75 -130h-51zM-153 570l80 130h56l-85 -130h-51z" />
    <glyph glyph-name="uni030C" unicode="&#x30c;" horiz-adv-x="0" 
d="M-157 602l80 95h58l-108 -127h-60l-108 127h58z" />
    <glyph glyph-name="uni0312" unicode="&#x312;" horiz-adv-x="0" 
d="M-56 960h36l-10 -170h-51z" />
    <glyph glyph-name="uni0326" unicode="&#x326;" horiz-adv-x="0" 
d="M-45 -240h-36l10 170h51z" />
    <glyph glyph-name="uni0327" unicode="&#x327;" horiz-adv-x="0" 
d="M-111 0v-56c53 -7 91 -34 91 -75c0 -63 -65 -90 -195 -80v41c99 -9 151 6 151 39c0 29 -31 43 -92 43v88h45z" />
    <glyph glyph-name="uni0328" unicode="&#x328;" horiz-adv-x="0" 
d="M-74 -211c-51 0 -79 28 -79 72c0 45 26 91 79 139h53c-55 -50 -83 -94 -83 -131c0 -25 14 -37 41 -37c15 0 29 3 43 9v-42c-15 -7 -33 -10 -54 -10z" />
    <glyph glyph-name="uni0394" unicode="&#x394;" horiz-adv-x="626" 
d="M285 700h56l272 -700h-600zM313 635l-224 -585h448z" />
    <glyph glyph-name="uni03A9" unicode="&#x3a9;" horiz-adv-x="816" 
d="M769 350c0 -129 -68 -241 -173 -300h162v-50h-271v50c67 17 122 54 165 109s64 119 64 191c0 86 -30 159 -90 219c-59 61 -132 91 -218 91s-159 -30 -219 -91c-59 -60 -89 -133 -89 -219c0 -72 21 -136 64 -191s98 -92 165 -109v-50h-271v50h162
c-105 59 -173 171 -173 300c0 100 35 185 105 255c70 71 155 106 256 106s186 -35 256 -106c70 -70 105 -155 105 -255z" />
    <glyph glyph-name="pi" unicode="&#x3c0;" horiz-adv-x="650" 
d="M33 500h584v-49h-83v-451h-51v451h-312v-451h-51v451h-87v49z" />
    <glyph glyph-name="uni0401" unicode="&#x401;" horiz-adv-x="533" 
d="M196 777c-21 0 -37 16 -37 36c0 21 16 37 37 37c20 0 36 -16 36 -37c0 -20 -16 -36 -36 -36zM376 777c-21 0 -37 16 -37 36c0 21 16 37 37 37c20 0 36 -16 36 -37c0 -20 -16 -36 -36 -36zM140 328v-278h350v-50h-403v700h398v-50h-345v-272h320v-50h-320z" />
    <glyph glyph-name="uni0402" unicode="&#x402;" horiz-adv-x="699" 
d="M448 471c108 0 184 -65 184 -184v-139c0 -108 -59 -164 -166 -155v49c79 -9 113 25 113 106v139c0 89 -51 136 -131 136c-55 0 -112 -13 -171 -39v-384h-54v650h-200v50h487v-50h-233v-218c54 26 111 39 171 39z" />
    <glyph glyph-name="uni0403" unicode="&#x403;" horiz-adv-x="493" 
d="M314 896h60l-91 -127h-49zM87 700h383v-50h-330v-650h-53v700z" />
    <glyph glyph-name="uni0404" unicode="&#x404;" horiz-adv-x="748" 
d="M662 187l48 -27c-57 -104 -173 -171 -302 -171c-105 0 -192 35 -260 104c-67 70 -101 156 -101 257s34 187 101 256c68 70 155 105 260 105c63 0 122 -15 175 -46c54 -30 96 -71 125 -122l-47 -27c-48 87 -145 144 -253 144c-86 0 -157 -27 -214 -82
c-57 -54 -88 -122 -93 -203h395v-50h-395c5 -81 36 -149 93 -204c57 -54 128 -81 214 -81c109 0 207 58 254 147z" />
    <glyph glyph-name="uni0405" unicode="&#x405;" horiz-adv-x="574" 
d="M301 -11c-129 0 -224 64 -256 165l46 27c25 -87 98 -141 210 -141c113 0 176 57 176 140c0 39 -15 68 -44 89s-75 41 -137 61l-50 16l-44 17c-19 8 -34 15 -43 21c-19 12 -50 34 -62 54c-12 21 -23 50 -23 85c0 57 20 102 60 136c41 35 91 52 152 52
c109 0 189 -60 225 -147l-45 -25c-33 81 -93 121 -180 121c-96 0 -158 -56 -158 -135c0 -38 13 -66 40 -85s70 -38 131 -58c39 -13 69 -24 90 -33c22 -9 45 -21 70 -37c51 -31 72 -74 72 -131c0 -58 -21 -105 -63 -140s-98 -52 -167 -52z" />
    <glyph glyph-name="uni0406" unicode="&#x406;" horiz-adv-x="227" 
d="M87 0v700h53v-700h-53z" />
    <glyph glyph-name="uni0407" unicode="&#x407;" horiz-adv-x="227" 
d="M23 777c-21 0 -37 16 -37 36c0 21 16 37 37 37c20 0 36 -16 36 -37c0 -20 -16 -36 -36 -36zM203 777c-21 0 -37 16 -37 36c0 21 16 37 37 37c20 0 36 -16 36 -37c0 -20 -16 -36 -36 -36zM87 0v700h53v-700h-53z" />
    <glyph glyph-name="uni0408" unicode="&#x408;" horiz-adv-x="553" 
d="M252 -11c-97 0 -176 41 -209 117l45 27c25 -62 79 -93 164 -93c104 0 171 55 171 152v508h54v-508c0 -65 -21 -115 -64 -150c-42 -35 -96 -53 -161 -53z" />
    <glyph glyph-name="uni0409" unicode="&#x409;" horiz-adv-x="995" 
d="M578 393h167c57 0 106 -19 146 -56c41 -37 61 -84 61 -140c0 -57 -20 -104 -60 -141s-89 -56 -147 -56h-220v650h-303v-354c0 -224 -69 -309 -204 -297v47c49 -5 87 11 112 48c26 38 39 106 39 203v403h409v-307zM578 50h167c43 0 79 14 108 41c30 28 45 63 45 106
c0 42 -15 77 -45 104c-29 28 -65 42 -108 42h-167v-293z" />
    <glyph glyph-name="uni040A" unicode="&#x40a;" horiz-adv-x="983" 
d="M567 393h166c57 0 106 -19 146 -56c41 -37 61 -84 61 -140c0 -57 -20 -104 -60 -141s-89 -56 -147 -56h-220v343h-373v-343h-53v700h53v-307h373v307h54v-307zM567 50h166c43 0 80 14 109 41c30 28 45 63 45 106s-15 78 -45 105c-29 27 -66 41 -109 41h-166v-293z" />
    <glyph glyph-name="uni040B" unicode="&#x40b;" horiz-adv-x="705" 
d="M448 471c108 0 184 -65 184 -184v-287h-53v287c0 89 -51 136 -131 136c-55 0 -112 -13 -171 -39v-384h-54v650h-200v50h487v-50h-233v-218c54 26 111 39 171 39z" />
    <glyph glyph-name="uni040C" unicode="&#x40c;" horiz-adv-x="572" 
d="M324 896h60l-91 -127h-49zM198 360l364 -360h-71l-351 345v-345h-53v700h53v-326l341 326h71z" />
    <glyph glyph-name="uni040E" unicode="&#x40e;" horiz-adv-x="566" 
d="M162 830h253v-44h-253v44zM304 247l194 453h55l-233 -547c-47 -109 -118 -160 -213 -153v49c72 -8 125 29 160 110l12 28l-246 513h55z" />
    <glyph glyph-name="uni040F" unicode="&#x40f;" horiz-adv-x="673" 
d="M533 50v650h54v-700h-224v-134h-53v134h-223v700h53v-650h393z" />
    <glyph glyph-name="uni0410" unicode="&#x410;" horiz-adv-x="629" 
d="M614 0h-56l-68 178h-351l-68 -178h-56l272 700h56zM315 635l-156 -407h312z" />
    <glyph glyph-name="uni0411" unicode="&#x411;" horiz-adv-x="585" 
d="M140 413h200c57 0 105 -20 146 -61c41 -40 61 -88 61 -145s-20 -105 -61 -146c-40 -41 -89 -61 -146 -61h-253v700h403v-50h-350v-237zM140 50h200c42 0 78 15 108 46s45 68 45 111s-15 79 -45 110s-66 46 -108 46h-200v-313z" />
    <glyph glyph-name="uni0412" unicode="&#x412;" horiz-adv-x="623" 
d="M460 363c72 -28 120 -93 120 -172c0 -53 -19 -98 -56 -135s-82 -56 -135 -56h-302v700h279c51 0 94 -18 130 -54s54 -79 54 -130c0 -67 -35 -124 -90 -153zM366 650h-226v-268h226c36 0 67 13 92 39c26 27 39 58 39 95s-13 68 -39 94c-25 27 -56 40 -92 40zM140 50h249
c38 0 70 14 97 41c27 28 41 61 41 100s-14 72 -41 99c-27 28 -59 42 -97 42h-249v-282z" />
    <glyph glyph-name="uni0413" unicode="&#x413;" horiz-adv-x="493" 
d="M87 700h383v-50h-330v-650h-53v700z" />
    <glyph glyph-name="uni0414" unicode="&#x414;" horiz-adv-x="690" 
d="M578 700v-650h74v-184h-54v134h-526v-134h-54v184h56c48 54 72 138 72 251v399h432zM199 650v-350c0 -108 -21 -191 -62 -250h388v600h-326z" />
    <glyph glyph-name="uni0415" unicode="&#x415;" horiz-adv-x="533" 
d="M140 328v-278h350v-50h-403v700h398v-50h-345v-272h320v-50h-320z" />
    <glyph glyph-name="uni0416" unicode="&#x416;" horiz-adv-x="836" 
d="M498 360l318 -360h-63l-308 347v-347h-54v347l-308 -347h-63l318 360l-308 340h63l298 -327v327h54v-327l298 327h63z" />
    <glyph glyph-name="uni0417" unicode="&#x417;" horiz-adv-x="557" 
d="M387 362c81 -28 130 -93 130 -176c0 -57 -22 -105 -65 -142s-100 -55 -171 -55c-131 0 -209 62 -241 154l46 25c24 -86 89 -129 195 -129c113 0 182 60 182 147c0 84 -63 146 -164 146h-79v50h56c99 0 162 58 162 139s-65 140 -161 140c-90 0 -150 -38 -180 -115l-44 25
c39 93 113 140 224 140c63 0 115 -18 154 -55c40 -36 60 -81 60 -135c0 -71 -39 -128 -104 -159z" />
    <glyph glyph-name="uni0418" unicode="&#x418;" horiz-adv-x="687" 
d="M600 0h-53v602l-414 -602h-46v700h53v-602l413 602h47v-700z" />
    <glyph glyph-name="uni0419" unicode="&#x419;" horiz-adv-x="687" 
d="M469 787h-253v44h253v-44zM600 0h-53v602l-414 -602h-46v700h53v-602l413 602h47v-700z" />
    <glyph glyph-name="uni041A" unicode="&#x41a;" horiz-adv-x="572" 
d="M198 360l364 -360h-71l-351 345v-345h-53v700h53v-326l341 326h71z" />
    <glyph glyph-name="uni041B" unicode="&#x41b;" horiz-adv-x="698" 
d="M18 0v47c99 -12 151 55 151 250v403h443v-700h-54v650h-336v-354c0 -224 -69 -308 -204 -296z" />
    <glyph glyph-name="uni041C" unicode="&#x41c;" horiz-adv-x="807" 
d="M653 700h67v-700h-53v622l-259 -430h-9l-259 430v-622h-53v700h66l250 -414z" />
    <glyph glyph-name="uni041D" unicode="&#x41d;" horiz-adv-x="687" 
d="M547 385v315h53v-700h-53v335h-407v-335h-53v700h53v-315h407z" />
    <glyph glyph-name="uni041E" unicode="&#x41e;" horiz-adv-x="816" 
d="M664 94c-70 -70 -155 -105 -256 -105s-186 35 -256 105c-70 71 -105 156 -105 256s35 185 105 255c70 71 155 106 256 106s186 -35 256 -106c70 -70 105 -155 105 -255s-35 -185 -105 -256zM189 130c60 -60 133 -90 219 -90s159 30 218 90c60 61 90 134 90 220
s-30 159 -90 219c-59 61 -132 91 -218 91s-159 -30 -219 -91c-59 -60 -89 -133 -89 -219s30 -159 89 -220z" />
    <glyph glyph-name="uni041F" unicode="&#x41f;" horiz-adv-x="673" 
d="M87 700h500v-700h-54v650h-393v-650h-53v700z" />
    <glyph glyph-name="uni0420" unicode="&#x420;" horiz-adv-x="587" 
d="M87 700h238c63 0 115 -21 156 -62s62 -93 62 -155s-21 -114 -62 -155s-93 -61 -156 -61h-185v-267h-53v700zM140 317h185c48 0 87 16 118 47s47 71 47 119c0 49 -16 89 -47 120s-70 47 -118 47h-185v-333z" />
    <glyph glyph-name="uni0421" unicode="&#x421;" horiz-adv-x="751" 
d="M411 -11c-105 0 -192 35 -261 104c-69 70 -103 156 -103 257s34 187 103 256c69 70 156 105 261 105c64 0 123 -15 176 -46c53 -30 95 -71 124 -122l-47 -27c-23 43 -58 78 -103 104c-45 27 -95 40 -150 40c-91 0 -165 -30 -224 -90c-58 -59 -87 -133 -87 -220
s29 -161 87 -221c59 -59 133 -89 224 -89c109 0 208 58 255 147l47 -27c-57 -104 -173 -171 -302 -171z" />
    <glyph glyph-name="uni0422" unicode="&#x422;" horiz-adv-x="540" 
d="M23 700h494v-50h-220v-650h-54v650h-220v50z" />
    <glyph glyph-name="uni0423" unicode="&#x423;" horiz-adv-x="566" 
d="M304 247l194 453h55l-233 -547c-47 -109 -118 -160 -213 -153v49c72 -8 125 29 160 110l12 28l-246 513h55z" />
    <glyph glyph-name="uni0424" unicode="&#x424;" horiz-adv-x="804" 
d="M429 79v-79h-54v79c-102 3 -185 28 -248 75s-94 113 -94 196s31 148 94 195s146 73 248 76v79h54v-79c102 -3 184 -29 247 -76s95 -112 95 -195s-32 -149 -95 -196s-145 -72 -247 -75zM375 128v444c-177 -7 -288 -85 -288 -222s111 -215 288 -222zM429 572v-444
c177 7 288 85 288 222s-111 215 -288 222z" />
    <glyph glyph-name="uni0425" unicode="&#x425;" horiz-adv-x="573" 
d="M317 360l233 -360h-61l-202 312l-202 -312h-62l233 360l-220 340h61l190 -293l189 293h61z" />
    <glyph glyph-name="uni0426" unicode="&#x426;" horiz-adv-x="690" 
d="M580 700v-650h73v-184h-53v134h-513v700h53v-650h387v650h53z" />
    <glyph glyph-name="uni0427" unicode="&#x427;" horiz-adv-x="627" 
d="M487 353v347h53v-700h-53v303c-63 -31 -129 -46 -197 -46s-122 18 -161 55s-59 84 -59 141v247h53v-247c0 -88 62 -146 167 -146c68 0 134 15 197 46z" />
    <glyph glyph-name="uni0428" unicode="&#x428;" horiz-adv-x="957" 
d="M817 50v650h53v-700h-783v700h53v-650h312v650h53v-650h312z" />
    <glyph glyph-name="uni0429" unicode="&#x429;" horiz-adv-x="980" 
d="M870 700v-650h73v-184h-53v134h-803v700h53v-650h312v650h53v-650h312v650h53z" />
    <glyph glyph-name="uni042A" unicode="&#x42a;" horiz-adv-x="693" 
d="M432 0h-239v650h-193v50h247v-267h185c63 0 115 -21 156 -62s62 -93 62 -154c0 -62 -21 -114 -62 -155s-93 -62 -156 -62zM247 383v-333h185c48 0 87 16 118 47s47 71 47 120c0 48 -16 88 -47 119s-70 47 -118 47h-185z" />
    <glyph glyph-name="uni042B" unicode="&#x42b;" horiz-adv-x="763" 
d="M325 0h-238v700h53v-267h185c63 0 115 -21 156 -62s62 -92 62 -154s-21 -114 -62 -155s-93 -62 -156 -62zM677 0h-54v700h54v-700zM140 383v-333h185c48 0 87 16 118 47s47 71 47 120c0 48 -16 88 -47 119s-70 47 -118 47h-185z" />
    <glyph glyph-name="uni042C" unicode="&#x42c;" horiz-adv-x="587" 
d="M140 433h185c63 0 115 -21 156 -62s62 -92 62 -154s-21 -114 -62 -155s-93 -62 -156 -62h-238v700h53v-267zM140 50h185c48 0 87 16 118 47s47 71 47 120c0 48 -16 88 -47 119s-70 47 -118 47h-185v-333z" />
    <glyph glyph-name="uni042D" unicode="&#x42d;" horiz-adv-x="748" 
d="M340 711c105 0 192 -35 259 -105c68 -69 102 -155 102 -256s-34 -187 -102 -257c-67 -69 -154 -104 -259 -104c-129 0 -245 67 -302 171l48 27c47 -89 145 -147 254 -147c86 0 157 27 214 81c57 55 88 123 93 204h-395v50h395c-5 81 -36 149 -93 203
c-57 55 -128 82 -214 82c-108 0 -205 -57 -253 -144l-47 27c29 51 71 92 124 122c54 31 113 46 176 46z" />
    <glyph glyph-name="uni042E" unicode="&#x42e;" horiz-adv-x="1047" 
d="M639 711c101 0 186 -35 256 -106c70 -70 105 -155 105 -255s-35 -185 -105 -256c-70 -70 -155 -105 -256 -105c-99 0 -182 33 -251 100c-68 67 -104 149 -108 246h-140v-335h-53v700h53v-315h142c9 93 47 170 114 232c67 63 148 94 243 94zM639 40c86 0 159 30 218 90
c60 61 90 134 90 220s-30 159 -90 219c-59 61 -132 91 -218 91c-87 0 -160 -30 -219 -90s-89 -133 -89 -220s30 -160 89 -220s132 -90 219 -90z" />
    <glyph glyph-name="uni042F" unicode="&#x42f;" horiz-adv-x="627" 
d="M263 700h277v-700h-53v287h-192l-198 -287h-60l199 289c-51 7 -93 29 -128 68c-34 39 -51 84 -51 136c0 57 20 106 60 146c41 41 89 61 146 61zM263 337h224v313h-224c-42 0 -78 -15 -108 -46s-45 -68 -45 -111s15 -79 45 -110s66 -46 108 -46z" />
    <glyph glyph-name="uni0430" unicode="&#x430;" horiz-adv-x="645" 
d="M517 387v113h51v-500h-51v113c-43 -77 -120 -124 -215 -124c-71 0 -132 25 -183 75c-51 51 -76 113 -76 186s25 135 76 185c51 51 112 76 183 76c95 0 172 -47 215 -124zM155 99c41 -41 92 -62 151 -62s109 21 150 62s61 92 61 151s-20 110 -61 151s-91 62 -150 62
s-110 -21 -151 -62s-61 -92 -61 -151s20 -110 61 -151z" />
    <glyph glyph-name="uni0431" unicode="&#x431;" horiz-adv-x="571" 
d="M295 -12c-72 0 -132 24 -180 71c-48 48 -72 110 -72 186c0 83 12 148 36 193c25 46 75 88 151 125l52 23c40 17 60 24 88 39c40 22 65 44 71 88l40 -23c-7 -37 -23 -64 -59 -88c-17 -11 -33 -20 -46 -27s-33 -16 -60 -27l-59 -25c-49 -22 -86 -46 -109 -72
s-38 -61 -46 -105c47 73 128 109 204 109c67 0 122 -22 166 -66s66 -100 66 -168c0 -67 -23 -123 -69 -167c-45 -44 -103 -66 -174 -66zM295 38c56 0 102 17 138 51c36 35 54 79 54 132c0 54 -17 98 -52 133s-80 52 -135 52c-51 0 -96 -16 -137 -48
c-40 -32 -62 -73 -66 -124c0 -57 19 -104 56 -141s85 -55 142 -55z" />
    <glyph glyph-name="uni0432" unicode="&#x432;" horiz-adv-x="507" 
d="M385 258c59 -19 88 -59 88 -120c0 -80 -54 -138 -154 -138h-242v500h223c95 0 149 -55 149 -131c0 -53 -21 -90 -64 -111zM300 451h-173v-173h173c64 0 98 32 98 88c0 53 -35 85 -98 85zM127 49h192c67 0 104 34 104 91c0 56 -39 89 -104 89h-192v-180z" />
    <glyph glyph-name="uni0433" unicode="&#x433;" horiz-adv-x="402" 
d="M77 500h313v-49h-263v-451h-50v500z" />
    <glyph glyph-name="uni0434" unicode="&#x434;" horiz-adv-x="590" 
d="M487 500v-451h70v-183h-51v134h-432v-134h-51v183h58c37 50 55 117 55 201v250h351zM143 49h293v402h-250v-201c0 -82 -14 -149 -43 -201z" />
    <glyph glyph-name="uni0435" unicode="&#x435;" horiz-adv-x="589" 
d="M302 511c73 0 133 -26 178 -78c46 -52 69 -114 69 -185c0 -5 -1 -19 -1 -24h-453c6 -56 28 -101 67 -136c39 -34 88 -51 145 -51c80 0 142 36 173 91l44 -26c-41 -69 -121 -113 -218 -113c-77 0 -140 24 -189 73s-74 112 -74 188c0 75 24 137 72 186c49 50 111 75 187 75
zM302 463c-57 0 -104 -18 -142 -53s-60 -81 -65 -137h402c-5 59 -27 106 -64 139c-37 34 -80 51 -131 51z" />
    <glyph glyph-name="uni0436" unicode="&#x436;" horiz-adv-x="663" 
d="M404 260l236 -260h-62l-221 246v-246h-51v246l-221 -246h-62l237 260l-227 240h62l211 -226v226h51v-226l211 226h62z" />
    <glyph glyph-name="uni0437" unicode="&#x437;" horiz-adv-x="445" 
d="M317 258c60 -20 95 -67 95 -124c0 -81 -67 -145 -184 -145c-100 0 -165 39 -195 118l43 25c21 -63 72 -95 152 -95c83 0 133 40 133 100c0 55 -43 92 -110 92h-69v49h50c65 0 105 36 105 92c0 53 -47 93 -118 93c-68 0 -113 -27 -135 -81l-42 24c28 64 89 105 177 105
c51 0 92 -14 122 -41c31 -27 46 -59 46 -98c0 -54 -23 -92 -70 -114z" />
    <glyph glyph-name="uni0438" unicode="&#x438;" horiz-adv-x="567" 
d="M127 87l319 413h44v-500h-51v413l-318 -413h-44v500h50v-413z" />
    <glyph glyph-name="uni0439" unicode="&#x439;" horiz-adv-x="567" 
d="M409 587h-253v44h253v-44zM127 87l319 413h44v-500h-51v413l-318 -413h-44v500h50v-413z" />
    <glyph glyph-name="uni043A" unicode="&#x43a;" horiz-adv-x="483" 
d="M181 260l279 -260h-68l-265 246v-246h-50v500h50v-227l253 227h70z" />
    <glyph glyph-name="uni043B" unicode="&#x43b;" horiz-adv-x="560" 
d="M131 500h352v-500h-50v451h-252v-241c0 -163 -64 -218 -168 -210v47c80 -7 118 38 118 163v290z" />
    <glyph glyph-name="uni043C" unicode="&#x43c;" horiz-adv-x="637" 
d="M500 500h60v-500h-51v424l-187 -295h-7l-188 297v-426h-50v500h59l182 -287z" />
    <glyph glyph-name="uni043D" unicode="&#x43d;" horiz-adv-x="567" 
d="M439 274v226h51v-500h-51v226h-312v-226h-50v500h50v-226h312z" />
    <glyph glyph-name="uni043E" unicode="&#x43e;" horiz-adv-x="611" 
d="M306 -11c-73 0 -136 25 -187 75c-51 51 -76 113 -76 186s25 135 76 185c51 51 114 76 187 76s134 -25 185 -76c51 -50 77 -112 77 -185s-26 -135 -77 -186c-51 -50 -112 -75 -185 -75zM155 99c41 -41 92 -62 151 -62s109 21 150 62s61 92 61 151s-20 110 -61 151
s-91 62 -150 62s-110 -21 -151 -62s-61 -92 -61 -151s20 -110 61 -151z" />
    <glyph glyph-name="uni043F" unicode="&#x43f;" horiz-adv-x="567" 
d="M77 500h413v-500h-51v451h-312v-451h-50v500z" />
    <glyph glyph-name="uni0440" unicode="&#x440;" horiz-adv-x="645" 
d="M342 511c72 0 133 -25 183 -76c51 -50 76 -112 76 -185s-25 -135 -76 -186c-50 -50 -111 -75 -183 -75c-95 0 -174 48 -215 127v-316h-50v700h50v-116c41 79 120 127 215 127zM188 99c41 -41 92 -62 151 -62s109 21 150 62s62 92 62 151s-21 110 -62 151s-91 62 -150 62
s-110 -21 -151 -62s-61 -92 -61 -151s20 -110 61 -151z" />
    <glyph glyph-name="uni0441" unicode="&#x441;" horiz-adv-x="561" 
d="M306 -11c-75 0 -138 25 -188 75s-75 112 -75 186s25 136 75 186s113 75 188 75c97 0 182 -49 218 -128l-41 -24c-29 64 -97 104 -177 104c-60 0 -110 -21 -151 -62s-61 -91 -61 -151s20 -111 61 -152s91 -61 151 -61c80 0 147 40 180 104l42 -25
c-40 -77 -125 -127 -222 -127z" />
    <glyph glyph-name="uni0442" unicode="&#x442;" horiz-adv-x="440" 
d="M13 500h414v-49h-182v-451h-50v451h-182v49z" />
    <glyph glyph-name="uni0443" unicode="&#x443;" horiz-adv-x="510" 
d="M269 55l174 445h54l-216 -546c-39 -99 -114 -161 -198 -154v47c64 -5 117 40 149 117l11 27l-230 509h54z" />
    <glyph glyph-name="uni0444" unicode="&#x444;" horiz-adv-x="670" 
d="M360 -11v-189h-50v189c-80 5 -145 31 -194 80s-73 110 -73 181s24 131 73 180s114 76 194 81v189h50v-189c80 -5 144 -32 193 -81s74 -109 74 -180s-25 -132 -74 -181s-113 -75 -193 -80zM310 38v424c-65 -5 -118 -27 -157 -66s-59 -88 -59 -146s20 -107 59 -146
s92 -61 157 -66zM360 462v-424c65 5 118 27 157 66s59 88 59 146s-20 107 -59 146s-92 61 -157 66z" />
    <glyph glyph-name="uni0445" unicode="&#x445;" horiz-adv-x="507" 
d="M284 258l199 -258h-61l-169 218l-169 -218h-61l200 257l-188 243h61l157 -203l158 203h60z" />
    <glyph glyph-name="uni0446" unicode="&#x446;" horiz-adv-x="593" 
d="M480 500v-451h80v-183h-51v134h-432v500h50v-451h302v451h51z" />
    <glyph glyph-name="uni0447" unicode="&#x447;" horiz-adv-x="537" 
d="M409 243v257h51v-500h-51v196c-44 -22 -95 -33 -152 -33c-128 0 -200 61 -200 174v163h50v-163c0 -84 49 -126 148 -126c55 0 106 11 154 32z" />
    <glyph glyph-name="uni0448" unicode="&#x448;" horiz-adv-x="817" 
d="M689 49v451h51v-500h-663v500h50v-451h256v451h51v-451h255z" />
    <glyph glyph-name="uni0449" unicode="&#x449;" horiz-adv-x="843" 
d="M740 500v-451h70v-183h-51v134h-682v500h50v-451h256v451h51v-451h255v451h51z" />
    <glyph glyph-name="uni044A" unicode="&#x44a;" horiz-adv-x="540" 
d="M194 306h147c46 0 85 -14 117 -43c33 -29 49 -65 49 -110s-16 -81 -49 -110c-32 -29 -71 -43 -117 -43h-198v451h-143v49h194v-194zM194 49h147c65 0 115 43 115 104c0 63 -50 104 -115 104h-147v-208z" />
    <glyph glyph-name="uni044B" unicode="&#x44b;" horiz-adv-x="644" 
d="M127 306h148c46 0 85 -14 117 -43s48 -65 48 -110s-16 -81 -48 -110s-71 -43 -117 -43h-198v500h50v-194zM517 0v500h50v-500h-50zM127 49h148c64 0 114 43 114 104c0 63 -49 104 -114 104h-148v-208z" />
    <glyph glyph-name="uni044C" unicode="&#x44c;" horiz-adv-x="473" 
d="M127 306h148c46 0 85 -14 117 -43s48 -65 48 -110s-16 -81 -48 -110s-71 -43 -117 -43h-198v500h50v-194zM127 49h148c64 0 114 43 114 104c0 63 -49 104 -114 104h-148v-208z" />
    <glyph glyph-name="uni044D" unicode="&#x44d;" horiz-adv-x="549" 
d="M253 511c76 0 137 -25 183 -74c47 -49 70 -112 70 -187s-23 -138 -70 -187s-108 -74 -184 -74c-107 0 -189 49 -225 128l43 26c27 -65 93 -106 182 -106c57 0 103 18 139 53c37 36 58 81 63 136h-259v48h259c-5 55 -26 101 -62 136s-82 53 -139 53
c-83 0 -149 -40 -180 -105l-44 25c40 79 123 128 224 128z" />
    <glyph glyph-name="uni044E" unicode="&#x44e;" horiz-adv-x="803" 
d="M498 511c73 0 134 -25 185 -76c51 -50 77 -112 77 -185s-26 -135 -77 -186c-51 -50 -112 -75 -185 -75c-69 0 -128 22 -177 67s-76 102 -82 170h-112v-226h-50v500h50v-226h112c6 68 33 124 82 169s108 68 177 68zM347 99c41 -41 92 -62 151 -62s109 21 150 62
s61 92 61 151s-20 110 -61 151s-91 62 -150 62s-110 -21 -151 -62s-61 -92 -61 -151s20 -110 61 -151z" />
    <glyph glyph-name="uni044F" unicode="&#x44f;" horiz-adv-x="500" 
d="M225 500h198v-500h-50v195h-108l-157 -195h-65l160 196c-81 9 -143 70 -143 151c0 45 16 81 48 110s71 43 117 43zM225 243h148v208h-148c-64 0 -114 -43 -114 -104c0 -63 49 -104 114 -104z" />
    <glyph glyph-name="uni0451" unicode="&#x451;" horiz-adv-x="589" 
d="M206 577c-21 0 -37 16 -37 36c0 21 16 37 37 37c20 0 36 -16 36 -37c0 -20 -16 -36 -36 -36zM386 577c-21 0 -37 16 -37 36c0 21 16 37 37 37c20 0 36 -16 36 -37c0 -20 -16 -36 -36 -36zM302 511c73 0 133 -26 178 -78c46 -52 69 -114 69 -185c0 -5 -1 -19 -1 -24h-453
c6 -56 28 -101 67 -136c39 -34 88 -51 145 -51c80 0 142 36 173 91l44 -26c-41 -69 -121 -113 -218 -113c-77 0 -140 24 -189 73s-74 112 -74 188c0 75 24 137 72 186c49 50 111 75 187 75zM302 463c-57 0 -104 -18 -142 -53s-60 -81 -65 -137h402c-5 59 -27 106 -64 139
c-37 34 -80 51 -131 51z" />
    <glyph glyph-name="uni0452" unicode="&#x452;" horiz-adv-x="577" 
d="M319 511c119 0 194 -79 194 -200v-368c0 -107 -59 -163 -166 -154v48c77 -8 116 27 116 106v368c0 93 -55 152 -148 152c-103 0 -174 -70 -174 -199v-264h-51v582h-73v42h73v76h51v-76h156v-42h-156v-175c37 69 96 104 178 104z" />
    <glyph glyph-name="uni0453" unicode="&#x453;" horiz-adv-x="402" 
d="M247 697h60l-91 -127h-49zM77 500h313v-49h-263v-451h-50v500z" />
    <glyph glyph-name="uni0454" unicode="&#x454;" horiz-adv-x="549" 
d="M479 143l43 -26c-36 -79 -118 -128 -225 -128c-76 0 -137 25 -184 74s-70 112 -70 187s23 138 69 187c47 49 108 74 184 74c101 0 184 -49 224 -128l-44 -25c-31 65 -97 105 -180 105c-57 0 -103 -18 -139 -53s-57 -81 -62 -136h259v-48h-259c5 -55 26 -100 62 -136
c37 -35 83 -53 140 -53c89 0 155 41 182 106z" />
    <glyph glyph-name="uni0455" unicode="&#x455;" horiz-adv-x="458" 
d="M111 369c0 -49 47 -75 107 -90c87 -19 196 -41 196 -148c0 -83 -72 -142 -179 -142c-96 0 -165 44 -190 111l43 25c19 -55 72 -88 147 -88s129 34 129 94c0 49 -47 78 -107 91c-87 21 -196 42 -196 147c0 40 16 74 47 101c32 27 73 41 123 41c80 0 142 -39 170 -100
l-42 -24c-20 49 -71 76 -128 76c-68 0 -120 -37 -120 -94z" />
    <glyph glyph-name="uni0456" unicode="&#x456;" horiz-adv-x="204" 
d="M62 661c-2 50 82 50 80 0c2 -52 -82 -52 -80 0zM127 0h-50v500h50v-500z" />
    <glyph glyph-name="uni0457" unicode="&#x457;" horiz-adv-x="204" 
d="M12 577c-21 0 -37 16 -37 36c0 21 16 37 37 37c20 0 36 -16 36 -37c0 -20 -16 -36 -36 -36zM192 577c-21 0 -37 16 -37 36c0 21 16 37 37 37c20 0 36 -16 36 -37c0 -20 -16 -36 -36 -36zM127 0h-50v500h50v-500z" />
    <glyph glyph-name="uni0458" unicode="&#x458;" horiz-adv-x="223" 
d="M161 661c4 -52 -84 -52 -80 0c-2 50 82 50 80 0zM96 -57v557h50v-557c0 -107 -59 -163 -166 -154v48c77 -8 116 27 116 106z" />
    <glyph glyph-name="uni0459" unicode="&#x459;" horiz-adv-x="803" 
d="M473 286h141c88 0 155 -54 155 -143s-67 -143 -155 -143h-191v451h-242v-241c0 -163 -64 -218 -168 -210v47c80 -7 118 38 118 163v290h342v-214zM473 49h141c61 0 105 34 105 94c0 61 -44 94 -105 94h-141v-188z" />
    <glyph glyph-name="uni045A" unicode="&#x45a;" horiz-adv-x="796" 
d="M467 286h140c89 0 156 -54 156 -143s-67 -143 -156 -143h-191v237h-292v-237h-51v500h51v-214h292v214h51v-214zM467 49h140c61 0 105 34 105 94c0 61 -42 94 -105 94h-140v-188z" />
    <glyph glyph-name="uni045B" unicode="&#x45b;" horiz-adv-x="577" 
d="M319 511c119 0 194 -79 194 -200v-311h-50v311c0 93 -55 152 -148 152c-103 0 -174 -70 -174 -199v-264h-51v582h-73v42h73v76h51v-76h156v-42h-156v-175c37 69 96 104 178 104z" />
    <glyph glyph-name="uni045C" unicode="&#x45c;" horiz-adv-x="483" 
d="M281 697h60l-91 -127h-49zM181 260l279 -260h-68l-265 246v-246h-50v500h50v-227l253 227h70z" />
    <glyph glyph-name="uni045E" unicode="&#x45e;" horiz-adv-x="510" 
d="M131 631h253v-44h-253v44zM269 55l174 445h54l-216 -546c-39 -99 -114 -161 -198 -154v47c64 -5 117 40 149 117l11 27l-230 509h54z" />
    <glyph glyph-name="uni045F" unicode="&#x45f;" horiz-adv-x="567" 
d="M439 49v451h51v-500h-181v-134h-51v134h-181v500h50v-451h312z" />
    <glyph glyph-name="uni0490" unicode="&#x490;" horiz-adv-x="493" 
d="M417 700v120h53v-170h-330v-650h-53v700h330z" />
    <glyph glyph-name="uni0491" unicode="&#x491;" horiz-adv-x="402" 
d="M339 500v104h51v-153h-263v-451h-50v500h262z" />
    <glyph glyph-name="Wgrave" unicode="&#x1e80;" horiz-adv-x="993" 
d="M522 770h-48l-92 127h60zM236 0h64l197 631l196 -631h64l203 700h-56l-180 -629l-196 629h-63l-195 -629l-181 629h-56z" />
    <glyph glyph-name="wgrave" unicode="&#x1e81;" horiz-adv-x="770" 
d="M353 697l80 -127h-48l-92 127h60zM551 65l133 435h53l-158 -500h-55l-139 426l-139 -426h-55l-158 500h53l133 -435l140 435h52z" />
    <glyph glyph-name="Wacute" unicode="&#x1e82;" horiz-adv-x="993" 
d="M432 770l80 127h60l-91 -127h-49zM236 0h64l197 631l196 -631h64l203 700h-56l-180 -629l-196 629h-63l-195 -629l-181 629h-56z" />
    <glyph glyph-name="wacute" unicode="&#x1e83;" horiz-adv-x="770" 
d="M423 697h60l-91 -127h-49zM551 65l133 435h53l-158 -500h-55l-139 426l-139 -426h-55l-158 500h53l133 -435l140 435h52z" />
    <glyph glyph-name="Wdieresis" unicode="&#x1e84;" horiz-adv-x="993" 
d="M384 777c-21 0 -37 16 -37 36c0 21 16 37 37 37c20 0 36 -16 36 -37c0 -20 -16 -36 -36 -36zM564 777c-21 0 -37 16 -37 36c0 21 16 37 37 37c20 0 36 -16 36 -37c0 -20 -16 -36 -36 -36zM300 0h-64l-203 700h56l181 -629l195 629h63l196 -629l180 629h56l-203 -700h-64
l-196 631z" />
    <glyph glyph-name="wdieresis" unicode="&#x1e85;" horiz-adv-x="770" 
d="M295 577c-21 0 -37 16 -37 36c0 21 16 37 37 37c20 0 36 -16 36 -37c0 -20 -16 -36 -36 -36zM475 577c-21 0 -37 16 -37 36c0 21 16 37 37 37c20 0 36 -16 36 -37c0 -20 -16 -36 -36 -36zM551 65l133 435h53l-158 -500h-55l-139 426l-139 -426h-55l-158 500h53l133 -435
l140 435h52z" />
    <glyph glyph-name="Ygrave" unicode="&#x1ef2;" horiz-adv-x="583" 
d="M257 897l80 -127h-48l-92 127h60zM513 700h60l-255 -412v-288h-53v288l-255 412h60l222 -361z" />
    <glyph glyph-name="ygrave" unicode="&#x1ef3;" horiz-adv-x="510" 
d="M226 697l80 -127h-48l-92 127h60zM269 55l174 445h54l-216 -546c-39 -99 -114 -161 -198 -154v47c64 -5 117 40 149 117l11 27l-230 509h54z" />
    <glyph glyph-name="endash" unicode="&#x2013;" horiz-adv-x="673" 
d="M587 285h-500v48h500v-48z" />
    <glyph glyph-name="emdash" unicode="&#x2014;" horiz-adv-x="773" 
d="M687 285h-600v48h600v-48z" />
    <glyph glyph-name="quoteleft" unicode="&#x2018;" horiz-adv-x="223" 
d="M123 492h-62l54 208h46z" />
    <glyph glyph-name="quoteright" unicode="&#x2019;" horiz-adv-x="223" 
d="M100 700h62l-54 -208h-46z" />
    <glyph glyph-name="quotesinglbase" unicode="&#x201a;" horiz-adv-x="223" 
d="M100 68h62l-54 -208h-46z" />
    <glyph glyph-name="quotedblleft" unicode="&#x201c;" horiz-adv-x="350" 
d="M123 492h-62l54 208h46zM250 492h-62l54 208h46z" />
    <glyph glyph-name="quotedblright" unicode="&#x201d;" horiz-adv-x="350" 
d="M100 700h62l-54 -208h-46zM227 700h62l-54 -208h-46z" />
    <glyph glyph-name="quotedblbase" unicode="&#x201e;" horiz-adv-x="350" 
d="M100 68h62l-54 -208h-46zM227 68h62l-54 -208h-46z" />
    <glyph glyph-name="dagger" unicode="&#x2020;" horiz-adv-x="473" 
d="M262 527h148v-48h-148v-479h-51v479h-148v48h148v173h51v-173z" />
    <glyph glyph-name="daggerdbl" unicode="&#x2021;" horiz-adv-x="473" 
d="M410 527v-48h-148v-258h148v-48h-148v-173h-51v173h-148v48h148v258h-148v48h148v173h51v-173h148z" />
    <glyph glyph-name="bullet" unicode="&#x2022;" horiz-adv-x="280" 
d="M141 263c-49 0 -88 39 -88 88c0 48 39 86 88 86c48 0 86 -38 86 -86c0 -49 -38 -88 -86 -88z" />
    <glyph glyph-name="ellipsis" unicode="&#x2026;" horiz-adv-x="593" 
d="M139 3c-17 -17 -47 -17 -64 0s-17 47 0 64s47 17 64 0s17 -47 0 -64zM329 3c-17 -17 -47 -17 -64 0s-17 47 0 64s47 17 64 0s17 -47 0 -64zM519 3c-17 -17 -47 -17 -64 0s-17 47 0 64s47 17 64 0s17 -47 0 -64z" />
    <glyph glyph-name="perthousand" unicode="&#x2030;" horiz-adv-x="1076" 
d="M216 413c-44 0 -81 14 -110 43s-43 64 -43 106s14 77 43 106s66 43 110 43s80 -14 109 -43s44 -64 44 -106s-14 -77 -43 -106s-65 -43 -110 -43zM142 488c19 -19 44 -29 74 -29s55 10 74 29c20 20 30 45 30 74s-10 54 -30 73c-19 20 -44 30 -74 30s-55 -10 -74 -30
c-19 -19 -29 -44 -29 -73s10 -54 29 -74zM134 71l-33 19l475 534l34 -19zM608 32c-29 -29 -65 -43 -109 -43s-81 14 -110 43s-43 64 -43 106s14 77 43 106s66 43 110 43s80 -14 109 -43s44 -64 44 -106s-15 -77 -44 -106zM968 32c-29 -29 -65 -43 -109 -43s-81 14 -110 43
s-43 64 -43 106s14 77 43 106s66 43 110 43s80 -14 109 -43s44 -64 44 -106s-15 -77 -44 -106zM425 64c19 -19 44 -29 74 -29s55 10 74 29c20 20 30 45 30 74s-10 54 -30 73c-19 20 -44 30 -74 30s-55 -10 -74 -30c-19 -19 -29 -44 -29 -73s10 -54 29 -74zM785 64
c19 -19 44 -29 74 -29s55 10 74 29c20 20 30 45 30 74s-10 54 -30 73c-19 20 -44 30 -74 30s-55 -10 -74 -30c-19 -19 -29 -44 -29 -73s10 -54 29 -74z" />
    <glyph glyph-name="guilsinglleft" unicode="&#x2039;" horiz-adv-x="329" 
d="M187 482h62l-107 -173l107 -173h-62l-107 173z" />
    <glyph glyph-name="guilsinglright" unicode="&#x203a;" horiz-adv-x="329" 
d="M80 482h62l107 -173l-107 -173h-62l107 173z" />
    <glyph glyph-name="fraction" unicode="&#x2044;" horiz-adv-x="227" 
d="M340 700l-407 -700h-46l406 700h47z" />
    <glyph glyph-name="Euro" unicode="&#x20ac;" horiz-adv-x="602" 
d="M367 40c78 0 132 36 161 109l44 -25c-35 -85 -108 -135 -205 -135c-144 0 -239 107 -262 279h-82v45h78c-1 8 -1 20 -1 37c0 19 0 34 1 43h-78v44h83c23 169 118 274 261 274c97 0 170 -49 205 -134l-44 -25c-28 69 -86 108 -161 108c-109 0 -187 -82 -208 -223h268v-44
h-273c-1 -9 -1 -24 -1 -43c0 -17 0 -29 1 -37h273v-45h-269c21 -145 98 -228 209 -228z" />
    <glyph glyph-name="uni20BD" unicode="&#x20bd;" horiz-adv-x="577" 
d="M343 287h-186v-104h266v-44h-266v-139h-54v139h-90v44h90v104h-90v50h90v363h240c57 0 105 -20 146 -61s61 -89 61 -146s-20 -105 -61 -146c-41 -40 -89 -60 -146 -60zM343 650h-186v-313h186c43 0 79 15 109 45c30 31 45 68 45 111s-15 80 -45 111s-66 46 -109 46z" />
    <glyph glyph-name="uni2116" unicode="&#x2116;" horiz-adv-x="1019" 
d="M826 418c-43 0 -78 14 -107 42c-29 29 -43 63 -43 104s14 75 43 104s64 43 107 43s78 -14 107 -43s43 -63 43 -104s-14 -76 -43 -104c-28 -28 -64 -42 -107 -42zM547 98v602h53v-700h-47l-413 602v-602h-53v700h46zM826 464c29 0 53 9 72 28s28 43 28 72s-10 53 -29 72
s-42 29 -71 29c-57 0 -100 -44 -100 -101c0 -56 43 -100 100 -100zM965 290h-277v49h277v-49z" />
    <glyph glyph-name="trademark" unicode="&#x2122;" horiz-adv-x="478" 
d="M50 700h151v-31h-59v-169h-33v169h-59v31zM328 593l67 107h33v-200h-33v143l-65 -104h-4l-65 104v-143h-33v200h33z" />
    <glyph glyph-name="estimated" unicode="&#x212e;" horiz-adv-x="833" 
d="M787 350c0 -10 -5 -15 -15 -15h-560c-10 0 -15 -5 -15 -15v-192c0 -7 2 -14 7 -19c56 -59 134 -89 233 -89c97 0 174 32 231 97c5 6 11 9 18 9h37c13 0 18 -10 9 -19c-73 -78 -171 -117 -295 -117c-117 0 -212 34 -283 103s-107 155 -107 257c0 101 34 187 103 256
s158 104 267 104s197 -35 266 -104s104 -155 104 -256zM637 380v192c0 7 -2 14 -7 19c-56 59 -127 89 -213 89s-157 -30 -213 -89c-5 -5 -7 -12 -7 -19v-192c0 -10 5 -15 15 -15h410c10 0 15 5 15 15z" />
    <glyph glyph-name="oneeighth" unicode="&#x215b;" horiz-adv-x="815" 
d="M174 700v-400h-48v346l-100 -33l-13 42l123 45h38zM133 0l406 700h47l-407 -700h-46zM715 210c47 -21 70 -57 70 -106c0 -71 -57 -116 -141 -116s-142 45 -142 116c0 48 27 86 71 106c-39 21 -58 51 -58 90c0 69 56 112 129 112c72 0 128 -43 128 -112
c0 -39 -19 -69 -57 -90zM644 367c-49 0 -81 -26 -81 -67s33 -68 81 -68c47 0 80 27 80 68s-32 67 -80 67zM644 186c-57 0 -94 -29 -94 -76s37 -76 94 -76s93 29 93 76s-38 76 -93 76z" />
    <glyph glyph-name="threeeighths" unicode="&#x215c;" horiz-adv-x="918" 
d="M308 415c0 -75 -55 -127 -142 -127c-67 0 -113 27 -138 81l40 23c17 -39 50 -58 98 -58c61 0 94 33 94 81s-35 82 -94 82h-4l-23 35l97 122h-196v46h252v-46l-96 -119c71 -9 112 -56 112 -120zM236 0l406 700h47l-407 -700h-46zM818 210c47 -21 70 -57 70 -106
c0 -71 -57 -116 -141 -116s-142 45 -142 116c0 48 27 86 71 106c-39 21 -58 51 -58 90c0 69 56 112 129 112c72 0 128 -43 128 -112c0 -39 -19 -69 -57 -90zM747 367c-49 0 -81 -26 -81 -67s33 -68 81 -68c47 0 80 27 80 68s-32 67 -80 67zM747 186c-57 0 -94 -29 -94 -76
s37 -76 94 -76s93 29 93 76s-38 76 -93 76z" />
    <glyph glyph-name="fiveeighths" unicode="&#x215d;" horiz-adv-x="908" 
d="M301 415c0 -76 -55 -127 -140 -127c-66 0 -111 27 -136 80l41 23c17 -38 48 -57 95 -57c57 0 92 32 92 81c0 52 -35 84 -92 84h-118l15 201h227v-45h-186l-7 -110h70c83 0 139 -53 139 -130zM226 0l406 700h47l-407 -700h-46zM808 210c47 -21 70 -57 70 -106
c0 -71 -57 -116 -141 -116s-142 45 -142 116c0 48 27 86 71 106c-39 21 -58 51 -58 90c0 69 56 112 129 112c72 0 128 -43 128 -112c0 -39 -19 -69 -57 -90zM737 367c-49 0 -81 -26 -81 -67s33 -68 81 -68c47 0 80 27 80 68s-32 67 -80 67zM737 186c-57 0 -94 -29 -94 -76
s37 -76 94 -76s93 29 93 76s-38 76 -93 76z" />
    <glyph glyph-name="seveneighths" unicode="&#x215e;" horiz-adv-x="878" 
d="M17 700h266v-39l-155 -361h-51l153 354h-213v46zM196 0l406 700h47l-407 -700h-46zM778 210c47 -21 70 -57 70 -106c0 -71 -57 -116 -141 -116s-142 45 -142 116c0 48 27 86 71 106c-39 21 -58 51 -58 90c0 69 56 112 129 112c72 0 128 -43 128 -112
c0 -39 -19 -69 -57 -90zM707 367c-49 0 -81 -26 -81 -67s33 -68 81 -68c47 0 80 27 80 68s-32 67 -80 67zM707 186c-57 0 -94 -29 -94 -76s37 -76 94 -76s93 29 93 76s-38 76 -93 76z" />
    <glyph glyph-name="arrowleft" unicode="&#x2190;" horiz-adv-x="827" 
d="M156 374h607v-48h-607l276 -276h-69l-300 300l300 300h69z" />
    <glyph glyph-name="arrowup" unicode="&#x2191;" horiz-adv-x="727" 
d="M363 700l300 -300v-69l-274 274v-605h-51v606l-275 -275v69z" />
    <glyph glyph-name="arrowright" unicode="&#x2192;" horiz-adv-x="827" 
d="M394 650h69l300 -300l-300 -300h-69l276 276h-607v48h607z" />
    <glyph glyph-name="arrowdown" unicode="&#x2193;" horiz-adv-x="727" 
d="M389 700v-605l274 274v-69l-300 -300l-300 300v69l275 -275v606h51z" />
    <glyph glyph-name="arrowboth" unicode="&#x2194;" horiz-adv-x="1033" 
d="M655 597h69l246 -247l-246 -247h-69l222 223h-721l222 -223h-69l-246 247l246 247h69l-222 -223h721z" />
    <glyph glyph-name="arrowupdn" unicode="&#x2195;" horiz-adv-x="627" 
d="M560 557v-69l-221 220v-716l221 220v-69l-247 -246l-246 246v69l221 -221v718l-221 -221v69l246 246z" />
    <glyph glyph-name="uni2196" unicode="&#x2196;" horiz-adv-x="639" 
d="M147 539l429 -428l-36 -37l-428 428v-387l-49 48v424h424l49 -48h-389z" />
    <glyph glyph-name="uni2197" unicode="&#x2197;" horiz-adv-x="639" 
d="M104 539l48 48h424v-424l-48 -48v388l-428 -429l-37 37l429 428h-388z" />
    <glyph glyph-name="uni2198" unicode="&#x2198;" horiz-adv-x="639" 
d="M528 173v388l48 -48v-424h-424l-48 48h388l-429 428l37 37z" />
    <glyph glyph-name="uni2199" unicode="&#x2199;" horiz-adv-x="639" 
d="M540 602l36 -37l-429 -428h389l-49 -48h-424v424l49 48v-387z" />
    <glyph glyph-name="partialdiff" unicode="&#x2202;" horiz-adv-x="577" 
d="M233 711c80 0 147 -33 200 -100c54 -66 81 -153 81 -261c0 -113 -24 -202 -72 -266c-47 -63 -109 -95 -184 -95c-63 0 -113 20 -150 60s-55 90 -55 151c0 69 20 124 60 166c41 43 96 64 167 64c69 0 130 -19 183 -56c-3 82 -26 150 -67 205s-96 83 -163 83
c-47 0 -89 -11 -127 -34v49c36 23 78 34 127 34zM258 37c120 0 197 108 204 285c-53 39 -113 59 -182 59c-108 0 -176 -66 -176 -181c0 -96 57 -163 154 -163z" />
    <glyph glyph-name="emptyset" unicode="&#x2205;" horiz-adv-x="817" 
d="M743 720l-87 -105c77 -71 115 -160 115 -265c0 -100 -35 -185 -106 -256c-71 -70 -156 -105 -256 -105c-79 0 -151 23 -214 70l-66 -79h-55l88 106c-77 71 -115 159 -115 264c0 100 35 185 106 255c71 71 156 106 256 106c79 0 151 -23 214 -70l65 79h55zM93 350
c0 -91 33 -168 98 -230l403 487c-55 40 -116 60 -185 60c-87 0 -162 -31 -224 -93c-61 -61 -92 -136 -92 -224zM409 33c87 0 162 31 223 92c61 62 92 137 92 225c0 91 -32 167 -97 230l-404 -487c55 -40 117 -60 186 -60z" />
    <glyph glyph-name="product" unicode="&#x220f;" horiz-adv-x="640" 
d="M137 -200h-50v900h466v-900h-50v851h-366v-851z" />
    <glyph glyph-name="summation" unicode="&#x2211;" horiz-adv-x="541" 
d="M507 -200h-450v49l253 411l-239 390v50h421v-49h-364l240 -391l-253 -411h392v-49z" />
    <glyph glyph-name="minus" unicode="&#x2212;" horiz-adv-x="540" 
d="M477 326h-414v48h414v-48z" />
    <glyph glyph-name="radical" unicode="&#x221a;" horiz-adv-x="639" 
d="M349 0h-54l-148 251h-84v49h113l140 -240l246 740h54z" />
    <glyph glyph-name="infinity" unicode="&#x221e;" horiz-adv-x="806" 
d="M590 507c45 0 82 -15 111 -45c30 -29 45 -67 45 -112s-15 -83 -45 -113c-29 -29 -66 -44 -111 -44c-77 0 -131 46 -187 118c-55 -71 -108 -118 -187 -118c-45 0 -82 15 -112 44c-29 30 -44 68 -44 113s15 83 44 112c30 30 67 45 112 45c79 0 132 -47 187 -118
c56 72 110 118 187 118zM217 239c61 0 108 43 157 111c-49 68 -96 111 -157 111c-63 0 -107 -46 -107 -111s44 -111 107 -111zM590 239c63 0 107 46 107 111s-44 111 -107 111c-60 0 -106 -42 -157 -111c51 -69 97 -111 157 -111z" />
    <glyph glyph-name="integral" unicode="&#x222b;" horiz-adv-x="436" 
d="M0 -203v50c69 -28 118 2 131 77l112 653c19 111 89 156 193 125v-49c-83 27 -130 -1 -143 -77l-111 -653c-19 -111 -90 -155 -182 -126z" />
    <glyph glyph-name="approxequal" unicode="&#x2248;" horiz-adv-x="587" 
d="M282 409c-92 60 -150 47 -173 -40l-46 22c25 86 103 152 242 60c93 -61 150 -47 172 40l46 -22c-25 -86 -99 -152 -241 -60zM109 209l-46 22c25 86 103 152 242 60c93 -61 150 -47 172 40l46 -22c-25 -86 -99 -152 -241 -60c-92 60 -150 47 -173 -40z" />
    <glyph glyph-name="notequal" unicode="&#x2260;" horiz-adv-x="537" 
d="M473 474v-48h-149l-68 -152h217v-48h-239l-70 -154h-40l70 154h-131v48h153l68 152h-221v48h243l70 154h40l-70 -154h127z" />
    <glyph glyph-name="lessequal" unicode="&#x2264;" horiz-adv-x="527" 
d="M64 435l400 158v-56l-338 -127l338 -127v-56l-400 158v50zM464 107h-400v48h400v-48z" />
    <glyph glyph-name="greaterequal" unicode="&#x2265;" horiz-adv-x="527" 
d="M63 537v56l400 -158v-50l-400 -158v56l338 127zM463 107h-400v48h400v-48z" />
    <glyph glyph-name="lozenge" unicode="&#x25ca;" horiz-adv-x="538" 
d="M295 0h-52l-186 350l186 350h52l186 -350zM111 350l158 -295l158 295l-158 295z" />
    <glyph glyph-name="i.loclTRK" horiz-adv-x="204" 
d="M102 573c-27 0 -47 20 -47 47s20 47 47 47c25 0 46 -20 46 -47s-21 -47 -46 -47zM127 0h-50v500h50v-500z" />
    <glyph glyph-name="f_f_j" horiz-adv-x="780" 
d="M434 500h269v-557c0 -107 -59 -163 -166 -154v48c77 -8 116 27 116 106v508h-219v-451h-51v451h-219v-451h-51v451h-86v49h86v27c0 125 71 193 200 184v-48c-99 8 -149 -37 -149 -136v-27h219v37c0 123 67 184 200 184c29 0 62 -4 97 -11v-46c-33 6 -66 9 -97 9
c-104 0 -149 -40 -149 -136v-37z" />
    <glyph glyph-name="f_j" horiz-adv-x="510" 
d="M164 500h270v-557c0 -107 -60 -163 -167 -154v48c77 -8 116 27 116 106v508h-219v-451h-51v451h-86v49h86v27c0 123 67 184 200 184c30 0 62 -4 97 -11v-46c-33 6 -66 9 -97 9c-103 0 -149 -40 -149 -136v-27z" />
    <glyph glyph-name="uni0414.loclBGR" horiz-adv-x="703" 
d="M380 700l233 -650h64v-184h-54v134h-543v-134h-53v184h64l233 650h56zM352 635l-205 -585h410z" />
    <glyph glyph-name="uni041B.loclBGR" horiz-adv-x="605" 
d="M13 0l261 700h56l261 -700h-57l-232 631l-231 -631h-58z" />
    <glyph glyph-name="uni0424.loclBGR" horiz-adv-x="851" 
d="M452 -10v-90h-53v90c-104 5 -189 41 -254 106s-98 150 -98 254s33 189 98 254s150 101 254 106v90h53v-90c105 -5 189 -41 254 -106s98 -150 98 -254s-33 -189 -98 -254s-149 -101 -254 -106zM399 38v624c-91 -5 -164 -36 -218 -93c-54 -56 -81 -129 -81 -219
s27 -163 81 -220c54 -56 127 -87 218 -92zM452 662v-624c91 5 164 36 218 93s81 130 81 219s-27 162 -81 219s-127 88 -218 93z" />
    <glyph glyph-name="uni0414.ss01" horiz-adv-x="690" 
d="M578 700v-650h74v-50h-634v50h56c48 54 72 138 72 251v399h432zM199 650v-350c0 -108 -21 -191 -62 -250h388v600h-326z" />
    <glyph glyph-name="uni0426.ss01" horiz-adv-x="690" 
d="M580 700v-650h73v-50h-566v700h53v-650h387v650h53z" />
    <glyph glyph-name="uni0429.ss01" horiz-adv-x="980" 
d="M870 700v-650h73v-50h-856v700h53v-650h312v650h53v-650h312v650h53z" />
    <glyph glyph-name="uni0414.loclBGR.ss01" horiz-adv-x="703" 
d="M380 700l233 -650h64v-50h-650v50h64l233 650h56zM352 635l-205 -585h410z" />
    <glyph glyph-name="uni0432.loclBGR" horiz-adv-x="573" 
d="M389 402c91 -24 141 -97 141 -202c0 -133 -84 -211 -227 -211s-226 89 -226 241v238c0 152 80 243 213 243c54 0 97 -15 129 -46s48 -69 48 -116c0 -56 -26 -105 -78 -147zM290 663c-101 0 -163 -75 -163 -195v-88l115 23c27 5 55 8 84 8c60 39 90 85 90 138
c0 64 -49 114 -126 114zM479 200c0 121 -89 183 -237 154l-115 -23v-101c0 -121 65 -193 176 -193s176 60 176 163z" />
    <glyph glyph-name="uni0433.loclBGR" horiz-adv-x="458" 
d="M375 130l43 -25c-27 -68 -95 -116 -191 -116c-53 0 -96 13 -129 39c-33 27 -50 61 -50 102c0 68 46 109 105 126c86 25 193 36 193 115c0 57 -51 92 -112 92c-63 0 -114 -30 -135 -81l-42 24c28 64 92 105 177 105c47 0 86 -13 117 -40s46 -60 46 -100
c0 -182 -298 -104 -298 -241c0 -60 55 -93 128 -93s128 37 148 93z" />
    <glyph glyph-name="uni0434.loclBGR" horiz-adv-x="648" 
d="M521 384v116h50v-476c0 -73 -24 -130 -71 -172s-107 -63 -178 -63c-115 0 -199 45 -236 120l44 25c32 -65 96 -97 192 -97c124 0 199 72 199 187v92c-41 -79 -120 -127 -215 -127c-72 0 -133 25 -184 75c-50 51 -75 113 -75 186s25 135 75 185c51 51 112 76 184 76
c95 0 174 -48 215 -127zM158 99c41 -41 92 -62 151 -62s109 21 150 62s62 92 62 151s-21 110 -62 151s-91 62 -150 62s-110 -21 -151 -62s-61 -92 -61 -151s20 -110 61 -151z" />
    <glyph glyph-name="uni0436.loclBGR" horiz-adv-x="663" 
d="M404 260l236 -260h-62l-221 245v-245h-51v245l-221 -245h-62l237 260l-227 240h62l211 -226v426h51v-426l211 226h62z" />
    <glyph glyph-name="uni0438.loclBGR" 
d="M437 236v264h50v-500h-50v95c-36 -71 -96 -106 -179 -106c-119 0 -194 79 -194 200v311h51v-311c0 -93 54 -152 147 -152c103 0 175 70 175 199z" />
    <glyph glyph-name="uni0439.loclBGR" 
d="M147 631h253v-44h-253v44zM437 236v264h50v-500h-50v95c-36 -71 -96 -106 -179 -106c-119 0 -194 79 -194 200v311h51v-311c0 -93 54 -152 147 -152c103 0 175 70 175 199z" />
    <glyph glyph-name="uni043A.loclBGR" horiz-adv-x="483" 
d="M181 260l279 -260h-68l-265 246v-246h-50v700h50v-427l253 227h70z" />
    <glyph glyph-name="uni043B.loclBGR" horiz-adv-x="511" 
d="M286 500l211 -500h-53l-189 448l-188 -448h-54l212 500h61z" />
    <glyph glyph-name="uni043F.loclBGR" 
d="M306 511c119 0 194 -79 194 -200v-311h-51v311c0 93 -54 152 -147 152c-103 0 -175 -70 -175 -199v-264h-50v500h50v-95c36 71 96 106 179 106z" />
    <glyph glyph-name="uni0442.loclBGR" horiz-adv-x="857" 
d="M611 511c109 0 182 -71 182 -194v-317h-50v317c0 93 -53 146 -133 146c-89 0 -150 -61 -150 -184v-279h-50v317c0 93 -49 146 -128 146c-88 0 -155 -63 -155 -184v-279h-50v500h50v-86c35 65 88 97 161 97s131 -37 156 -102c35 68 98 102 167 102z" />
    <glyph glyph-name="uni0446.loclBGR" horiz-adv-x="594" 
d="M528 49h33v-183h-51v135c-45 5 -74 40 -74 89v3c-37 -69 -96 -104 -178 -104c-119 0 -194 79 -194 200v311h50v-311c0 -93 55 -152 148 -152c103 0 174 70 174 199v264h51v-410c0 -25 16 -41 41 -41z" />
    <glyph glyph-name="uni0448.loclBGR" horiz-adv-x="857" 
d="M730 221v279h50v-500h-50v86c-35 -65 -88 -97 -161 -97s-131 37 -156 102c-35 -68 -98 -102 -167 -102c-109 0 -182 71 -182 194v317h50v-317c0 -93 53 -146 133 -146c89 0 150 61 150 184v279h50v-317c0 -93 49 -146 128 -146c88 0 155 63 155 184z" />
    <glyph glyph-name="uni0449.loclBGR" horiz-adv-x="888" 
d="M822 49h32v-183h-50v135c-44 5 -73 37 -74 85c-35 -65 -88 -97 -161 -97s-131 37 -156 102c-35 -68 -98 -102 -167 -102c-109 0 -182 71 -182 194v317h50v-317c0 -93 53 -146 133 -146c89 0 150 61 150 184v279h50v-317c0 -93 49 -146 128 -146c88 0 155 63 155 184v279
h50v-410c0 -25 17 -41 42 -41z" />
    <glyph glyph-name="uni044C.loclBGR" horiz-adv-x="480" 
d="M114 332h141c119 0 192 -63 192 -167c0 -49 -18 -91 -54 -125s-82 -51 -138 -51c-120 0 -191 73 -191 176v335h50v-168zM255 37c41 0 75 13 101 38c27 25 40 55 40 90c0 73 -54 118 -141 118h-141v-118c0 -72 53 -128 141 -128z" />
    <glyph glyph-name="uni044A.loclBGR" horiz-adv-x="565" 
d="M197 332h141c119 0 192 -63 192 -167c0 -49 -18 -91 -54 -125s-82 -51 -138 -51c-120 0 -191 73 -191 176v286h-147v49h197v-168zM338 37c41 0 75 13 101 38c27 25 40 55 40 90c0 73 -54 118 -141 118h-141v-118c0 -72 53 -128 141 -128z" />
    <glyph glyph-name="uni044E.loclBGR" horiz-adv-x="803" 
d="M498 511c73 0 134 -25 185 -76c51 -50 77 -112 77 -185s-26 -135 -77 -186c-51 -50 -112 -75 -185 -75c-69 0 -128 22 -177 67s-76 102 -82 170h-112v-226h-50v700h50v-426h112c6 68 33 124 82 169s108 68 177 68zM347 99c41 -41 92 -62 151 -62s109 21 150 62
s61 92 61 151s-20 110 -61 151s-91 62 -150 62s-110 -21 -151 -62s-61 -92 -61 -151s20 -110 61 -151z" />
    <glyph glyph-name="zero.sinf" horiz-adv-x="410" 
d="M331 -114c-31 -39 -73 -58 -126 -58s-95 19 -126 58s-46 90 -46 154s15 115 46 154s73 58 126 58s95 -19 126 -58s46 -90 46 -154s-15 -115 -46 -154zM114 -82c22 -29 52 -44 91 -44s69 15 91 44s33 69 33 122s-11 93 -33 122s-52 44 -91 44s-69 -15 -91 -44
s-33 -69 -33 -122s11 -93 33 -122z" />
    <glyph glyph-name="one.sinf" horiz-adv-x="238" 
d="M13 195l123 45h38v-400h-48v346l-100 -33z" />
    <glyph glyph-name="two.sinf" horiz-adv-x="343" 
d="M309 -160h-275v39l175 163c29 26 44 56 44 90c0 43 -31 74 -83 74c-47 0 -78 -22 -95 -66l-40 22c21 56 70 90 135 90c79 0 131 -52 131 -120c0 -44 -20 -84 -59 -121l-137 -125h204v-46z" />
    <glyph glyph-name="three.sinf" horiz-adv-x="345" 
d="M292 194l-96 -119c71 -9 112 -56 112 -120c0 -75 -55 -127 -142 -127c-67 0 -113 27 -138 81l40 23c17 -39 50 -58 98 -58c61 0 94 33 94 81s-35 82 -94 82h-4l-23 35l97 122h-196v46h252v-46z" />
    <glyph glyph-name="four.sinf" horiz-adv-x="356" 
d="M278 -35h54v-45h-54v-80h-48v80h-213v45l150 275h52l-150 -275h161v104h48v-104z" />
    <glyph glyph-name="five.sinf" horiz-adv-x="325" 
d="M95 85h70c83 0 139 -53 139 -130c0 -76 -55 -127 -140 -127c-66 0 -111 27 -136 80l41 23c17 -38 48 -57 95 -57c57 0 92 32 92 81c0 52 -35 84 -92 84h-118l15 201h227v-45h-186z" />
    <glyph glyph-name="six.sinf" horiz-adv-x="335" 
d="M167 100c41 0 76 -13 103 -39c28 -25 42 -57 42 -96s-14 -72 -42 -98c-27 -26 -62 -39 -103 -39s-75 13 -103 39c-27 26 -41 59 -41 98c0 25 6 48 19 69l133 206h57l-96 -143c10 2 20 3 31 3zM167 -126c57 0 97 38 97 91s-40 89 -97 89c-56 0 -96 -36 -96 -89
s40 -91 96 -91z" />
    <glyph glyph-name="seven.sinf" horiz-adv-x="309" 
d="M17 194v46h266v-39l-155 -361h-51l153 354h-213z" />
    <glyph glyph-name="eight.sinf" horiz-adv-x="342" 
d="M242 50c47 -21 70 -57 70 -106c0 -71 -57 -116 -141 -116s-142 45 -142 116c0 48 27 86 71 106c-39 21 -58 51 -58 90c0 69 56 112 129 112c72 0 128 -43 128 -112c0 -39 -19 -69 -57 -90zM171 207c-49 0 -81 -26 -81 -67s33 -68 81 -68c47 0 80 27 80 68s-32 67 -80 67z
M171 26c-57 0 -94 -29 -94 -76s37 -76 94 -76s93 29 93 76s-38 76 -93 76z" />
    <glyph glyph-name="nine.sinf" horiz-adv-x="335" 
d="M312 115c0 -25 -6 -48 -19 -69l-133 -206h-57l96 143c-10 -2 -20 -3 -31 -3c-41 0 -76 13 -104 38c-27 26 -41 58 -41 97s14 72 41 98c28 26 63 39 104 39s75 -13 102 -39c28 -26 42 -59 42 -98zM168 26c56 0 96 36 96 89s-40 91 -96 91c-57 0 -97 -38 -97 -91
s40 -89 97 -89z" />
    <glyph glyph-name="zero.tf" horiz-adv-x="570" 
d="M478 87c-46 -65 -110 -98 -193 -98s-147 33 -193 98s-69 153 -69 263s23 198 69 263s110 98 193 98s147 -33 193 -98s69 -153 69 -263s-23 -198 -69 -263zM132 121c37 -54 88 -81 153 -81s116 27 153 81c37 55 55 131 55 229s-18 174 -55 228c-37 55 -88 82 -153 82
s-116 -27 -153 -82c-37 -54 -55 -130 -55 -228s18 -174 55 -229z" />
    <glyph glyph-name="one.tf" horiz-adv-x="570" 
d="M330 700v-649h212v-51h-500v51h235v591l-162 -51l-14 46l184 63h45z" />
    <glyph glyph-name="two.tf" horiz-adv-x="570" 
d="M530 0h-480v48l267 233c92 80 143 143 143 214c0 101 -68 165 -176 165c-83 0 -149 -45 -180 -120l-44 26c39 91 125 145 224 145c67 0 121 -20 164 -59s65 -91 65 -157c0 -88 -58 -166 -159 -251l-229 -193h405v-51z" />
    <glyph glyph-name="three.tf" horiz-adv-x="570" 
d="M494 650l-184 -240c131 -12 217 -88 217 -208c0 -66 -23 -118 -70 -156s-107 -57 -181 -57c-115 0 -209 55 -242 146l45 26c23 -73 98 -121 197 -121c123 0 198 61 198 162s-75 162 -198 162v1l-1 -1h-14l-23 35l193 251h-377v50h440v-50z" />
    <glyph glyph-name="four.tf" horiz-adv-x="570" 
d="M453 197h90v-50h-90v-147h-53v147h-377v50l266 503h58l-266 -503h319v206h53v-206z" />
    <glyph glyph-name="five.tf" horiz-adv-x="570" 
d="M136 415h149c70 0 128 -19 174 -57s69 -90 69 -156s-23 -118 -69 -156s-104 -57 -174 -57c-113 0 -208 56 -240 147l44 26c24 -75 97 -122 196 -122c115 0 190 62 190 162s-75 162 -190 162h-205l23 336h399v-50h-350z" />
    <glyph glyph-name="six.tf" horiz-adv-x="570" 
d="M278 450c76 0 137 -21 183 -64s69 -98 69 -167s-23 -124 -69 -167c-46 -42 -107 -63 -183 -63c-75 0 -136 21 -182 63c-46 43 -69 98 -69 167c0 57 16 105 48 144l243 337h63l-188 -261c27 7 56 11 85 11zM278 40c125 0 199 72 199 179c0 108 -74 180 -199 180
c-124 0 -198 -72 -198 -180c0 -107 74 -179 198 -179z" />
    <glyph glyph-name="seven.tf" horiz-adv-x="570" 
d="M40 650v50h483v-50l-295 -650h-55l295 650h-428z" />
    <glyph glyph-name="eight.tf" horiz-adv-x="570" 
d="M404 362c80 -31 128 -95 128 -175c0 -124 -96 -198 -247 -198s-247 74 -247 198c0 80 48 144 128 175c-64 31 -104 88 -104 160c0 59 21 106 62 139c42 33 96 50 161 50s119 -17 160 -50c42 -33 63 -80 63 -139c0 -72 -40 -129 -104 -160zM115 522
c0 -84 66 -137 170 -137s170 53 170 137c0 88 -65 138 -170 138s-170 -50 -170 -138zM478 187c0 91 -69 146 -193 146s-193 -55 -193 -146c0 -92 69 -147 193 -147s193 55 193 147z" />
    <glyph glyph-name="nine.tf" horiz-adv-x="570" 
d="M543 481c0 -57 -16 -105 -48 -144l-243 -337h-63l188 261c-27 -7 -56 -11 -85 -11c-76 0 -137 21 -183 64s-69 98 -69 167s23 124 69 166c46 43 107 64 183 64c75 0 136 -21 182 -64c46 -42 69 -97 69 -166zM93 481c0 -108 74 -180 199 -180c124 0 198 72 198 180
c0 107 -74 179 -198 179c-125 0 -199 -72 -199 -179z" />
    <glyph glyph-name="zero.dnom" horiz-adv-x="410" 
d="M331 46c-31 -39 -73 -58 -126 -58s-95 19 -126 58s-46 90 -46 154s15 115 46 154s73 58 126 58s95 -19 126 -58s46 -90 46 -154s-15 -115 -46 -154zM114 77c22 -29 52 -43 91 -43s69 14 91 43s33 70 33 123s-11 93 -33 122s-52 44 -91 44s-69 -15 -91 -44
s-33 -69 -33 -122s11 -94 33 -123z" />
    <glyph glyph-name="one.dnom" horiz-adv-x="246" 
d="M13 355l123 45h38v-400h-48v346l-100 -33z" />
    <glyph glyph-name="two.dnom" horiz-adv-x="342" 
d="M309 0h-275v39l175 163c29 26 44 56 44 90c0 43 -31 74 -83 74c-47 0 -78 -22 -95 -66l-40 22c21 56 70 90 135 90c79 0 131 -52 131 -120c0 -44 -20 -84 -59 -121l-137 -125h204v-46z" />
    <glyph glyph-name="three.dnom" horiz-adv-x="349" 
d="M292 354l-96 -119c71 -9 112 -56 112 -120c0 -75 -55 -127 -142 -127c-67 0 -113 27 -138 81l40 23c17 -39 50 -58 98 -58c61 0 94 33 94 81s-35 82 -94 82h-4l-23 35l97 122h-196v46h252v-46z" />
    <glyph glyph-name="four.dnom" horiz-adv-x="356" 
d="M278 125h54v-45h-54v-80h-48v80h-213v45l150 275h52l-150 -275h161v104h48v-104z" />
    <glyph glyph-name="five.dnom" horiz-adv-x="339" 
d="M92 245h70c83 0 139 -53 139 -130c0 -76 -55 -127 -140 -127c-66 0 -111 27 -136 80l41 23c17 -38 48 -57 95 -57c57 0 92 32 92 81c0 52 -35 84 -92 84h-118l15 201h227v-45h-186z" />
    <glyph glyph-name="six.dnom" horiz-adv-x="335" 
d="M167 260c41 0 76 -13 103 -39c28 -25 42 -57 42 -96s-14 -72 -42 -98c-27 -26 -62 -39 -103 -39s-75 13 -103 39c-27 26 -41 59 -41 98c0 25 6 48 19 69l133 206h57l-96 -143c10 2 20 3 31 3zM167 34c57 0 97 38 97 91s-40 89 -97 89c-56 0 -96 -36 -96 -89
s40 -91 96 -91z" />
    <glyph glyph-name="seven.dnom" horiz-adv-x="309" 
d="M17 354v46h266v-39l-155 -361h-51l153 354h-213z" />
    <glyph glyph-name="eight.dnom" horiz-adv-x="342" 
d="M242 210c47 -21 70 -57 70 -106c0 -71 -57 -116 -141 -116s-142 45 -142 116c0 48 27 86 71 106c-39 21 -58 51 -58 90c0 69 56 112 129 112c72 0 128 -43 128 -112c0 -39 -19 -69 -57 -90zM171 367c-49 0 -81 -26 -81 -67s33 -68 81 -68c47 0 80 27 80 68s-32 67 -80 67
zM171 186c-57 0 -94 -29 -94 -76s37 -76 94 -76s93 29 93 76s-38 76 -93 76z" />
    <glyph glyph-name="nine.dnom" horiz-adv-x="335" 
d="M312 275c0 -25 -6 -48 -19 -69l-133 -206h-57l96 143c-10 -2 -20 -3 -31 -3c-41 0 -76 13 -104 38c-27 26 -41 58 -41 97s14 72 41 98c28 26 63 39 104 39s75 -13 102 -39c28 -26 42 -59 42 -98zM168 186c56 0 96 36 96 89s-40 91 -96 91c-57 0 -97 -38 -97 -91
s40 -89 97 -89z" />
    <glyph glyph-name="zero.numr" horiz-adv-x="410" 
d="M331 346c-31 -39 -73 -58 -126 -58s-95 19 -126 58s-46 90 -46 154s15 115 46 154s73 58 126 58s95 -19 126 -58s46 -90 46 -154s-15 -115 -46 -154zM114 377c22 -29 52 -43 91 -43s69 14 91 43s33 70 33 123s-11 93 -33 122s-52 44 -91 44s-69 -15 -91 -44
s-33 -69 -33 -122s11 -94 33 -123z" />
    <glyph glyph-name="one.numr" horiz-adv-x="246" 
d="M13 655l123 45h38v-400h-48v346l-100 -33z" />
    <glyph glyph-name="two.numr" horiz-adv-x="342" 
d="M309 300h-275v39l175 163c29 26 44 56 44 90c0 43 -31 74 -83 74c-47 0 -78 -22 -95 -66l-40 22c21 56 70 90 135 90c79 0 131 -52 131 -120c0 -44 -20 -84 -59 -121l-137 -125h204v-46z" />
    <glyph glyph-name="three.numr" horiz-adv-x="349" 
d="M292 654l-96 -119c71 -9 112 -56 112 -120c0 -75 -55 -127 -142 -127c-67 0 -113 27 -138 81l40 23c17 -39 50 -58 98 -58c61 0 94 33 94 81s-35 82 -94 82h-4l-23 35l97 122h-196v46h252v-46z" />
    <glyph glyph-name="four.numr" horiz-adv-x="356" 
d="M278 425h54v-45h-54v-80h-48v80h-213v45l150 275h52l-150 -275h161v104h48v-104z" />
    <glyph glyph-name="five.numr" horiz-adv-x="339" 
d="M92 545h70c83 0 139 -53 139 -130c0 -76 -55 -127 -140 -127c-66 0 -111 27 -136 80l41 23c17 -38 48 -57 95 -57c57 0 92 32 92 81c0 52 -35 84 -92 84h-118l15 201h227v-45h-186z" />
    <glyph glyph-name="six.numr" horiz-adv-x="335" 
d="M167 560c41 0 76 -13 103 -39c28 -25 42 -57 42 -96s-14 -72 -42 -98c-27 -26 -62 -39 -103 -39s-75 13 -103 39c-27 26 -41 59 -41 98c0 25 6 48 19 69l133 206h57l-96 -143c10 2 20 3 31 3zM167 334c57 0 97 38 97 91s-40 89 -97 89c-56 0 -96 -36 -96 -89
s40 -91 96 -91z" />
    <glyph glyph-name="seven.numr" horiz-adv-x="309" 
d="M17 654v46h266v-39l-155 -361h-51l153 354h-213z" />
    <glyph glyph-name="eight.numr" horiz-adv-x="342" 
d="M242 510c47 -21 70 -57 70 -106c0 -71 -57 -116 -141 -116s-142 45 -142 116c0 48 27 86 71 106c-39 21 -58 51 -58 90c0 69 56 112 129 112c72 0 128 -43 128 -112c0 -39 -19 -69 -57 -90zM171 667c-49 0 -81 -26 -81 -67s33 -68 81 -68c47 0 80 27 80 68s-32 67 -80 67
zM171 486c-57 0 -94 -29 -94 -76s37 -76 94 -76s93 29 93 76s-38 76 -93 76z" />
    <glyph glyph-name="nine.numr" horiz-adv-x="335" 
d="M312 575c0 -25 -6 -48 -19 -69l-133 -206h-57l96 143c-10 -2 -20 -3 -31 -3c-41 0 -76 13 -104 38c-27 26 -41 58 -41 97s14 72 41 98c28 26 63 39 104 39s75 -13 102 -39c28 -26 42 -59 42 -98zM168 486c56 0 96 36 96 89s-40 91 -96 91c-57 0 -97 -38 -97 -91
s40 -89 97 -89z" />
    <glyph glyph-name="zero.sups" horiz-adv-x="410" 
d="M331 506c-31 -39 -73 -58 -126 -58s-95 19 -126 58s-46 90 -46 154s15 115 46 154s73 58 126 58s95 -19 126 -58s46 -90 46 -154s-15 -115 -46 -154zM114 537c22 -29 52 -43 91 -43s69 14 91 43s33 70 33 123s-11 93 -33 122s-52 44 -91 44s-69 -15 -91 -44
s-33 -69 -33 -122s11 -94 33 -123z" />
    <glyph glyph-name="one.sups" horiz-adv-x="246" 
d="M13 815l123 45h38v-400h-48v346l-100 -33z" />
    <glyph glyph-name="two.sups" horiz-adv-x="342" 
d="M309 460h-275v39l175 163c29 26 44 56 44 90c0 43 -31 74 -83 74c-47 0 -78 -22 -95 -66l-40 22c21 56 70 90 135 90c79 0 131 -52 131 -120c0 -44 -20 -84 -59 -121l-137 -125h204v-46z" />
    <glyph glyph-name="three.sups" horiz-adv-x="349" 
d="M292 814l-96 -119c71 -9 112 -56 112 -120c0 -75 -55 -127 -142 -127c-67 0 -113 27 -138 81l40 23c17 -39 50 -58 98 -58c61 0 94 33 94 81s-35 82 -94 82h-4l-23 35l97 122h-196v46h252v-46z" />
    <glyph glyph-name="four.sups" horiz-adv-x="356" 
d="M278 585h54v-45h-54v-80h-48v80h-213v45l150 275h52l-150 -275h161v104h48v-104z" />
    <glyph glyph-name="five.sups" horiz-adv-x="339" 
d="M92 705h70c83 0 139 -53 139 -130c0 -76 -55 -127 -140 -127c-66 0 -111 27 -136 80l41 23c17 -38 48 -57 95 -57c57 0 92 32 92 81c0 52 -35 84 -92 84h-118l15 201h227v-45h-186z" />
    <glyph glyph-name="six.sups" horiz-adv-x="335" 
d="M167 720c41 0 76 -13 103 -39c28 -25 42 -57 42 -96s-14 -72 -42 -98c-27 -26 -62 -39 -103 -39s-75 13 -103 39c-27 26 -41 59 -41 98c0 25 6 48 19 69l133 206h57l-96 -143c10 2 20 3 31 3zM167 494c57 0 97 38 97 91s-40 89 -97 89c-56 0 -96 -36 -96 -89
s40 -91 96 -91z" />
    <glyph glyph-name="seven.sups" horiz-adv-x="309" 
d="M17 814v46h266v-39l-155 -361h-51l153 354h-213z" />
    <glyph glyph-name="eight.sups" horiz-adv-x="342" 
d="M242 670c47 -21 70 -57 70 -106c0 -71 -57 -116 -141 -116s-142 45 -142 116c0 48 27 86 71 106c-39 21 -58 51 -58 90c0 69 56 112 129 112c72 0 128 -43 128 -112c0 -39 -19 -69 -57 -90zM171 827c-49 0 -81 -26 -81 -67s33 -68 81 -68c47 0 80 27 80 68s-32 67 -80 67
zM171 646c-57 0 -94 -29 -94 -76s37 -76 94 -76s93 29 93 76s-38 76 -93 76z" />
    <glyph glyph-name="nine.sups" horiz-adv-x="335" 
d="M312 735c0 -25 -6 -48 -19 -69l-133 -206h-57l96 143c-10 -2 -20 -3 -31 -3c-41 0 -76 13 -104 38c-27 26 -41 58 -41 97s14 72 41 98c28 26 63 39 104 39s75 -13 102 -39c28 -26 42 -59 42 -98zM168 646c56 0 96 36 96 89s-40 91 -96 91c-57 0 -97 -38 -97 -91
s40 -89 97 -89z" />
    <glyph glyph-name="cent.tf" horiz-adv-x="570" 
d="M492 241l42 -25c-40 -77 -125 -127 -222 -127c-27 0 -51 3 -74 10l-32 -99h-40l36 111c-93 40 -153 131 -153 239c0 74 25 136 75 186s113 75 188 75c17 0 34 -2 53 -5l31 94h40l-34 -104c61 -21 103 -59 128 -113l-41 -24c-19 43 -53 73 -102 91l-133 -405
c19 -5 39 -8 58 -8c80 0 147 40 180 104zM100 350c0 -84 46 -157 118 -192l132 402c-12 2 -25 3 -38 3c-60 0 -110 -21 -151 -62s-61 -91 -61 -151z" />
    <glyph glyph-name="dollar.tf" horiz-adv-x="570" 
d="M526 177c0 -107 -82 -179 -205 -187v-90h-47v90c-115 5 -195 60 -230 152l46 26c22 -79 83 -121 184 -127v297c-63 20 -96 34 -136 63s-59 71 -59 128c0 51 18 93 54 126c37 33 84 52 141 55v90h47v-90c95 -9 158 -56 189 -142l-45 -25c-23 69 -71 108 -144 116v-283
c64 -20 102 -35 143 -66c41 -29 62 -74 62 -133zM132 529c0 -73 46 -106 142 -138v268c-87 -5 -142 -58 -142 -130zM321 323v-282c96 7 152 60 152 136c0 79 -49 113 -152 146z" />
    <glyph glyph-name="Euro.tf" horiz-adv-x="570" 
d="M495 163l43 -24c-31 -96 -104 -150 -199 -150c-137 0 -226 106 -246 279h-71v45h67c-1 8 -1 20 -1 37c0 19 0 34 1 43h-67v44h71c23 171 110 274 246 274c93 0 165 -51 196 -143l-44 -25c-24 76 -81 117 -152 117c-103 0 -173 -82 -192 -223h254v-44h-259
c-1 -9 -1 -24 -1 -43c0 -17 0 -29 1 -37h259v-45h-255c19 -145 88 -228 193 -228c72 0 131 43 156 123z" />
    <glyph glyph-name="florin.tf" horiz-adv-x="570" 
d="M537 703v-50c-79 28 -129 -2 -148 -77l-49 -201h154v-49h-165l-98 -403c-27 -111 -97 -155 -198 -126v50c79 -28 130 2 147 77l98 402h-152v49h164l49 202c27 111 97 155 198 126z" />
    <glyph glyph-name="uni20BD.tf" horiz-adv-x="570" 
d="M333 287h-180v-104h260v-44h-260v-139h-53v139h-90v44h90v104h-90v50h90v363h233c57 0 105 -20 146 -61s61 -89 61 -146s-20 -105 -61 -146c-41 -40 -89 -60 -146 -60zM333 650h-180v-313h180c43 0 79 15 109 45c30 31 45 68 45 111s-15 80 -45 111s-66 46 -109 46z" />
    <glyph glyph-name="sterling.tf" horiz-adv-x="570" 
d="M186 293v-242h377v-51h-530v51h100v242h-80v47h80v170c0 63 19 113 58 148s87 53 142 53c92 0 158 -49 190 -134l-44 -25c-23 72 -72 108 -146 108c-85 0 -147 -54 -147 -150v-170h241v-47h-241z" />
    <glyph glyph-name="yen.tf" horiz-adv-x="570" 
d="M498 700h59l-234 -356h175v-45h-186v-77h186v-44h-186v-178h-54v178h-184v44h184v77h-184v45h174l-234 356h58l213 -324z" />
    <glyph glyph-name="brevecy" horiz-adv-x="293" 
d="M273 587h-253v44h253v-44z" />
    </font>
</defs>
</svg>
