<?xml version="1.0" standalone="no"?>
<!DOCTYPE svg PUBLIC "-//W3C//DTD SVG 1.1//EN" "http://www.w3.org/Graphics/SVG/1.1/DTD/svg11.dtd" >
<svg xmlns="http://www.w3.org/2000/svg" xmlns:xlink="http://www.w3.org/1999/xlink" version="1.1">
<metadata></metadata>
<defs>
<font id="nunitolight" horiz-adv-x="1228" >
<font-face units-per-em="2048" ascent="1638" descent="-410" />
<missing-glyph horiz-adv-x="516" />
<glyph horiz-adv-x="0" />
<glyph unicode="&#xd;" horiz-adv-x="516" />
<glyph horiz-adv-x="0" />
<glyph horiz-adv-x="0" />
<glyph unicode=" "  horiz-adv-x="516" />
<glyph unicode="&#x09;" horiz-adv-x="516" />
<glyph unicode="&#xa0;" horiz-adv-x="516" />
<glyph unicode="!" horiz-adv-x="450" d="M131 88q0 43 27.5 70.5t68.5 27.5q39 0 67 -27.5t28 -70.5t-28 -70.5t-67 -27.5q-41 0 -68.5 27.5t-27.5 70.5zM147 1378q-2 33 20.5 54.5t57.5 21.5q33 0 55.5 -21.5t20.5 -56.5l-37 -987q-2 -20 -12 -32.5t-27 -12.5q-16 0 -27.5 12.5t-11.5 32.5z" />
<glyph unicode="&#x22;" horiz-adv-x="835" d="M143 1366q-2 41 18.5 64.5t55.5 23.5t55.5 -23.5t16.5 -64.5l-29 -442q-2 -45 -41 -45q-18 0 -29.5 12t-13.5 33zM544 1366q-2 41 18.5 64.5t55.5 23.5t55.5 -23.5t16.5 -64.5l-29 -442q-2 -45 -41 -45q-18 0 -29.5 12t-13.5 33z" />
<glyph unicode="#" d="M51 436q0 20 15.5 33.5t37.5 13.5h181l96 494h-236q-23 0 -38 16.5t-15 38.5q0 20 15.5 33.5t37.5 13.5h256l66 340q4 18 17.5 29.5t33.5 11.5q27 0 42 -20.5t9 -48.5l-61 -312h358l66 340q2 18 17.5 29.5t35.5 11.5q27 0 42 -20.5t9 -48.5l-61 -312h149q23 0 38.5 -16 t15.5 -39q0 -20 -15.5 -33.5t-38.5 -13.5h-170l-96 -494h225q23 0 38.5 -16t15.5 -39q0 -20 -15.5 -33.5t-38.5 -13.5h-245l-68 -350q-2 -18 -16.5 -29.5t-34.5 -11.5q-27 0 -42 20.5t-9 48.5l63 322h-358l-68 -350q-2 -18 -17.5 -29.5t-35.5 -11.5q-27 0 -42 20.5t-9 48.5 l63 322h-160q-23 0 -38 16.5t-15 38.5zM393 483h357l96 494h-357z" />
<glyph unicode="$" d="M102 217q0 23 11.5 39t29.5 16q20 0 47 -20q211 -156 431 -156q172 0 269 75t97 210q0 80 -49 130t-123 76.5t-201 59.5q-156 39 -251 77t-161.5 117t-66.5 212q0 111 55.5 199.5t157 143t230.5 62.5v170q0 27 15 44.5t42 17.5q25 0 40 -17.5t15 -44.5v-170 q113 -10 217.5 -53t173.5 -119q27 -27 27 -59q0 -23 -13.5 -39.5t-29.5 -16.5q-25 0 -47 21q-96 82 -184.5 119t-206.5 37q-168 0 -266.5 -79t-98.5 -214q0 -92 53.5 -149.5t132 -86t209.5 -61.5q150 -37 241 -73t153.5 -108.5t62.5 -195.5q0 -160 -115.5 -267.5 t-306.5 -125.5v-172q0 -27 -15 -44.5t-42 -17.5q-25 0 -41 17.5t-16 44.5v170q-125 6 -248 49t-203 123q-25 23 -25 59z" />
<glyph unicode="%" horiz-adv-x="1890" d="M123 1018q0 219 90 329.5t250 110.5q162 0 252 -110.5t90 -329.5t-90 -331t-252 -112q-160 0 -250 112t-90 331zM244 1018q0 -178 54 -261t165 -83q112 0 166.5 83t54.5 261t-54.5 261t-166.5 83q-111 0 -165 -84t-54 -260zM487 23q0 23 11 36l798 1383q23 37 56 37 q20 0 36.5 -16.5t16.5 -41.5q0 -20 -10 -37l-799 -1382q-20 -37 -55 -37q-20 0 -37 16.5t-17 41.5zM1087 428q0 221 89.5 330.5t250.5 109.5q162 0 251 -109.5t89 -330.5t-89 -331.5t-251 -110.5q-161 0 -250.5 110.5t-89.5 331.5zM1208 428q0 -178 53.5 -261t165.5 -83 q111 0 165.5 83t54.5 261q0 176 -54.5 259t-165.5 83q-113 0 -166 -82t-53 -260z" />
<glyph unicode="&#x26;" horiz-adv-x="1343" d="M119 354q0 135 85 240.5t261 214.5l6 4q-92 100 -136 175t-44 165q0 145 95 225t241 80q139 0 223 -74.5t84 -205.5q0 -111 -68.5 -195t-224.5 -186l371 -404q76 158 88 389q2 31 20.5 47.5t40.5 16.5q25 0 40.5 -16.5t12.5 -47.5q-14 -279 -124 -473l217 -233 q16 -21 16 -37q0 -23 -17.5 -39t-39.5 -16q-23 0 -39 18l-199 213q-90 -113 -208 -171t-253 -58q-129 0 -231.5 45t-159.5 129t-57 194zM244 356q0 -125 90 -194.5t239 -69.5q111 0 209.5 50.5t171.5 152.5l-411 440l-8 -6q-166 -106 -228.5 -187t-62.5 -186zM416 1153 q0 -72 34.5 -129t116.5 -150q139 92 194.5 156t55.5 139q0 82 -51 133.5t-139 51.5q-94 0 -152.5 -54.5t-58.5 -146.5z" />
<glyph unicode="'" horiz-adv-x="432" d="M143 1366q-2 41 18.5 64.5t55.5 23.5t55.5 -23.5t16.5 -64.5l-29 -442q-2 -45 -41 -45q-18 0 -29.5 12t-13.5 33z" />
<glyph unicode="(" horiz-adv-x="608" d="M215 539q0 459 211 891q18 35 51 34q20 0 34.5 -12t14.5 -33q0 -12 -6 -24q-178 -418 -178 -856t178 -856q6 -12 6 -25q0 -20 -14 -32.5t-35 -12.5q-33 0 -51 35q-211 428 -211 891z" />
<glyph unicode=")" horiz-adv-x="608" d="M82 -342q0 12 6 25q178 418 178 856t-178 856q-6 12 -6 24q0 20 14.5 32.5t34.5 12.5q35 0 51 -34q211 -432 211 -891q0 -463 -211 -891q-16 -35 -51 -35q-20 0 -34.5 12.5t-14.5 32.5z" />
<glyph unicode="*" horiz-adv-x="919" d="M59 1100q0 23 16.5 38t45.5 13l266 -10l-141 229q-10 16 -10 35q0 20 14 34.5t35 14.5q29 0 49 -35l127 -233l123 233q18 35 51 35q18 0 33.5 -14.5t15.5 -36.5q0 -18 -10 -35l-139 -227l264 10q28 0 44.5 -15.5t16.5 -35.5q0 -23 -16.5 -38t-44.5 -13l-264 8l139 -226 q10 -14 10 -34t-15.5 -36t-33.5 -16q-33 0 -51 35l-123 234l-127 -236q-18 -33 -49 -33q-20 0 -36 14.5t-16 35.5q0 16 13 34l141 228l-266 -8q-29 0 -45.5 15t-16.5 36z" />
<glyph unicode="+" d="M115 582q0 20 16 35.5t39 15.5h393v393q0 23 15.5 39t35.5 16t36 -16t16 -39v-393h393q22 0 38.5 -15.5t16.5 -35.5q0 -23 -16.5 -38.5t-38.5 -15.5h-393v-391q0 -23 -15.5 -39t-36.5 -16q-20 0 -35.5 16.5t-15.5 38.5v391h-393q-23 0 -39 15.5t-16 38.5z" />
<glyph unicode="," horiz-adv-x="450" d="M131 88q0 43 25.5 70.5t64.5 27.5q45 0 73 -34.5t28 -104.5q0 -145 -93 -244q-18 -20 -41 -20q-18 0 -32.5 12t-14.5 31q0 14 17 35q51 57 59 131q-39 4 -62.5 29.5t-23.5 66.5z" />
<glyph unicode="-" horiz-adv-x="862" d="M141 543q0 25 15.5 40t42.5 15h465q27 0 42 -15.5t15 -39.5q0 -23 -15.5 -37t-41.5 -14h-465q-27 0 -42.5 14t-15.5 37z" />
<glyph unicode="." horiz-adv-x="450" d="M131 88q0 43 27.5 70.5t68.5 27.5q39 0 67 -27.5t28 -70.5t-28 -70.5t-67 -27.5q-41 0 -68.5 27.5t-27.5 70.5z" />
<glyph unicode="/" horiz-adv-x="550" d="M-29 -59q0 6 4 22l490 1522q8 23 22.5 34t32.5 11q23 0 40.5 -17.5t17.5 -42.5q0 -8 -5 -24l-487 -1522q-8 -22 -22.5 -33.5t-32.5 -11.5q-23 0 -41.5 17.5t-18.5 44.5z" />
<glyph unicode="0" d="M117 721q0 365 127 552t370 187q244 0 371 -187.5t127 -549.5t-127 -550.5t-371 -188.5q-243 0 -370 187t-127 550zM248 723q0 -319 90 -473t276 -154q189 0 278 152.5t89 474.5t-89 473.5t-278 151.5q-188 0 -277 -152t-89 -473z" />
<glyph unicode="1" d="M270 55q0 25 15.5 40.5t42.5 15.5h272v1169l-235 -154q-10 -8 -27 -8q-23 0 -40 20.5t-17 47.5q0 29 26 47l307 205q27 16 52 16q27 0 44 -17.5t17 -47.5v-1278h270q27 0 43.5 -15.5t16.5 -40.5q0 -27 -15.5 -41t-44.5 -14h-669q-27 0 -42.5 14.5t-15.5 40.5z" />
<glyph unicode="2" d="M143 1227q0 35 27 59q82 80 203 127t248 47q190 0 300.5 -99t110.5 -274q0 -125 -57 -241.5t-189 -261.5l-432 -473h695q26 0 42.5 -15.5t16.5 -40.5q0 -55 -59 -55h-816q-29 0 -45 16.5t-16 38.5q0 29 21 49l505 564q109 125 158 221t49 192q0 129 -74.5 199t-209.5 70 q-104 0 -197.5 -38t-192.5 -120q-23 -20 -47 -21q-16 0 -28.5 16.5t-12.5 39.5z" />
<glyph unicode="3" d="M121 219q0 23 12 39t29 16q25 0 47 -20q96 -84 191.5 -121t205.5 -37q158 0 244 76t86 217q0 289 -356 289h-105q-27 0 -43 16.5t-16 38.5q0 23 15 39t44 16h74q170 0 263 79t93 225q0 123 -74.5 190.5t-209.5 67.5q-104 0 -197.5 -38t-192.5 -120q-23 -20 -47 -21 q-16 0 -28.5 16.5t-12.5 39.5q0 35 27 59q80 80 201 127t250 47q188 0 299.5 -97t111.5 -265q0 -127 -63.5 -222.5t-175.5 -134.5q133 -34 201.5 -124.5t68.5 -227.5q0 -186 -123 -294.5t-334 -108.5q-133 0 -256 47t-203 127q-27 25 -26 59z" />
<glyph unicode="4" d="M100 381q0 25 19 49l688 995q8 14 23.5 21.5t31.5 7.5q25 0 43.5 -16.5t18.5 -48.5v-953h176q26 0 41.5 -15t15.5 -40q0 -27 -15.5 -40t-41.5 -13h-176v-273q0 -29 -17.5 -47t-46.5 -18t-46 18.5t-17 46.5v273h-635q-29 0 -45.5 14t-16.5 39zM254 436h543v785z" />
<glyph unicode="5" d="M170 219q0 23 12.5 39t28.5 16q20 0 47 -20q98 -82 191.5 -120t195.5 -38q160 0 252 93.5t92 252.5q0 154 -91 249t-245 95q-205 0 -321 -161q-25 -33 -62 -33q-23 0 -39 14.5t-16 40.5v737q0 25 16.5 42.5t44.5 17.5h740q27 0 43 -14.5t16 -40.5q0 -23 -16.5 -38.5 t-42.5 -15.5h-676v-573q57 66 140 100.5t182 34.5q137 0 240.5 -57.5t159.5 -159.5t56 -238q0 -133 -59.5 -236.5t-166 -161.5t-245.5 -58q-129 0 -250 47t-200 127q-27 25 -27 59z" />
<glyph unicode="6" horiz-adv-x="1226" d="M123 682q0 369 143.5 573.5t399.5 204.5q119 0 233.5 -47t194.5 -127q27 -25 26 -59q0 -23 -12 -39.5t-29 -16.5q-20 0 -47 21q-186 158 -366 158q-195 0 -305.5 -176.5t-110.5 -491.5v-55q47 127 157.5 199.5t254.5 72.5q133 0 236 -57.5t160.5 -160.5t57.5 -239 q0 -131 -59.5 -235.5t-164 -163.5t-235.5 -59q-256 0 -395 181t-139 517zM301 442q0 -156 97.5 -252t254.5 -96q152 0 243 95.5t91 252.5q0 156 -92 250t-244 94q-154 0 -252 -96t-98 -248z" />
<glyph unicode="7" d="M137 1389q0 27 15.5 41t42.5 14h837q29 0 44.5 -14.5t15.5 -38.5q0 -16 -15 -50l-694 -1318q-16 -35 -55 -35q-25 0 -42.5 17.5t-17.5 41.5q0 16 8 33l662 1253h-743q-27 0 -42.5 15.5t-15.5 40.5z" />
<glyph unicode="8" d="M106 379q0 135 72 229t201 131q-111 41 -175.5 131.5t-64.5 208.5q0 176 125 278.5t350 102.5t350.5 -102.5t125.5 -278.5q0 -119 -64.5 -209t-175.5 -131q127 -37 199.5 -132t72.5 -228q0 -184 -132 -288.5t-376 -104.5t-376 104.5t-132 288.5zM236 385q0 -289 378 -289 q379 0 379 289q0 291 -379 291t-378 -291zM268 1073q0 -135 88 -211t258 -76t258.5 76t88.5 211q0 131 -88.5 204t-258.5 73t-258 -73t-88 -204z" />
<glyph unicode="9" d="M109 217q0 23 12 39t29 16q20 0 47 -20q186 -158 366 -158q195 0 305.5 176t110.5 492v55q-47 -127 -157.5 -199.5t-254.5 -72.5q-133 0 -236.5 57t-160.5 160.5t-57 238.5q0 131 59 235.5t163.5 164t235.5 59.5q256 0 395.5 -181t139.5 -517q0 -369 -143.5 -573.5 t-399.5 -204.5q-119 0 -233.5 47t-194.5 127q-27 25 -26 59zM242 1001q0 -156 92 -250t244 -94q153 0 251.5 96.5t98.5 247.5q0 156 -97.5 252.5t-255.5 96.5q-152 0 -242.5 -95.5t-90.5 -253.5z" />
<glyph unicode=":" horiz-adv-x="450" d="M131 88q0 43 27.5 70.5t68.5 27.5q39 0 67 -27.5t28 -70.5t-28 -70.5t-67 -27.5q-41 0 -68.5 27.5t-27.5 70.5zM131 918q0 45 27.5 71.5t68.5 26.5q39 0 67 -27.5t28 -70.5t-28 -71t-67 -28q-41 0 -68.5 27.5t-27.5 71.5z" />
<glyph unicode=";" horiz-adv-x="450" d="M131 88q0 43 25.5 70.5t64.5 27.5q45 0 73 -34.5t28 -104.5q0 -145 -93 -244q-18 -20 -41 -20q-18 0 -32.5 12t-14.5 31q0 14 17 35q51 57 59 131q-39 4 -62.5 29.5t-23.5 66.5zM131 918q0 45 27.5 71.5t68.5 26.5q39 0 67 -27.5t28 -70.5t-28 -71t-67 -28 q-41 0 -68.5 27.5t-27.5 71.5z" />
<glyph unicode="&#x3c;" d="M115 582q0 51 47 73l858 398q16 8 37 8q25 0 41 -13.5t16 -35.5q0 -31 -29 -43l-843 -387l843 -389q29 -13 29 -46q0 -20 -16.5 -34.5t-38.5 -14.5q-14 0 -39 11l-858 397q-47 25 -47 76z" />
<glyph unicode="=" d="M127 379q0 20 16 34.5t39 14.5h889q23 0 39 -16.5t16 -38.5q0 -20 -16.5 -35t-38.5 -15h-889q-23 0 -39 16.5t-16 39.5zM127 789q0 20 16 34.5t39 14.5h889q23 0 39 -16.5t16 -38.5q0 -20 -16.5 -35t-38.5 -15h-889q-23 0 -39 16.5t-16 39.5z" />
<glyph unicode="&#x3e;" d="M115 147q0 33 28 46l844 389l-844 387q-29 12 -28 43q0 23 16 36t41 13q20 0 37 -8l858 -398q47 -22 47 -73t-47 -76l-858 -397q-25 -10 -39 -11q-23 0 -39 14.5t-16 34.5z" />
<glyph unicode="?" horiz-adv-x="892" d="M-8 1225q0 35 26 59q82 80 199 127t234 47q174 0 279.5 -86t105.5 -225q0 -109 -45.5 -188.5t-137.5 -188.5q-92 -111 -141 -193.5t-59 -193.5q-4 -39 -39 -39q-17 0 -28 12.5t-11 32.5q0 94 25.5 171t62.5 133.5t98 133.5q74 96 110 163t36 151q0 94 -70 150.5 t-188 56.5q-100 0 -182.5 -38t-186.5 -120q-25 -20 -47 -21q-18 0 -29.5 16.5t-11.5 39.5zM317 88q0 43 27 70.5t70 27.5q41 0 67.5 -27.5t26.5 -70.5t-26.5 -70.5t-67.5 -27.5q-43 0 -70 27.5t-27 70.5z" />
<glyph unicode="@" horiz-adv-x="1888" d="M104 563q0 266 113 468t309.5 312.5t438.5 110.5q262 0 447 -109.5t278.5 -280.5t93.5 -357q0 -207 -61.5 -336t-153.5 -184.5t-193 -55.5q-111 0 -172 48t-63 136h-4q-49 -84 -130 -134t-184 -50q-129 0 -213 93t-84 261q0 137 54.5 260t152.5 199t228 76 q100 0 173.5 -49t94.5 -125h2l18 108q4 20 19.5 31.5t38.5 11.5q27 0 40 -16t9 -45l-90 -516q-6 -39 -6 -70q0 -70 33.5 -98.5t101.5 -28.5q63 0 127.5 47t108.5 156t44 281q0 158 -78.5 305t-239.5 242.5t-392 95.5q-213 0 -384 -96.5t-269.5 -274.5t-98.5 -416 q0 -231 90 -404t260 -267.5t404 -94.5q168 0 293.5 49.5t207.5 137.5q29 29 58 28q20 0 34.5 -16t14.5 -39q0 -27 -21 -47q-98 -102 -249.5 -159.5t-337.5 -57.5q-260 0 -456 108.5t-301.5 306t-105.5 455.5zM633 494q0 -129 61.5 -200t151.5 -71q108 0 187 65.5t121 169 t42 218.5q0 121 -60.5 185.5t-164.5 64.5q-102 0 -179 -62.5t-118 -162t-41 -207.5z" />
<glyph unicode="A" horiz-adv-x="1474" d="M68 45q0 14 4 23l598 1343q18 45 67 45q23 0 42.5 -12t27.5 -33l596 -1343q6 -13 6 -25q0 -23 -18.5 -38t-42.5 -15q-16 0 -32 10t-24 29l-155 356h-795l-158 -356q-18 -39 -57 -39q-25 0 -42 15t-17 40zM389 496h698l-348 792z" />
<glyph unicode="B" horiz-adv-x="1372" d="M186 63v1317q0 27 19.5 45.5t48.5 18.5h489q221 0 342 -98.5t121 -280.5q0 -117 -60.5 -201t-168.5 -125q125 -30 193.5 -121.5t68.5 -226.5q0 -190 -124 -290.5t-351 -100.5h-510q-29 0 -48.5 18.5t-19.5 44.5zM311 109h445q182 0 269 68.5t87 209.5q0 291 -356 291 h-445v-569zM311 788h414q174 0 264 72t90 207q0 268 -354 268h-414v-547z" />
<glyph unicode="C" horiz-adv-x="1386" d="M131 723q0 227 79 393t227.5 255t348.5 89q137 0 261 -46t210 -132q29 -27 29 -59q0 -23 -13 -39.5t-30 -16.5q-20 0 -47 21q-111 90 -201 125t-211 35q-248 0 -384 -164t-136 -461q0 -299 136.5 -463t383.5 -164q121 0 211 35t201 125q31 20 47 20t29.5 -16t13.5 -39 q0 -33 -29 -59q-86 -86 -209.5 -132t-261.5 -46q-200 0 -348.5 89t-227.5 256t-79 394z" />
<glyph unicode="D" horiz-adv-x="1497" d="M186 63v1317q0 27 19.5 45.5t48.5 18.5h397q342 0 529.5 -186.5t187.5 -534.5t-187.5 -535.5t-529.5 -187.5h-397q-29 0 -48.5 18.5t-19.5 44.5zM313 111h332q590 0 590 612q0 610 -590 610h-332v-1222z" />
<glyph unicode="E" horiz-adv-x="1185" d="M186 63v1317q0 27 19.5 45.5t48.5 18.5h778q27 0 42.5 -14.5t15.5 -40.5q0 -25 -15.5 -39.5t-42.5 -14.5h-721v-547h680q27 0 42.5 -14t15.5 -41t-15.5 -41t-42.5 -14h-680v-569h721q27 0 42.5 -13.5t15.5 -40.5t-15.5 -41t-42.5 -14h-778q-29 0 -48.5 18.5t-19.5 44.5z " />
<glyph unicode="F" horiz-adv-x="1132" d="M186 55v1325q0 27 19.5 45.5t48.5 18.5h758q27 0 42 -14.5t15 -40.5q0 -27 -15.5 -40.5t-41.5 -13.5h-699v-547h658q27 0 42 -14t15 -41t-15.5 -41t-41.5 -14h-658v-623q0 -31 -16 -48t-47 -17q-29 0 -46.5 18.5t-17.5 46.5z" />
<glyph unicode="G" horiz-adv-x="1472" d="M131 723q0 227 80 393t229.5 255t354.5 89q143 0 268 -46t205 -132q26 -26 26 -57q0 -25 -12 -41.5t-31 -16.5q-16 0 -45 21q-109 90 -201 125t-210 35q-254 0 -392.5 -163t-138.5 -462q0 -305 139.5 -467t405.5 -162q102 0 201.5 17.5t177.5 50.5v471h-332 q-29 0 -44 14.5t-15 38.5q0 25 15 39t44 14h391q25 0 40.5 -15t15.5 -40v-543q0 -53 -48 -73q-84 -39 -203.5 -61.5t-242.5 -22.5q-211 0 -363.5 87t-233.5 254t-81 398z" />
<glyph unicode="H" horiz-adv-x="1544" d="M186 55v1334q0 29 17.5 47t46.5 18t45 -18.5t16 -46.5v-601h922v601q0 29 16.5 47t44.5 18q31 0 47.5 -17.5t16.5 -47.5v-1334q0 -31 -16.5 -48t-47.5 -17q-29 0 -45 18.5t-16 46.5v623h-922v-623q0 -29 -16 -47t-45 -18t-46.5 18.5t-17.5 46.5z" />
<glyph unicode="I" horiz-adv-x="499" d="M186 55v1334q0 29 17.5 47t46.5 18t46 -18.5t17 -46.5v-1334q0 -29 -17 -47t-46 -18t-46.5 18.5t-17.5 46.5z" />
<glyph unicode="J" horiz-adv-x="636" d="M-18 43q0 51 59 53l59 4q115 8 169.5 70.5t54.5 206.5v1012q0 29 19 47t44 18q31 0 47.5 -17.5t16.5 -47.5v-1016q0 -186 -81 -277.5t-249 -101.5l-62 -4q-39 -2 -58 12t-19 41z" />
<glyph unicode="K" horiz-adv-x="1255" d="M186 55v1334q0 29 17.5 47t46.5 18t46 -18.5t17 -46.5v-617l762 664q16 16 39 16t41.5 -17.5t18.5 -39.5q0 -25 -23 -45l-713 -613l752 -643q22 -20 22 -45q0 -23 -17 -40t-40 -17q-18 0 -39 16l-803 682v-635q0 -29 -17 -47t-46 -18t-46.5 18.5t-17.5 46.5z" />
<glyph unicode="L" horiz-adv-x="1091" d="M186 57v1332q0 29 17.5 47t46.5 18q31 0 47 -17.5t16 -47.5v-1278h701q27 0 42 -14.5t15 -41.5t-15.5 -41t-41.5 -14h-762q-27 0 -46.5 16.5t-19.5 40.5z" />
<glyph unicode="M" horiz-adv-x="1720" d="M186 55v1334q0 29 17.5 47t48.5 18q37 0 61 -47l551 -1057l543 1057q25 47 61 47q31 0 48.5 -18.5t17.5 -46.5v-1334q0 -29 -16.5 -47t-44.5 -18q-29 0 -43.5 17.5t-14.5 47.5v1137l-485 -938q-25 -47 -68 -47t-67 47l-490 930v-1129q0 -31 -14.5 -48t-42.5 -17 q-31 0 -46.5 17.5t-15.5 47.5z" />
<glyph unicode="N" horiz-adv-x="1505" d="M186 55v1334q0 29 17.5 47t48.5 18q33 0 53 -31l895 -1208v1174q0 29 16.5 47t43.5 18q28 0 43.5 -17.5t15.5 -47.5v-1334q0 -29 -16.5 -47t-45.5 -18q-31 0 -55 30l-897 1211v-1176q0 -29 -16.5 -47t-42.5 -18q-31 0 -45.5 17.5t-14.5 47.5z" />
<glyph unicode="O" horiz-adv-x="1550" d="M131 721q0 227 78 394t222 256t343 89t344.5 -89t223 -255t77.5 -393t-77.5 -394t-223 -256t-344.5 -89q-196 0 -341.5 89t-223.5 256t-78 392zM262 723q0 -297 134 -462t378 -165t379 164t135 463t-134 462t-380 163q-244 0 -378 -164t-134 -461z" />
<glyph unicode="P" horiz-adv-x="1306" d="M186 55v1325q0 27 19.5 45.5t48.5 18.5h479q225 0 349 -108.5t124 -307.5q0 -201 -125 -310.5t-348 -109.5h-420v-553q0 -31 -17 -48t-46 -17t-46.5 17.5t-17.5 47.5zM313 717h412q354 0 354 311q0 307 -354 307h-412v-618z" />
<glyph unicode="Q" horiz-adv-x="1550" d="M131 721q0 227 78 394t223.5 256t341.5 89q199 0 344.5 -89t223 -255t77.5 -393q0 -268 -110.5 -453.5t-309.5 -251.5q43 -14 78 -49t72 -96l104 -168q10 -20 11 -33q0 -20 -16.5 -34.5t-39.5 -14.5q-43 0 -71 45l-117 191q-78 125 -246 125q-195 0 -340 89t-224 256 t-79 392zM262 723q0 -297 134 -462t378 -165t379 164t135 463t-134 462t-380 163q-244 0 -378 -164t-134 -461z" />
<glyph unicode="R" horiz-adv-x="1396" d="M186 55v1325q0 27 19.5 45.5t48.5 18.5h510q227 0 350 -103.5t123 -302.5q0 -174 -104.5 -276.5t-294.5 -118.5q49 -16 90 -54t84 -106l254 -407q12 -19 12 -35q0 -23 -17.5 -38t-39.5 -15q-35 0 -56 32l-276 443q-59 94 -121.5 129t-173.5 35h-281v-572q0 -31 -17 -48 t-46 -17t-46.5 17.5t-17.5 47.5zM311 735h445q356 0 356 305q0 150 -88 222.5t-268 72.5h-445v-600z" />
<glyph unicode="S" horiz-adv-x="1243" d="M92 221q0 23 13.5 39t29.5 16q20 0 47 -20q193 -160 449 -160q186 0 287.5 75t101.5 212q0 80 -49 129t-125 76.5t-203 56.5q-168 37 -271.5 76t-175 118t-71.5 212q0 121 64.5 214t181 144t268.5 51q141 0 266 -46t207 -132q27 -27 27 -59q0 -23 -13.5 -39.5 t-29.5 -16.5q-20 0 -47 21q-111 90 -200 125t-210 35q-182 0 -284.5 -78t-102.5 -217q0 -84 45 -136.5t117.5 -83t187.5 -59.5l53 -12q166 -41 262.5 -76t163 -107.5t66.5 -195.5q0 -117 -64.5 -208t-182.5 -141t-269 -50q-152 0 -292 48t-220 130q-27 23 -27 59z" />
<glyph unicode="T" horiz-adv-x="1208" d="M12 1389q0 27 15.5 41t42.5 14h1069q25 0 41 -15.5t16 -39.5q0 -25 -16.5 -40.5t-40.5 -15.5h-471v-1278q0 -29 -17.5 -47t-46.5 -18t-45 18.5t-16 46.5v1278h-473q-27 0 -42.5 14.5t-15.5 41.5z" />
<glyph unicode="U" horiz-adv-x="1474" d="M176 557v832q0 31 17.5 48t46.5 17t46 -17.5t17 -47.5v-846q0 -446 434 -447q215 0 324.5 113t109.5 334v846q0 29 17.5 47t46.5 18t45 -17.5t16 -47.5v-832q0 -283 -142 -428t-417 -145q-276 0 -418.5 145t-142.5 428z" />
<glyph unicode="V" horiz-adv-x="1392" d="M27 1401q0 25 19.5 40t43.5 15q39 0 53 -35l555 -1255l553 1255q15 35 54 35q25 0 44 -15.5t19 -37.5q0 -12 -6 -25l-596 -1343q-8 -20 -27.5 -32.5t-42.5 -12.5q-20 0 -39.5 11t-29.5 34l-594 1343q-6 12 -6 23z" />
<glyph unicode="W" horiz-adv-x="2244" d="M80 1401q0 25 18.5 40t42.5 15q18 0 32.5 -10t23.5 -29l432 -1241l430 1225q8 25 25.5 37t37.5 12q23 0 41.5 -13.5t26.5 -37.5l428 -1223l432 1241q14 39 53 39q25 0 44.5 -16.5t19.5 -40.5q0 -4 -4 -21l-475 -1343q-8 -23 -28 -35t-42 -12q-20 0 -38.5 12t-27.5 35 l-428 1212l-432 -1212q-8 -23 -26.5 -35t-40.5 -12q-20 0 -39 12t-27 35l-475 1343q-4 16 -4 23z" />
<glyph unicode="X" horiz-adv-x="1306" d="M55 49q0 23 15 39l510 651l-484 617q-14 16 -14 39t17.5 40t39.5 17q29 0 47 -25l467 -596l465 596q18 25 47 25q23 0 41.5 -17.5t18.5 -39.5q0 -23 -15 -39l-483 -617l508 -651q14 -16 14 -39t-17.5 -40t-41.5 -17q-29 0 -47 24l-490 631l-493 -631q-20 -25 -45 -24 q-23 0 -41.5 17.5t-18.5 39.5z" />
<glyph unicode="Y" horiz-adv-x="1210" d="M16 1395q0 23 16.5 40t39.5 17q27 0 45 -25l487 -630l488 630q18 25 45 25q23 0 39 -16.5t16 -40.5q0 -23 -14 -39l-512 -660v-641q0 -29 -16.5 -47t-45.5 -18t-46 18.5t-17 46.5v645l-510 656q-14 16 -15 39z" />
<glyph unicode="Z" horiz-adv-x="1196" d="M78 53q0 25 18 49l856 1233h-817q-25 0 -40 14.5t-15 39.5q0 27 15.5 41t39.5 14h916q29 0 45 -15.5t16 -39.5q0 -25 -16 -48l-858 -1232h835q29 0 44.5 -13.5t15.5 -40.5t-15.5 -41t-44.5 -14h-934q-29 0 -45 14.5t-16 38.5z" />
<glyph unicode="[" horiz-adv-x="608" d="M227 -178v1431q0 92 47.5 141.5t139.5 49.5h135q29 0 44 -13.5t15 -35.5q0 -25 -16.5 -39.5t-42.5 -14.5h-109q-90 0 -90 -94v-1419q0 -94 90 -94h109q27 0 43 -14.5t16 -38.5q0 -23 -15 -36.5t-44 -13.5h-135q-92 0 -139.5 49.5t-47.5 141.5z" />
<glyph unicode="\" horiz-adv-x="550" d="M-29 1468q0 27 17.5 44.5t42.5 17.5q18 0 32.5 -11.5t22.5 -33.5l487 -1522q4 -16 5 -24q0 -27 -17.5 -43.5t-40.5 -16.5q-18 0 -32.5 11.5t-22.5 33.5l-490 1522q-4 16 -4 22z" />
<glyph unicode="]" horiz-adv-x="608" d="M0 -319q0 25 16.5 39t42.5 14h109q90 0 90 94v1419q0 94 -90 94h-109q-27 0 -43 14.5t-16 39.5q0 23 15.5 36t43.5 13h136q92 0 139 -49t47 -142v-1431q0 -92 -47 -141.5t-139 -49.5h-136q-28 0 -43.5 13.5t-15.5 36.5z" />
<glyph unicode="^" d="M133 340q0 12 6 27l406 874q20 45 69 45q23 0 41.5 -12t28.5 -33l406 -874q6 -15 6 -29q0 -23 -16.5 -37t-37.5 -14q-27 0 -38 24l-390 840l-389 -840q-12 -25 -37 -24q-20 0 -37.5 15t-17.5 38z" />
<glyph unicode="_" horiz-adv-x="1024" d="M0 -45q0 18 14.5 31.5t36.5 13.5h922q23 0 37 -13.5t14 -31.5t-14.5 -30.5t-36.5 -12.5h-922q-22 0 -36.5 12.5t-14.5 30.5z" />
<glyph unicode="`" horiz-adv-x="614" d="M-58 1487q0 27 18.5 44t45.5 17q39 0 71 -41l256 -329q10 -14 11 -27q0 -14 -11.5 -24.5t-25.5 -10.5q-16 0 -29 12l-301 291q-35 33 -35 68z" />
<glyph unicode="a" horiz-adv-x="1077" d="M131 287q0 111 57.5 172t190.5 87.5t371 26.5h43v76q0 135 -55.5 197.5t-174.5 62.5q-152 0 -289 -80l-31.5 -21t-43.5 -17q-20 0 -33.5 15t-13.5 38q0 45 71 88q72 41 160 63.5t174 22.5q180 0 269 -94.5t89 -284.5v-584q0 -29 -16 -46t-45 -17t-45 17.5t-16 45.5v123 q-43 -92 -125 -142t-189 -50q-96 0 -176 38.5t-126 108.5t-46 154zM262 293q0 -86 65.5 -142.5t161.5 -56.5q134 0 219 90t85 230v67h-39q-197 0 -301.5 -16t-147.5 -56t-43 -116z" />
<glyph unicode="b" horiz-adv-x="1173" d="M164 55v1336q0 29 17.5 46t45.5 17q29 0 45.5 -17.5t16.5 -45.5v-578q45 100 133 152.5t209 52.5q131 0 231.5 -63.5t155.5 -179.5t55 -269q0 -156 -55 -273.5t-155.5 -182t-231.5 -64.5q-121 0 -209 52t-133 152v-135q0 -29 -16.5 -46t-45.5 -17t-46 17.5t-17 45.5z M289 502q0 -195 85 -300.5t240 -105.5q156 0 243 108.5t87 301.5t-87 298t-245 105q-156 0 -239.5 -106.5t-83.5 -300.5z" />
<glyph unicode="c" horiz-adv-x="972" d="M100 498q0 154 58.5 271.5t164 183t242.5 65.5q78 0 152 -20.5t131 -61.5q37 -27 52 -48.5t15 -45.5q0 -23 -12 -37t-31 -14q-20 0 -65 34q-53 39 -106.5 61.5t-129.5 22.5q-160 0 -250 -109.5t-90 -301.5q0 -190 89.5 -296t248.5 -106q78 0 130.5 22.5t113.5 61.5 q18 12 35.5 22.5t28.5 10.5q20 0 32.5 -14.5t12.5 -34.5q0 -25 -14.5 -43.5t-55.5 -46.5q-55 -41 -134 -64.5t-157 -23.5q-137 0 -241.5 63.5t-162 180t-57.5 268.5z" />
<glyph unicode="d" horiz-adv-x="1173" d="M100 506q0 154 55.5 269.5t156 179t231.5 63.5q121 0 209 -52.5t133 -152.5v578q0 29 16.5 46t44.5 17q29 0 46.5 -17.5t17.5 -45.5v-1336q0 -29 -17.5 -46t-46.5 -17t-45 17.5t-16 45.5v135q-45 -100 -133 -152t-209 -52q-131 0 -231.5 64.5t-156 182t-55.5 273.5z M231 506q0 -195 86 -302.5t242 -107.5t241 105.5t85 300.5t-84 301t-240 106q-158 0 -244 -105.5t-86 -297.5z" />
<glyph unicode="e" horiz-adv-x="1077" d="M100 500q0 154 58.5 271.5t164 182t242.5 64.5q193 0 304.5 -124t111.5 -341q0 -37 -16.5 -54.5t-53.5 -17.5h-682q6 -188 98.5 -286.5t260.5 -98.5q88 0 147.5 23.5t126.5 62.5q45 31 64 31q18 0 31.5 -15.5t13.5 -35.5q0 -45 -70 -88q-147 -88 -311 -88 q-227 0 -358.5 137t-131.5 377zM233 573h633q-4 164 -81.5 253t-219.5 89q-143 0 -229 -90t-103 -252z" />
<glyph unicode="f" horiz-adv-x="645" d="M4 942q0 23 14.5 37t38.5 14h156v51q0 180 87 283t253 115l53 4q8 1 15 1q65 0 65 -48q0 -49 -59 -56l-54 -4q-116 -8 -175.5 -72.5t-59.5 -197.5v-76h248q27 0 41 -14t14 -37t-14.5 -36t-40.5 -13h-248v-840q0 -29 -18.5 -46t-45.5 -17q-29 0 -45 16.5t-16 46.5v840 h-156q-25 0 -39 13.5t-14 35.5z" />
<glyph unicode="g" horiz-adv-x="1181" d="M100 524q0 145 56.5 258t158 174.5t232.5 61.5q125 0 213 -52.5t133 -152.5v137q0 29 16.5 46.5t44.5 17.5q29 0 46.5 -17.5t17.5 -46.5v-893q0 -217 -107.5 -328.5t-318.5 -111.5q-111 0 -198 21.5t-163 66.5q-73 44 -73 87q0 24 13 38t34 14q12 0 33.5 -11t29.5 -15 q70 -39 143.5 -64.5t182.5 -25.5q150 0 225.5 79.5t75.5 237.5v195q-43 -100 -132 -154.5t-216 -54.5q-131 0 -232.5 61.5t-158 174t-56.5 257.5zM231 524q0 -180 88.5 -281.5t243.5 -101.5q156 0 243 102.5t87 280.5t-88 281.5t-242 103.5q-156 0 -244 -102t-88 -283z" />
<glyph unicode="h" horiz-adv-x="1148" d="M164 53v1338q0 29 17.5 46t45.5 17q29 0 45.5 -17.5t16.5 -45.5v-564q47 92 136 141.5t204 49.5q358 0 358 -385v-580q0 -29 -16.5 -46t-44.5 -17q-29 0 -46.5 17.5t-17.5 45.5v572q0 147 -59.5 214.5t-188.5 67.5q-147 0 -236 -90t-89 -242v-522q0 -29 -16.5 -46 t-45.5 -17t-46 17.5t-17 45.5z" />
<glyph unicode="i" horiz-adv-x="454" d="M136 1333q0 41 25.5 65.5t66.5 24.5t66.5 -24.5t25.5 -65.5q0 -39 -25.5 -63.5t-66.5 -24.5t-66.5 24.5t-25.5 63.5zM164 53v897q0 31 17.5 47.5t45.5 16.5q29 0 45.5 -16.5t16.5 -47.5v-897q0 -31 -16.5 -47t-45.5 -16q-28 0 -45.5 16.5t-17.5 46.5z" />
<glyph unicode="j" horiz-adv-x="454" d="M-152 -324q0 47 60 54l55 4q102 6 151.5 60t49.5 181v975q0 31 17.5 47.5t45.5 16.5q29 0 45.5 -16.5t16.5 -47.5v-968q0 -174 -74 -257t-231 -94l-56 -4q-8 -1 -15 -1q-65 0 -65 50zM136 1333q0 41 25.5 65.5t66.5 24.5t66.5 -24.5t25.5 -65.5q0 -39 -25.5 -63.5 t-66.5 -24.5t-66.5 24.5t-25.5 63.5z" />
<glyph unicode="k" horiz-adv-x="991" d="M164 53v1338q0 31 17.5 47t45.5 16q27 0 44.5 -16.5t17.5 -46.5v-856l510 458q23 18 43 19q25 0 42 -17.5t17 -42.5q0 -31 -24 -49l-443 -391l484 -414q26 -24 26 -51q0 -23 -16.5 -40t-38.5 -17q-20 0 -43 18l-557 475v-430q0 -31 -17.5 -47t-44.5 -16q-29 0 -46 16.5 t-17 46.5z" />
<glyph unicode="l" horiz-adv-x="454" d="M164 53v1338q0 31 17.5 47t45.5 16q27 0 44.5 -16.5t17.5 -46.5v-1338q0 -31 -17.5 -47t-44.5 -16q-28 0 -45.5 16.5t-17.5 46.5z" />
<glyph unicode="m" horiz-adv-x="1726" d="M164 53v897q0 31 17.5 47.5t45.5 16.5q29 0 44.5 -16.5t15.5 -45.5v-123q43 92 124 140.5t187 48.5q236 0 305 -197q43 92 131 144.5t203 52.5q330 0 330 -385v-580q0 -29 -16.5 -46t-45.5 -17t-46 17.5t-17 45.5v572q0 150 -53.5 216t-169.5 66q-133 0 -212 -90 t-79 -242v-522q0 -29 -16.5 -46t-45.5 -17t-46 17.5t-17 45.5v572q0 150 -53.5 216t-169.5 66q-133 0 -212 -90t-79 -242v-522q0 -29 -16.5 -46t-45.5 -17t-46 17.5t-17 45.5z" />
<glyph unicode="n" horiz-adv-x="1148" d="M164 53v897q0 29 17.5 46.5t45.5 17.5q27 0 43.5 -16.5t16.5 -45.5v-129q47 94 136 144.5t206 50.5q358 0 358 -385v-580q0 -29 -16.5 -46t-44.5 -17q-29 0 -46.5 17.5t-17.5 45.5v572q0 147 -59.5 214.5t-188.5 67.5q-147 0 -236 -90t-89 -242v-522q0 -29 -16.5 -46 t-45.5 -17t-46 17.5t-17 45.5z" />
<glyph unicode="o" horiz-adv-x="1116" d="M100 502q0 156 57.5 272.5t161 180t240.5 63.5q135 0 239.5 -63.5t161 -180.5t56.5 -272q0 -156 -56.5 -272.5t-161 -180t-239.5 -63.5q-137 0 -240.5 63.5t-161 180t-57.5 272.5zM231 502q0 -197 84 -301.5t242 -104.5t244 104.5t86 301.5q0 193 -87 300t-241 107 q-156 0 -242 -107.5t-86 -299.5z" />
<glyph unicode="p" horiz-adv-x="1173" d="M164 -315v1265q0 29 17.5 46.5t45.5 17.5q29 0 45.5 -17.5t16.5 -46.5v-137q45 100 133 152.5t209 52.5q131 0 231.5 -64.5t155.5 -182.5t55 -273q0 -154 -55 -269.5t-155.5 -179t-231.5 -63.5q-121 0 -209 52t-133 152v-505q0 -29 -16.5 -46.5t-45.5 -17.5t-46 17.5 t-17 46.5zM289 502q0 -195 84 -300.5t239 -105.5q158 0 245 105.5t87 296.5q0 195 -87 303t-243 108t-240.5 -106.5t-84.5 -300.5z" />
<glyph unicode="q" horiz-adv-x="1173" d="M100 498q0 156 55.5 273.5t156 182t231.5 64.5q121 0 209 -52.5t133 -152.5v137q0 29 16.5 46.5t44.5 17.5q29 0 46.5 -17.5t17.5 -46.5v-1265q0 -29 -17.5 -46.5t-46.5 -17.5t-45 17.5t-16 46.5v505q-45 -100 -133 -152t-209 -52q-131 0 -231.5 63.5t-156 179 t-55.5 269.5zM231 498q0 -193 86 -297.5t244 -104.5q156 0 240 105.5t84 300.5t-85 301t-241 106t-242 -108.5t-86 -302.5z" />
<glyph unicode="r" horiz-adv-x="694" d="M164 53v897q0 31 17.5 47.5t45.5 16.5q27 0 43.5 -16.5t16.5 -45.5v-133q84 176 311 193l29 2q39 2 55 -10.5t16 -40.5q0 -51 -61 -58l-62 -6q-145 -14 -215.5 -104t-70.5 -211v-531q0 -31 -16.5 -47t-45.5 -16t-46 16.5t-17 46.5z" />
<glyph unicode="s" horiz-adv-x="978" d="M100 164q0 20 13.5 34.5t31.5 14.5t64 -31q59 -39 121.5 -63.5t156.5 -24.5q121 0 188.5 44t67.5 126q0 49 -24.5 81t-81.5 55.5t-164 45.5q-182 41 -259 105.5t-77 173.5q0 131 102.5 212t266.5 81q80 0 152.5 -20.5t125.5 -59.5q72 -49 72 -96q0 -20 -13.5 -35.5 t-31.5 -15.5q-20 0 -63 32q-55 39 -109.5 62.5t-138.5 23.5q-106 0 -170 -48t-64 -130q0 -47 21.5 -77.5t74 -54.5t150.5 -46q141 -33 217 -70t108.5 -88t32.5 -131q0 -125 -105.5 -201.5t-279.5 -76.5q-86 0 -169 23.5t-146 64.5q-39 27 -54.5 46t-15.5 44z" />
<glyph unicode="t" horiz-adv-x="669" d="M4 942q0 23 14.5 37t38.5 14h156v254q0 31 16.5 47.5t44.5 16.5q29 0 46.5 -16.5t17.5 -47.5v-254h248q27 0 41 -14t14 -37t-14.5 -36t-40.5 -13h-248v-551q0 -127 49 -181.5t154 -62.5l55 -4q57 -6 57 -53q0 -25 -18.5 -39t-59.5 -12l-57 4q-156 10 -230.5 95t-74.5 259 v545h-156q-25 0 -39 13.5t-14 35.5z" />
<glyph unicode="u" horiz-adv-x="1132" d="M160 371v579q0 29 17.5 46.5t45.5 17.5q29 0 45.5 -17.5t16.5 -46.5v-571q0 -145 58 -214t183 -69q143 0 230.5 91.5t87.5 242.5v520q0 29 16.5 46.5t44.5 17.5q29 0 46.5 -17.5t17.5 -46.5v-897q0 -29 -17.5 -46t-46.5 -17q-27 0 -43 17.5t-16 45.5v125 q-47 -94 -134 -143t-198 -49q-176 0 -265 97t-89 288z" />
<glyph unicode="v" horiz-adv-x="1042" d="M35 956q0 25 21.5 42.5t45.5 17.5q39 0 54 -37l368 -827l369 825q16 37 53 37q23 0 41.5 -16.5t18.5 -39.5q0 -14 -7 -26l-405 -891q-10 -23 -29.5 -35t-42.5 -12q-25 0 -44 12t-29 35l-408 891q-6 12 -6 24z" />
<glyph unicode="w" horiz-adv-x="1712" d="M68 952q0 25 21.5 43.5t45.5 18.5q39 0 53 -39l299 -811l310 805q8 23 26.5 35t36.5 12q20 0 37.5 -12.5t26.5 -34.5l305 -803l303 807q14 39 51 39q25 0 43.5 -16.5t18.5 -41.5q0 -4 -5 -20l-342 -893q-8 -23 -27.5 -35t-41.5 -12q-23 0 -42.5 12t-27.5 35l-303 782 l-301 -782q-8 -23 -27.5 -35t-42.5 -12t-42 12t-27 35l-344 891q-4 12 -4 20z" />
<glyph unicode="x" horiz-adv-x="1048" d="M70 51q0 27 18 47l358 410l-346 399q-18 23 -18 45q0 27 17.5 44.5t39.5 17.5q27 0 49 -25l336 -393l338 393q23 25 47 25q23 0 40.5 -17.5t17.5 -42.5q0 -27 -19 -47l-346 -399l359 -410q18 -18 18 -47q0 -25 -17.5 -42t-39.5 -17q-29 0 -48 24l-350 406l-350 -406 q-20 -25 -47 -24q-23 0 -40 17.5t-17 41.5z" />
<glyph unicode="y" horiz-adv-x="1042" d="M35 956q0 25 21.5 42.5t45.5 17.5q39 0 54 -37l368 -827l369 825q16 37 53 37q23 0 41.5 -16.5t18.5 -39.5q0 -14 -7 -26l-579 -1272q-16 -35 -53 -35q-23 0 -40.5 14.5t-17.5 36.5q0 12 6 25l146 317l-420 914q-6 12 -6 24z" />
<glyph unicode="z" horiz-adv-x="1021" d="M94 57q0 29 21 52l643 784h-611q-25 0 -39 13.5t-14 35.5q0 23 14.5 37t38.5 14h709q31 0 49.5 -16t18.5 -41q0 -27 -21 -49l-643 -785h629q26 0 40.5 -14t14.5 -37t-15.5 -37t-39.5 -14h-729q-31 0 -48.5 16.5t-17.5 40.5z" />
<glyph unicode="{" horiz-adv-x="684" d="M92 539q0 20 15.5 34.5t44.5 16.5q84 6 117.5 45t33.5 123v495q0 92 47 141.5t139 49.5h136q29 0 44 -13.5t15 -35.5q0 -25 -16.5 -39.5t-42.5 -14.5h-109q-90 0 -90 -94v-502q0 -88 -42 -140t-103 -66q61 -14 103 -66.5t42 -140.5v-504q0 -94 90 -94h109 q26 0 42.5 -14.5t16.5 -38.5q0 -23 -15.5 -36.5t-43.5 -13.5h-136q-92 0 -139 49.5t-47 141.5v497q0 84 -33.5 123t-117.5 43q-59 6 -60 54z" />
<glyph unicode="|" horiz-adv-x="518" d="M197 -315v1706q0 27 18 45t43 18q27 0 45.5 -18.5t18.5 -44.5v-1706q0 -29 -17.5 -46.5t-46.5 -17.5q-25 0 -43 18.5t-18 45.5z" />
<glyph unicode="}" horiz-adv-x="684" d="M0 -319q0 25 16.5 39t42.5 14h109q90 0 90 94v504q0 88 42 140t101 67q-59 14 -101 66t-42 140v502q0 94 -90 94h-109q-27 0 -43 14.5t-16 39.5q0 23 15.5 36t43.5 13h136q92 0 139 -49t47 -142v-495q0 -84 32.5 -123t116.5 -45q60 -2 60 -51q0 -47 -60 -54 q-82 -4 -113.5 -41.5t-31.5 -124.5l-4 -497q0 -92 -47 -141.5t-139 -49.5h-136q-29 0 -44 13.5t-15 36.5z" />
<glyph unicode="~" d="M131 541q0 16 8 30q80 145 236 146q66 0 125 -23.5t153 -72.5q66 -37 110 -55.5t85 -18.5q100 0 153 90q20 31 50 31q12 0 24 -6q23 -12 23 -41q0 -14 -8 -29q-84 -145 -236 -146q-66 0 -125 24t-154 73q-66 37 -109.5 55t-84.5 18q-100 0 -154 -90q-18 -31 -47 -30 q-14 0 -26 6q-23 10 -23 39z" />
<glyph unicode="&#xa2;" d="M197 498q0 211 107.5 350t285.5 166v174q0 27 15.5 44t41.5 17q25 0 40 -17.5t15 -43.5v-172q141 -10 240 -80q39 -27 54.5 -48.5t15.5 -45.5q0 -20 -13.5 -35.5t-31.5 -15.5q-20 0 -64 32q-55 39 -107.5 62.5t-127.5 23.5q-160 0 -250 -109.5t-90 -301.5q0 -190 89 -296 t249 -106q76 0 127 21.5t116 62.5q18 12 36 22.5t28 10.5q18 0 31.5 -14.5t13.5 -34.5q0 -23 -14.5 -42.5t-55.5 -47.5q-47 -35 -112.5 -57.5t-133.5 -28.5v-172q0 -27 -15 -44.5t-40 -17.5q-27 0 -42 17.5t-15 44.5v174q-178 23 -285.5 161t-107.5 347z" />
<glyph unicode="&#xa3;" d="M90 55q0 25 15.5 40.5t41.5 15.5h170v561h-178q-20 0 -34.5 14t-14.5 37t14.5 37t34.5 14h178v297q0 180 100.5 284.5t278.5 104.5q125 0 234.5 -47t195.5 -131q29 -27 29 -59q0 -23 -12.5 -39.5t-30.5 -16.5q-16 0 -47 21q-109 92 -191.5 127t-175.5 35 q-117 0 -186.5 -70t-69.5 -219v-287h342q23 0 37.5 -14.5t14.5 -36.5q0 -23 -14.5 -37t-37.5 -14h-342v-561h654q26 0 42.5 -15.5t16.5 -40.5q0 -27 -15.5 -41t-43.5 -14h-949q-27 0 -42 14.5t-15 40.5z" />
<glyph unicode="&#xa5;" d="M29 1395q0 23 17 40t40 17q27 0 45 -25l483 -622l484 622q18 25 45 25q23 0 40 -17.5t17 -39.5q0 -23 -14 -39l-449 -578h301q20 0 34.5 -14t14.5 -37t-14 -37t-35 -14h-360v-205h360q20 0 34.5 -14.5t14.5 -36.5q0 -23 -14 -37t-35 -14h-360v-314q0 -29 -17.5 -47 t-46.5 -18t-46 18.5t-17 46.5v314h-361q-20 0 -34.5 14t-14.5 37t14.5 37t34.5 14h361v205h-361q-20 0 -34.5 14.5t-14.5 36.5q0 23 14.5 37t34.5 14h304l-451 578q-14 16 -14 39z" />
<glyph unicode="&#xa8;" horiz-adv-x="614" d="M51 1333q0 39 24.5 62.5t61.5 23.5t62.5 -24.5t25.5 -61.5t-25.5 -60.5t-62.5 -23.5t-61.5 23.5t-24.5 60.5zM389 1333q0 37 25.5 61.5t62.5 24.5t61.5 -24.5t24.5 -61.5t-24.5 -60.5t-61.5 -23.5t-62.5 23.5t-25.5 60.5z" />
<glyph unicode="&#xa9;" horiz-adv-x="1669" d="M102 723q0 205 96.5 372t264.5 263t373 96t371.5 -96t263 -263t96.5 -372t-96.5 -372t-264.5 -264t-370 -97q-205 0 -373 97t-264.5 264t-96.5 372zM188 723q0 -180 85 -329.5t232.5 -235.5t330.5 -86q180 0 327.5 86t232.5 235.5t85 329.5t-85 328.5t-232.5 234.5 t-327.5 86q-182 0 -330 -86t-233 -234.5t-85 -328.5zM440 723q0 205 111 322.5t295 117.5q152 0 280 -98q23 -18 23 -47q0 -20 -10.5 -35.5t-28.5 -15.5q-14 0 -39 14q-66 45 -111 64.5t-110 19.5q-137 0 -211 -89t-74 -253q0 -166 74 -255t211 -89q66 0 111 19.5t110 64.5 q25 14 39 14q18 0 28.5 -15.5t10.5 -35.5q0 -27 -23 -47q-49 -49 -122.5 -73.5t-157.5 -24.5q-184 0 -295 118.5t-111 323.5z" />
<glyph unicode="&#xaa;" horiz-adv-x="671" d="M70 1016q0 68 33.5 105.5t111.5 54t215 16.5h31v39q0 70 -31 101.5t-92 31.5q-86 0 -166 -45q-37 -20 -47 -21q-18 0 -28.5 13.5t-10.5 31.5q0 35 45 60q43 23 99.5 37t111.5 14q113 0 172 -57.5t59 -182.5v-321q0 -27 -16 -42t-41 -15q-23 0 -39 15t-16 42v45 q-25 -47 -73 -74.5t-107 -27.5q-92 0 -151.5 53t-59.5 127zM184 1026q0 -43 33 -72.5t84 -29.5q68 0 114 46t46 122v32h-23q-106 0 -160.5 -10t-74 -30.5t-19.5 -57.5z" />
<glyph unicode="&#xab;" horiz-adv-x="851" d="M115 543q0 20 12 39l168 286q16 31 53 31q18 0 32.5 -12.5t14.5 -30.5q0 -10 -6 -27l-143 -286l143 -287q6 -14 6 -27q0 -18 -14 -30.5t-33 -12.5q-35 0 -53 33l-168 285q-12 23 -12 39zM461 543q0 20 12 39l168 286q16 31 53 31q18 0 32.5 -12.5t14.5 -30.5 q0 -10 -6 -27l-143 -286l143 -287q6 -14 6 -27q0 -18 -14 -30.5t-33 -12.5q-35 0 -53 33l-168 285q-12 23 -12 39z" />
<glyph unicode="&#xac;" d="M115 801q0 20 16 33.5t39 13.5h889q23 0 39 -16.5t16 -38.5v-424q0 -23 -16.5 -38.5t-38.5 -15.5q-19 0 -31 15.5t-12 38.5v376h-846q-23 0 -39 16.5t-16 39.5z" />
<glyph unicode="&#xad;" horiz-adv-x="862" d="M141 543q0 25 15.5 40t42.5 15h465q27 0 42 -15.5t15 -39.5q0 -23 -15.5 -37t-41.5 -14h-465q-27 0 -42.5 14t-15.5 37z" />
<glyph unicode="&#xae;" horiz-adv-x="1669" d="M102 723q0 205 96.5 372t264.5 263t373 96q204 0 371 -96t263.5 -263t96.5 -372t-96.5 -372t-264.5 -264t-370 -97q-205 0 -373 97t-264.5 264t-96.5 372zM188 723q0 -180 85 -329.5t232.5 -235.5t330.5 -86q180 0 327.5 86t232.5 235.5t85 329.5t-85 328.5t-232.5 234.5 t-327.5 86q-182 0 -330 -86t-233 -234.5t-85 -328.5zM543 340v756q0 27 15 42t42 15h291q137 0 214 -63.5t77 -186.5q0 -106 -60.5 -167.5t-165.5 -76.5q31 -8 55.5 -30.5t51.5 -61.5l133 -211q10 -12 10 -30q0 -20 -16 -33.5t-39 -13.5q-37 0 -59 34l-160 252 q-29 47 -61.5 64.5t-88.5 17.5h-123v-307q0 -29 -15 -44t-42 -15t-43 15t-16 44zM659 745h218q92 0 139 36t47 120t-46 120t-140 36h-218v-312z" />
<glyph unicode="&#xb1;" d="M115 666q0 20 16 33.5t39 13.5h393v313q0 23 16.5 39t38.5 16q20 0 34 -16t14 -39v-313h393q23 0 39 -16.5t16 -39.5q0 -20 -16.5 -33.5t-38.5 -13.5h-393v-311q0 -23 -16.5 -40t-39.5 -17q-20 0 -33.5 16t-13.5 39v313h-393q-23 0 -39 16.5t-16 39.5zM127 55 q0 20 16.5 34.5t38.5 14.5h889q23 0 39 -16t16 -39q0 -20 -16 -34.5t-39 -14.5h-889q-23 0 -39 16.5t-16 38.5z" />
<glyph unicode="&#xb4;" horiz-adv-x="614" d="M270 1151q0 12 10 27l256 329q31 41 72 41q27 0 45 -17.5t18 -43.5q0 -35 -34 -68l-302 -291q-12 -12 -28 -12q-14 0 -25.5 10.5t-11.5 24.5z" />
<glyph unicode="&#xb5;" horiz-adv-x="1132" d="M160 -315v1265q0 31 17.5 47.5t45.5 16.5q29 0 45.5 -16.5t16.5 -47.5v-571q0 -154 61.5 -218.5t179.5 -64.5q137 0 227.5 88t90.5 246v520q0 31 16.5 47.5t44.5 16.5q29 0 46.5 -16.5t17.5 -47.5v-897q0 -31 -17.5 -47t-46.5 -16q-27 0 -43 16.5t-16 46.5v125 q-47 -94 -134 -143t-198 -49q-143 0 -229 71v-372q0 -31 -16.5 -47.5t-45.5 -16.5t-46 16.5t-17 47.5z" />
<glyph unicode="&#xb8;" horiz-adv-x="614" d="M141 -324q0 16 12.5 27.5t30.5 11.5q12 0 19 -2q57 -16 114 -16q61 0 92 20.5t31 57.5q0 29 -17 44t-48 15q-25 0 -60.5 -10t-46.5 -10q-14 0 -27.5 11t-11.5 28l21 188h102l-14 -133q33 8 55 8q62 0 107 -36t45 -105q0 -74 -61.5 -120t-170.5 -46q-80 0 -139 22 q-33 14 -33 45z" />
<glyph unicode="&#xba;" horiz-adv-x="681" d="M49 1147q0 139 79 223t212 84t213 -84t80 -223q0 -141 -80 -226t-213 -85q-135 0 -213 85t-78 226zM166 1147q0 -104 44 -160.5t130 -56.5t130 55t44 162q0 102 -44 157.5t-130 55.5q-84 0 -129 -56.5t-45 -156.5z" />
<glyph unicode="&#xbb;" horiz-adv-x="851" d="M111 231q0 12 6 25l145 287l-145 286q-6 12 -6 25q0 18 15 31.5t34 13.5q35 0 51 -31l168 -286q10 -14 10 -39q0 -20 -10 -39l-168 -285q-18 -33 -51 -33q-20 0 -34.5 12.5t-14.5 32.5zM457 231q0 12 6 25l145 287l-145 286q-6 12 -6 25q0 18 15 31.5t34 13.5 q35 0 51 -31l168 -286q10 -14 10 -39q0 -20 -10 -39l-168 -285q-18 -33 -51 -33q-20 0 -34.5 12.5t-14.5 32.5z" />
<glyph unicode="&#xc0;" horiz-adv-x="1474" d="M68 45q0 14 4 23l598 1343q18 45 67 45q23 0 42.5 -12t27.5 -33l596 -1343q6 -13 6 -25q0 -23 -18.5 -38t-42.5 -15q-16 0 -32 10t-24 29l-155 356h-795l-158 -356q-18 -39 -57 -39q-25 0 -42 15t-17 40zM389 496h698l-348 792zM426 1825q0 25 18 42t45 17q33 0 61 -31 l211 -235q12 -12 13 -27q0 -14 -11.5 -24.5t-25.5 -10.5t-25 9l-248 194q-39 31 -38 66z" />
<glyph unicode="&#xc1;" horiz-adv-x="1474" d="M68 45q0 14 4 23l598 1343q18 45 67 45q23 0 42.5 -12t27.5 -33l596 -1343q6 -13 6 -25q0 -23 -18.5 -38t-42.5 -15q-16 0 -32 10t-24 29l-155 356h-795l-158 -356q-18 -39 -57 -39q-25 0 -42 15t-17 40zM389 496h698l-348 792zM700 1591q0 14 12 27l211 235q29 31 62 31 q27 0 45 -17.5t18 -43.5q0 -33 -39 -64l-248 -194q-10 -9 -24 -9t-25.5 10.5t-11.5 24.5z" />
<glyph unicode="&#xc2;" horiz-adv-x="1474" d="M68 45q0 14 4 23l598 1343q18 45 67 45q23 0 42.5 -12t27.5 -33l596 -1343q6 -13 6 -25q0 -23 -18.5 -38t-42.5 -15q-16 0 -32 10t-24 29l-155 356h-795l-158 -356q-18 -39 -57 -39q-25 0 -42 15t-17 40zM389 496h698l-348 792zM464 1608q0 23 19 43l188 202q29 31 66 31 q35 0 65 -31l189 -202q18 -18 18 -43q0 -20 -15.5 -36t-35.5 -16q-25 0 -41 19l-180 209l-180 -209q-18 -21 -41 -21q-20 0 -36 15.5t-16 38.5z" />
<glyph unicode="&#xc3;" horiz-adv-x="1474" d="M68 45q0 14 4 23l598 1343q18 45 67 45q23 0 42.5 -12t27.5 -33l596 -1343q6 -13 6 -25q0 -23 -18.5 -38t-42.5 -15q-16 0 -32 10t-24 29l-155 356h-795l-158 -356q-18 -39 -57 -39q-25 0 -42 15t-17 40zM389 496h698l-348 792zM421 1671q0 33 21.5 69t61.5 59.5t91 23.5 q35 0 72 -13.5t92 -37.5q6 -4 34 -16.5t49.5 -18.5t35.5 -6q39 0 59.5 16t36.5 43q8 12 18.5 21.5t20.5 9.5q16 0 27.5 -13.5t11.5 -29.5q0 -33 -21.5 -69t-61.5 -60.5t-91 -24.5q-35 0 -71.5 13.5t-92.5 37.5q-6 4 -33.5 16.5t-49 18.5t-36.5 6q-37 0 -57 -15t-39 -42 q-8 -12 -18 -21.5t-21 -9.5q-16 0 -27.5 12.5t-11.5 30.5z" />
<glyph unicode="&#xc4;" horiz-adv-x="1474" d="M68 45q0 14 4 23l598 1343q18 45 67 45q23 0 42.5 -12t27.5 -33l596 -1343q6 -13 6 -25q0 -23 -18.5 -38t-42.5 -15q-16 0 -32 10t-24 29l-155 356h-795l-158 -356q-18 -39 -57 -39q-25 0 -42 15t-17 40zM389 496h698l-348 792zM481 1722q0 37 24.5 60.5t61.5 23.5 t62.5 -23.5t25.5 -60.5t-25.5 -60.5t-62.5 -23.5t-61.5 24t-24.5 60zM819 1722q0 37 25.5 60.5t62.5 23.5t61.5 -23.5t24.5 -60.5t-24.5 -60.5t-61.5 -23.5t-62.5 24t-25.5 60z" />
<glyph unicode="&#xc5;" horiz-adv-x="1474" d="M68 45q0 14 4 23l590 1329q-57 23 -92 72t-35 110q0 84 59 141.5t143 57.5t143.5 -57.5t59.5 -141.5q0 -61 -35 -110.5t-92 -71.5l590 -1329q6 -13 6 -25q0 -23 -18.5 -38t-42.5 -15q-16 0 -32 10t-24 29l-155 356h-795l-158 -356q-18 -39 -57 -39q-25 0 -42 15t-17 40z M389 496h698l-348 792zM637 1579q0 -43 28.5 -73.5t71.5 -30.5t73 30.5t30 73.5q0 45 -29 76t-74 31q-43 0 -71.5 -31t-28.5 -76z" />
<glyph unicode="&#xc6;" horiz-adv-x="2025" d="M29 35q0 18 10 33l821 1343q23 33 74 33h938q27 0 42 -14.5t15 -40.5q0 -27 -15.5 -41.5t-41.5 -14.5h-858l114 -545h703q27 0 42 -14t15 -41t-15 -41t-42 -14h-678l121 -567h598q26 0 41.5 -14.5t15.5 -41.5t-15.5 -41t-41.5 -14h-637q-53 0 -68 63l-67 322h-735 l-215 -356q-25 -39 -68 -39q-23 0 -38 12t-15 33zM432 496h643l-168 790z" />
<glyph unicode="&#xc7;" horiz-adv-x="1386" d="M131 723q0 227 79 393t227.5 255t348.5 89q137 0 261 -46t210 -132q29 -27 29 -59q0 -23 -13 -39.5t-30 -16.5q-20 0 -47 21q-111 90 -201 125t-211 35q-248 0 -384 -164t-136 -461q0 -299 136.5 -463t383.5 -164q121 0 211 35t201 125q31 20 47 20q17 0 30 -16t13 -39 q0 -33 -29 -59q-80 -82 -196.5 -128t-245.5 -50l-8 -76q33 8 55 8q61 0 106.5 -36t45.5 -105q0 -74 -61.5 -120t-170.5 -46q-80 0 -139 22q-33 14 -33 45q0 16 12.5 27.5t30.5 11.5q12 0 19 -2q57 -16 114 -16q61 0 92 20.5t31 57.5q0 29 -17.5 44t-47.5 15q-25 0 -60.5 -10 t-46.5 -10q-14 0 -27.5 11t-11.5 28l15 135q-180 14 -311.5 107t-201 254t-69.5 374z" />
<glyph unicode="&#xc8;" horiz-adv-x="1185" d="M186 63v1317q0 27 19.5 45.5t48.5 18.5h778q27 0 42.5 -14.5t15.5 -40.5q0 -25 -15.5 -39.5t-42.5 -14.5h-721v-547h680q27 0 42.5 -14t15.5 -41t-15.5 -41t-42.5 -14h-680v-569h721q27 0 42.5 -13.5t15.5 -40.5t-15.5 -41t-42.5 -14h-778q-29 0 -48.5 18.5t-19.5 44.5z M349 1825q0 25 18 42t45 17q33 0 61 -31l211 -235q12 -12 13 -27q0 -14 -11.5 -24.5t-25.5 -10.5t-25 9l-248 194q-39 31 -38 66z" />
<glyph unicode="&#xc9;" horiz-adv-x="1185" d="M186 63v1317q0 27 19.5 45.5t48.5 18.5h778q27 0 42.5 -14.5t15.5 -40.5q0 -25 -15.5 -39.5t-42.5 -14.5h-721v-547h680q27 0 42.5 -14t15.5 -41t-15.5 -41t-42.5 -14h-680v-569h721q27 0 42.5 -13.5t15.5 -40.5t-15.5 -41t-42.5 -14h-778q-29 0 -48.5 18.5t-19.5 44.5z M623 1591q0 14 12 27l211 235q29 31 62 31q27 0 45 -17.5t18 -43.5q0 -33 -39 -64l-248 -194q-10 -9 -24 -9t-25.5 10.5t-11.5 24.5z" />
<glyph unicode="&#xca;" horiz-adv-x="1185" d="M186 63v1317q0 27 19.5 45.5t48.5 18.5h778q27 0 42.5 -14.5t15.5 -40.5q0 -25 -15.5 -39.5t-42.5 -14.5h-721v-547h680q27 0 42.5 -14t15.5 -41t-15.5 -41t-42.5 -14h-680v-569h721q27 0 42.5 -13.5t15.5 -40.5t-15.5 -41t-42.5 -14h-778q-29 0 -48.5 18.5t-19.5 44.5z M387 1608q0 23 19 43l188 202q29 31 66 31q35 0 65 -31l189 -202q18 -18 18 -43q0 -20 -15.5 -36t-35.5 -16q-25 0 -41 19l-180 209l-180 -209q-18 -21 -41 -21q-20 0 -36 15.5t-16 38.5z" />
<glyph unicode="&#xcb;" horiz-adv-x="1185" d="M186 63v1317q0 27 19.5 45.5t48.5 18.5h778q27 0 42.5 -14.5t15.5 -40.5q0 -25 -15.5 -39.5t-42.5 -14.5h-721v-547h680q27 0 42.5 -14t15.5 -41t-15.5 -41t-42.5 -14h-680v-569h721q27 0 42.5 -13.5t15.5 -40.5t-15.5 -41t-42.5 -14h-778q-29 0 -48.5 18.5t-19.5 44.5z M404 1722q0 37 24.5 60.5t61.5 23.5t62.5 -23.5t25.5 -60.5t-25.5 -60.5t-62.5 -23.5t-61.5 24t-24.5 60zM742 1722q0 37 25.5 60.5t62.5 23.5t61.5 -23.5t24.5 -60.5t-24.5 -60.5t-61.5 -23.5t-62.5 24t-25.5 60z" />
<glyph unicode="&#xcc;" horiz-adv-x="499" d="M-61 1825q0 25 18 42t45 17q33 0 61 -31l211 -235q12 -12 13 -27q0 -14 -11.5 -24.5t-25.5 -10.5t-25 9l-248 194q-39 31 -38 66zM186 55v1334q0 29 17.5 47t46.5 18t46 -18.5t17 -46.5v-1334q0 -29 -17 -47t-46 -18t-46.5 18.5t-17.5 46.5z" />
<glyph unicode="&#xcd;" horiz-adv-x="499" d="M186 55v1334q0 29 17.5 47t46.5 18t46 -18.5t17 -46.5v-1334q0 -29 -17 -47t-46 -18t-46.5 18.5t-17.5 46.5zM213 1591q0 14 12 27l211 235q29 31 62 31q27 0 45 -17.5t18 -43.5q0 -33 -39 -64l-248 -194q-10 -9 -24 -9t-25.5 10.5t-11.5 24.5z" />
<glyph unicode="&#xce;" horiz-adv-x="499" d="M-23 1608q0 23 19 43l188 202q29 31 66 31q35 0 65 -31l189 -202q18 -18 18 -43q0 -20 -15.5 -36t-35.5 -16q-25 0 -41 19l-180 209l-180 -209q-18 -21 -41 -21q-20 0 -36 15.5t-16 38.5zM186 55v1334q0 29 17.5 47t46.5 18t46 -18.5t17 -46.5v-1334q0 -29 -17 -47 t-46 -18t-46.5 18.5t-17.5 46.5z" />
<glyph unicode="&#xcf;" horiz-adv-x="499" d="M-6 1722q0 37 24.5 60.5t61.5 23.5t62.5 -23.5t25.5 -60.5t-25.5 -60.5t-62.5 -23.5t-61.5 24t-24.5 60zM186 55v1334q0 29 17.5 47t46.5 18t46 -18.5t17 -46.5v-1334q0 -29 -17 -47t-46 -18t-46.5 18.5t-17.5 46.5zM332 1722q0 37 25.5 60.5t62.5 23.5t61.5 -23.5 t24.5 -60.5t-24.5 -60.5t-61.5 -23.5t-62.5 24t-25.5 60z" />
<glyph unicode="&#xd0;" horiz-adv-x="1515" d="M0 733q0 25 15.5 38t41.5 13h148v596q0 27 19.5 45.5t47.5 18.5h398q342 0 528 -186.5t186 -534.5t-186 -535.5t-528 -187.5h-398q-29 0 -48 18.5t-19 44.5v617h-148q-25 0 -41 14.5t-16 38.5zM330 111h334q589 0 589 612q0 610 -589 610h-334v-549h356q53 0 53 -51 q0 -27 -14 -40t-39 -13h-356v-569z" />
<glyph unicode="&#xd1;" horiz-adv-x="1505" d="M186 55v1334q0 29 17.5 47t48.5 18q33 0 53 -31l895 -1208v1174q0 29 16.5 47t43.5 18q28 0 43.5 -17.5t15.5 -47.5v-1334q0 -29 -16.5 -47t-45.5 -18q-31 0 -55 30l-897 1211v-1176q0 -29 -16.5 -47t-42.5 -18q-31 0 -45.5 17.5t-14.5 47.5zM438 1671q0 33 21.5 69 t61.5 59.5t91 23.5q35 0 72 -13.5t92 -37.5q6 -4 34 -16.5t49.5 -18.5t35.5 -6q39 0 59.5 16t36.5 43q8 12 18.5 21.5t20.5 9.5q16 0 27.5 -13.5t11.5 -29.5q0 -33 -21.5 -69t-61.5 -60.5t-91 -24.5q-35 0 -71.5 13.5t-92.5 37.5q-6 4 -33.5 16.5t-49 18.5t-36.5 6 q-37 0 -57 -15t-39 -42q-8 -12 -18 -21.5t-21 -9.5q-16 0 -27.5 12.5t-11.5 30.5z" />
<glyph unicode="&#xd2;" horiz-adv-x="1550" d="M131 721q0 227 78 394t222 256t343 89t344.5 -89t223 -255t77.5 -393t-77.5 -394t-223 -256t-344.5 -89q-196 0 -341.5 89t-223.5 256t-78 392zM262 723q0 -297 134 -462t378 -165t379 164t135 463t-134 462t-380 163q-244 0 -378 -164t-134 -461zM463 1825q0 25 18 42 t45 17q33 0 61 -31l211 -235q12 -12 13 -27q0 -14 -11.5 -24.5t-25.5 -10.5t-25 9l-248 194q-39 31 -38 66z" />
<glyph unicode="&#xd3;" horiz-adv-x="1550" d="M131 721q0 227 78 394t222 256t343 89t344.5 -89t223 -255t77.5 -393t-77.5 -394t-223 -256t-344.5 -89q-196 0 -341.5 89t-223.5 256t-78 392zM262 723q0 -297 134 -462t378 -165t379 164t135 463t-134 462t-380 163q-244 0 -378 -164t-134 -461zM737 1591q0 14 12 27 l211 235q29 31 62 31q27 0 45 -17.5t18 -43.5q0 -33 -39 -64l-248 -194q-10 -9 -24 -9t-25.5 10.5t-11.5 24.5z" />
<glyph unicode="&#xd4;" horiz-adv-x="1550" d="M131 721q0 227 78 394t222 256t343 89t344.5 -89t223 -255t77.5 -393t-77.5 -394t-223 -256t-344.5 -89q-196 0 -341.5 89t-223.5 256t-78 392zM262 723q0 -297 134 -462t378 -165t379 164t135 463t-134 462t-380 163q-244 0 -378 -164t-134 -461zM501 1608q0 23 19 43 l188 202q29 31 66 31q35 0 65 -31l189 -202q18 -18 18 -43q0 -20 -15.5 -36t-35.5 -16q-25 0 -41 19l-180 209l-180 -209q-18 -21 -41 -21q-20 0 -36 15.5t-16 38.5z" />
<glyph unicode="&#xd5;" horiz-adv-x="1550" d="M131 721q0 227 78 394t222 256t343 89t344.5 -89t223 -255t77.5 -393t-77.5 -394t-223 -256t-344.5 -89q-196 0 -341.5 89t-223.5 256t-78 392zM262 723q0 -297 134 -462t378 -165t379 164t135 463t-134 462t-380 163q-244 0 -378 -164t-134 -461zM458 1671q0 33 21.5 69 t61.5 59.5t91 23.5q35 0 72 -13.5t92 -37.5q6 -4 34 -16.5t49.5 -18.5t35.5 -6q39 0 59.5 16t36.5 43q8 12 18.5 21.5t20.5 9.5q16 0 27.5 -13.5t11.5 -29.5q0 -33 -21.5 -69t-61.5 -60.5t-91 -24.5q-35 0 -71.5 13.5t-92.5 37.5q-6 4 -33.5 16.5t-49 18.5t-36.5 6 q-37 0 -57 -15t-39 -42q-8 -12 -18 -21.5t-21 -9.5q-16 0 -27.5 12.5t-11.5 30.5z" />
<glyph unicode="&#xd6;" horiz-adv-x="1550" d="M131 721q0 227 78 394t222 256t343 89t344.5 -89t223 -255t77.5 -393t-77.5 -394t-223 -256t-344.5 -89q-196 0 -341.5 89t-223.5 256t-78 392zM262 723q0 -297 134 -462t378 -165t379 164t135 463t-134 462t-380 163q-244 0 -378 -164t-134 -461zM518 1722 q0 37 24.5 60.5t61.5 23.5t62.5 -23.5t25.5 -60.5t-25.5 -60.5t-62.5 -23.5t-61.5 24t-24.5 60zM856 1722q0 37 25.5 60.5t62.5 23.5t61.5 -23.5t24.5 -60.5t-24.5 -60.5t-61.5 -23.5t-62.5 24t-25.5 60z" />
<glyph unicode="&#xd8;" horiz-adv-x="1550" d="M131 721q0 227 78 394t222 256t343 89q186 0 326 -78l61 105q16 29 45 29q23 0 39.5 -15.5t16.5 -36.5q0 -14 -11 -30l-65 -111q112 -96 172.5 -248.5t60.5 -351.5q0 -227 -77.5 -394t-223 -256t-344.5 -89q-184 0 -323 77l-60 -102q-16 -31 -47 -31q-20 0 -36.5 14.5 t-16.5 37.5q0 12 10 32l64 111q-113 94 -173.5 246.5t-60.5 351.5zM262 723q0 -332 164 -496l616 1055q-115 66 -268 66q-244 0 -378 -164t-134 -461zM510 162q113 -66 264 -66q244 0 379 164t135 463q0 334 -164 494z" />
<glyph unicode="&#xd9;" horiz-adv-x="1474" d="M176 557v832q0 31 17.5 48t46.5 17t46 -17.5t17 -47.5v-846q0 -446 434 -447q215 0 324.5 113t109.5 334v846q0 29 17.5 47t46.5 18t45 -17.5t16 -47.5v-832q0 -283 -142 -428t-417 -145q-276 0 -418.5 145t-142.5 428zM426 1825q0 25 18 42t45 17q33 0 61 -31l211 -235 q12 -12 13 -27q0 -14 -11.5 -24.5t-25.5 -10.5t-25 9l-248 194q-39 31 -38 66z" />
<glyph unicode="&#xda;" horiz-adv-x="1474" d="M176 557v832q0 31 17.5 48t46.5 17t46 -17.5t17 -47.5v-846q0 -446 434 -447q215 0 324.5 113t109.5 334v846q0 29 17.5 47t46.5 18t45 -17.5t16 -47.5v-832q0 -283 -142 -428t-417 -145q-276 0 -418.5 145t-142.5 428zM700 1591q0 14 12 27l211 235q29 31 62 31 q27 0 45 -17.5t18 -43.5q0 -33 -39 -64l-248 -194q-10 -9 -24 -9t-25.5 10.5t-11.5 24.5z" />
<glyph unicode="&#xdb;" horiz-adv-x="1474" d="M176 557v832q0 31 17.5 48t46.5 17t46 -17.5t17 -47.5v-846q0 -446 434 -447q215 0 324.5 113t109.5 334v846q0 29 17.5 47t46.5 18t45 -17.5t16 -47.5v-832q0 -283 -142 -428t-417 -145q-276 0 -418.5 145t-142.5 428zM464 1608q0 23 19 43l188 202q29 31 66 31 q35 0 65 -31l189 -202q18 -18 18 -43q0 -20 -15.5 -36t-35.5 -16q-25 0 -41 19l-180 209l-180 -209q-18 -21 -41 -21q-20 0 -36 15.5t-16 38.5z" />
<glyph unicode="&#xdc;" horiz-adv-x="1474" d="M176 557v832q0 31 17.5 48t46.5 17t46 -17.5t17 -47.5v-846q0 -446 434 -447q215 0 324.5 113t109.5 334v846q0 29 17.5 47t46.5 18t45 -17.5t16 -47.5v-832q0 -283 -142 -428t-417 -145q-276 0 -418.5 145t-142.5 428zM481 1722q0 37 24.5 60.5t61.5 23.5t62.5 -23.5 t25.5 -60.5t-25.5 -60.5t-62.5 -23.5t-61.5 24t-24.5 60zM819 1722q0 37 25.5 60.5t62.5 23.5t61.5 -23.5t24.5 -60.5t-24.5 -60.5t-61.5 -23.5t-62.5 24t-25.5 60z" />
<glyph unicode="&#xdd;" horiz-adv-x="1210" d="M16 1395q0 23 16.5 40t39.5 17q27 0 45 -25l487 -630l488 630q18 25 45 25q23 0 39 -16.5t16 -40.5q0 -23 -14 -39l-512 -660v-641q0 -29 -16.5 -47t-45.5 -18t-46 18.5t-17 46.5v645l-510 656q-14 16 -15 39zM567 1591q0 14 12 27l211 235q29 31 62 31q27 0 45 -17.5 t18 -43.5q0 -33 -39 -64l-248 -194q-10 -9 -24 -9t-25.5 10.5t-11.5 24.5z" />
<glyph unicode="&#xde;" horiz-adv-x="1306" d="M186 55v1334q0 31 17.5 48t46.5 17t45 -17.5t16 -47.5v-271h441q219 0 336.5 -99t117.5 -282q0 -184 -119.5 -285.5t-334.5 -101.5h-441v-295q0 -31 -16 -48t-45 -17t-46.5 17.5t-17.5 47.5zM311 459h432q170 0 253 68.5t83 209.5q0 139 -83 206t-253 67h-432v-551z" />
<glyph unicode="&#xdf;" horiz-adv-x="1224" d="M164 53v942q0 215 114.5 336t319.5 121q150 0 236 -67.5t86 -188.5q0 -86 -44.5 -146.5t-123.5 -127.5q-63 -55 -92 -91t-29 -81q0 -51 29.5 -85t74.5 -55.5t123 -50.5q96 -35 155.5 -65.5t101.5 -86t42 -141.5q0 -125 -100.5 -202.5t-261.5 -77.5q-74 0 -154 23.5 t-141 64.5q-39 25 -53.5 45t-14.5 45q0 20 12.5 34.5t30.5 14.5q12 0 29.5 -9t36.5 -24q55 -39 113.5 -62.5t140.5 -23.5q111 0 173 45t62 125q0 53 -30.5 89t-76.5 57.5t-128 50.5q-92 31 -150.5 60.5t-99.5 81.5t-41 134q0 76 39 127t116 119q70 59 105 105.5t35 105.5 q0 72 -52.5 112t-146.5 40q-150 0 -230.5 -88.5t-80.5 -251.5v-953q0 -29 -16.5 -46t-45.5 -17t-46 17.5t-17 45.5z" />
<glyph unicode="&#xe0;" horiz-adv-x="1077" d="M131 287q0 111 57.5 172t190.5 87.5t371 26.5h43v76q0 135 -55.5 197.5t-174.5 62.5q-152 0 -289 -80l-31.5 -21t-43.5 -17q-20 0 -33.5 15t-13.5 38q0 45 71 88q72 41 160 63.5t174 22.5q180 0 269 -94.5t89 -284.5v-584q0 -29 -16 -46t-45 -17t-45 17.5t-16 45.5v123 q-43 -92 -125 -142t-189 -50q-96 0 -176 38.5t-126 108.5t-46 154zM192 1487q0 27 18.5 44t45.5 17q39 0 71 -41l256 -329q10 -14 11 -27q0 -14 -11.5 -24.5t-25.5 -10.5q-16 0 -29 12l-301 291q-35 33 -35 68zM262 293q0 -86 65.5 -142.5t161.5 -56.5q134 0 219 90t85 230 v67h-39q-197 0 -301.5 -16t-147.5 -56t-43 -116z" />
<glyph unicode="&#xe1;" horiz-adv-x="1077" d="M131 287q0 111 57.5 172t190.5 87.5t371 26.5h43v76q0 135 -55.5 197.5t-174.5 62.5q-152 0 -289 -80l-31.5 -21t-43.5 -17q-20 0 -33.5 15t-13.5 38q0 45 71 88q72 41 160 63.5t174 22.5q180 0 269 -94.5t89 -284.5v-584q0 -29 -16 -46t-45 -17t-45 17.5t-16 45.5v123 q-43 -92 -125 -142t-189 -50q-96 0 -176 38.5t-126 108.5t-46 154zM262 293q0 -86 65.5 -142.5t161.5 -56.5q134 0 219 90t85 230v67h-39q-197 0 -301.5 -16t-147.5 -56t-43 -116zM520 1151q0 12 10 27l256 329q31 41 72 41q27 0 45 -17.5t18 -43.5q0 -35 -34 -68l-302 -291 q-12 -12 -28 -12q-14 0 -25.5 10.5t-11.5 24.5z" />
<glyph unicode="&#xe2;" horiz-adv-x="1077" d="M131 287q0 111 57.5 172t190.5 87.5t371 26.5h43v76q0 135 -55.5 197.5t-174.5 62.5q-152 0 -289 -80l-31.5 -21t-43.5 -17q-20 0 -33.5 15t-13.5 38q0 45 71 88q72 41 160 63.5t174 22.5q180 0 269 -94.5t89 -284.5v-584q0 -29 -16 -46t-45 -17t-45 17.5t-16 45.5v123 q-43 -92 -125 -142t-189 -50q-96 0 -176 38.5t-126 108.5t-46 154zM262 293q0 -86 65.5 -142.5t161.5 -56.5q134 0 219 90t85 230v67h-39q-197 0 -301.5 -16t-147.5 -56t-43 -116zM284 1169q0 18 13 37l192 297q16 20 31.5 31.5t36.5 11.5q23 0 38 -10t29 -33l193 -297 q12 -18 12 -37q0 -23 -15.5 -38t-37.5 -15q-29 0 -47 31l-172 285l-172 -285q-18 -31 -47 -31q-23 0 -38.5 15.5t-15.5 37.5z" />
<glyph unicode="&#xe3;" horiz-adv-x="1077" d="M131 287q0 111 57.5 172t190.5 87.5t371 26.5h43v76q0 135 -55.5 197.5t-174.5 62.5q-152 0 -289 -80l-31.5 -21t-43.5 -17q-20 0 -33.5 15t-13.5 38q0 45 71 88q72 41 160 63.5t174 22.5q180 0 269 -94.5t89 -284.5v-584q0 -29 -16 -46t-45 -17t-45 17.5t-16 45.5v123 q-43 -92 -125 -142t-189 -50q-96 0 -176 38.5t-126 108.5t-46 154zM241 1272q0 35 21.5 79t61.5 74.5t91 30.5q37 0 73 -18.5t89 -55.5q45 -31 72 -45t49 -14q37 0 57.5 20.5t36.5 55.5q12 23 20.5 33t20.5 10q16 0 27.5 -12.5t11.5 -30.5q0 -35 -21.5 -79t-61.5 -75 t-91 -31q-37 0 -75 19.5t-87 54.5q-51 33 -74.5 45.5t-46.5 12.5q-37 0 -57 -19.5t-37 -54.5q-10 -23 -19 -33t-22 -10q-16 0 -27.5 12t-11.5 31zM262 293q0 -86 65.5 -142.5t161.5 -56.5q134 0 219 90t85 230v67h-39q-197 0 -301.5 -16t-147.5 -56t-43 -116z" />
<glyph unicode="&#xe4;" horiz-adv-x="1077" d="M131 287q0 111 57.5 172t190.5 87.5t371 26.5h43v76q0 135 -55.5 197.5t-174.5 62.5q-152 0 -289 -80l-31.5 -21t-43.5 -17q-20 0 -33.5 15t-13.5 38q0 45 71 88q72 41 160 63.5t174 22.5q180 0 269 -94.5t89 -284.5v-584q0 -29 -16 -46t-45 -17t-45 17.5t-16 45.5v123 q-43 -92 -125 -142t-189 -50q-96 0 -176 38.5t-126 108.5t-46 154zM262 293q0 -86 65.5 -142.5t161.5 -56.5q134 0 219 90t85 230v67h-39q-197 0 -301.5 -16t-147.5 -56t-43 -116zM301 1333q0 39 24.5 62.5t61.5 23.5t62.5 -24.5t25.5 -61.5t-25.5 -60.5t-62.5 -23.5 t-61.5 23.5t-24.5 60.5zM639 1333q0 37 25.5 61.5t62.5 24.5t61.5 -24.5t24.5 -61.5t-24.5 -60.5t-61.5 -23.5t-62.5 23.5t-25.5 60.5z" />
<glyph unicode="&#xe5;" horiz-adv-x="1077" d="M131 287q0 111 57.5 172t190.5 87.5t371 26.5h43v76q0 135 -55.5 197.5t-174.5 62.5q-152 0 -289 -80l-31.5 -21t-43.5 -17q-20 0 -33.5 15t-13.5 38q0 45 71 88q72 41 160 63.5t174 22.5q180 0 269 -94.5t89 -284.5v-584q0 -29 -16 -46t-45 -17t-45 17.5t-16 45.5v123 q-43 -92 -125 -142t-189 -50q-96 0 -176 38.5t-126 108.5t-46 154zM262 293q0 -86 65.5 -142.5t161.5 -56.5q134 0 219 90t85 230v67h-39q-197 0 -301.5 -16t-147.5 -56t-43 -116zM354 1333q0 84 59.5 141.5t143.5 57.5t143.5 -57.5t59.5 -141.5q0 -82 -59.5 -139 t-143.5 -57t-143.5 57t-59.5 139zM454 1333q0 -43 30 -73.5t73 -30.5t72.5 30.5t29.5 73.5q0 45 -28.5 76t-73.5 31t-74 -31t-29 -76z" />
<glyph unicode="&#xe6;" horiz-adv-x="1755" d="M131 287q0 111 58.5 172t192.5 87.5t374 26.5h45v70q0 139 -55.5 202.5t-176.5 63.5q-106 0 -174.5 -24.5t-138.5 -65.5q-18 -12 -34.5 -20t-26.5 -8q-18 0 -30.5 15t-12.5 38q0 47 71 88q152 86 338 86q262 0 332 -197q59 94 152.5 145.5t207.5 51.5q186 0 297 -125 t111 -340q0 -37 -16.5 -54.5t-53.5 -17.5h-665q6 -188 96 -286.5t256 -98.5q84 0 144.5 23.5t121.5 62.5q45 31 64 31q18 0 31.5 -15.5t13.5 -35.5q0 -47 -72 -88q-70 -43 -148.5 -65.5t-154.5 -22.5q-154 0 -260.5 69.5t-159.5 200.5q-37 -127 -133 -198.5t-233 -71.5 q-102 0 -184.5 38.5t-129.5 107.5t-47 155zM262 293q0 -88 67.5 -143.5t170.5 -55.5q131 0 216 92.5t85 235.5v59h-39q-201 0 -306.5 -16t-149.5 -56t-44 -116zM930 573h616q-4 164 -80.5 253t-212.5 89q-137 0 -222 -91t-101 -251z" />
<glyph unicode="&#xe7;" horiz-adv-x="972" d="M100 498q0 154 58.5 271.5t164 183t242.5 65.5q78 0 152 -20.5t131 -61.5q37 -27 52 -48.5t15 -45.5q0 -23 -12 -37t-31 -14q-20 0 -65 34q-53 39 -106.5 61.5t-129.5 22.5q-160 0 -250 -109.5t-90 -301.5q0 -190 89.5 -296t248.5 -106q78 0 130.5 22.5t113.5 61.5 q18 12 35.5 22.5t28.5 10.5q20 0 32.5 -14.5t12.5 -34.5q0 -25 -14.5 -43.5t-55.5 -46.5q-49 -37 -118.5 -60.5t-141.5 -27.5l-8 -78q33 8 55 8q61 0 106.5 -36t45.5 -105q0 -74 -61.5 -120t-170.5 -46q-80 0 -139 22q-33 14 -33 45q0 16 12.5 27.5t30.5 11.5q12 0 19 -2 q57 -16 114 -16q61 0 92 20.5t31 57.5q0 29 -17.5 44t-47.5 15q-25 0 -61 -10t-46 -10q-14 0 -27.5 11t-11.5 28l14 137q-178 25 -283.5 162t-105.5 346z" />
<glyph unicode="&#xe8;" horiz-adv-x="1077" d="M100 500q0 154 58.5 271.5t164 182t242.5 64.5q193 0 304.5 -124t111.5 -341q0 -37 -16.5 -54.5t-53.5 -17.5h-682q6 -188 98.5 -286.5t260.5 -98.5q88 0 147.5 23.5t126.5 62.5q45 31 64 31q18 0 31.5 -15.5t13.5 -35.5q0 -45 -70 -88q-147 -88 -311 -88 q-227 0 -358.5 137t-131.5 377zM200 1487q0 27 18.5 44t45.5 17q39 0 71 -41l256 -329q10 -14 11 -27q0 -14 -11.5 -24.5t-25.5 -10.5q-16 0 -29 12l-301 291q-35 33 -35 68zM233 573h633q-4 164 -81.5 253t-219.5 89q-143 0 -229 -90t-103 -252z" />
<glyph unicode="&#xe9;" horiz-adv-x="1077" d="M100 500q0 154 58.5 271.5t164 182t242.5 64.5q193 0 304.5 -124t111.5 -341q0 -37 -16.5 -54.5t-53.5 -17.5h-682q6 -188 98.5 -286.5t260.5 -98.5q88 0 147.5 23.5t126.5 62.5q45 31 64 31q18 0 31.5 -15.5t13.5 -35.5q0 -45 -70 -88q-147 -88 -311 -88 q-227 0 -358.5 137t-131.5 377zM233 573h633q-4 164 -81.5 253t-219.5 89q-143 0 -229 -90t-103 -252zM528 1151q0 12 10 27l256 329q31 41 72 41q27 0 45 -17.5t18 -43.5q0 -35 -34 -68l-302 -291q-12 -12 -28 -12q-14 0 -25.5 10.5t-11.5 24.5z" />
<glyph unicode="&#xea;" horiz-adv-x="1077" d="M100 500q0 154 58.5 271.5t164 182t242.5 64.5q193 0 304.5 -124t111.5 -341q0 -37 -16.5 -54.5t-53.5 -17.5h-682q6 -188 98.5 -286.5t260.5 -98.5q88 0 147.5 23.5t126.5 62.5q45 31 64 31q18 0 31.5 -15.5t13.5 -35.5q0 -45 -70 -88q-147 -88 -311 -88 q-227 0 -358.5 137t-131.5 377zM233 573h633q-4 164 -81.5 253t-219.5 89q-143 0 -229 -90t-103 -252zM292 1169q0 18 13 37l192 297q16 20 31.5 31.5t36.5 11.5q23 0 38 -10t29 -33l193 -297q12 -18 12 -37q0 -23 -15.5 -38t-37.5 -15q-29 0 -47 31l-172 285l-172 -285 q-18 -31 -47 -31q-23 0 -38.5 15.5t-15.5 37.5z" />
<glyph unicode="&#xeb;" horiz-adv-x="1077" d="M100 500q0 154 58.5 271.5t164 182t242.5 64.5q193 0 304.5 -124t111.5 -341q0 -37 -16.5 -54.5t-53.5 -17.5h-682q6 -188 98.5 -286.5t260.5 -98.5q88 0 147.5 23.5t126.5 62.5q45 31 64 31q18 0 31.5 -15.5t13.5 -35.5q0 -45 -70 -88q-147 -88 -311 -88 q-227 0 -358.5 137t-131.5 377zM233 573h633q-4 164 -81.5 253t-219.5 89q-143 0 -229 -90t-103 -252zM309 1333q0 39 24.5 62.5t61.5 23.5t62.5 -24.5t25.5 -61.5t-25.5 -60.5t-62.5 -23.5t-61.5 23.5t-24.5 60.5zM647 1333q0 37 25.5 61.5t62.5 24.5t61.5 -24.5 t24.5 -61.5t-24.5 -60.5t-61.5 -23.5t-62.5 23.5t-25.5 60.5z" />
<glyph unicode="&#xec;" horiz-adv-x="454" d="M-137 1487q0 27 18.5 44t45.5 17q39 0 71 -41l256 -329q10 -14 11 -27q0 -14 -11.5 -24.5t-25.5 -10.5q-16 0 -29 12l-301 291q-35 33 -35 68zM164 53v897q0 31 17.5 47.5t45.5 16.5q29 0 45.5 -16.5t16.5 -47.5v-897q0 -31 -16.5 -47t-45.5 -16q-28 0 -45.5 16.5 t-17.5 46.5z" />
<glyph unicode="&#xed;" horiz-adv-x="454" d="M164 53v897q0 31 17.5 47.5t45.5 16.5q29 0 45.5 -16.5t16.5 -47.5v-897q0 -31 -16.5 -47t-45.5 -16q-28 0 -45.5 16.5t-17.5 46.5zM191 1151q0 12 10 27l256 329q31 41 72 41q27 0 45 -17.5t18 -43.5q0 -35 -34 -68l-302 -291q-12 -12 -28 -12q-14 0 -25.5 10.5 t-11.5 24.5z" />
<glyph unicode="&#xee;" horiz-adv-x="454" d="M-45 1169q0 18 13 37l192 297q16 20 31.5 31.5t36.5 11.5q23 0 38 -10t29 -33l193 -297q12 -18 12 -37q0 -23 -15.5 -38t-37.5 -15q-29 0 -47 31l-172 285l-172 -285q-18 -31 -47 -31q-23 0 -38.5 15.5t-15.5 37.5zM164 53v897q0 31 17.5 47.5t45.5 16.5q29 0 45.5 -16.5 t16.5 -47.5v-897q0 -31 -16.5 -47t-45.5 -16q-28 0 -45.5 16.5t-17.5 46.5z" />
<glyph unicode="&#xef;" horiz-adv-x="454" d="M-28 1333q0 39 24.5 62.5t61.5 23.5t62.5 -24.5t25.5 -61.5t-25.5 -60.5t-62.5 -23.5t-61.5 23.5t-24.5 60.5zM164 53v897q0 31 17.5 47.5t45.5 16.5q29 0 45.5 -16.5t16.5 -47.5v-897q0 -31 -16.5 -47t-45.5 -16q-28 0 -45.5 16.5t-17.5 46.5zM310 1333q0 37 25.5 61.5 t62.5 24.5t61.5 -24.5t24.5 -61.5t-24.5 -60.5t-61.5 -23.5t-62.5 23.5t-25.5 60.5z" />
<glyph unicode="&#xf0;" horiz-adv-x="1124" d="M100 459q0 141 56.5 248.5t160 166t238.5 58.5q221 0 328 -154q-47 217 -205 373l-272 -107q-12 -4 -19 -4q-20 0 -33.5 15.5t-13.5 36.5q0 12 8 24t25 19l225 86q-88 68 -207 118q-27 10 -40 26.5t-13 35.5q0 20 16.5 34.5t42.5 14.5q20 0 43 -8q166 -70 283 -172 l227 88q16 4 21 4q18 0 31.5 -13.5t13.5 -31.5q0 -31 -33 -45l-186 -74q227 -248 227 -625q0 -289 -120 -438t-349 -149q-135 0 -238.5 58t-160 165.5t-56.5 249.5zM231 459q0 -174 84 -268.5t242 -94.5q154 0 242 96.5t88 268.5q0 170 -85 265t-243 95q-156 0 -242 -95 t-86 -267z" />
<glyph unicode="&#xf1;" horiz-adv-x="1148" d="M164 53v897q0 29 17.5 46.5t45.5 17.5q27 0 43.5 -16.5t16.5 -45.5v-129q47 94 136 144.5t206 50.5q358 0 358 -385v-580q0 -29 -16.5 -46t-44.5 -17q-29 0 -46.5 17.5t-17.5 45.5v572q0 147 -59.5 214.5t-188.5 67.5q-147 0 -236 -90t-89 -242v-522q0 -29 -16.5 -46 t-45.5 -17t-46 17.5t-17 45.5zM258 1272q0 35 21.5 79t61.5 74.5t91 30.5q37 0 73 -18.5t89 -55.5q45 -31 72 -45t49 -14q37 0 57.5 20.5t36.5 55.5q12 23 20.5 33t20.5 10q16 0 27.5 -12.5t11.5 -30.5q0 -35 -21.5 -79t-61.5 -75t-91 -31q-37 0 -75 19.5t-87 54.5 q-51 33 -74.5 45.5t-46.5 12.5q-37 0 -57 -19.5t-37 -54.5q-10 -23 -19 -33t-22 -10q-16 0 -27.5 12t-11.5 31z" />
<glyph unicode="&#xf2;" horiz-adv-x="1116" d="M100 502q0 156 57.5 272.5t161 180t240.5 63.5q135 0 239.5 -63.5t161 -180.5t56.5 -272q0 -156 -56.5 -272.5t-161 -180t-239.5 -63.5q-137 0 -240.5 63.5t-161 180t-57.5 272.5zM194 1487q0 27 18.5 44t45.5 17q39 0 71 -41l256 -329q10 -14 11 -27q0 -14 -11.5 -24.5 t-25.5 -10.5q-16 0 -29 12l-301 291q-35 33 -35 68zM231 502q0 -197 84 -301.5t242 -104.5t244 104.5t86 301.5q0 193 -87 300t-241 107q-156 0 -242 -107.5t-86 -299.5z" />
<glyph unicode="&#xf3;" horiz-adv-x="1116" d="M100 502q0 156 57.5 272.5t161 180t240.5 63.5q135 0 239.5 -63.5t161 -180.5t56.5 -272q0 -156 -56.5 -272.5t-161 -180t-239.5 -63.5q-137 0 -240.5 63.5t-161 180t-57.5 272.5zM231 502q0 -197 84 -301.5t242 -104.5t244 104.5t86 301.5q0 193 -87 300t-241 107 q-156 0 -242 -107.5t-86 -299.5zM522 1151q0 12 10 27l256 329q31 41 72 41q27 0 45 -17.5t18 -43.5q0 -35 -34 -68l-302 -291q-12 -12 -28 -12q-14 0 -25.5 10.5t-11.5 24.5z" />
<glyph unicode="&#xf4;" horiz-adv-x="1116" d="M100 502q0 156 57.5 272.5t161 180t240.5 63.5q135 0 239.5 -63.5t161 -180.5t56.5 -272q0 -156 -56.5 -272.5t-161 -180t-239.5 -63.5q-137 0 -240.5 63.5t-161 180t-57.5 272.5zM231 502q0 -197 84 -301.5t242 -104.5t244 104.5t86 301.5q0 193 -87 300t-241 107 q-156 0 -242 -107.5t-86 -299.5zM286 1169q0 18 13 37l192 297q16 20 31.5 31.5t36.5 11.5q23 0 38 -10t29 -33l193 -297q12 -18 12 -37q0 -23 -15.5 -38t-37.5 -15q-29 0 -47 31l-172 285l-172 -285q-18 -31 -47 -31q-23 0 -38.5 15.5t-15.5 37.5z" />
<glyph unicode="&#xf5;" horiz-adv-x="1116" d="M100 502q0 156 57.5 272.5t161 180t240.5 63.5q135 0 239.5 -63.5t161 -180.5t56.5 -272q0 -156 -56.5 -272.5t-161 -180t-239.5 -63.5q-137 0 -240.5 63.5t-161 180t-57.5 272.5zM231 502q0 -197 84 -301.5t242 -104.5t244 104.5t86 301.5q0 193 -87 300t-241 107 q-156 0 -242 -107.5t-86 -299.5zM243 1272q0 35 21.5 79t61.5 74.5t91 30.5q37 0 73 -18.5t89 -55.5q45 -31 72 -45t49 -14q37 0 57.5 20.5t36.5 55.5q12 23 20.5 33t20.5 10q16 0 27.5 -12.5t11.5 -30.5q0 -35 -21.5 -79t-61.5 -75t-91 -31q-37 0 -75 19.5t-87 54.5 q-51 33 -74.5 45.5t-46.5 12.5q-37 0 -57 -19.5t-37 -54.5q-10 -23 -19 -33t-22 -10q-16 0 -27.5 12t-11.5 31z" />
<glyph unicode="&#xf6;" horiz-adv-x="1116" d="M100 502q0 156 57.5 272.5t161 180t240.5 63.5q135 0 239.5 -63.5t161 -180.5t56.5 -272q0 -156 -56.5 -272.5t-161 -180t-239.5 -63.5q-137 0 -240.5 63.5t-161 180t-57.5 272.5zM231 502q0 -197 84 -301.5t242 -104.5t244 104.5t86 301.5q0 193 -87 300t-241 107 q-156 0 -242 -107.5t-86 -299.5zM303 1333q0 39 24.5 62.5t61.5 23.5t62.5 -24.5t25.5 -61.5t-25.5 -60.5t-62.5 -23.5t-61.5 23.5t-24.5 60.5zM641 1333q0 37 25.5 61.5t62.5 24.5t61.5 -24.5t24.5 -61.5t-24.5 -60.5t-61.5 -23.5t-62.5 23.5t-25.5 60.5z" />
<glyph unicode="&#xf7;" d="M127 584q0 20 16.5 34.5t38.5 14.5h889q23 0 39 -16.5t16 -38.5q0 -20 -16 -35t-39 -15h-889q-22 0 -38.5 16.5t-16.5 39.5zM522 168q0 41 25.5 67.5t66.5 26.5q39 0 65 -26.5t26 -67.5q0 -43 -26 -68.5t-65 -25.5q-41 0 -66.5 25.5t-25.5 68.5zM522 997q0 41 25.5 68 t66.5 27q39 0 65 -27t26 -68q0 -43 -26 -68.5t-65 -25.5q-41 0 -66.5 25.5t-25.5 68.5z" />
<glyph unicode="&#xf8;" horiz-adv-x="1116" d="M100 502q0 156 57.5 272.5t161 180t240.5 63.5q121 0 213 -49l47 80q14 25 43 24q20 0 36.5 -13t16.5 -34q0 -16 -8 -27l-51 -88q76 -69 118 -173.5t42 -235.5q0 -156 -56.5 -272.5t-161 -180t-239.5 -63.5q-119 0 -215 49l-45 -78q-14 -27 -43 -27q-20 0 -36.5 14.5 t-16.5 35.5q0 12 8 26l49 86q-76 70 -118 174.5t-42 235.5zM229 502q1 -205 93 -307l395 677q-68 37 -158 37q-156 0 -243 -107.5t-87 -299.5zM401 131q66 -35 156 -35q158 0 244 104.5t86 301.5q0 199 -90 307z" />
<glyph unicode="&#xf9;" horiz-adv-x="1132" d="M160 371v579q0 29 17.5 46.5t45.5 17.5q29 0 45.5 -17.5t16.5 -46.5v-571q0 -145 58 -214t183 -69q143 0 230.5 91.5t87.5 242.5v520q0 29 16.5 46.5t44.5 17.5q29 0 46.5 -17.5t17.5 -46.5v-897q0 -29 -17.5 -46t-46.5 -17q-27 0 -43 17.5t-16 45.5v125 q-47 -94 -134 -143t-198 -49q-176 0 -265 97t-89 288zM200 1487q0 27 18.5 44t45.5 17q39 0 71 -41l256 -329q10 -14 11 -27q0 -14 -11.5 -24.5t-25.5 -10.5q-16 0 -29 12l-301 291q-35 33 -35 68z" />
<glyph unicode="&#xfa;" horiz-adv-x="1132" d="M160 371v579q0 29 17.5 46.5t45.5 17.5q29 0 45.5 -17.5t16.5 -46.5v-571q0 -145 58 -214t183 -69q143 0 230.5 91.5t87.5 242.5v520q0 29 16.5 46.5t44.5 17.5q29 0 46.5 -17.5t17.5 -46.5v-897q0 -29 -17.5 -46t-46.5 -17q-27 0 -43 17.5t-16 45.5v125 q-47 -94 -134 -143t-198 -49q-176 0 -265 97t-89 288zM528 1151q0 12 10 27l256 329q31 41 72 41q27 0 45 -17.5t18 -43.5q0 -35 -34 -68l-302 -291q-12 -12 -28 -12q-14 0 -25.5 10.5t-11.5 24.5z" />
<glyph unicode="&#xfb;" horiz-adv-x="1132" d="M160 371v579q0 29 17.5 46.5t45.5 17.5q29 0 45.5 -17.5t16.5 -46.5v-571q0 -145 58 -214t183 -69q143 0 230.5 91.5t87.5 242.5v520q0 29 16.5 46.5t44.5 17.5q29 0 46.5 -17.5t17.5 -46.5v-897q0 -29 -17.5 -46t-46.5 -17q-27 0 -43 17.5t-16 45.5v125 q-47 -94 -134 -143t-198 -49q-176 0 -265 97t-89 288zM292 1169q0 18 13 37l192 297q16 20 31.5 31.5t36.5 11.5q23 0 38 -10t29 -33l193 -297q12 -18 12 -37q0 -23 -15.5 -38t-37.5 -15q-29 0 -47 31l-172 285l-172 -285q-18 -31 -47 -31q-23 0 -38.5 15.5t-15.5 37.5z" />
<glyph unicode="&#xfc;" horiz-adv-x="1132" d="M160 371v579q0 29 17.5 46.5t45.5 17.5q29 0 45.5 -17.5t16.5 -46.5v-571q0 -145 58 -214t183 -69q143 0 230.5 91.5t87.5 242.5v520q0 29 16.5 46.5t44.5 17.5q29 0 46.5 -17.5t17.5 -46.5v-897q0 -29 -17.5 -46t-46.5 -17q-27 0 -43 17.5t-16 45.5v125 q-47 -94 -134 -143t-198 -49q-176 0 -265 97t-89 288zM309 1333q0 39 24.5 62.5t61.5 23.5t62.5 -24.5t25.5 -61.5t-25.5 -60.5t-62.5 -23.5t-61.5 23.5t-24.5 60.5zM647 1333q0 37 25.5 61.5t62.5 24.5t61.5 -24.5t24.5 -61.5t-24.5 -60.5t-61.5 -23.5t-62.5 23.5 t-25.5 60.5z" />
<glyph unicode="&#xfd;" horiz-adv-x="1042" d="M35 956q0 25 21.5 42.5t45.5 17.5q39 0 54 -37l368 -827l369 825q16 37 53 37q23 0 41.5 -16.5t18.5 -39.5q0 -14 -7 -26l-579 -1272q-16 -35 -53 -35q-23 0 -40.5 14.5t-17.5 36.5q0 12 6 25l146 317l-420 914q-6 12 -6 24zM485 1151q0 12 10 27l256 329q31 41 72 41 q27 0 45 -17.5t18 -43.5q0 -35 -34 -68l-302 -291q-12 -12 -28 -12q-14 0 -25.5 10.5t-11.5 24.5z" />
<glyph unicode="&#xfe;" horiz-adv-x="1173" d="M164 -315v1706q0 31 17.5 47t45.5 16q29 0 45.5 -16.5t16.5 -46.5v-578q45 100 133 152.5t209 52.5q127 0 227 -62.5t157.5 -180.5t57.5 -277q0 -158 -57.5 -273.5t-157.5 -177t-227 -61.5q-121 0 -209 52t-133 152v-505q0 -31 -16.5 -47.5t-45.5 -16.5t-46 16.5 t-17 47.5zM289 502q0 -195 84 -300.5t239 -105.5q160 0 246 106.5t86 295.5q0 193 -86 302t-244 109q-156 0 -240.5 -106.5t-84.5 -300.5z" />
<glyph unicode="&#xff;" horiz-adv-x="1042" d="M35 956q0 25 21.5 42.5t45.5 17.5q39 0 54 -37l368 -827l369 825q16 37 53 37q23 0 41.5 -16.5t18.5 -39.5q0 -14 -7 -26l-579 -1272q-16 -35 -53 -35q-23 0 -40.5 14.5t-17.5 36.5q0 12 6 25l146 317l-420 914q-6 12 -6 24zM266 1333q0 39 24.5 62.5t61.5 23.5 t62.5 -24.5t25.5 -61.5t-25.5 -60.5t-62.5 -23.5t-61.5 23.5t-24.5 60.5zM604 1333q0 37 25.5 61.5t62.5 24.5t61.5 -24.5t24.5 -61.5t-24.5 -60.5t-61.5 -23.5t-62.5 23.5t-25.5 60.5z" />
<glyph unicode="&#x100;" horiz-adv-x="1474" d="M68 45q0 14 4 23l598 1343q18 45 67 45q23 0 42.5 -12t27.5 -33l596 -1343q6 -13 6 -25q0 -23 -18.5 -38t-42.5 -15q-16 0 -32 10t-24 29l-155 356h-795l-158 -356q-18 -39 -57 -39q-25 0 -42 15t-17 40zM389 496h698l-348 792zM423 1722q0 27 17.5 40.5t48.5 13.5h496 q31 0 48 -13.5t17 -40.5q0 -25 -17.5 -39t-47.5 -14h-496q-31 0 -48.5 14.5t-17.5 38.5z" />
<glyph unicode="&#x101;" horiz-adv-x="1077" d="M131 287q0 111 57.5 172t190.5 87.5t371 26.5h43v76q0 135 -55.5 197.5t-174.5 62.5q-152 0 -289 -80l-31.5 -21t-43.5 -17q-20 0 -33.5 15t-13.5 38q0 45 71 88q72 41 160 63.5t174 22.5q180 0 269 -94.5t89 -284.5v-584q0 -29 -16 -46t-45 -17t-45 17.5t-16 45.5v123 q-43 -92 -125 -142t-189 -50q-96 0 -176 38.5t-126 108.5t-46 154zM243 1333q0 27 17.5 40t48.5 13h496q31 0 48 -13t17 -40q0 -25 -17.5 -38t-47.5 -13h-496q-31 0 -48.5 13.5t-17.5 37.5zM262 293q0 -86 65.5 -142.5t161.5 -56.5q134 0 219 90t85 230v67h-39 q-197 0 -301.5 -16t-147.5 -56t-43 -116z" />
<glyph unicode="&#x102;" horiz-adv-x="1474" d="M68 45q0 14 4 23l598 1343q18 45 67 45q23 0 42.5 -12t27.5 -33l596 -1343q6 -13 6 -25q0 -23 -18.5 -38t-42.5 -15q-16 0 -32 10t-24 29l-155 356h-795l-158 -356q-18 -39 -57 -39q-25 0 -42 15t-17 40zM389 496h698l-348 792zM421 1804q0 20 14.5 33.5t35.5 13.5 q35 0 55 -34q39 -66 89 -93.5t122 -27.5t122 27.5t89 93.5q20 35 55 34q20 0 34.5 -13t14.5 -34q0 -16 -8 -30q-41 -90 -122 -135.5t-185 -45.5q-103 0 -182.5 45t-124.5 136q-8 16 -9 30z" />
<glyph unicode="&#x103;" horiz-adv-x="1077" d="M131 287q0 111 57.5 172t190.5 87.5t371 26.5h43v76q0 135 -55.5 197.5t-174.5 62.5q-152 0 -289 -80l-31.5 -21t-43.5 -17q-20 0 -33.5 15t-13.5 38q0 45 71 88q72 41 160 63.5t174 22.5q180 0 269 -94.5t89 -284.5v-584q0 -29 -16 -46t-45 -17t-45 17.5t-16 45.5v123 q-43 -92 -125 -142t-189 -50q-96 0 -176 38.5t-126 108.5t-46 154zM243 1423q0 23 15.5 37.5t38.5 14.5q16 0 31.5 -10.5t23.5 -28.5q68 -141 205 -142q137 0 205 142q20 39 57 39q20 0 35.5 -14.5t15.5 -39.5q0 -12 -6 -28q-39 -96 -122 -148.5t-185 -52.5 q-103 0 -183.5 51t-123.5 150q-6 16 -7 30zM262 293q0 -86 65.5 -142.5t161.5 -56.5q134 0 219 90t85 230v67h-39q-197 0 -301.5 -16t-147.5 -56t-43 -116z" />
<glyph unicode="&#x104;" horiz-adv-x="1474" d="M68 45q0 14 4 23l598 1343q18 45 67 45q23 0 42.5 -12t27.5 -33l596 -1343q6 -12 6 -25q0 -18 -12.5 -31.5t-28.5 -17.5q-74 -12 -114 -54t-40 -106q0 -63 38 -98t100 -35q45 0 98 27q15 6 27 6q16 0 25 -11.5t9 -29.5q0 -33 -28 -49q-61 -35 -144 -35 q-104 0 -168.5 59.5t-64.5 155.5q0 76 45 138.5t129 96.5l-143 326h-795l-158 -356q-18 -39 -57 -39q-25 0 -42 15t-17 40zM389 496h698l-348 792z" />
<glyph unicode="&#x105;" horiz-adv-x="1077" d="M131 287q0 111 57.5 172t190.5 87.5t371 26.5h43v76q0 135 -55.5 197.5t-174.5 62.5q-152 0 -289 -80q-10 -6 -34.5 -22t-40.5 -16q-20 0 -33.5 15t-13.5 38q0 45 71 88q72 41 160 63.5t174 22.5q180 0 269 -94.5t89 -284.5v-584q0 -23 -11 -39t-32 -20 q-74 -14 -112.5 -56t-38.5 -106q0 -61 36 -97t99 -36q45 0 98 27q13 6 25 6q18 0 28.5 -12.5t10.5 -30.5q0 -31 -29 -47q-76 -35 -145 -35q-102 0 -168 58.5t-66 152.5q0 82 48.5 143.5t134.5 93.5v121q-43 -92 -125 -142t-189 -50q-96 0 -176 38.5t-126 108.5t-46 154z M262 293q0 -86 65.5 -142.5t161.5 -56.5q134 0 219 90t85 230v67h-39q-197 0 -301.5 -16t-147.5 -56t-43 -116z" />
<glyph unicode="&#x106;" horiz-adv-x="1386" d="M131 723q0 227 79 393t227.5 255t348.5 89q137 0 261 -46t210 -132q29 -27 29 -59q0 -23 -13 -39.5t-30 -16.5q-20 0 -47 21q-111 90 -201 125t-211 35q-248 0 -384 -164t-136 -461q0 -299 136.5 -463t383.5 -164q121 0 211 35t201 125q31 20 47 20t29.5 -16t13.5 -39 q0 -33 -29 -59q-86 -86 -209.5 -132t-261.5 -46q-200 0 -348.5 89t-227.5 256t-79 394zM750 1591q0 14 12 27l211 235q29 31 62 31q27 0 45 -17.5t18 -43.5q0 -33 -39 -64l-248 -194q-10 -9 -24 -9t-25.5 10.5t-11.5 24.5z" />
<glyph unicode="&#x107;" horiz-adv-x="972" d="M100 498q0 154 58.5 271.5t164 183t242.5 65.5q78 0 152 -20.5t131 -61.5q37 -27 52 -48.5t15 -45.5q0 -23 -12 -37t-31 -14q-20 0 -65 34q-53 39 -106.5 61.5t-129.5 22.5q-160 0 -250 -109.5t-90 -301.5q0 -190 89.5 -296t248.5 -106q78 0 130.5 22.5t113.5 61.5 q18 12 35.5 22.5t28.5 10.5q20 0 32.5 -14.5t12.5 -34.5q0 -25 -14.5 -43.5t-55.5 -46.5q-55 -41 -134 -64.5t-157 -23.5q-137 0 -241.5 63.5t-162 180t-57.5 268.5zM528 1151q0 12 10 27l256 329q31 41 72 41q27 0 45 -17.5t18 -43.5q0 -35 -34 -68l-302 -291 q-12 -12 -28 -12q-14 0 -25.5 10.5t-11.5 24.5z" />
<glyph unicode="&#x108;" horiz-adv-x="1386" d="M131 723q0 227 79 393t227.5 255t348.5 89q137 0 261 -46t210 -132q29 -27 29 -59q0 -23 -13 -39.5t-30 -16.5q-20 0 -47 21q-111 90 -201 125t-211 35q-248 0 -384 -164t-136 -461q0 -299 136.5 -463t383.5 -164q121 0 211 35t201 125q31 20 47 20t29.5 -16t13.5 -39 q0 -33 -29 -59q-86 -86 -209.5 -132t-261.5 -46q-200 0 -348.5 89t-227.5 256t-79 394zM514 1608q0 23 19 43l188 202q29 31 66 31q35 0 65 -31l189 -202q18 -18 18 -43q0 -20 -15.5 -36t-35.5 -16q-25 0 -41 19l-180 209l-180 -209q-18 -21 -41 -21q-20 0 -36 15.5 t-16 38.5z" />
<glyph unicode="&#x109;" horiz-adv-x="972" d="M100 498q0 154 58.5 271.5t164 183t242.5 65.5q78 0 152 -20.5t131 -61.5q37 -27 52 -48.5t15 -45.5q0 -23 -12 -37t-31 -14q-20 0 -65 34q-53 39 -106.5 61.5t-129.5 22.5q-160 0 -250 -109.5t-90 -301.5q0 -190 89.5 -296t248.5 -106q78 0 130.5 22.5t113.5 61.5 q18 12 35.5 22.5t28.5 10.5q20 0 32.5 -14.5t12.5 -34.5q0 -25 -14.5 -43.5t-55.5 -46.5q-55 -41 -134 -64.5t-157 -23.5q-137 0 -241.5 63.5t-162 180t-57.5 268.5zM292 1169q0 18 13 37l192 297q16 20 31.5 31.5t36.5 11.5q23 0 38 -10t29 -33l193 -297q12 -18 12 -37 q0 -23 -15.5 -38t-37.5 -15q-29 0 -47 31l-172 285l-172 -285q-18 -31 -47 -31q-23 0 -38.5 15.5t-15.5 37.5z" />
<glyph unicode="&#x10a;" horiz-adv-x="1386" d="M131 723q0 227 79 393t227.5 255t348.5 89q137 0 261 -46t210 -132q29 -27 29 -59q0 -23 -13 -39.5t-30 -16.5q-20 0 -47 21q-111 90 -201 125t-211 35q-248 0 -384 -164t-136 -461q0 -299 136.5 -463t383.5 -164q121 0 211 35t201 125q31 20 47 20t29.5 -16t13.5 -39 q0 -33 -29 -59q-86 -86 -209.5 -132t-261.5 -46q-200 0 -348.5 89t-227.5 256t-79 394zM695 1722q0 41 25.5 65.5t66.5 24.5t66.5 -24.5t25.5 -65.5q0 -39 -25.5 -63.5t-66.5 -24.5t-66.5 24.5t-25.5 63.5z" />
<glyph unicode="&#x10b;" horiz-adv-x="972" d="M100 498q0 154 58.5 271.5t164 183t242.5 65.5q78 0 152 -20.5t131 -61.5q37 -27 52 -48.5t15 -45.5q0 -23 -12 -37t-31 -14q-20 0 -65 34q-53 39 -106.5 61.5t-129.5 22.5q-160 0 -250 -109.5t-90 -301.5q0 -190 89.5 -296t248.5 -106q78 0 130.5 22.5t113.5 61.5 q18 12 35.5 22.5t28.5 10.5q20 0 32.5 -14.5t12.5 -34.5q0 -25 -14.5 -43.5t-55.5 -46.5q-55 -41 -134 -64.5t-157 -23.5q-137 0 -241.5 63.5t-162 180t-57.5 268.5zM473 1333q0 41 25.5 65.5t66.5 24.5t66.5 -24.5t25.5 -65.5q0 -39 -25.5 -63.5t-66.5 -24.5t-66.5 24.5 t-25.5 63.5z" />
<glyph unicode="&#x10c;" horiz-adv-x="1386" d="M131 723q0 227 79 393t227.5 255t348.5 89q137 0 261 -46t210 -132q29 -27 29 -59q0 -23 -13 -39.5t-30 -16.5q-20 0 -47 21q-111 90 -201 125t-211 35q-248 0 -384 -164t-136 -461q0 -299 136.5 -463t383.5 -164q121 0 211 35t201 125q31 20 47 20t29.5 -16t13.5 -39 q0 -33 -29 -59q-86 -86 -209.5 -132t-261.5 -46q-200 0 -348.5 89t-227.5 256t-79 394zM514 1833q0 20 15.5 35.5t36.5 15.5q25 0 41 -18l180 -207l180 207q18 20 41 20q20 0 35.5 -15.5t15.5 -37.5q0 -20 -18 -43l-189 -203q-29 -31 -65 -31q-35 0 -66 31l-188 203 q-18 18 -19 43z" />
<glyph unicode="&#x10d;" horiz-adv-x="972" d="M100 498q0 154 58.5 271.5t164 183t242.5 65.5q78 0 152 -20.5t131 -61.5q37 -27 52 -48.5t15 -45.5q0 -23 -12 -37t-31 -14q-20 0 -65 34q-53 39 -106.5 61.5t-129.5 22.5q-160 0 -250 -109.5t-90 -301.5q0 -190 89.5 -296t248.5 -106q78 0 130.5 22.5t113.5 61.5 q18 12 35.5 22.5t28.5 10.5q20 0 32.5 -14.5t12.5 -34.5q0 -25 -14.5 -43.5t-55.5 -46.5q-55 -41 -134 -64.5t-157 -23.5q-137 0 -241.5 63.5t-162 180t-57.5 268.5zM292 1493q0 23 16.5 38t37.5 15q31 0 49 -30l170 -285l170 285q18 31 47 30q23 0 39 -15t16 -38 q0 -18 -12 -37l-193 -297q-16 -20 -31.5 -31.5t-35.5 -11.5q-21 0 -36 11.5t-32 31.5l-192 297q-12 18 -13 37z" />
<glyph unicode="&#x10e;" horiz-adv-x="1497" d="M186 63v1317q0 27 19.5 45.5t48.5 18.5h397q342 0 529.5 -186.5t187.5 -534.5t-187.5 -535.5t-529.5 -187.5h-397q-29 0 -48.5 18.5t-19.5 44.5zM313 111h332q590 0 590 612q0 610 -590 610h-332v-1222zM475 1833q0 20 15.5 35.5t36.5 15.5q25 0 41 -18l180 -207l180 207 q18 20 41 20q20 0 35.5 -15.5t15.5 -37.5q0 -20 -18 -43l-189 -203q-29 -31 -65 -31q-35 0 -66 31l-188 203q-18 18 -19 43z" />
<glyph unicode="&#x10f;" horiz-adv-x="1173" d="M100 506q0 154 55.5 269.5t156 179t231.5 63.5q121 0 209 -52.5t133 -152.5v578q0 29 16.5 46t44.5 17q29 0 46.5 -17.5t17.5 -45.5v-1336q0 -29 -17.5 -46t-46.5 -17t-45 17.5t-16 45.5v135q-45 -100 -133 -152t-209 -52q-131 0 -231.5 64.5t-156 182t-55.5 273.5z M231 506q0 -195 86 -302.5t242 -107.5t241 105.5t85 300.5t-84 301t-240 106q-158 0 -244 -105.5t-86 -297.5zM1081 1085v301q0 33 18.5 51.5t43.5 18.5q27 0 45 -21.5t12 -58.5l-45 -297q-2 -16 -12 -25.5t-25 -9.5q-14 0 -25.5 11.5t-11.5 29.5z" />
<glyph unicode="&#x110;" horiz-adv-x="1515" d="M0 733q0 25 15.5 38t41.5 13h148v596q0 27 19.5 45.5t47.5 18.5h398q342 0 528 -186.5t186 -534.5t-186 -535.5t-528 -187.5h-398q-29 0 -48 18.5t-19 44.5v617h-148q-25 0 -41 14.5t-16 38.5zM330 111h334q589 0 589 612q0 610 -589 610h-334v-549h356q53 0 53 -51 q0 -27 -14 -40t-39 -13h-356v-569z" />
<glyph unicode="&#x111;" horiz-adv-x="1173" d="M100 506q0 154 55.5 269.5t156 179t231.5 63.5q121 0 209 -52.5t133 -152.5v336h-357q-25 0 -39 13.5t-14 35.5q0 23 14.5 37t38.5 14h357v142q0 29 16.5 46t44.5 17q29 0 46.5 -17.5t17.5 -45.5v-142h151q25 0 39 -14t14 -37t-14 -36t-39 -13h-151v-1094 q0 -29 -17.5 -46t-46.5 -17t-45 17.5t-16 45.5v135q-45 -100 -133 -152t-209 -52q-131 0 -231.5 64.5t-156 182t-55.5 273.5zM231 506q0 -195 86 -302.5t242 -107.5t241 105.5t85 300.5t-84 301t-240 106q-158 0 -244 -105.5t-86 -297.5z" />
<glyph unicode="&#x112;" horiz-adv-x="1185" d="M186 63v1317q0 27 19.5 45.5t48.5 18.5h778q27 0 42.5 -14.5t15.5 -40.5q0 -25 -15.5 -39.5t-42.5 -14.5h-721v-547h680q27 0 42.5 -14t15.5 -41t-15.5 -41t-42.5 -14h-680v-569h721q27 0 42.5 -13.5t15.5 -40.5t-15.5 -41t-42.5 -14h-778q-29 0 -48.5 18.5t-19.5 44.5z M346 1722q0 27 17.5 40.5t48.5 13.5h496q31 0 48 -13.5t17 -40.5q0 -25 -17.5 -39t-47.5 -14h-496q-31 0 -48.5 14.5t-17.5 38.5z" />
<glyph unicode="&#x113;" horiz-adv-x="1077" d="M100 500q0 154 58.5 271.5t164 182t242.5 64.5q193 0 304.5 -124t111.5 -341q0 -37 -16.5 -54.5t-53.5 -17.5h-682q6 -188 98.5 -286.5t260.5 -98.5q88 0 147.5 23.5t126.5 62.5q45 31 64 31q18 0 31.5 -15.5t13.5 -35.5q0 -45 -70 -88q-147 -88 -311 -88 q-227 0 -358.5 137t-131.5 377zM233 573h633q-4 164 -81.5 253t-219.5 89q-143 0 -229 -90t-103 -252zM251 1333q0 27 17.5 40t48.5 13h496q31 0 48 -13t17 -40q0 -25 -17.5 -38t-47.5 -13h-496q-31 0 -48.5 13.5t-17.5 37.5z" />
<glyph unicode="&#x114;" horiz-adv-x="1185" d="M186 63v1317q0 27 19.5 45.5t48.5 18.5h778q27 0 42.5 -14.5t15.5 -40.5q0 -25 -15.5 -39.5t-42.5 -14.5h-721v-547h680q27 0 42.5 -14t15.5 -41t-15.5 -41t-42.5 -14h-680v-569h721q27 0 42.5 -13.5t15.5 -40.5t-15.5 -41t-42.5 -14h-778q-29 0 -48.5 18.5t-19.5 44.5z M344 1804q0 20 14.5 33.5t35.5 13.5q35 0 55 -34q39 -66 89 -93.5t122 -27.5t122 27.5t89 93.5q20 35 55 34q20 0 34.5 -13t14.5 -34q0 -16 -8 -30q-41 -90 -122 -135.5t-185 -45.5q-103 0 -182.5 45t-124.5 136q-8 16 -9 30z" />
<glyph unicode="&#x115;" horiz-adv-x="1077" d="M100 500q0 154 58.5 271.5t164 182t242.5 64.5q193 0 304.5 -124t111.5 -341q0 -37 -16.5 -54.5t-53.5 -17.5h-682q6 -188 98.5 -286.5t260.5 -98.5q88 0 147.5 23.5t126.5 62.5q45 31 64 31q18 0 31.5 -15.5t13.5 -35.5q0 -45 -70 -88q-147 -88 -311 -88 q-227 0 -358.5 137t-131.5 377zM233 573h633q-4 164 -81.5 253t-219.5 89q-143 0 -229 -90t-103 -252zM251 1423q0 23 15.5 37.5t38.5 14.5q16 0 31.5 -10.5t23.5 -28.5q68 -141 205 -142q137 0 205 142q20 39 57 39q20 0 35.5 -14.5t15.5 -39.5q0 -12 -6 -28 q-39 -96 -122 -148.5t-185 -52.5q-103 0 -183.5 51t-123.5 150q-6 16 -7 30z" />
<glyph unicode="&#x116;" horiz-adv-x="1185" d="M186 63v1317q0 27 19.5 45.5t48.5 18.5h778q27 0 42.5 -14.5t15.5 -40.5q0 -25 -15.5 -39.5t-42.5 -14.5h-721v-547h680q27 0 42.5 -14t15.5 -41t-15.5 -41t-42.5 -14h-680v-569h721q27 0 42.5 -13.5t15.5 -40.5t-15.5 -41t-42.5 -14h-778q-29 0 -48.5 18.5t-19.5 44.5z M568 1722q0 41 25.5 65.5t66.5 24.5t66.5 -24.5t25.5 -65.5q0 -39 -25.5 -63.5t-66.5 -24.5t-66.5 24.5t-25.5 63.5z" />
<glyph unicode="&#x117;" horiz-adv-x="1077" d="M100 500q0 154 58.5 271.5t164 182t242.5 64.5q193 0 304.5 -124t111.5 -341q0 -37 -16.5 -54.5t-53.5 -17.5h-682q6 -188 98.5 -286.5t260.5 -98.5q88 0 147.5 23.5t126.5 62.5q45 31 64 31q18 0 31.5 -15.5t13.5 -35.5q0 -45 -70 -88q-147 -88 -311 -88 q-227 0 -358.5 137t-131.5 377zM233 573h633q-4 164 -81.5 253t-219.5 89q-143 0 -229 -90t-103 -252zM473 1333q0 41 25.5 65.5t66.5 24.5t66.5 -24.5t25.5 -65.5q0 -39 -25.5 -63.5t-66.5 -24.5t-66.5 24.5t-25.5 63.5z" />
<glyph unicode="&#x118;" horiz-adv-x="1185" d="M186 63v1317q0 27 19.5 45.5t48.5 18.5h778q27 0 42.5 -14.5t15.5 -40.5q0 -27 -15.5 -40.5t-42.5 -13.5h-721v-547h680q27 0 42.5 -14t15.5 -41t-15.5 -41t-42.5 -14h-680v-569h721q27 0 42.5 -13.5t15.5 -40.5q0 -49 -54 -55q-92 -6 -137 -51t-45 -115q0 -63 37 -98 t100 -35q43 0 99 27q16 6 24 6q16 0 25.5 -11.5t9.5 -29.5q0 -35 -27 -49q-63 -35 -145 -35q-104 0 -169 59.5t-65 151.5q0 111 82 180h-571q-29 0 -48.5 18.5t-19.5 44.5z" />
<glyph unicode="&#x119;" horiz-adv-x="1077" d="M100 500q0 154 58.5 271.5t164 182t242.5 64.5q193 0 304.5 -124t111.5 -341q0 -37 -16.5 -54.5t-53.5 -17.5h-682q6 -188 98.5 -286.5t260.5 -98.5q88 0 147.5 23.5t126.5 62.5q45 31 64 31q18 0 31.5 -15.5t13.5 -35.5q0 -27 -17.5 -46.5t-58.5 -41.5 q-127 -72 -175 -123t-48 -117q0 -63 38 -98t99 -35q45 0 98 27q16 6 27 6q16 0 25.5 -11.5t9.5 -29.5q0 -35 -27 -49q-63 -35 -145 -35q-104 0 -169 59.5t-65 151.5q0 100 74 168q-16 -2 -47 -2q-227 0 -358.5 137t-131.5 377zM233 573h633q-4 164 -81.5 253t-219.5 89 q-143 0 -229 -90t-103 -252z" />
<glyph unicode="&#x11a;" horiz-adv-x="1185" d="M186 63v1317q0 27 19.5 45.5t48.5 18.5h778q27 0 42.5 -14.5t15.5 -40.5q0 -25 -15.5 -39.5t-42.5 -14.5h-721v-547h680q27 0 42.5 -14t15.5 -41t-15.5 -41t-42.5 -14h-680v-569h721q27 0 42.5 -13.5t15.5 -40.5t-15.5 -41t-42.5 -14h-778q-29 0 -48.5 18.5t-19.5 44.5z M387 1833q0 20 15.5 35.5t36.5 15.5q25 0 41 -18l180 -207l180 207q18 20 41 20q20 0 35.5 -15.5t15.5 -37.5q0 -20 -18 -43l-189 -203q-29 -31 -65 -31q-35 0 -66 31l-188 203q-18 18 -19 43z" />
<glyph unicode="&#x11b;" horiz-adv-x="1077" d="M100 500q0 154 58.5 271.5t164 182t242.5 64.5q193 0 304.5 -124t111.5 -341q0 -37 -16.5 -54.5t-53.5 -17.5h-682q6 -188 98.5 -286.5t260.5 -98.5q88 0 147.5 23.5t126.5 62.5q45 31 64 31q18 0 31.5 -15.5t13.5 -35.5q0 -45 -70 -88q-147 -88 -311 -88 q-227 0 -358.5 137t-131.5 377zM233 573h633q-4 164 -81.5 253t-219.5 89q-143 0 -229 -90t-103 -252zM292 1493q0 23 16.5 38t37.5 15q31 0 49 -30l170 -285l170 285q18 31 47 30q23 0 39 -15t16 -38q0 -18 -12 -37l-193 -297q-16 -20 -31.5 -31.5t-35.5 -11.5 q-21 0 -36 11.5t-32 31.5l-192 297q-12 18 -13 37z" />
<glyph unicode="&#x11c;" horiz-adv-x="1472" d="M131 723q0 227 80 393t229.5 255t354.5 89q143 0 268 -46t205 -132q27 -27 26 -59q0 -23 -12 -39.5t-31 -16.5q-16 0 -45 21q-109 90 -201 125t-210 35q-254 0 -392.5 -163t-138.5 -462q0 -305 139.5 -467t405.5 -162q102 0 201.5 17.5t177.5 50.5v471h-332 q-29 0 -44 14.5t-15 38.5q0 25 15 39t44 14h391q25 0 40.5 -15t15.5 -40v-543q0 -53 -48 -73q-84 -39 -203.5 -61.5t-242.5 -22.5q-211 0 -363.5 87t-233.5 254t-81 398zM522 1608q0 23 19 43l188 202q29 31 66 31q35 0 65 -31l189 -202q18 -18 18 -43q0 -20 -15.5 -36 t-35.5 -16q-25 0 -41 19l-180 209l-180 -209q-18 -21 -41 -21q-20 0 -36 15.5t-16 38.5z" />
<glyph unicode="&#x11d;" horiz-adv-x="1181" d="M100 524q0 145 56.5 258t158 174.5t232.5 61.5q125 0 213 -52.5t133 -152.5v137q0 29 16.5 46.5t44.5 17.5q29 0 46.5 -17.5t17.5 -46.5v-893q0 -217 -107.5 -328.5t-318.5 -111.5q-111 0 -198 21.5t-163 66.5q-74 45 -73 88q0 23 13 37t34 14q12 0 33.5 -11t29.5 -15 q70 -39 143.5 -64.5t182.5 -25.5q150 0 225.5 79.5t75.5 237.5v195q-43 -100 -132 -154.5t-216 -54.5q-131 0 -232.5 61.5t-158 174t-56.5 257.5zM231 524q0 -180 88.5 -281.5t243.5 -101.5q156 0 243 102.5t87 280.5t-88 281.5t-242 103.5q-156 0 -244 -102t-88 -283z M321 1169q0 18 13 37l192 297q16 20 31.5 31.5t36.5 11.5q23 0 38 -10t29 -33l193 -297q12 -18 12 -37q0 -23 -15.5 -38t-37.5 -15q-29 0 -47 31l-172 285l-172 -285q-18 -31 -47 -31q-23 0 -38.5 15.5t-15.5 37.5z" />
<glyph unicode="&#x11e;" horiz-adv-x="1472" d="M131 723q0 227 80 393t229.5 255t354.5 89q143 0 268 -46t205 -132q27 -27 26 -59q0 -23 -12 -39.5t-31 -16.5q-16 0 -45 21q-109 90 -201 125t-210 35q-254 0 -392.5 -163t-138.5 -462q0 -305 139.5 -467t405.5 -162q102 0 201.5 17.5t177.5 50.5v471h-332 q-29 0 -44 14.5t-15 38.5q0 25 15 39t44 14h391q25 0 40.5 -15t15.5 -40v-543q0 -53 -48 -73q-84 -39 -203.5 -61.5t-242.5 -22.5q-211 0 -363.5 87t-233.5 254t-81 398zM479 1804q0 20 14.5 33.5t35.5 13.5q35 0 55 -34q39 -66 89 -93.5t122 -27.5t122 27.5t89 93.5 q20 35 55 34q20 0 34.5 -13t14.5 -34q0 -16 -8 -30q-41 -90 -122 -135.5t-185 -45.5q-103 0 -182.5 45t-124.5 136q-8 16 -9 30z" />
<glyph unicode="&#x11f;" horiz-adv-x="1181" d="M100 524q0 145 56.5 258t158 174.5t232.5 61.5q125 0 213 -52.5t133 -152.5v137q0 29 16.5 46.5t44.5 17.5q29 0 46.5 -17.5t17.5 -46.5v-893q0 -217 -107.5 -328.5t-318.5 -111.5q-111 0 -198 21.5t-163 66.5q-74 45 -73 88q0 23 13 37t34 14q12 0 33.5 -11t29.5 -15 q70 -39 143.5 -64.5t182.5 -25.5q150 0 225.5 79.5t75.5 237.5v195q-43 -100 -132 -154.5t-216 -54.5q-131 0 -232.5 61.5t-158 174t-56.5 257.5zM231 524q0 -180 88.5 -281.5t243.5 -101.5q156 0 243 102.5t87 280.5t-88 281.5t-242 103.5q-156 0 -244 -102t-88 -283z M280 1423q0 23 15.5 37.5t38.5 14.5q16 0 31.5 -10.5t23.5 -28.5q68 -141 205 -142q137 0 205 142q20 39 57 39q20 0 35.5 -14.5t15.5 -39.5q0 -12 -6 -28q-39 -96 -122 -148.5t-185 -52.5q-103 0 -183.5 51t-123.5 150q-6 16 -7 30z" />
<glyph unicode="&#x120;" horiz-adv-x="1472" d="M131 723q0 227 80 393t229.5 255t354.5 89q143 0 268 -46t205 -132q27 -27 26 -59q0 -23 -12 -39.5t-31 -16.5q-16 0 -45 21q-109 90 -201 125t-210 35q-254 0 -392.5 -163t-138.5 -462q0 -305 139.5 -467t405.5 -162q102 0 201.5 17.5t177.5 50.5v471h-332 q-29 0 -44 14.5t-15 38.5q0 25 15 39t44 14h391q25 0 40.5 -15t15.5 -40v-543q0 -53 -48 -73q-84 -39 -203.5 -61.5t-242.5 -22.5q-211 0 -363.5 87t-233.5 254t-81 398zM703 1722q0 41 25.5 65.5t66.5 24.5t66.5 -24.5t25.5 -65.5q0 -39 -25.5 -63.5t-66.5 -24.5 t-66.5 24.5t-25.5 63.5z" />
<glyph unicode="&#x121;" horiz-adv-x="1181" d="M100 524q0 145 56.5 258t158 174.5t232.5 61.5q125 0 213 -52.5t133 -152.5v137q0 29 16.5 46.5t44.5 17.5q29 0 46.5 -17.5t17.5 -46.5v-893q0 -217 -107.5 -328.5t-318.5 -111.5q-111 0 -198 21.5t-163 66.5q-74 45 -73 88q0 23 13 37t34 14q12 0 33.5 -11t29.5 -15 q70 -39 143.5 -64.5t182.5 -25.5q150 0 225.5 79.5t75.5 237.5v195q-43 -100 -132 -154.5t-216 -54.5q-131 0 -232.5 61.5t-158 174t-56.5 257.5zM231 524q0 -180 88.5 -281.5t243.5 -101.5q156 0 243 102.5t87 280.5t-88 281.5t-242 103.5q-156 0 -244 -102t-88 -283z M502 1333q0 41 25.5 65.5t66.5 24.5t66.5 -24.5t25.5 -65.5q0 -39 -25.5 -63.5t-66.5 -24.5t-66.5 24.5t-25.5 63.5z" />
<glyph unicode="&#x122;" horiz-adv-x="1472" d="M131 723q0 227 80 393t229.5 255t354.5 89q143 0 268 -46t205 -132q27 -27 26 -59q0 -23 -12 -39.5t-31 -16.5q-16 0 -45 21q-109 90 -201 125t-210 35q-254 0 -392.5 -163t-138.5 -462q0 -305 139.5 -467t405.5 -162q102 0 201.5 17.5t177.5 50.5v471h-332 q-29 0 -44 14.5t-15 38.5q0 25 15 39t44 14h391q25 0 40.5 -15t15.5 -40v-543q0 -53 -48 -73q-84 -39 -203.5 -61.5t-242.5 -22.5q-211 0 -363.5 87t-233.5 254t-81 398zM723 -225q0 37 24.5 60.5t61.5 23.5q100 0 100 -127q0 -131 -88 -228q-23 -23 -45 -22q-16 0 -27.5 10 t-11.5 27q0 16 14 32q57 68 64 136q-41 0 -66.5 23.5t-25.5 64.5z" />
<glyph unicode="&#x123;" horiz-adv-x="1181" d="M100 524q0 145 56.5 258t158 174.5t232.5 61.5q125 0 213 -52.5t133 -152.5v137q0 29 16.5 46.5t44.5 17.5q29 0 46.5 -17.5t17.5 -46.5v-893q0 -217 -107.5 -328.5t-318.5 -111.5q-111 0 -198 21.5t-163 66.5q-74 45 -73 88q0 23 13 37t34 14q12 0 33.5 -11t29.5 -15 q70 -39 143.5 -64.5t182.5 -25.5q150 0 225.5 79.5t75.5 237.5v195q-43 -100 -132 -154.5t-216 -54.5q-131 0 -232.5 61.5t-158 174t-56.5 257.5zM231 524q0 -180 88.5 -281.5t243.5 -101.5q156 0 243 102.5t87 280.5t-88 281.5t-242 103.5q-156 0 -244 -102t-88 -283z M493 1303q0 131 89 227q23 23 45 22q16 0 27 -10t11 -26t-14 -33q-57 -68 -63 -135q41 0 66.5 -24t25.5 -64q0 -37 -24.5 -60.5t-61.5 -23.5q-100 0 -101 127z" />
<glyph unicode="&#x124;" horiz-adv-x="1544" d="M186 55v1334q0 29 17.5 47t46.5 18t45 -18.5t16 -46.5v-601h922v601q0 29 16.5 47t44.5 18q31 0 47.5 -17.5t16.5 -47.5v-1334q0 -31 -16.5 -48t-47.5 -17q-29 0 -45 18.5t-16 46.5v623h-922v-623q0 -29 -16 -47t-45 -18t-46.5 18.5t-17.5 46.5zM499 1608q0 23 19 43 l188 202q29 31 66 31q35 0 65 -31l189 -202q18 -18 18 -43q0 -20 -15.5 -36t-35.5 -16q-25 0 -41 19l-180 209l-180 -209q-18 -21 -41 -21q-20 0 -36 15.5t-16 38.5z" />
<glyph unicode="&#x125;" horiz-adv-x="1148" d="M-45 1608q0 23 19 43l188 202q29 31 66 31q35 0 65 -31l189 -202q18 -18 18 -43q0 -20 -15.5 -36t-35.5 -16q-25 0 -41 19l-180 209l-180 -209q-18 -21 -41 -21q-20 0 -36 15.5t-16 38.5zM164 53v1338q0 29 17.5 46t45.5 17q29 0 45.5 -17.5t16.5 -45.5v-564 q47 92 136 141.5t204 49.5q358 0 358 -385v-580q0 -29 -16.5 -46t-44.5 -17q-29 0 -46.5 17.5t-17.5 45.5v572q0 147 -59.5 214.5t-188.5 67.5q-147 0 -236 -90t-89 -242v-522q0 -29 -16.5 -46t-45.5 -17t-46 17.5t-17 45.5z" />
<glyph unicode="&#x126;" horiz-adv-x="1581" d="M0 1124q0 25 16.5 39.5t40.5 14.5h148v211q0 29 17.5 47t45.5 18q27 0 44.5 -18.5t17.5 -46.5v-211h919v211q0 29 17.5 47t46.5 18t46 -18.5t17 -46.5v-211h150q26 0 40.5 -14.5t14.5 -39.5t-14.5 -38t-40.5 -13h-150v-1018q0 -29 -17.5 -47t-45.5 -18q-29 0 -46.5 18.5 t-17.5 46.5v623h-919v-623q0 -29 -17.5 -47t-44.5 -18q-29 0 -46 18.5t-17 46.5v1018h-148q-25 0 -41 13.5t-16 37.5zM330 788h919v285h-919v-285z" />
<glyph unicode="&#x127;" horiz-adv-x="1148" d="M-41 1198q0 23 14.5 37t38.5 14h152v142q0 29 17.5 46t45.5 17q29 0 45.5 -17.5t16.5 -45.5v-142h356q25 0 39 -14t14 -37t-14 -36t-39 -13h-356v-322q47 92 136 141.5t204 49.5q358 0 358 -385v-580q0 -29 -16.5 -46t-44.5 -17q-29 0 -46.5 17.5t-17.5 45.5v572 q0 147 -59.5 214.5t-188.5 67.5q-147 0 -236 -90t-89 -242v-522q0 -29 -16.5 -46t-45.5 -17t-46 17.5t-17 45.5v1096h-152q-25 0 -39 13.5t-14 35.5z" />
<glyph unicode="&#x128;" horiz-adv-x="499" d="M-66 1671q0 33 21.5 69t61.5 59.5t91 23.5q35 0 72 -13.5t92 -37.5q6 -4 34 -16.5t49.5 -18.5t35.5 -6q39 0 59.5 16t36.5 43q8 12 18.5 21.5t20.5 9.5q16 0 27.5 -13.5t11.5 -29.5q0 -33 -21.5 -69t-61.5 -60.5t-91 -24.5q-35 0 -71.5 13.5t-92.5 37.5q-6 4 -33.5 16.5 t-49 18.5t-36.5 6q-37 0 -57 -15t-39 -42q-8 -12 -18 -21.5t-21 -9.5q-16 0 -27.5 12.5t-11.5 30.5zM186 55v1334q0 29 17.5 47t46.5 18t46 -18.5t17 -46.5v-1334q0 -29 -17 -47t-46 -18t-46.5 18.5t-17.5 46.5z" />
<glyph unicode="&#x129;" horiz-adv-x="454" d="M-88 1272q0 35 21.5 79t61.5 74.5t91 30.5q37 0 73 -18.5t89 -55.5q45 -31 72 -45t49 -14q37 0 57.5 20.5t36.5 55.5q12 23 20.5 33t20.5 10q16 0 27.5 -12.5t11.5 -30.5q0 -35 -21.5 -79t-61.5 -75t-91 -31q-37 0 -75 19.5t-87 54.5q-51 33 -74.5 45.5t-46.5 12.5 q-37 0 -57 -19.5t-37 -54.5q-10 -23 -19 -33t-22 -10q-16 0 -27.5 12t-11.5 31zM164 53v897q0 31 17.5 47.5t45.5 16.5q29 0 45.5 -16.5t16.5 -47.5v-897q0 -31 -16.5 -47t-45.5 -16q-28 0 -45.5 16.5t-17.5 46.5z" />
<glyph unicode="&#x12a;" horiz-adv-x="499" d="M-64 1722q0 27 17.5 40.5t48.5 13.5h496q31 0 48 -13.5t17 -40.5q0 -25 -17.5 -39t-47.5 -14h-496q-31 0 -48.5 14.5t-17.5 38.5zM186 55v1334q0 29 17.5 47t46.5 18t46 -18.5t17 -46.5v-1334q0 -29 -17 -47t-46 -18t-46.5 18.5t-17.5 46.5z" />
<glyph unicode="&#x12b;" horiz-adv-x="454" d="M-86 1333q0 27 17.5 40t48.5 13h496q31 0 48 -13t17 -40q0 -25 -17.5 -38t-47.5 -13h-496q-31 0 -48.5 13.5t-17.5 37.5zM164 53v897q0 31 17.5 47.5t45.5 16.5q29 0 45.5 -16.5t16.5 -47.5v-897q0 -31 -16.5 -47t-45.5 -16q-28 0 -45.5 16.5t-17.5 46.5z" />
<glyph unicode="&#x12c;" horiz-adv-x="499" d="M-66 1804q0 20 14.5 33.5t35.5 13.5q35 0 55 -34q39 -66 89 -93.5t122 -27.5t122 27.5t89 93.5q20 35 55 34q20 0 34.5 -13t14.5 -34q0 -16 -8 -30q-41 -90 -122 -135.5t-185 -45.5q-103 0 -182.5 45t-124.5 136q-8 16 -9 30zM186 55v1334q0 29 17.5 47t46.5 18t46 -18.5 t17 -46.5v-1334q0 -29 -17 -47t-46 -18t-46.5 18.5t-17.5 46.5z" />
<glyph unicode="&#x12d;" horiz-adv-x="454" d="M-86 1423q0 23 15.5 37.5t38.5 14.5q16 0 31.5 -10.5t23.5 -28.5q68 -141 205 -142q137 0 205 142q20 39 57 39q20 0 35.5 -14.5t15.5 -39.5q0 -12 -6 -28q-39 -96 -122 -148.5t-185 -52.5q-103 0 -183.5 51t-123.5 150q-6 16 -7 30zM164 53v897q0 31 17.5 47.5 t45.5 16.5q29 0 45.5 -16.5t16.5 -47.5v-897q0 -31 -16.5 -47t-45.5 -16q-28 0 -45.5 16.5t-17.5 46.5z" />
<glyph unicode="&#x12e;" horiz-adv-x="499" d="M8 -180q0 78 46 140.5t132 94.5v1334q0 29 17.5 47t46.5 18t46 -18.5t17 -46.5v-1334q0 -23 -12 -38t-31 -19q-76 -14 -114.5 -57t-38.5 -107q0 -63 36.5 -98t100.5 -35q45 0 98 27q17 6 25 6q16 0 26.5 -12.5t10.5 -28.5q0 -35 -29 -49q-61 -35 -143 -35 q-104 0 -169 59.5t-65 151.5z" />
<glyph unicode="&#x12f;" horiz-adv-x="454" d="M-16 -180q0 78 46 140.5t134 94.5v895q0 31 17.5 47.5t45.5 16.5q29 0 45.5 -16.5t16.5 -47.5v-895q0 -23 -11.5 -39t-31.5 -20q-74 -12 -114 -55t-40 -107q0 -63 38 -98t99 -35q45 0 99 27q16 6 26 6q16 0 25.5 -11.5t9.5 -29.5q0 -35 -27 -49q-63 -35 -145 -35 q-104 0 -168.5 59.5t-64.5 151.5zM135 1333q0 41 25.5 65.5t66.5 24.5t66.5 -24.5t25.5 -65.5q0 -39 -25.5 -63.5t-66.5 -24.5t-66.5 24.5t-25.5 63.5z" />
<glyph unicode="&#x130;" horiz-adv-x="499" d="M158 1722q0 41 25.5 65.5t66.5 24.5t66.5 -24.5t25.5 -65.5q0 -39 -25.5 -63.5t-66.5 -24.5t-66.5 24.5t-25.5 63.5zM186 55v1334q0 29 17.5 47t46.5 18t46 -18.5t17 -46.5v-1334q0 -29 -17 -47t-46 -18t-46.5 18.5t-17.5 46.5z" />
<glyph unicode="&#x131;" horiz-adv-x="454" d="M164 53v897q0 31 17.5 47.5t45.5 16.5q29 0 45.5 -16.5t16.5 -47.5v-897q0 -31 -16.5 -47t-45.5 -16q-28 0 -45.5 16.5t-17.5 46.5z" />
<glyph unicode="&#x134;" horiz-adv-x="636" d="M-18 43q0 51 59 53l59 4q115 8 169.5 70.5t54.5 206.5v1012q0 29 19 47t44 18q31 0 47.5 -17.5t16.5 -47.5v-1016q0 -186 -81 -277.5t-249 -101.5l-62 -4q-39 -2 -58 12t-19 41zM114 1608q0 23 19 43l188 202q29 31 66 31q35 0 65 -31l189 -202q18 -18 18 -43 q0 -20 -15.5 -36t-35.5 -16q-25 0 -41 19l-180 209l-180 -209q-18 -21 -41 -21q-20 0 -36 15.5t-16 38.5z" />
<glyph unicode="&#x135;" horiz-adv-x="454" d="M-152 -324q0 47 60 54l55 4q102 6 151.5 60t49.5 181v975q0 31 17.5 47.5t45.5 16.5q29 0 45.5 -16.5t16.5 -47.5v-968q0 -174 -74 -257t-231 -94l-56 -4q-80 -6 -80 49zM-45 1169q0 18 13 37l192 297q16 20 31.5 31.5t36.5 11.5q23 0 38 -10t29 -33l193 -297 q12 -18 12 -37q0 -23 -15.5 -38t-37.5 -15q-29 0 -47 31l-172 285l-172 -285q-18 -31 -47 -31q-23 0 -38.5 15.5t-15.5 37.5z" />
<glyph unicode="&#x136;" horiz-adv-x="1255" d="M186 55v1334q0 29 17.5 47t46.5 18t46 -18.5t17 -46.5v-617l762 664q16 16 39 16t41.5 -17.5t18.5 -39.5q0 -25 -23 -45l-713 -613l752 -643q22 -20 22 -45q0 -23 -17 -40t-40 -17q-18 0 -39 16l-803 682v-635q0 -29 -17 -47t-46 -18t-46.5 18.5t-17.5 46.5zM547 -225 q0 37 24.5 60.5t61.5 23.5q100 0 100 -127q0 -131 -88 -228q-23 -23 -45 -22q-16 0 -27.5 10t-11.5 27q0 16 14 32q57 68 64 136q-41 0 -66.5 23.5t-25.5 64.5z" />
<glyph unicode="&#x137;" horiz-adv-x="991" d="M164 53v1338q0 31 17.5 47t45.5 16q27 0 44.5 -16.5t17.5 -46.5v-856l510 458q23 18 43 19q25 0 42 -17.5t17 -42.5q0 -31 -24 -49l-443 -391l484 -414q26 -24 26 -51q0 -23 -16.5 -40t-38.5 -17q-20 0 -43 18l-557 475v-430q0 -31 -17.5 -47t-44.5 -16q-29 0 -46 16.5 t-17 46.5zM410 -225q0 37 24.5 60.5t61.5 23.5q100 0 100 -127q0 -131 -88 -228q-23 -23 -45 -22q-16 0 -27.5 10t-11.5 27q0 16 14 32q57 68 64 136q-41 0 -66.5 23.5t-25.5 64.5z" />
<glyph unicode="&#x138;" horiz-adv-x="991" d="M164 53v897q0 31 17.5 47.5t45.5 16.5q27 0 44.5 -16.5t17.5 -47.5v-415l510 458q23 18 43 19q25 0 42 -17.5t17 -42.5q0 -31 -24 -49l-443 -391l484 -414q26 -24 26 -51q0 -23 -16.5 -40t-38.5 -17q-20 0 -43 18l-557 475v-430q0 -31 -17.5 -47t-44.5 -16 q-29 0 -46 16.5t-17 46.5z" />
<glyph unicode="&#x139;" horiz-adv-x="1091" d="M186 57v1332q0 29 17.5 47t46.5 18q31 0 47 -17.5t16 -47.5v-1278h701q27 0 42 -14.5t15 -41.5t-15.5 -41t-41.5 -14h-762q-27 0 -46.5 16.5t-19.5 40.5zM213 1591q0 14 12 27l211 235q29 31 62 31q27 0 45 -17.5t18 -43.5q0 -33 -39 -64l-248 -194q-10 -9 -24 -9 t-25.5 10.5t-11.5 24.5z" />
<glyph unicode="&#x13a;" horiz-adv-x="454" d="M164 53v1338q0 31 17.5 47t45.5 16q27 0 44.5 -16.5t17.5 -46.5v-1338q0 -31 -17.5 -47t-44.5 -16q-28 0 -45.5 16.5t-17.5 46.5zM191 1591q0 14 12 27l211 235q29 31 62 31q27 0 45 -17.5t18 -43.5q0 -33 -39 -64l-248 -194q-10 -9 -24 -9t-25.5 10.5t-11.5 24.5z" />
<glyph unicode="&#x13b;" horiz-adv-x="1091" d="M186 57v1332q0 29 17.5 47t46.5 18q31 0 47 -17.5t16 -47.5v-1278h701q27 0 42 -14.5t15 -41.5t-15.5 -41t-41.5 -14h-762q-27 0 -46.5 16.5t-19.5 40.5zM543 -225q0 37 24.5 60.5t61.5 23.5q100 0 100 -127q0 -131 -88 -228q-23 -23 -45 -22q-16 0 -27.5 10t-11.5 27 q0 16 14 32q57 68 64 136q-41 0 -66.5 23.5t-25.5 64.5z" />
<glyph unicode="&#x13c;" horiz-adv-x="454" d="M142 -225q0 37 24.5 60.5t61.5 23.5q100 0 100 -127q0 -131 -88 -228q-23 -23 -45 -22q-16 0 -27.5 10t-11.5 27q0 16 14 32q57 68 64 136q-41 0 -66.5 23.5t-25.5 64.5zM164 53v1338q0 31 17.5 47t45.5 16q27 0 44.5 -16.5t17.5 -46.5v-1338q0 -31 -17.5 -47t-44.5 -16 q-28 0 -45.5 16.5t-17.5 46.5z" />
<glyph unicode="&#x13d;" horiz-adv-x="1091" d="M186 57v1332q0 29 17.5 47t46.5 18q31 0 47 -17.5t16 -47.5v-1278h701q27 0 42 -14.5t15 -41.5t-15.5 -41t-41.5 -14h-762q-27 0 -46.5 16.5t-19.5 40.5zM484 1085v301q0 33 18.5 51.5t42.5 18.5q29 0 48.5 -22.5t13.5 -59.5l-45 -295q-2 -16 -13.5 -24t-23.5 -8 q-16 0 -28.5 10t-12.5 28z" />
<glyph unicode="&#x13e;" horiz-adv-x="454" d="M164 53v1338q0 31 17.5 47t45.5 16q27 0 44.5 -16.5t17.5 -46.5v-1338q0 -31 -17.5 -47t-44.5 -16q-28 0 -45.5 16.5t-17.5 46.5zM367 1085v301q0 33 18 51.5t43 18.5q27 0 46.5 -21.5t12.5 -58.5l-45 -297q-2 -16 -13 -25.5t-23 -9.5q-16 0 -27.5 11.5t-11.5 29.5z" />
<glyph unicode="&#x13f;" horiz-adv-x="1091" d="M186 57v1332q0 29 17.5 47t46.5 18q31 0 47 -17.5t16 -47.5v-1278h701q27 0 42 -14.5t15 -41.5t-15.5 -41t-41.5 -14h-762q-27 0 -46.5 16.5t-19.5 40.5zM600 723q0 41 25.5 65.5t66.5 24.5t66.5 -24.5t25.5 -65.5q0 -39 -25.5 -63.5t-66.5 -24.5t-66.5 24.5t-25.5 63.5z " />
<glyph unicode="&#x140;" horiz-adv-x="468" d="M164 53v1338q0 31 17.5 47t45.5 16q27 0 44.5 -16.5t17.5 -46.5v-1338q0 -31 -17.5 -47t-44.5 -16q-28 0 -45.5 16.5t-17.5 46.5zM367 723q0 41 25.5 65.5t66.5 24.5t66.5 -24.5t25.5 -65.5q0 -39 -25.5 -63.5t-66.5 -24.5t-66.5 24.5t-25.5 63.5z" />
<glyph unicode="&#x141;" horiz-adv-x="1110" d="M0 608q0 33 31 49l174 101v631q0 31 16.5 48t46.5 17q31 0 46.5 -17.5t15.5 -47.5v-560l319 183q14 8 29 8q20 0 36.5 -16.5t16.5 -36.5q0 -29 -29 -45l-372 -215v-596h702q25 0 40 -14.5t15 -41.5t-15 -41t-40 -14h-764q-25 0 -44 16.5t-19 40.5v576l-121 -70 q-16 -10 -33 -10q-23 0 -37 16.5t-14 38.5z" />
<glyph unicode="&#x142;" horiz-adv-x="538" d="M2 608q0 33 31 49l174 101v633q0 31 17.5 47t43.5 16q27 0 45.5 -17.5t18.5 -45.5v-562l121 70q20 10 32 10q23 0 37.5 -15t14.5 -38q0 -33 -31 -49l-174 -100v-654q0 -29 -18.5 -46t-45.5 -17t-44 16.5t-17 46.5v580l-121 -70q-20 -10 -33 -10q-23 0 -37 16.5t-14 38.5z " />
<glyph unicode="&#x143;" horiz-adv-x="1505" d="M186 55v1334q0 29 17.5 47t48.5 18q33 0 53 -31l895 -1208v1174q0 29 16.5 47t43.5 18q28 0 43.5 -17.5t15.5 -47.5v-1334q0 -29 -16.5 -47t-45.5 -18q-31 0 -55 30l-897 1211v-1176q0 -29 -16.5 -47t-42.5 -18q-31 0 -45.5 17.5t-14.5 47.5zM717 1591q0 14 12 27 l211 235q29 31 62 31q27 0 45 -17.5t18 -43.5q0 -33 -39 -64l-248 -194q-10 -9 -24 -9t-25.5 10.5t-11.5 24.5z" />
<glyph unicode="&#x144;" horiz-adv-x="1148" d="M164 53v897q0 29 17.5 46.5t45.5 17.5q27 0 43.5 -16.5t16.5 -45.5v-129q47 94 136 144.5t206 50.5q358 0 358 -385v-580q0 -29 -16.5 -46t-44.5 -17q-29 0 -46.5 17.5t-17.5 45.5v572q0 147 -59.5 214.5t-188.5 67.5q-147 0 -236 -90t-89 -242v-522q0 -29 -16.5 -46 t-45.5 -17t-46 17.5t-17 45.5zM537 1151q0 12 10 27l256 329q31 41 72 41q27 0 45 -17.5t18 -43.5q0 -35 -34 -68l-302 -291q-12 -12 -28 -12q-14 0 -25.5 10.5t-11.5 24.5z" />
<glyph unicode="&#x145;" horiz-adv-x="1505" d="M186 55v1334q0 29 17.5 47t48.5 18q33 0 53 -31l895 -1208v1174q0 29 16.5 47t43.5 18q28 0 43.5 -17.5t15.5 -47.5v-1334q0 -29 -16.5 -47t-45.5 -18q-31 0 -55 30l-897 1211v-1176q0 -29 -16.5 -47t-42.5 -18q-31 0 -45.5 17.5t-14.5 47.5zM668 -225q0 37 24.5 60.5 t61.5 23.5q100 0 100 -127q0 -131 -88 -228q-23 -23 -45 -22q-16 0 -27.5 10t-11.5 27q0 16 14 32q57 68 64 136q-41 0 -66.5 23.5t-25.5 64.5z" />
<glyph unicode="&#x146;" horiz-adv-x="1148" d="M164 53v897q0 29 17.5 46.5t45.5 17.5q27 0 43.5 -16.5t16.5 -45.5v-129q47 94 136 144.5t206 50.5q358 0 358 -385v-580q0 -29 -16.5 -46t-44.5 -17q-29 0 -46.5 17.5t-17.5 45.5v572q0 147 -59.5 214.5t-188.5 67.5q-147 0 -236 -90t-89 -242v-522q0 -29 -16.5 -46 t-45.5 -17t-46 17.5t-17 45.5zM488 -225q0 37 24.5 60.5t61.5 23.5q100 0 100 -127q0 -131 -88 -228q-23 -23 -45 -22q-16 0 -27.5 10t-11.5 27q0 16 14 32q57 68 64 136q-41 0 -66.5 23.5t-25.5 64.5z" />
<glyph unicode="&#x147;" horiz-adv-x="1505" d="M186 55v1334q0 29 17.5 47t48.5 18q33 0 53 -31l895 -1208v1174q0 29 16.5 47t43.5 18q28 0 43.5 -17.5t15.5 -47.5v-1334q0 -29 -16.5 -47t-45.5 -18q-31 0 -55 30l-897 1211v-1176q0 -29 -16.5 -47t-42.5 -18q-31 0 -45.5 17.5t-14.5 47.5zM481 1833q0 20 15.5 35.5 t36.5 15.5q25 0 41 -18l180 -207l180 207q18 20 41 20q20 0 35.5 -15.5t15.5 -37.5q0 -20 -18 -43l-189 -203q-29 -31 -65 -31q-35 0 -66 31l-188 203q-18 18 -19 43z" />
<glyph unicode="&#x148;" horiz-adv-x="1148" d="M164 53v897q0 29 17.5 46.5t45.5 17.5q27 0 43.5 -16.5t16.5 -45.5v-129q47 94 136 144.5t206 50.5q358 0 358 -385v-580q0 -29 -16.5 -46t-44.5 -17q-29 0 -46.5 17.5t-17.5 45.5v572q0 147 -59.5 214.5t-188.5 67.5q-147 0 -236 -90t-89 -242v-522q0 -29 -16.5 -46 t-45.5 -17t-46 17.5t-17 45.5zM301 1493q0 23 16.5 38t37.5 15q31 0 49 -30l170 -285l170 285q18 31 47 30q23 0 39 -15t16 -38q0 -18 -12 -37l-193 -297q-16 -20 -31.5 -31.5t-35.5 -11.5q-21 0 -36 11.5t-32 31.5l-192 297q-12 18 -13 37z" />
<glyph unicode="&#x149;" horiz-adv-x="1148" d="M164 53v897q0 29 17.5 46.5t45.5 17.5q27 0 43.5 -16.5t16.5 -45.5v-129q47 94 136 144.5t206 50.5q358 0 358 -385v-580q0 -29 -16.5 -46t-44.5 -17q-29 0 -46.5 17.5t-17.5 45.5v572q0 147 -59.5 214.5t-188.5 67.5q-147 0 -236 -90t-89 -242v-522q0 -29 -16.5 -46 t-45.5 -17t-46 17.5t-17 45.5zM207 1466q0 39 23.5 61.5t60.5 22.5q47 0 74.5 -30.5t27.5 -94.5q0 -129 -90 -227q-23 -23 -45 -22q-16 0 -26.5 10t-10.5 24q0 18 15 35q55 68 61 135q-39 0 -64.5 22.5t-25.5 63.5z" />
<glyph unicode="&#x14a;" horiz-adv-x="1505" d="M186 55v1334q0 29 17.5 47t48.5 18q35 0 53 -31l895 -1208v1174q0 29 16.5 47t43.5 18q28 0 43.5 -17.5t15.5 -47.5v-1385q0 -186 -81 -277.5t-249 -101.5l-61 -4q-39 -2 -58.5 12.5t-19.5 40.5q0 20 15.5 36t43.5 18l60 4q117 8 174 70.5t57 203.5v19l-895 1206v-1176 q0 -29 -16.5 -47t-42.5 -18q-31 0 -45.5 17.5t-14.5 47.5z" />
<glyph unicode="&#x14b;" horiz-adv-x="1148" d="M164 53v897q0 29 17.5 46.5t45.5 17.5q27 0 43.5 -16.5t16.5 -45.5v-127q47 94 136 143.5t206 49.5q358 0 358 -385v-651q0 -172 -72.5 -256t-232.5 -95l-55 -4q-80 -6 -80 49q0 47 59 54l56 4q106 6 153 62.5t47 178.5v650q0 147 -59.5 214.5t-188.5 67.5 q-147 0 -236 -90t-89 -242v-522q0 -29 -16.5 -46t-45.5 -17t-46 17.5t-17 45.5z" />
<glyph unicode="&#x14c;" horiz-adv-x="1550" d="M131 721q0 227 78 394t222 256t343 89t344.5 -89t223 -255t77.5 -393t-77.5 -394t-223 -256t-344.5 -89q-196 0 -341.5 89t-223.5 256t-78 392zM262 723q0 -297 134 -462t378 -165t379 164t135 463t-134 462t-380 163q-244 0 -378 -164t-134 -461zM460 1722 q0 27 17.5 40.5t48.5 13.5h496q31 0 48 -13.5t17 -40.5q0 -25 -17.5 -39t-47.5 -14h-496q-31 0 -48.5 14.5t-17.5 38.5z" />
<glyph unicode="&#x14d;" horiz-adv-x="1116" d="M100 502q0 156 57.5 272.5t161 180t240.5 63.5q135 0 239.5 -63.5t161 -180.5t56.5 -272q0 -156 -56.5 -272.5t-161 -180t-239.5 -63.5q-137 0 -240.5 63.5t-161 180t-57.5 272.5zM231 502q0 -197 84 -301.5t242 -104.5t244 104.5t86 301.5q0 193 -87 300t-241 107 q-156 0 -242 -107.5t-86 -299.5zM245 1333q0 27 17.5 40t48.5 13h496q31 0 48 -13t17 -40q0 -25 -17.5 -38t-47.5 -13h-496q-31 0 -48.5 13.5t-17.5 37.5z" />
<glyph unicode="&#x14e;" horiz-adv-x="1550" d="M131 721q0 227 78 394t222 256t343 89t344.5 -89t223 -255t77.5 -393t-77.5 -394t-223 -256t-344.5 -89q-196 0 -341.5 89t-223.5 256t-78 392zM262 723q0 -297 134 -462t378 -165t379 164t135 463t-134 462t-380 163q-244 0 -378 -164t-134 -461zM458 1804 q0 20 14.5 33.5t35.5 13.5q35 0 55 -34q39 -66 89 -93.5t122 -27.5t122 27.5t89 93.5q20 35 55 34q20 0 34.5 -13t14.5 -34q0 -16 -8 -30q-41 -90 -122 -135.5t-185 -45.5q-103 0 -182.5 45t-124.5 136q-8 16 -9 30z" />
<glyph unicode="&#x14f;" horiz-adv-x="1116" d="M100 502q0 156 57.5 272.5t161 180t240.5 63.5q135 0 239.5 -63.5t161 -180.5t56.5 -272q0 -156 -56.5 -272.5t-161 -180t-239.5 -63.5q-137 0 -240.5 63.5t-161 180t-57.5 272.5zM231 502q0 -197 84 -301.5t242 -104.5t244 104.5t86 301.5q0 193 -87 300t-241 107 q-156 0 -242 -107.5t-86 -299.5zM245 1423q0 23 15.5 37.5t38.5 14.5q16 0 31.5 -10.5t23.5 -28.5q68 -141 205 -142q137 0 205 142q20 39 57 39q20 0 35.5 -14.5t15.5 -39.5q0 -12 -6 -28q-39 -96 -122 -148.5t-185 -52.5q-103 0 -183.5 51t-123.5 150q-6 16 -7 30z" />
<glyph unicode="&#x150;" horiz-adv-x="1550" d="M131 721q0 227 78 394t222 256t343 89t344.5 -89t223 -255t77.5 -393t-77.5 -394t-223 -256t-344.5 -89q-196 0 -341.5 89t-223.5 256t-78 392zM262 723q0 -297 134 -462t378 -165t379 164t135 463t-134 462t-380 163q-244 0 -378 -164t-134 -461zM626 1585q0 12 4 19 l119 235q12 23 28.5 35t33.5 12q20 0 35.5 -15.5t15.5 -39.5q0 -25 -21 -51l-157 -209q-13 -17 -29 -17q-12 0 -20.5 8.5t-8.5 22.5zM862 1585q0 12 4 19l119 235q12 23 28.5 35t32.5 12q20 0 35.5 -15.5t15.5 -39.5q0 -25 -20 -51l-158 -209q-12 -17 -28 -17 q-12 0 -20.5 8.5t-8.5 22.5z" />
<glyph unicode="&#x151;" horiz-adv-x="1116" d="M100 502q0 156 57.5 272.5t161 180t240.5 63.5q135 0 239.5 -63.5t161 -180.5t56.5 -272q0 -156 -56.5 -272.5t-161 -180t-239.5 -63.5q-137 0 -240.5 63.5t-161 180t-57.5 272.5zM231 502q0 -197 84 -301.5t242 -104.5t244 104.5t86 301.5q0 193 -87 300t-241 107 q-156 0 -242 -107.5t-86 -299.5zM411 1157l105 336q8 29 26.5 43t38.5 14q23 0 39.5 -16t16.5 -41q0 -23 -11 -41l-157 -317q-9 -21 -29 -21q-14 0 -24.5 12.5t-4.5 30.5zM649 1157l104 336q8 29 26.5 43t39.5 14q23 0 39 -16t16 -41q0 -23 -10 -41l-158 -317 q-7 -21 -30 -21q-14 0 -23.5 12.5t-3.5 30.5z" />
<glyph unicode="&#x152;" horiz-adv-x="2142" d="M131 723q0 348 186.5 534.5t528.5 186.5h1141q29 0 44 -14.5t15 -40.5q0 -27 -15.5 -40.5t-41.5 -13.5h-723v-547h682q27 0 42 -14t15 -41t-15.5 -41t-41.5 -14h-682v-569h723q27 0 42 -13.5t15 -40.5t-15.5 -41t-41.5 -14h-1143q-342 0 -528.5 187.5t-186.5 535.5z M262 723q0 -297 145.5 -455.5t444.5 -158.5h291v1226h-291q-301 0 -445.5 -157.5t-144.5 -454.5z" />
<glyph unicode="&#x153;" horiz-adv-x="1853" d="M100 502q0 156 56.5 272.5t161 180t239.5 63.5q139 0 240.5 -67.5t152.5 -192.5q53 123 157.5 191.5t242.5 68.5q188 0 298.5 -125t110.5 -340q0 -37 -16.5 -54.5t-52.5 -17.5h-674q6 -188 97 -286.5t259 -98.5q88 0 148.5 23.5t121.5 62.5q45 31 64 31q18 0 31.5 -15.5 t13.5 -35.5q0 -47 -72 -88q-74 -43 -152.5 -65.5t-152.5 -22.5q-152 0 -260 68.5t-162 195.5q-51 -125 -153.5 -194.5t-241.5 -69.5q-135 0 -239.5 63.5t-161 180t-56.5 272.5zM231 502q0 -197 84 -301.5t242 -104.5t243 104.5t85 301.5q0 193 -86 300t-240 107 q-156 0 -242 -107.5t-86 -299.5zM1020 573h625q-4 164 -82 253t-215 89q-142 0 -228 -90t-100 -252z" />
<glyph unicode="&#x154;" horiz-adv-x="1396" d="M186 55v1325q0 27 19.5 45.5t48.5 18.5h510q227 0 350 -103.5t123 -302.5q0 -174 -104.5 -276.5t-294.5 -118.5q49 -16 90 -54t84 -106l254 -407q12 -19 12 -35q0 -23 -17.5 -38t-39.5 -15q-35 0 -56 32l-276 443q-59 94 -121.5 129t-173.5 35h-281v-572q0 -31 -17 -48 t-46 -17t-46.5 17.5t-17.5 47.5zM311 735h445q356 0 356 305q0 150 -88 222.5t-268 72.5h-445v-600zM653 1591q0 14 12 27l211 235q29 31 62 31q27 0 45 -17.5t18 -43.5q0 -33 -39 -64l-248 -194q-10 -9 -24 -9t-25.5 10.5t-11.5 24.5z" />
<glyph unicode="&#x155;" horiz-adv-x="694" d="M164 53v897q0 31 17.5 47.5t45.5 16.5q27 0 43.5 -16.5t16.5 -45.5v-133q84 176 311 193l29 2q39 2 55 -10.5t16 -40.5q0 -51 -61 -58l-62 -6q-145 -14 -215.5 -104t-70.5 -211v-531q0 -31 -16.5 -47t-45.5 -16t-46 16.5t-17 46.5zM391 1151q0 12 10 27l256 329 q31 41 72 41q27 0 45 -17.5t18 -43.5q0 -35 -34 -68l-302 -291q-12 -12 -28 -12q-14 0 -25.5 10.5t-11.5 24.5z" />
<glyph unicode="&#x156;" horiz-adv-x="1396" d="M186 55v1325q0 27 19.5 45.5t48.5 18.5h510q227 0 350 -103.5t123 -302.5q0 -174 -104.5 -276.5t-294.5 -118.5q49 -16 90 -54t84 -106l254 -407q12 -19 12 -35q0 -23 -17.5 -38t-39.5 -15q-35 0 -56 32l-276 443q-59 94 -121.5 129t-173.5 35h-281v-572q0 -31 -17 -48 t-46 -17t-46.5 17.5t-17.5 47.5zM311 735h445q356 0 356 305q0 150 -88 222.5t-268 72.5h-445v-600zM604 -225q0 37 24.5 60.5t61.5 23.5q100 0 100 -127q0 -131 -88 -228q-23 -23 -45 -22q-16 0 -27.5 10t-11.5 27q0 16 14 32q57 68 64 136q-41 0 -66.5 23.5t-25.5 64.5z " />
<glyph unicode="&#x157;" horiz-adv-x="694" d="M142 -225q0 37 24.5 60.5t61.5 23.5q100 0 100 -127q0 -131 -88 -228q-23 -23 -45 -22q-16 0 -27.5 10t-11.5 27q0 16 14 32q57 68 64 136q-41 0 -66.5 23.5t-25.5 64.5zM164 53v897q0 31 17.5 47.5t45.5 16.5q27 0 43.5 -16.5t16.5 -45.5v-133q84 176 311 193l29 2 q39 2 55 -10.5t16 -40.5q0 -51 -61 -58l-62 -6q-145 -14 -215.5 -104t-70.5 -211v-531q0 -31 -16.5 -47t-45.5 -16t-46 16.5t-17 46.5z" />
<glyph unicode="&#x158;" horiz-adv-x="1396" d="M186 55v1325q0 27 19.5 45.5t48.5 18.5h510q227 0 350 -103.5t123 -302.5q0 -174 -104.5 -276.5t-294.5 -118.5q49 -16 90 -54t84 -106l254 -407q12 -19 12 -35q0 -23 -17.5 -38t-39.5 -15q-35 0 -56 32l-276 443q-59 94 -121.5 129t-173.5 35h-281v-572q0 -31 -17 -48 t-46 -17t-46.5 17.5t-17.5 47.5zM311 735h445q356 0 356 305q0 150 -88 222.5t-268 72.5h-445v-600zM417 1833q0 20 15.5 35.5t36.5 15.5q25 0 41 -18l180 -207l180 207q18 20 41 20q20 0 35.5 -15.5t15.5 -37.5q0 -20 -18 -43l-189 -203q-29 -31 -65 -31q-35 0 -66 31 l-188 203q-18 18 -19 43z" />
<glyph unicode="&#x159;" horiz-adv-x="694" d="M155 1493q0 23 16.5 38t37.5 15q31 0 49 -30l170 -285l170 285q18 31 47 30q23 0 39 -15t16 -38q0 -18 -12 -37l-193 -297q-16 -20 -31.5 -31.5t-35.5 -11.5q-21 0 -36 11.5t-32 31.5l-192 297q-12 18 -13 37zM164 53v897q0 31 17.5 47.5t45.5 16.5q27 0 43.5 -16.5 t16.5 -45.5v-133q84 176 311 193l29 2q39 2 55 -10.5t16 -40.5q0 -51 -61 -58l-62 -6q-145 -14 -215.5 -104t-70.5 -211v-531q0 -31 -16.5 -47t-45.5 -16t-46 16.5t-17 46.5z" />
<glyph unicode="&#x15a;" horiz-adv-x="1243" d="M92 221q0 23 13.5 39t29.5 16q20 0 47 -20q193 -160 449 -160q186 0 287.5 75t101.5 212q0 80 -49 129t-125 76.5t-203 56.5q-168 37 -271.5 76t-175 118t-71.5 212q0 121 64.5 214t181 144t268.5 51q141 0 266 -46t207 -132q27 -27 27 -59q0 -23 -13.5 -39.5 t-29.5 -16.5q-20 0 -47 21q-111 90 -200 125t-210 35q-182 0 -284.5 -78t-102.5 -217q0 -84 45 -136.5t117.5 -83t187.5 -59.5l53 -12q166 -41 262.5 -76t163 -107.5t66.5 -195.5q0 -117 -64.5 -208t-182.5 -141t-269 -50q-152 0 -292 48t-220 130q-27 23 -27 59zM586 1591 q0 14 12 27l211 235q29 31 62 31q27 0 45 -17.5t18 -43.5q0 -33 -39 -64l-248 -194q-10 -9 -24 -9t-25.5 10.5t-11.5 24.5z" />
<glyph unicode="&#x15b;" horiz-adv-x="978" d="M100 164q0 20 13.5 34.5t31.5 14.5t64 -31q59 -39 121.5 -63.5t156.5 -24.5q121 0 188.5 44t67.5 126q0 49 -24.5 81t-81.5 55.5t-164 45.5q-182 41 -259 105.5t-77 173.5q0 131 102.5 212t266.5 81q80 0 152.5 -20.5t125.5 -59.5q72 -49 72 -96q0 -20 -13.5 -35.5 t-31.5 -15.5q-20 0 -63 32q-55 39 -109.5 62.5t-138.5 23.5q-106 0 -170 -48t-64 -130q0 -47 21.5 -77.5t74 -54.5t150.5 -46q141 -33 217 -70t108.5 -88t32.5 -131q0 -125 -105.5 -201.5t-279.5 -76.5q-86 0 -169 23.5t-146 64.5q-39 27 -54.5 46t-15.5 44zM469 1151 q0 12 10 27l256 329q31 41 72 41q27 0 45 -17.5t18 -43.5q0 -35 -34 -68l-302 -291q-12 -12 -28 -12q-14 0 -25.5 10.5t-11.5 24.5z" />
<glyph unicode="&#x15c;" horiz-adv-x="1243" d="M92 221q0 23 13.5 39t29.5 16q20 0 47 -20q193 -160 449 -160q186 0 287.5 75t101.5 212q0 80 -49 129t-125 76.5t-203 56.5q-168 37 -271.5 76t-175 118t-71.5 212q0 121 64.5 214t181 144t268.5 51q141 0 266 -46t207 -132q27 -27 27 -59q0 -23 -13.5 -39.5 t-29.5 -16.5q-20 0 -47 21q-111 90 -200 125t-210 35q-182 0 -284.5 -78t-102.5 -217q0 -84 45 -136.5t117.5 -83t187.5 -59.5l53 -12q166 -41 262.5 -76t163 -107.5t66.5 -195.5q0 -117 -64.5 -208t-182.5 -141t-269 -50q-152 0 -292 48t-220 130q-27 23 -27 59zM350 1608 q0 23 19 43l188 202q29 31 66 31q35 0 65 -31l189 -202q18 -18 18 -43q0 -20 -15.5 -36t-35.5 -16q-25 0 -41 19l-180 209l-180 -209q-18 -21 -41 -21q-20 0 -36 15.5t-16 38.5z" />
<glyph unicode="&#x15d;" horiz-adv-x="978" d="M100 164q0 20 13.5 34.5t31.5 14.5t64 -31q59 -39 121.5 -63.5t156.5 -24.5q121 0 188.5 44t67.5 126q0 49 -24.5 81t-81.5 55.5t-164 45.5q-182 41 -259 105.5t-77 173.5q0 131 102.5 212t266.5 81q80 0 152.5 -20.5t125.5 -59.5q72 -49 72 -96q0 -20 -13.5 -35.5 t-31.5 -15.5q-20 0 -63 32q-55 39 -109.5 62.5t-138.5 23.5q-106 0 -170 -48t-64 -130q0 -47 21.5 -77.5t74 -54.5t150.5 -46q141 -33 217 -70t108.5 -88t32.5 -131q0 -125 -105.5 -201.5t-279.5 -76.5q-86 0 -169 23.5t-146 64.5q-39 27 -54.5 46t-15.5 44zM233 1169 q0 18 13 37l192 297q16 20 31.5 31.5t36.5 11.5q23 0 38 -10t29 -33l193 -297q12 -18 12 -37q0 -23 -15.5 -38t-37.5 -15q-29 0 -47 31l-172 285l-172 -285q-18 -31 -47 -31q-23 0 -38.5 15.5t-15.5 37.5z" />
<glyph unicode="&#x15e;" horiz-adv-x="1243" d="M92 221q0 23 13.5 39t29.5 16q20 0 47 -20q193 -160 449 -160q186 0 287.5 75t101.5 212q0 80 -49 129t-125 76.5t-203 56.5q-168 37 -271.5 76t-175 118t-71.5 212q0 121 64.5 214t181 144t268.5 51q141 0 266 -46t207 -132q27 -27 27 -59q0 -23 -13.5 -39.5 t-29.5 -16.5q-20 0 -47 21q-111 90 -200 125t-210 35q-182 0 -284.5 -78t-102.5 -217q0 -84 45 -136.5t117.5 -83t187.5 -59.5l53 -12q166 -41 262.5 -76t163 -107.5t66.5 -195.5q0 -113 -60.5 -202t-171 -141t-253.5 -56l-9 -76q33 8 56 8q61 0 106 -36t45 -105 q0 -74 -61.5 -120t-169.5 -46q-80 0 -140 22q-33 14 -32 45q0 16 12 27.5t31 11.5q12 0 18 -2q57 -16 115 -16q61 0 92 20.5t31 57.5q0 29 -17.5 44t-48.5 15q-25 0 -60.5 -10t-45.5 -10q-14 0 -27.5 11t-11.5 28l14 133q-135 10 -252 57t-188 119q-27 23 -27 59z" />
<glyph unicode="&#x15f;" horiz-adv-x="978" d="M100 164q0 20 13.5 34.5t31.5 14.5t64 -31q59 -39 121.5 -63.5t156.5 -24.5q121 0 188.5 44t67.5 126q0 49 -24.5 81t-81.5 55.5t-164 45.5q-182 41 -259 105.5t-77 173.5q0 131 102.5 212t266.5 81q80 0 152.5 -20.5t125.5 -59.5q72 -49 72 -96q0 -20 -13.5 -35.5 t-31.5 -15.5q-20 0 -63 32q-55 39 -109.5 62.5t-138.5 23.5q-106 0 -170 -48t-64 -130q0 -47 21.5 -77.5t74 -54.5t150.5 -46q141 -33 217 -70t108.5 -88t32.5 -131q0 -119 -96 -194.5t-258 -83.5l-8 -78q33 8 55 8q61 0 106.5 -36t45.5 -105q0 -74 -61.5 -120t-170.5 -46 q-80 0 -139 22q-33 14 -33 45q0 16 12.5 27.5t30.5 11.5q12 0 19 -2q57 -16 114 -16q61 0 92 20.5t31 57.5q0 29 -17.5 44t-47.5 15q-25 0 -60.5 -10t-46.5 -10q-14 0 -27.5 11t-11.5 28l15 137q-135 16 -244 84q-39 27 -54.5 46t-15.5 44z" />
<glyph unicode="&#x160;" horiz-adv-x="1243" d="M92 221q0 23 13.5 39t29.5 16q20 0 47 -20q193 -160 449 -160q186 0 287.5 75t101.5 212q0 80 -49 129t-125 76.5t-203 56.5q-168 37 -271.5 76t-175 118t-71.5 212q0 121 64.5 214t181 144t268.5 51q141 0 266 -46t207 -132q27 -27 27 -59q0 -23 -13.5 -39.5 t-29.5 -16.5q-20 0 -47 21q-111 90 -200 125t-210 35q-182 0 -284.5 -78t-102.5 -217q0 -84 45 -136.5t117.5 -83t187.5 -59.5l53 -12q166 -41 262.5 -76t163 -107.5t66.5 -195.5q0 -117 -64.5 -208t-182.5 -141t-269 -50q-152 0 -292 48t-220 130q-27 23 -27 59zM350 1833 q0 20 15.5 35.5t36.5 15.5q25 0 41 -18l180 -207l180 207q18 20 41 20q20 0 35.5 -15.5t15.5 -37.5q0 -20 -18 -43l-189 -203q-29 -31 -65 -31q-35 0 -66 31l-188 203q-18 18 -19 43z" />
<glyph unicode="&#x161;" horiz-adv-x="978" d="M100 164q0 20 13.5 34.5t31.5 14.5t64 -31q59 -39 121.5 -63.5t156.5 -24.5q121 0 188.5 44t67.5 126q0 49 -24.5 81t-81.5 55.5t-164 45.5q-182 41 -259 105.5t-77 173.5q0 131 102.5 212t266.5 81q80 0 152.5 -20.5t125.5 -59.5q72 -49 72 -96q0 -20 -13.5 -35.5 t-31.5 -15.5q-20 0 -63 32q-55 39 -109.5 62.5t-138.5 23.5q-106 0 -170 -48t-64 -130q0 -47 21.5 -77.5t74 -54.5t150.5 -46q141 -33 217 -70t108.5 -88t32.5 -131q0 -125 -105.5 -201.5t-279.5 -76.5q-86 0 -169 23.5t-146 64.5q-39 27 -54.5 46t-15.5 44zM233 1493 q0 23 16.5 38t37.5 15q31 0 49 -30l170 -285l170 285q18 31 47 30q23 0 39 -15t16 -38q0 -18 -12 -37l-193 -297q-16 -20 -31.5 -31.5t-35.5 -11.5q-21 0 -36 11.5t-32 31.5l-192 297q-12 18 -13 37z" />
<glyph unicode="&#x162;" horiz-adv-x="1208" d="M12 1389q0 27 15.5 41t42.5 14h1069q24 0 40.5 -15.5t16.5 -39.5q0 -25 -16.5 -40.5t-40.5 -15.5h-471v-1278q0 -41 -31 -57l-10 -90q33 8 55 8q61 0 106.5 -36t45.5 -105q0 -74 -61.5 -120t-170.5 -46q-80 0 -139 22q-33 14 -33 45q0 16 12.5 27.5t30.5 11.5q12 0 19 -2 q57 -16 114 -16q61 0 92 20.5t31 57.5q0 29 -17.5 44t-47.5 15q-25 0 -61 -10t-46 -10q-14 0 -27.5 11t-11.5 28l21 188h6q-2 4 -2 14v1278h-473q-27 0 -42.5 14.5t-15.5 41.5z" />
<glyph unicode="&#x163;" horiz-adv-x="669" d="M4 942q0 23 14.5 37t38.5 14h156v254q0 31 16.5 47.5t44.5 16.5q29 0 46.5 -16.5t17.5 -47.5v-254h248q27 0 41 -14t14 -37t-14.5 -36t-40.5 -13h-248v-551q0 -127 49 -181.5t154 -62.5l55 -4q57 -6 57 -53q0 -25 -18.5 -39t-59.5 -12l-57 4l-53 6l-10 -92q33 8 55 8 q61 0 106.5 -36t45.5 -105q0 -74 -61.5 -120t-170.5 -46q-80 0 -139 22q-33 14 -33 45q0 16 12.5 27.5t30.5 11.5q12 0 18 -2q57 -16 115 -16q61 0 92 20.5t31 57.5q0 29 -17.5 44t-47.5 15q-25 0 -61 -10t-46 -10q-14 0 -27.5 11t-11.5 28l19 178q-78 37 -115 114.5 t-37 202.5v545h-156q-25 0 -39 13.5t-14 35.5z" />
<glyph unicode="&#x164;" horiz-adv-x="1208" d="M12 1389q0 27 15.5 41t42.5 14h1069q25 0 41 -15.5t16 -39.5q0 -25 -16.5 -40.5t-40.5 -15.5h-471v-1278q0 -29 -17.5 -47t-46.5 -18t-45 18.5t-16 46.5v1278h-473q-27 0 -42.5 14.5t-15.5 41.5zM331 1833q0 20 15.5 35.5t36.5 15.5q25 0 41 -18l180 -207l180 207 q18 20 41 20q20 0 35.5 -15.5t15.5 -37.5q0 -20 -18 -43l-189 -203q-29 -31 -65 -31q-35 0 -66 31l-188 203q-18 18 -19 43z" />
<glyph unicode="&#x165;" horiz-adv-x="669" d="M4 942q0 23 14.5 37t38.5 14h156v254q0 31 16.5 47.5t44.5 16.5q29 0 46.5 -16.5t17.5 -47.5v-254h248q27 0 41 -14t14 -37t-14.5 -36t-40.5 -13h-248v-551q0 -127 49 -181.5t154 -62.5l55 -4q57 -6 57 -53q0 -25 -18.5 -39t-59.5 -12l-57 4q-156 10 -230.5 95t-74.5 259 v545h-156q-25 0 -39 13.5t-14 35.5zM451 1122v271q0 31 18 47t45 16q29 0 48.5 -20.5t12.5 -53.5l-45 -266q-5 -29 -38 -29q-16 0 -28.5 9.5t-12.5 25.5z" />
<glyph unicode="&#x166;" horiz-adv-x="1208" d="M12 1389q0 27 15.5 41t42.5 14h1069q24 0 40.5 -15.5t16.5 -39.5q0 -25 -16.5 -40.5t-40.5 -15.5h-471v-549h254q53 0 53 -51q0 -27 -14.5 -40t-38.5 -13h-254v-625q0 -29 -17.5 -47t-46.5 -18t-45 18.5t-16 46.5v625h-250q-25 0 -41 14.5t-16 38.5q0 25 15 38t42 13h250 v549h-473q-27 0 -42.5 14.5t-15.5 41.5z" />
<glyph unicode="&#x167;" horiz-adv-x="690" d="M14 942q0 23 14.5 37t39.5 14h155v254q0 31 16.5 47.5t45.5 16.5t46 -16.5t17 -47.5v-254h248q27 0 41 -14t14 -37t-14 -36t-41 -13h-248v-268h209q25 0 39 -14.5t14 -37.5t-14 -36t-39 -13h-209v-182q0 -127 49 -181.5t154 -62.5l55 -4q58 -6 58 -53q0 -25 -18.5 -39 t-59.5 -12l-58 4q-156 10 -230.5 95t-74.5 259v176h-114q-25 0 -39.5 13.5t-14.5 35.5q0 23 14.5 37.5t39.5 14.5h114v268h-155q-25 0 -39.5 13.5t-14.5 35.5z" />
<glyph unicode="&#x168;" horiz-adv-x="1474" d="M176 557v832q0 31 17.5 48t46.5 17t46 -17.5t17 -47.5v-846q0 -446 434 -447q215 0 324.5 113t109.5 334v846q0 29 17.5 47t46.5 18t45 -17.5t16 -47.5v-832q0 -283 -142 -428t-417 -145q-276 0 -418.5 145t-142.5 428zM421 1671q0 33 21.5 69t61.5 59.5t91 23.5 q35 0 72 -13.5t92 -37.5q6 -4 34 -16.5t49.5 -18.5t35.5 -6q39 0 59.5 16t36.5 43q8 12 18.5 21.5t20.5 9.5q16 0 27.5 -13.5t11.5 -29.5q0 -33 -21.5 -69t-61.5 -60.5t-91 -24.5q-35 0 -71.5 13.5t-92.5 37.5q-6 4 -33.5 16.5t-49 18.5t-36.5 6q-37 0 -57 -15t-39 -42 q-8 -12 -18 -21.5t-21 -9.5q-16 0 -27.5 12.5t-11.5 30.5z" />
<glyph unicode="&#x169;" horiz-adv-x="1132" d="M160 371v579q0 29 17.5 46.5t45.5 17.5q29 0 45.5 -17.5t16.5 -46.5v-571q0 -145 58 -214t183 -69q143 0 230.5 91.5t87.5 242.5v520q0 29 16.5 46.5t44.5 17.5q29 0 46.5 -17.5t17.5 -46.5v-897q0 -29 -17.5 -46t-46.5 -17q-27 0 -43 17.5t-16 45.5v125 q-47 -94 -134 -143t-198 -49q-176 0 -265 97t-89 288zM249 1272q0 35 21.5 79t61.5 74.5t91 30.5q37 0 73 -18.5t89 -55.5q45 -31 72 -45t49 -14q37 0 57.5 20.5t36.5 55.5q12 23 20.5 33t20.5 10q16 0 27.5 -12.5t11.5 -30.5q0 -35 -21.5 -79t-61.5 -75t-91 -31 q-37 0 -75 19.5t-87 54.5q-51 33 -74.5 45.5t-46.5 12.5q-37 0 -57 -19.5t-37 -54.5q-10 -23 -19 -33t-22 -10q-16 0 -27.5 12t-11.5 31z" />
<glyph unicode="&#x16a;" horiz-adv-x="1474" d="M176 557v832q0 31 17.5 48t46.5 17t46 -17.5t17 -47.5v-846q0 -446 434 -447q215 0 324.5 113t109.5 334v846q0 29 17.5 47t46.5 18t45 -17.5t16 -47.5v-832q0 -283 -142 -428t-417 -145q-276 0 -418.5 145t-142.5 428zM423 1722q0 27 17.5 40.5t48.5 13.5h496 q31 0 48 -13.5t17 -40.5q0 -25 -17.5 -39t-47.5 -14h-496q-31 0 -48.5 14.5t-17.5 38.5z" />
<glyph unicode="&#x16b;" horiz-adv-x="1132" d="M160 371v579q0 29 17.5 46.5t45.5 17.5q29 0 45.5 -17.5t16.5 -46.5v-571q0 -145 58 -214t183 -69q143 0 230.5 91.5t87.5 242.5v520q0 29 16.5 46.5t44.5 17.5q29 0 46.5 -17.5t17.5 -46.5v-897q0 -29 -17.5 -46t-46.5 -17q-27 0 -43 17.5t-16 45.5v125 q-47 -94 -134 -143t-198 -49q-176 0 -265 97t-89 288zM251 1333q0 27 17.5 40t48.5 13h496q31 0 48 -13t17 -40q0 -25 -17.5 -38t-47.5 -13h-496q-31 0 -48.5 13.5t-17.5 37.5z" />
<glyph unicode="&#x16c;" horiz-adv-x="1474" d="M176 557v832q0 31 17.5 48t46.5 17t46 -17.5t17 -47.5v-846q0 -446 434 -447q215 0 324.5 113t109.5 334v846q0 29 17.5 47t46.5 18t45 -17.5t16 -47.5v-832q0 -283 -142 -428t-417 -145q-276 0 -418.5 145t-142.5 428zM421 1804q0 20 14.5 33.5t35.5 13.5q35 0 55 -34 q39 -66 89 -93.5t122 -27.5t122 27.5t89 93.5q20 35 55 34q20 0 34.5 -13t14.5 -34q0 -16 -8 -30q-41 -90 -122 -135.5t-185 -45.5q-103 0 -182.5 45t-124.5 136q-8 16 -9 30z" />
<glyph unicode="&#x16d;" horiz-adv-x="1132" d="M160 371v579q0 29 17.5 46.5t45.5 17.5q29 0 45.5 -17.5t16.5 -46.5v-571q0 -145 58 -214t183 -69q143 0 230.5 91.5t87.5 242.5v520q0 29 16.5 46.5t44.5 17.5q29 0 46.5 -17.5t17.5 -46.5v-897q0 -29 -17.5 -46t-46.5 -17q-27 0 -43 17.5t-16 45.5v125 q-47 -94 -134 -143t-198 -49q-176 0 -265 97t-89 288zM251 1423q0 23 15.5 37.5t38.5 14.5q16 0 31.5 -10.5t23.5 -28.5q68 -141 205 -142q137 0 205 142q20 39 57 39q20 0 35.5 -14.5t15.5 -39.5q0 -12 -6 -28q-39 -96 -122 -148.5t-185 -52.5q-103 0 -183.5 51t-123.5 150 q-6 16 -7 30z" />
<glyph unicode="&#x16e;" horiz-adv-x="1474" d="M176 557v832q0 31 17.5 48t46.5 17t46 -17.5t17 -47.5v-846q0 -446 434 -447q215 0 324.5 113t109.5 334v846q0 29 17.5 47t46.5 18t45 -17.5t16 -47.5v-832q0 -283 -142 -428t-417 -145q-276 0 -418.5 145t-142.5 428zM534 1755q0 82 59.5 140.5t143.5 58.5t143.5 -58.5 t59.5 -140.5q0 -84 -59.5 -141.5t-143.5 -57.5t-143.5 57.5t-59.5 141.5zM634 1755q0 -45 29 -75.5t74 -30.5t73.5 30.5t28.5 75.5t-28.5 75t-73.5 30t-74 -30t-29 -75z" />
<glyph unicode="&#x16f;" horiz-adv-x="1132" d="M160 371v579q0 29 17.5 46.5t45.5 17.5q29 0 45.5 -17.5t16.5 -46.5v-571q0 -145 58 -214t183 -69q143 0 230.5 91.5t87.5 242.5v520q0 29 16.5 46.5t44.5 17.5q29 0 46.5 -17.5t17.5 -46.5v-897q0 -29 -17.5 -46t-46.5 -17q-27 0 -43 17.5t-16 45.5v125 q-47 -94 -134 -143t-198 -49q-176 0 -265 97t-89 288zM362 1333q0 84 59.5 141.5t143.5 57.5t143.5 -57.5t59.5 -141.5q0 -82 -59.5 -139t-143.5 -57t-143.5 57t-59.5 139zM462 1333q0 -43 30 -73.5t73 -30.5t72.5 30.5t29.5 73.5q0 45 -28.5 76t-73.5 31t-74 -31t-29 -76z " />
<glyph unicode="&#x170;" horiz-adv-x="1474" d="M176 557v832q0 31 17.5 48t46.5 17t46 -17.5t17 -47.5v-846q0 -446 434 -447q215 0 324.5 113t109.5 334v846q0 29 17.5 47t46.5 18t45 -17.5t16 -47.5v-832q0 -283 -142 -428t-417 -145q-276 0 -418.5 145t-142.5 428zM589 1585q0 12 4 19l119 235q12 23 28.5 35 t33.5 12q20 0 35.5 -15.5t15.5 -39.5q0 -25 -21 -51l-157 -209q-13 -17 -29 -17q-12 0 -20.5 8.5t-8.5 22.5zM825 1585q0 12 4 19l119 235q12 23 28.5 35t32.5 12q20 0 35.5 -15.5t15.5 -39.5q0 -25 -20 -51l-158 -209q-12 -17 -28 -17q-12 0 -20.5 8.5t-8.5 22.5z" />
<glyph unicode="&#x171;" horiz-adv-x="1132" d="M160 371v579q0 29 17.5 46.5t45.5 17.5q29 0 45.5 -17.5t16.5 -46.5v-571q0 -145 58 -214t183 -69q143 0 230.5 91.5t87.5 242.5v520q0 29 16.5 46.5t44.5 17.5q29 0 46.5 -17.5t17.5 -46.5v-897q0 -29 -17.5 -46t-46.5 -17q-27 0 -43 17.5t-16 45.5v125 q-47 -94 -134 -143t-198 -49q-176 0 -265 97t-89 288zM417 1157l105 336q8 29 26.5 43t38.5 14q23 0 39.5 -16t16.5 -41q0 -23 -11 -41l-157 -317q-9 -21 -29 -21q-14 0 -24.5 12.5t-4.5 30.5zM655 1157l104 336q8 29 26.5 43t39.5 14q23 0 39 -16t16 -41q0 -23 -10 -41 l-158 -317q-7 -21 -30 -21q-14 0 -23.5 12.5t-3.5 30.5z" />
<glyph unicode="&#x172;" horiz-adv-x="1474" d="M176 557v832q0 31 17.5 48t46.5 17t46 -17.5t17 -47.5v-846q0 -446 434 -447q215 0 324.5 113t109.5 334v846q0 29 17.5 47t46.5 18t45 -17.5t16 -47.5v-832q0 -438 -335 -543q-92 -29 -135.5 -72.5t-43.5 -107.5q0 -61 37 -97t101 -36q45 0 98 27q12 6 22 6 q18 0 28.5 -12.5t10.5 -30.5q0 -31 -28 -47q-66 -35 -144 -35q-104 0 -168.5 58.5t-64.5 152.5q0 102 76 164h-13q-276 0 -418.5 145t-142.5 428z" />
<glyph unicode="&#x173;" horiz-adv-x="1132" d="M160 371v579q0 29 17.5 46.5t45.5 17.5q29 0 45.5 -17.5t16.5 -46.5v-571q0 -145 58 -214t183 -69q143 0 230.5 91.5t87.5 242.5v520q0 29 16.5 46.5t44.5 17.5q29 0 46.5 -17.5t17.5 -46.5v-899q0 -23 -12.5 -39t-32.5 -20q-72 -12 -112 -53t-40 -105q0 -61 37 -97 t100 -36q41 0 99 27q12 6 22 6q18 0 28.5 -12.5t10.5 -30.5q0 -31 -29 -47q-70 -35 -145 -35q-102 0 -167.5 58.5t-65.5 152.5q0 82 48 142.5t136 90.5v125q-47 -94 -134 -143t-198 -49q-176 0 -265 97t-89 288z" />
<glyph unicode="&#x174;" horiz-adv-x="2244" d="M80 1401q0 25 18.5 40t42.5 15q18 0 32.5 -10t23.5 -29l432 -1241l430 1225q8 25 25.5 37t37.5 12q23 0 41.5 -13.5t26.5 -37.5l428 -1223l432 1241q14 39 53 39q25 0 44.5 -16.5t19.5 -40.5q0 -4 -4 -21l-475 -1343q-8 -23 -28 -35t-42 -12q-20 0 -38.5 12t-27.5 35 l-428 1212l-432 -1212q-8 -23 -26.5 -35t-40.5 -12q-20 0 -39 12t-27 35l-475 1343q-4 16 -4 23zM850 1608q0 23 19 43l188 202q29 31 66 31q35 0 65 -31l189 -202q18 -18 18 -43q0 -20 -15.5 -36t-35.5 -16q-25 0 -41 19l-180 209l-180 -209q-18 -21 -41 -21 q-20 0 -36 15.5t-16 38.5z" />
<glyph unicode="&#x175;" horiz-adv-x="1712" d="M68 952q0 25 21.5 43.5t45.5 18.5q39 0 53 -39l299 -811l310 805q8 23 26.5 35t36.5 12q20 0 37.5 -12.5t26.5 -34.5l305 -803l303 807q14 39 51 39q25 0 43.5 -16.5t18.5 -41.5q0 -4 -5 -20l-342 -893q-8 -23 -27.5 -35t-41.5 -12q-23 0 -42.5 12t-27.5 35l-303 782 l-301 -782q-8 -23 -27.5 -35t-42.5 -12t-42 12t-27 35l-344 891q-4 12 -4 20zM583 1169q0 18 13 37l192 297q16 20 31.5 31.5t36.5 11.5q23 0 38 -10t29 -33l193 -297q12 -18 12 -37q0 -23 -15.5 -38t-37.5 -15q-29 0 -47 31l-172 285l-172 -285q-18 -31 -47 -31 q-23 0 -38.5 15.5t-15.5 37.5z" />
<glyph unicode="&#x176;" horiz-adv-x="1210" d="M16 1395q0 23 16.5 40t39.5 17q27 0 45 -25l487 -630l488 630q18 25 45 25q23 0 39 -16.5t16 -40.5q0 -23 -14 -39l-512 -660v-641q0 -29 -16.5 -47t-45.5 -18t-46 18.5t-17 46.5v645l-510 656q-14 16 -15 39zM331 1608q0 23 19 43l188 202q29 31 66 31q35 0 65 -31 l189 -202q18 -18 18 -43q0 -20 -15.5 -36t-35.5 -16q-25 0 -41 19l-180 209l-180 -209q-18 -21 -41 -21q-20 0 -36 15.5t-16 38.5z" />
<glyph unicode="&#x177;" horiz-adv-x="1042" d="M35 956q0 25 21.5 42.5t45.5 17.5q39 0 54 -37l368 -827l369 825q16 37 53 37q23 0 41.5 -16.5t18.5 -39.5q0 -14 -7 -26l-579 -1272q-16 -35 -53 -35q-23 0 -40.5 14.5t-17.5 36.5q0 12 6 25l146 317l-420 914q-6 12 -6 24zM249 1169q0 18 13 37l192 297 q16 20 31.5 31.5t36.5 11.5q23 0 38 -10t29 -33l193 -297q12 -18 12 -37q0 -23 -15.5 -38t-37.5 -15q-29 0 -47 31l-172 285l-172 -285q-18 -31 -47 -31q-23 0 -38.5 15.5t-15.5 37.5z" />
<glyph unicode="&#x178;" horiz-adv-x="1210" d="M16 1395q0 23 16.5 40t39.5 17q27 0 45 -25l487 -630l488 630q18 25 45 25q23 0 39 -16.5t16 -40.5q0 -23 -14 -39l-512 -660v-641q0 -29 -16.5 -47t-45.5 -18t-46 18.5t-17 46.5v645l-510 656q-14 16 -15 39zM348 1722q0 37 24.5 60.5t61.5 23.5t62.5 -23.5t25.5 -60.5 t-25.5 -60.5t-62.5 -23.5t-61.5 24t-24.5 60zM686 1722q0 37 25.5 60.5t62.5 23.5t61.5 -23.5t24.5 -60.5t-24.5 -60.5t-61.5 -23.5t-62.5 24t-25.5 60z" />
<glyph unicode="&#x179;" horiz-adv-x="1196" d="M78 53q0 25 18 49l856 1233h-817q-25 0 -40 14.5t-15 39.5q0 27 15.5 41t39.5 14h916q29 0 45 -15.5t16 -39.5q0 -25 -16 -48l-858 -1232h835q29 0 44.5 -13.5t15.5 -40.5t-15.5 -41t-44.5 -14h-934q-29 0 -45 14.5t-16 38.5zM559 1591q0 14 12 27l211 235q29 31 62 31 q27 0 45 -17.5t18 -43.5q0 -33 -39 -64l-248 -194q-10 -9 -24 -9t-25.5 10.5t-11.5 24.5z" />
<glyph unicode="&#x17a;" horiz-adv-x="1021" d="M94 57q0 29 21 52l643 784h-611q-25 0 -39 13.5t-14 35.5q0 23 14.5 37t38.5 14h709q31 0 49.5 -16t18.5 -41q0 -27 -21 -49l-643 -785h629q26 0 40.5 -14t14.5 -37t-15.5 -37t-39.5 -14h-729q-31 0 -48.5 16.5t-17.5 40.5zM481 1151q0 12 10 27l256 329q31 41 72 41 q27 0 45 -17.5t18 -43.5q0 -35 -34 -68l-302 -291q-12 -12 -28 -12q-14 0 -25.5 10.5t-11.5 24.5z" />
<glyph unicode="&#x17b;" horiz-adv-x="1196" d="M78 53q0 25 18 49l856 1233h-817q-25 0 -40 14.5t-15 39.5q0 27 15.5 41t39.5 14h916q29 0 45 -15.5t16 -39.5q0 -25 -16 -48l-858 -1232h835q29 0 44.5 -13.5t15.5 -40.5t-15.5 -41t-44.5 -14h-934q-29 0 -45 14.5t-16 38.5zM504 1722q0 41 25.5 65.5t66.5 24.5 t66.5 -24.5t25.5 -65.5q0 -39 -25.5 -63.5t-66.5 -24.5t-66.5 24.5t-25.5 63.5z" />
<glyph unicode="&#x17c;" horiz-adv-x="1021" d="M94 57q0 29 21 52l643 784h-611q-25 0 -39 13.5t-14 35.5q0 23 14.5 37t38.5 14h709q31 0 49.5 -16t18.5 -41q0 -27 -21 -49l-643 -785h629q26 0 40.5 -14t14.5 -37t-15.5 -37t-39.5 -14h-729q-31 0 -48.5 16.5t-17.5 40.5zM426 1333q0 41 25.5 65.5t66.5 24.5 t66.5 -24.5t25.5 -65.5q0 -39 -25.5 -63.5t-66.5 -24.5t-66.5 24.5t-25.5 63.5z" />
<glyph unicode="&#x17d;" horiz-adv-x="1196" d="M78 53q0 25 18 49l856 1233h-817q-25 0 -40 14.5t-15 39.5q0 27 15.5 41t39.5 14h916q29 0 45 -15.5t16 -39.5q0 -25 -16 -48l-858 -1232h835q29 0 44.5 -13.5t15.5 -40.5t-15.5 -41t-44.5 -14h-934q-29 0 -45 14.5t-16 38.5zM323 1833q0 20 15.5 35.5t36.5 15.5 q25 0 41 -18l180 -207l180 207q18 20 41 20q20 0 35.5 -15.5t15.5 -37.5q0 -20 -18 -43l-189 -203q-29 -31 -65 -31q-35 0 -66 31l-188 203q-18 18 -19 43z" />
<glyph unicode="&#x17e;" horiz-adv-x="1021" d="M94 57q0 29 21 52l643 784h-611q-25 0 -39 13.5t-14 35.5q0 23 14.5 37t38.5 14h709q31 0 49.5 -16t18.5 -41q0 -27 -21 -49l-643 -785h629q26 0 40.5 -14t14.5 -37t-15.5 -37t-39.5 -14h-729q-31 0 -48.5 16.5t-17.5 40.5zM245 1493q0 23 16.5 38t37.5 15q31 0 49 -30 l170 -285l170 285q18 31 47 30q23 0 39 -15t16 -38q0 -18 -12 -37l-193 -297q-16 -20 -31.5 -31.5t-35.5 -11.5q-21 0 -36 11.5t-32 31.5l-192 297q-12 18 -13 37z" />
<glyph unicode="&#x192;" d="M82 -328q0 23 17.5 38.5t50.5 15.5h34q98 0 156.5 51t83.5 170l203 948h-217q-23 0 -37.5 13.5t-14.5 35.5q0 23 14.5 37t37.5 14h237l31 140q68 317 364 317h41q31 0 46.5 -14.5t15.5 -34.5q0 -23 -18.5 -39t-49.5 -16h-35q-100 0 -157.5 -51.5t-81.5 -170.5l-29 -131 h223q23 0 37.5 -14t14.5 -37t-14.5 -36t-37.5 -13h-243l-205 -956q-68 -317 -365 -318h-39q-31 0 -47 15.5t-16 35.5z" />
<glyph unicode="&#x2c6;" horiz-adv-x="614" d="M34 1169q0 18 13 37l192 297q16 20 31.5 31.5t36.5 11.5q23 0 38 -10t29 -33l193 -297q12 -18 12 -37q0 -23 -15.5 -38t-37.5 -15q-29 0 -47 31l-172 285l-172 -285q-18 -31 -47 -31q-23 0 -38.5 15.5t-15.5 37.5z" />
<glyph unicode="&#x2da;" horiz-adv-x="614" d="M104 1333q0 84 59.5 141.5t143.5 57.5t143.5 -57.5t59.5 -141.5q0 -82 -59.5 -139t-143.5 -57t-143.5 57t-59.5 139zM204 1333q0 -43 30 -73.5t73 -30.5t72.5 30.5t29.5 73.5q0 45 -28.5 76t-73.5 31t-74 -31t-29 -76z" />
<glyph unicode="&#x2dc;" horiz-adv-x="614" d="M-9 1272q0 35 21.5 79t61.5 74.5t91 30.5q37 0 73 -18.5t89 -55.5q45 -31 72 -45t49 -14q37 0 57.5 20.5t36.5 55.5q12 23 20.5 33t20.5 10q16 0 27.5 -12.5t11.5 -30.5q0 -35 -21.5 -79t-61.5 -75t-91 -31q-37 0 -75 19.5t-87 54.5q-51 33 -74.5 45.5t-46.5 12.5 q-37 0 -57 -19.5t-37 -54.5q-10 -23 -19 -33t-22 -10q-16 0 -27.5 12t-11.5 31z" />
<glyph unicode="&#x3a9;" horiz-adv-x="1574" d="M119 55q0 20 18.5 38t40.5 18h340q-170 240 -253 377t-114.5 233t-31.5 199q0 162 83 284.5t234.5 189t351.5 66.5q201 0 351.5 -66.5t233.5 -189.5t83 -284q0 -106 -35 -210t-118.5 -242t-245.5 -357h342q22 0 39.5 -16.5t17.5 -39.5t-17.5 -39t-39.5 -16h-426 q-29 0 -45.5 14.5t-16.5 38.5q0 25 19 49q225 336 310 511t85 307q0 199 -144.5 313.5t-392.5 114.5q-250 0 -394 -115t-144 -313q0 -135 86 -311.5t311 -506.5q16 -23 17 -49q0 -23 -16.5 -38t-43.5 -15h-426q-25 0 -42 16.5t-17 38.5z" />
<glyph unicode="&#x3c0;" horiz-adv-x="1167" d="M4 942q0 23 14.5 37t38.5 14h985q27 0 41.5 -14t14.5 -37t-14.5 -36t-41.5 -13h-208v-551q0 -125 50 -180.5t154 -63.5l56 -4q32 -2 44.5 -15t12.5 -38q0 -57 -80 -51l-55 4q-158 10 -232.5 95t-74.5 259v545h-363q-8 -524 -131 -862q-8 -25 -27.5 -37t-42.5 -12 q-25 0 -42 15t-17 42q0 16 6 35q59 166 92 382t37 437h-164q-25 0 -39 13.5t-14 35.5z" />
<glyph unicode="&#x2000;" horiz-adv-x="977" />
<glyph unicode="&#x2001;" horiz-adv-x="1954" />
<glyph unicode="&#x2002;" horiz-adv-x="977" />
<glyph unicode="&#x2003;" horiz-adv-x="1954" />
<glyph unicode="&#x2004;" horiz-adv-x="651" />
<glyph unicode="&#x2005;" horiz-adv-x="488" />
<glyph unicode="&#x2006;" horiz-adv-x="325" />
<glyph unicode="&#x2007;" horiz-adv-x="325" />
<glyph unicode="&#x2008;" horiz-adv-x="244" />
<glyph unicode="&#x2009;" horiz-adv-x="390" />
<glyph unicode="&#x200a;" horiz-adv-x="108" />
<glyph unicode="&#x2010;" horiz-adv-x="862" d="M141 543q0 25 15.5 40t42.5 15h465q27 0 42 -15.5t15 -39.5q0 -23 -15.5 -37t-41.5 -14h-465q-27 0 -42.5 14t-15.5 37z" />
<glyph unicode="&#x2011;" horiz-adv-x="862" d="M141 543q0 25 15.5 40t42.5 15h465q27 0 42 -15.5t15 -39.5q0 -23 -15.5 -37t-41.5 -14h-465q-27 0 -42.5 14t-15.5 37z" />
<glyph unicode="&#x2012;" horiz-adv-x="862" d="M141 543q0 25 15.5 40t42.5 15h465q27 0 42 -15.5t15 -39.5q0 -23 -15.5 -37t-41.5 -14h-465q-27 0 -42.5 14t-15.5 37z" />
<glyph unicode="&#x2013;" horiz-adv-x="1024" d="M0 543q0 18 14.5 31.5t36.5 13.5h922q23 0 37 -13.5t14 -31.5t-14.5 -30.5t-36.5 -12.5h-922q-22 0 -36.5 12t-14.5 31z" />
<glyph unicode="&#x2014;" horiz-adv-x="2048" d="M0 543q0 18 14.5 31.5t36.5 13.5h1946q23 0 37 -13.5t14 -31.5t-14.5 -30.5t-36.5 -12.5h-1946q-22 0 -36.5 12t-14.5 31z" />
<glyph unicode="&#x2018;" horiz-adv-x="450" d="M131 1192q0 143 90 244q18 20 41 20q18 0 32.5 -13t14.5 -32q0 -14 -16 -35q-51 -53 -60 -131q39 -4 64 -29.5t25 -66.5q0 -43 -27 -70.5t-66 -27.5q-45 0 -71.5 34.5t-26.5 106.5z" />
<glyph unicode="&#x2019;" horiz-adv-x="450" d="M131 1356q0 43 25.5 70.5t64.5 27.5q45 0 73 -34t28 -105q0 -145 -93 -244q-18 -20 -41 -20q-18 0 -32.5 12t-14.5 31q0 14 17 34q51 57 59 132q-39 4 -62.5 29.5t-23.5 66.5z" />
<glyph unicode="&#x201a;" horiz-adv-x="450" d="M131 88q0 43 25.5 70.5t64.5 27.5q45 0 73 -34.5t28 -104.5q0 -145 -93 -244q-18 -20 -41 -20q-18 0 -32.5 12t-14.5 31q0 14 17 35q51 57 59 131q-39 4 -62.5 29.5t-23.5 66.5z" />
<glyph unicode="&#x201c;" horiz-adv-x="765" d="M131 1192q0 143 90 244q18 20 41 20q18 0 32.5 -13t14.5 -32q0 -14 -16 -35q-51 -53 -60 -131q39 -4 64 -29.5t25 -66.5q0 -43 -27 -70.5t-66 -27.5q-45 0 -71.5 34.5t-26.5 106.5zM446 1192q0 143 90 244q18 20 41 20q18 0 32.5 -13t14.5 -32q0 -14 -16 -35 q-51 -53 -60 -131q39 -4 64 -29.5t25 -66.5q0 -43 -27 -70.5t-66 -27.5q-45 0 -71.5 34.5t-26.5 106.5z" />
<glyph unicode="&#x201d;" horiz-adv-x="765" d="M131 1356q0 43 25.5 70.5t64.5 27.5q45 0 73 -34t28 -105q0 -145 -93 -244q-18 -20 -41 -20q-18 0 -32.5 12t-14.5 31q0 14 17 34q51 57 59 132q-39 4 -62.5 29.5t-23.5 66.5zM446 1356q0 43 25.5 70.5t64.5 27.5q45 0 73 -34t28 -105q0 -145 -93 -244q-18 -20 -41 -20 q-18 0 -32.5 12t-14.5 31q0 14 17 34q51 57 59 132q-39 4 -62.5 29.5t-23.5 66.5z" />
<glyph unicode="&#x201e;" horiz-adv-x="765" d="M131 88q0 43 25.5 70.5t64.5 27.5q45 0 73 -34.5t28 -104.5q0 -145 -93 -244q-18 -20 -41 -20q-18 0 -32.5 12t-14.5 31q0 14 17 35q51 57 59 131q-39 4 -62.5 29.5t-23.5 66.5zM446 88q0 43 25.5 70.5t64.5 27.5q45 0 73 -34.5t28 -104.5q0 -145 -93 -244 q-18 -20 -41 -20q-18 0 -32.5 12t-14.5 31q0 14 17 35q51 57 59 131q-39 4 -62.5 29.5t-23.5 66.5z" />
<glyph unicode="&#x2026;" horiz-adv-x="1351" d="M131 88q0 43 27.5 70.5t68.5 27.5q39 0 67 -27.5t28 -70.5t-28 -70.5t-67 -27.5q-41 0 -68.5 27.5t-27.5 70.5zM582 88q0 43 27.5 70.5t68.5 27.5q39 0 66.5 -27.5t27.5 -70.5t-27.5 -70.5t-66.5 -27.5q-41 0 -68.5 27.5t-27.5 70.5zM1032 88q0 43 27.5 70.5t68.5 27.5 q39 0 67 -27.5t28 -70.5t-28 -70.5t-67 -27.5q-41 0 -68.5 27.5t-27.5 70.5z" />
<glyph unicode="&#x202f;" horiz-adv-x="390" />
<glyph unicode="&#x2030;" horiz-adv-x="2701" d="M123 1018q0 219 90 329.5t250 110.5q162 0 252 -110.5t90 -329.5t-90 -331t-252 -112q-160 0 -250 112t-90 331zM244 1018q0 -178 54 -261t165 -83q112 0 166.5 83t54.5 261t-54.5 261t-166.5 83q-111 0 -165 -84t-54 -260zM487 23q0 23 11 36l798 1383q23 37 56 37 q20 0 36.5 -16.5t16.5 -41.5q0 -20 -10 -37l-799 -1382q-20 -37 -55 -37q-20 0 -37 16.5t-17 41.5zM1087 428q0 221 89.5 330.5t250.5 109.5q162 0 251 -109.5t89 -330.5t-89 -331.5t-251 -110.5q-161 0 -250.5 110.5t-89.5 331.5zM1208 428q0 -178 53.5 -261t165.5 -83 q111 0 165.5 83t54.5 261q0 176 -54.5 259t-165.5 83q-113 0 -166 -82t-53 -260zM1896 428q0 221 89.5 330.5t250.5 109.5q162 0 252 -110.5t90 -329.5q0 -221 -90 -331.5t-252 -110.5q-161 0 -250.5 110.5t-89.5 331.5zM2017 428q0 -178 54.5 -261t164.5 -83 q113 0 167.5 83t54.5 261q0 176 -54.5 259t-167.5 83q-111 0 -165 -83t-54 -259z" />
<glyph unicode="&#x2039;" horiz-adv-x="505" d="M115 543q0 20 12 39l168 286q16 31 53 31q18 0 32.5 -12.5t14.5 -30.5q0 -10 -6 -27l-143 -286l143 -287q6 -14 6 -27q0 -18 -14 -30.5t-33 -12.5q-35 0 -53 33l-168 285q-12 23 -12 39z" />
<glyph unicode="&#x203a;" horiz-adv-x="505" d="M111 231q0 12 6 25l145 287l-145 286q-6 12 -6 25q0 18 15 31.5t34 13.5q35 0 51 -31l168 -286q10 -14 10 -39q0 -20 -10 -39l-168 -285q-18 -33 -51 -33q-20 0 -34.5 12.5t-14.5 32.5z" />
<glyph unicode="&#x2044;" horiz-adv-x="339" d="M-289 23q0 23 10 36l799 1383q23 37 55 37q20 0 37 -16.5t17 -41.5q0 -20 -11 -37l-798 -1382q-23 -37 -56 -37q-20 0 -36.5 16.5t-16.5 41.5z" />
<glyph unicode="&#x205f;" horiz-adv-x="488" />
<glyph unicode="&#x20ac;" d="M20 569q0 23 14.5 37.5t37.5 14.5h174q-4 66 -4 102q0 37 4 102h-174q-23 0 -37.5 14.5t-14.5 37.5t14.5 37t37.5 14h184q37 256 171 394t345 138q106 0 219 -44t193 -130q27 -27 26 -59q0 -23 -12 -39.5t-29 -16.5q-27 0 -47 21q-88 86 -171 122t-179 36 q-162 0 -260 -106.5t-129 -315.5h332q23 0 37 -14.5t14 -36.5q0 -23 -14.5 -37.5t-36.5 -14.5h-342q-4 -66 -4 -102q0 -70 2 -102h344q23 0 37 -14.5t14 -37.5t-14.5 -37t-36.5 -14h-334q61 -424 391 -424q84 0 162 38t188 120q27 20 47 20q19 0 30 -16t11 -39 q0 -39 -26 -59q-90 -82 -201 -128t-211 -46q-213 0 -346 138t-170 396h-184q-23 0 -37.5 14.5t-14.5 36.5z" />
<glyph unicode="&#x2122;" horiz-adv-x="1857" d="M0 1393q0 51 57 51h621q27 0 42 -13.5t15 -37.5q0 -25 -15 -38.5t-42 -13.5h-250v-710q0 -27 -17.5 -43.5t-43.5 -16.5q-25 0 -43.5 16.5t-18.5 43.5v710h-248q-57 0 -57 52zM858 631v760q0 27 16.5 43t43.5 16q33 0 55 -43l301 -573l297 573q23 43 57 43q25 0 40 -16.5 t15 -42.5v-760q0 -29 -14 -44.5t-39 -15.5t-39 15.5t-14 44.5v586l-248 -474q-18 -41 -57 -41q-37 0 -55 41l-248 463v-575q0 -29 -16.5 -44.5t-41.5 -15.5t-39 15.5t-14 44.5z" />
<glyph unicode="&#x2202;" d="M125 526q0 178 65.5 304t177 189.5t244.5 63.5q233 0 351 -186q-43 303 -186.5 431t-336.5 128h-45q-23 0 -40 14.5t-17 32.5q0 20 13.5 34.5t35.5 18.5q53 4 78 5q164 0 307 -83t237.5 -292t94.5 -559q0 -334 -133 -496t-350 -162q-141 0 -254 65.5t-177.5 190.5 t-64.5 301zM250 522q0 -139 48 -240.5t131 -153.5t187 -52q105 0 188 56t129 166t46 263q0 135 -49 228.5t-131 140.5t-183 47q-104 0 -187 -52.5t-131 -154.5t-48 -248z" />
<glyph unicode="&#x2206;" horiz-adv-x="1574" d="M119 55q0 20 18.5 38t40.5 18h340q-170 240 -253 377t-114.5 233t-31.5 199q0 162 83 284.5t234.5 189t351.5 66.5q201 0 351.5 -66.5t233.5 -189.5t83 -284q0 -106 -35 -210t-118.5 -242t-245.5 -357h342q22 0 39.5 -16.5t17.5 -39.5t-17.5 -39t-39.5 -16h-426 q-29 0 -45.5 14.5t-16.5 38.5q0 25 19 49q225 336 310 511t85 307q0 199 -144.5 313.5t-392.5 114.5q-250 0 -394 -115t-144 -313q0 -135 86 -311.5t311 -506.5q16 -23 17 -49q0 -23 -16.5 -38t-43.5 -15h-426q-25 0 -42 16.5t-17 38.5z" />
<glyph unicode="&#x220f;" d="M115 -322v1708q0 25 16 41.5t41 16.5h885q25 0 41 -16.5t16 -41.5v-1708q0 -25 -17.5 -41t-43.5 -16q-25 0 -41.5 16.5t-16.5 40.5v1653h-762v-1653q0 -25 -17 -41t-44 -16q-25 0 -41 16.5t-16 40.5z" />
<glyph unicode="&#x2211;" horiz-adv-x="1177" d="M72 -313q0 25 16 47l555 805l-555 802q-16 23 -16 48t16 40t45 15h914q27 0 42 -15.5t15 -42.5t-15.5 -41t-41.5 -14h-809l501 -725q29 -41 29 -67q0 -27 -29 -68l-501 -727h809q26 0 41.5 -14.5t15.5 -40.5q0 -27 -15.5 -42.5t-41.5 -15.5h-914q-29 0 -45 15.5t-16 40.5 z" />
<glyph unicode="&#x221a;" d="M12 584q0 20 16.5 34.5t39.5 14.5h178q16 0 29.5 -10.5t17.5 -24.5l278 -809l471 1643q6 18 20.5 28t31.5 10q57 0 57 -43q0 -16 -6 -34l-504 -1717q-10 -39 -26.5 -53t-43.5 -14q-46 -1 -69 65l-299 854h-135q-23 0 -39.5 16.5t-16.5 39.5z" />
<glyph unicode="&#x221e;" d="M96 582q0 115 70 191.5t188 76.5q74 0 144.5 -41t115.5 -123q45 82 116 123t144 41q119 0 189 -77t70 -191q0 -115 -70 -192t-189 -77q-74 0 -144.5 41t-115.5 123q-45 -82 -115.5 -123t-144.5 -41q-119 0 -188.5 77t-69.5 192zM197 582q0 -76 43 -127.5t116 -51.5 q62 0 116 39t99 142q-45 102 -99 139t-116 37q-74 0 -116.5 -51.5t-42.5 -126.5zM657 584q45 -102 99.5 -141.5t115.5 -39.5q74 0 117 51.5t43 127.5t-43 127t-117 51q-61 0 -115.5 -37t-99.5 -139z" />
<glyph unicode="&#x222b;" d="M264 -324q0 23 16.5 38.5t38.5 15.5h35q98 0 147.5 50t49.5 167v1188q0 156 84 237.5t237 81.5l41 -2q20 0 35 -15.5t15 -37.5q0 -25 -16.5 -40.5t-39.5 -15.5h-35q-100 0 -148 -49t-48 -168v-1187q0 -156 -83 -237t-239 -81h-39q-20 0 -35.5 16.5t-15.5 38.5z" />
<glyph unicode="&#x2248;" d="M143 336q0 16 8 30q80 145 236 146q66 0 125 -23.5t153 -72.5q66 -37 110 -55.5t85 -18.5q100 0 153 90q20 31 50 31q12 0 24 -6q23 -12 23 -41q0 -14 -8 -29q-84 -145 -236 -146q-66 0 -125 24t-154 73q-66 37 -109.5 55t-84.5 18q-100 0 -154 -90q-18 -31 -47 -30 q-14 0 -26 6q-23 10 -23 39zM143 746q0 16 8 30q80 145 236 146q66 0 125 -23.5t153 -72.5q66 -37 110 -55.5t85 -18.5q100 0 153 90q20 31 50 31q12 0 24 -6q23 -12 23 -41q0 -14 -8 -29q-84 -145 -236 -146q-66 0 -125 24t-154 73q-66 37 -109.5 55t-84.5 18 q-100 0 -154 -90q-18 -31 -47 -30q-14 0 -26 6q-23 10 -23 39z" />
<glyph unicode="&#x2260;" d="M127 379q0 20 16.5 34.5t38.5 14.5h312l127 305h-439q-23 0 -39 16.5t-16 38.5q0 20 16.5 35t38.5 15h482l94 227q16 35 53 35q20 0 33.5 -15.5t13.5 -35.5q0 -6 -4 -23l-78 -188h295q23 0 39 -16.5t16 -39.5q0 -20 -16 -34.5t-39 -14.5h-340l-127 -305h467 q23 0 39 -16.5t16 -38.5q0 -20 -16 -34.5t-39 -14.5h-510l-94 -226q-12 -35 -49 -35q-16 0 -25 5q-12 6 -19 18t-7 27q0 12 6 24l78 187h-269q-23 0 -39 16t-16 39z" />
<glyph unicode="&#x2264;" d="M115 664q0 23 13 43t34 28l858 318q25 8 39 8q25 0 40 -13.5t15 -33.5q0 -33 -29 -45l-827 -307l827 -304q29 -12 29 -45q0 -20 -15.5 -33.5t-39.5 -13.5q-10 0 -39 8l-858 314q-47 19 -47 76zM127 55q0 20 16.5 34.5t38.5 14.5h889q23 0 39 -16t16 -39q0 -20 -16 -34.5 t-39 -14.5h-889q-23 0 -39 16.5t-16 38.5z" />
<glyph unicode="&#x2265;" d="M115 313q0 33 28 45l828 304l-828 307q-29 12 -28 45q0 20 15 33.5t40 13.5q14 0 39 -8l858 -318q20 -8 33.5 -28.5t13.5 -42.5q0 -57 -47 -76l-858 -314q-29 -8 -39 -8q-25 0 -40 13.5t-15 33.5zM127 55q0 20 16.5 34.5t38.5 14.5h889q23 0 39 -16t16 -39 q0 -20 -16 -34.5t-39 -14.5h-889q-23 0 -39 16.5t-16 38.5z" />
<glyph unicode="&#x25fc;" horiz-adv-x="1013" d="M0 0v1014h1014v-1014h-1014z" />
</font>
</defs>
</svg>
