<?xml version="1.0" standalone="no"?>
<!DOCTYPE svg PUBLIC "-//W3C//DTD SVG 1.1//EN" "http://www.w3.org/Graphics/SVG/1.1/DTD/svg11.dtd" >
<svg xmlns="http://www.w3.org/2000/svg" xmlns:xlink="http://www.w3.org/1999/xlink" version="1.1">
<metadata></metadata>
<defs>
<font id="nunitoextrabold" horiz-adv-x="1228" >
<font-face units-per-em="2048" ascent="1638" descent="-410" />
<missing-glyph horiz-adv-x="571" />
<glyph horiz-adv-x="0" />
<glyph unicode="&#xd;" horiz-adv-x="571" />
<glyph horiz-adv-x="0" />
<glyph horiz-adv-x="0" />
<glyph unicode=" "  horiz-adv-x="571" />
<glyph unicode="&#x09;" horiz-adv-x="571" />
<glyph unicode="&#xa0;" horiz-adv-x="571" />
<glyph unicode="!" horiz-adv-x="532" d="M80 1288q0 76 53 121t133 45t133.5 -45t53.5 -123q0 -18 -2 -29l-93 -714q-4 -47 -29.5 -72t-62.5 -25t-62.5 25t-31.5 72l-90 717q-2 10 -2 28zM92 164q0 76 49 126t125 50t125 -50t49 -126t-49 -126t-125 -50t-125 50t-49 126z" />
<glyph unicode="&#x22;" horiz-adv-x="960" d="M98 1294q0 76 44 118t120 42q74 0 117 -41t43 -115q0 -33 -4 -51l-53 -329q-8 -49 -34 -72t-69 -23t-69.5 24.5t-34.5 70.5l-56 329q-4 33 -4 47zM536 1294q0 76 44 118t120 42q74 0 117 -41t43 -115q0 -33 -4 -51l-53 -329q-8 -49 -34 -72t-69 -23t-69.5 24.5 t-34.5 70.5l-56 329q-4 33 -4 47z" />
<glyph unicode="#" d="M72 436q0 39 28.5 66.5t69.5 27.5h96l78 400h-133q-41 0 -69.5 28.5t-28.5 69.5q0 39 28.5 66.5t69.5 27.5h172l51 264q6 33 30.5 53.5t61.5 20.5q45 0 74 -28.5t29 -71.5q0 -16 -2 -25l-43 -213h221l51 264q6 33 31.5 53.5t62.5 20.5q45 0 75 -28.5t30 -73.5 q0 -14 -2 -23l-41 -213h47q41 0 69.5 -28.5t28.5 -69.5q0 -39 -28.5 -66.5t-69.5 -27.5h-86l-78 -400h123q41 0 69.5 -28.5t28.5 -69.5q0 -39 -28.5 -66.5t-69.5 -27.5h-162l-53 -275q-6 -33 -32 -53t-62 -20q-45 0 -74 27.5t-29 70.5q0 18 2 27l43 223h-221l-55 -275 q-6 -33 -32 -53t-58 -20q-45 0 -74 28.5t-29 73.5q0 14 2 23l43 223h-57q-41 0 -69.5 28.5t-28.5 69.5zM467 530h223l78 400h-221z" />
<glyph unicode="$" d="M49 240q0 51 32 90t73 39q39 0 96 -33q94 -55 179 -81t177 -26q123 0 188.5 46.5t65.5 130.5q0 51 -38 83.5t-93 51t-160 47.5q-152 39 -250 78t-168.5 122.5t-70.5 225.5q0 166 117.5 284.5t308.5 151.5v117q0 55 34.5 89t88.5 34q55 0 89 -34t34 -89v-113 q184 -25 346 -139q31 -20 44 -47t13 -64q0 -51 -31.5 -90t-72.5 -39q-23 0 -42.5 6t-54.5 27q-84 53 -150.5 79.5t-162.5 26.5q-111 0 -177.5 -49t-66.5 -131q0 -57 39 -93t98.5 -56.5t165.5 -46.5q150 -37 245 -75t164 -121t69 -222q0 -166 -114 -279.5t-306 -146.5v-117 q0 -55 -34 -89t-89 -34q-53 0 -88 34t-35 89v111q-113 10 -218.5 47t-184.5 94q-33 20 -46.5 46t-13.5 65z" />
<glyph unicode="%" horiz-adv-x="1953" d="M74 1028q0 211 100 324.5t275 113.5q176 0 275 -113.5t99 -326.5q0 -217 -99 -329.5t-275 -112.5q-177 0 -276 113.5t-99 330.5zM330 1026q0 -133 28.5 -191.5t90.5 -58.5q63 0 91.5 57.5t28.5 192.5q0 129 -29.5 187.5t-90.5 58.5t-90 -57.5t-29 -188.5zM492 72 q0 39 24 82l725 1251q43 78 115 78q45 0 76.5 -32t31.5 -79q0 -39 -24 -82l-725 -1251q-47 -78 -117 -78q-43 0 -74.5 32t-31.5 79zM1130 430q0 213 99.5 325.5t275.5 112.5q174 0 274.5 -113.5t100.5 -326.5q0 -215 -99.5 -328.5t-275.5 -113.5t-275.5 113.5t-99.5 330.5z M1384 428q0 -135 29 -192.5t92 -57.5q64 0 92.5 57.5t28.5 192.5q0 131 -29.5 189.5t-91.5 58.5q-61 0 -91 -58.5t-30 -189.5z" />
<glyph unicode="&#x26;" horiz-adv-x="1415" d="M63 387q0 131 70 230.5t219 183.5q-74 78 -108.5 151.5t-34.5 151.5q0 104 53 185t148.5 125t218.5 44q174 0 276.5 -89t102.5 -239q0 -111 -61.5 -198.5t-190.5 -163.5l250 -233q55 115 69 247q6 59 44 91t87 32q55 0 92 -37t29 -100q-20 -219 -135 -408l178 -163 q43 -42 43 -91t-39 -85.5t-90 -36.5t-90 36l-160 148q-98 -88 -217 -136t-244 -48q-147 0 -263.5 51t-181.5 142t-65 210zM365 408q0 -88 60 -138.5t163 -50.5q145 0 272 111l-342 317q-154 -94 -153 -239zM485 1106q0 -43 23.5 -84t83.5 -100q92 49 131 96t39 102 q0 59 -36 96t-93 37q-66 0 -107 -39.5t-41 -107.5z" />
<glyph unicode="'" horiz-adv-x="522" d="M98 1294q0 76 44 118t120 42q74 0 117 -41t43 -115q0 -33 -4 -51l-53 -329q-8 -49 -34 -72t-69 -23t-69.5 24.5t-34.5 70.5l-56 329q-4 33 -4 47z" />
<glyph unicode="(" horiz-adv-x="768" d="M203 539q0 455 227 819q29 47 69 70.5t79 23.5q41 0 68.5 -25.5t27.5 -68.5q0 -27 -12 -62q-74 -186 -108 -370.5t-34 -386.5q0 -203 34 -385.5t108 -368.5q12 -35 12 -61q0 -43 -28 -69t-68 -26q-39 0 -79 23.5t-69 71.5q-227 364 -227 815z" />
<glyph unicode=")" horiz-adv-x="768" d="M94 -276q0 27 12 61q74 186 108 368.5t34 385.5t-34 387t-108 370q-12 35 -12 62q0 43 28 68.5t68 25.5q39 0 79 -23.5t69 -70.5q225 -360 225 -819q0 -455 -225 -815q-29 -48 -69 -71.5t-79 -23.5q-41 0 -68.5 26t-27.5 69z" />
<glyph unicode="*" horiz-adv-x="929" d="M41 1071q0 43 25.5 74t70.5 29l170 -11l-94 142q-16 23 -16 49q0 41 35.5 69.5t78.5 28.5q53 0 78 -47l76 -154l76 154q27 49 80 49q41 0 76.5 -29.5t35.5 -70.5q0 -23 -16 -49l-94 -142l170 11q45 2 70.5 -29t25.5 -72q0 -43 -25.5 -73.5t-70.5 -28.5l-170 10l94 -141 q16 -27 16 -49q0 -41 -37 -72t-80 -31q-53 0 -75 49l-76 154l-76 -154q-23 -49 -78 -49q-43 0 -78.5 31t-35.5 72q0 23 16 49l94 141l-170 -10q-45 -2 -70.5 28.5t-25.5 71.5z" />
<glyph unicode="+" d="M115 588q0 45 30.5 74.5t75.5 29.5h287v289q0 45 30.5 75.5t75.5 30.5t76 -30.5t31 -75.5v-289h287q45 0 75.5 -29.5t30.5 -74.5t-30.5 -76t-75.5 -31h-287v-288q0 -45 -31 -75t-76 -30t-75.5 29.5t-30.5 75.5v288h-287q-45 0 -75.5 31t-30.5 76z" />
<glyph unicode="," horiz-adv-x="532" d="M92 164q0 76 48 126t120 50q82 0 131 -58.5t49 -168.5q0 -213 -153 -373q-31 -31 -66 -31t-60.5 23.5t-25.5 56.5q0 31 23 53q68 70 90 156q-70 6 -113 51t-43 115z" />
<glyph unicode="-" horiz-adv-x="901" d="M104 549q0 121 146 121h401q145 0 146 -121q0 -121 -146 -121h-401q-146 0 -146 121z" />
<glyph unicode="." horiz-adv-x="532" d="M92 164q0 76 49 126t125 50t125 -50t49 -126t-49 -126t-125 -50t-125 50t-49 126z" />
<glyph unicode="/" horiz-adv-x="677" d="M-18 -41q0 20 6 43l469 1475q14 43 46 64.5t68 21.5q49 0 86 -32t37 -81q0 -20 -6 -43l-471 -1475q-12 -43 -44 -64.5t-71 -21.5q-47 0 -83.5 32t-36.5 81z" />
<glyph unicode="0" d="M76 723q0 358 138 548.5t400 190.5t400.5 -190.5t138.5 -548.5q0 -360 -138 -550.5t-401 -190.5q-262 0 -400 190t-138 551zM387 723q0 -260 54.5 -379t172.5 -119q119 0 173.5 119t54.5 379q0 262 -54.5 379t-173.5 117t-173 -118t-54 -378z" />
<glyph unicode="1" d="M162 1106q0 72 63 108l324 195q72 43 143 43q68 0 111 -42t43 -114v-1040h190q150 0 150 -127q0 -129 -150 -129h-700q-152 0 -152 129q0 127 152 127h190v838l-180 -109q-31 -18 -61 -18q-51 0 -87 43t-36 96z" />
<glyph unicode="2" horiz-adv-x="1230" d="M88 1204q0 39 13.5 64.5t43.5 46.5q92 68 212 107.5t241 39.5q145 0 255 -49t169 -140t59 -210q0 -125 -52 -231.5t-175 -237.5l-322 -338h476q151 0 151 -127q0 -129 -151 -129h-762q-63 0 -101.5 38t-38.5 95q0 74 60 135l450 477q152 160 152 295q0 84 -47 128 t-137 44q-78 0 -143.5 -26.5t-151.5 -77.5q-35 -20 -53.5 -28.5t-42.5 -8.5q-43 0 -74 40t-31 93z" />
<glyph unicode="3" d="M66 242q0 53 30.5 91t73.5 38q25 0 45.5 -7.5t50.5 -25.5q90 -51 155.5 -78t153.5 -27q125 0 182.5 46.5t57.5 144.5q0 96 -59.5 139t-190.5 43h-121q-53 0 -83.5 37t-30.5 88q0 49 30.5 86t83.5 37h86q125 0 185.5 43t60.5 133q0 86 -51 134t-143 48q-76 0 -141.5 -26.5 t-151.5 -77.5q-31 -18 -51.5 -25.5t-44.5 -7.5q-43 0 -74 38t-31 91q0 37 13.5 62.5t43.5 48.5q86 70 206 108.5t245 38.5q145 0 256 -48t170 -136t59 -205t-60 -204t-167 -126q127 -36 195.5 -127.5t68.5 -222.5q0 -125 -64.5 -217t-185 -142t-280.5 -50q-133 0 -255 38.5 t-210 108.5q-31 23 -44 49.5t-13 61.5z" />
<glyph unicode="4" d="M43 397q0 57 39 115l610 872q25 35 62 52.5t77 17.5q63 0 110.5 -42t47.5 -116v-788h76q149 0 149 -121q0 -123 -149 -123h-76v-117q0 -78 -43 -118.5t-112 -40.5q-70 0 -113 41t-43 118v117h-498q-63 0 -100 38t-37 95zM365 508h313v450z" />
<glyph unicode="5" d="M109 242q0 53 29.5 91t72.5 38q25 0 45 -7.5t53 -25.5q82 -49 149.5 -77t147.5 -28q125 0 189.5 57.5t64.5 170.5q0 106 -66.5 167.5t-179.5 61.5q-70 0 -127 -17.5t-125 -58.5q-43 -25 -86 -24q-49 0 -82.5 29.5t-33.5 78.5v596q0 72 39 111t110 39h660q152 0 151 -121 q0 -123 -151 -123h-498v-321q98 55 231 55q134 0 238 -58.5t161.5 -163t57.5 -241.5q0 -143 -67.5 -254t-189.5 -172t-281 -61q-127 0 -248 38.5t-209 108.5q-31 23 -43 48.5t-12 62.5z" />
<glyph unicode="6" d="M76 700q0 231 71.5 404.5t205.5 265.5t313 92q117 0 235.5 -39t202.5 -108q29 -23 42 -48.5t13 -62.5q0 -53 -29.5 -91t-72.5 -38q-27 0 -46.5 7.5t-52.5 25.5q-82 49 -146 76.5t-132 27.5q-127 0 -202 -116.5t-85 -327.5q47 78 133 124t193 46q127 0 226 -59.5 t155.5 -166t56.5 -241.5q0 -141 -63.5 -253t-176 -174t-253.5 -62q-281 0 -434.5 186t-153.5 532zM430 461q0 -102 59.5 -167t155.5 -65t154.5 63.5t58.5 168.5q0 102 -58.5 165.5t-154.5 63.5t-155.5 -63.5t-59.5 -165.5z" />
<glyph unicode="7" d="M68 1315q0 129 149 129h811q64 0 98.5 -37t34.5 -94q0 -59 -33 -117l-639 -1130q-23 -43 -58.5 -63.5t-74.5 -20.5q-59 0 -106 42t-47 103q0 43 22 82l559 979h-567q-150 0 -149 127z" />
<glyph unicode="8" d="M59 393q0 135 68 225.5t195 124.5q-106 41 -166 127t-60 201q0 180 139.5 285.5t378.5 105.5q242 0 380.5 -104.5t138.5 -286.5q0 -117 -59.5 -205t-164.5 -123q125 -36 192.5 -127.5t67.5 -222.5q0 -193 -147.5 -301t-407.5 -108t-407.5 108.5t-147.5 300.5zM356 418 q0 -190 258 -191q258 1 258 191t-258 190t-258 -190zM395 1036q0 -184 219 -184t220 184q0 182 -220 183q-219 -1 -219 -183z" />
<glyph unicode="9" d="M70 240q0 53 29.5 91t72.5 38q27 0 46.5 -7.5t51.5 -25.5q82 -49 146.5 -77t132.5 -28q127 0 201.5 117t85.5 328q-47 -78 -133.5 -124t-192.5 -46q-127 0 -226.5 59.5t-155.5 166t-56 241.5q0 141 63.5 252.5t176 174t253.5 62.5q281 0 434.5 -186t153.5 -533 q0 -231 -71.5 -404t-206 -265t-312.5 -92q-117 0 -235.5 38.5t-202.5 108.5q-29 23 -42 48.5t-13 62.5zM371 983q0 -102 58 -165.5t155 -63.5q96 0 155.5 63.5t59.5 165.5t-59.5 166.5t-155.5 64.5t-154.5 -63.5t-58.5 -167.5z" />
<glyph unicode=":" horiz-adv-x="532" d="M92 164q0 76 49 126t125 50t125 -50t49 -126t-49 -126t-125 -50t-125 50t-49 126zM92 850q0 76 49 126t125 50t125 -50t49 -126t-49 -126t-125 -50t-125 50t-49 126z" />
<glyph unicode=";" horiz-adv-x="532" d="M92 164q0 76 48 126t120 50q82 0 131 -58.5t49 -168.5q0 -213 -153 -373q-31 -31 -66 -31t-60.5 23.5t-25.5 56.5q0 31 23 53q68 70 90 156q-70 6 -113 51t-43 115zM92 850q0 76 49 126t125 50t125 -50t49 -126t-49 -126t-125 -50t-125 50t-49 126z" />
<glyph unicode="&#x3c;" d="M115 588q0 53 28.5 96t79.5 64l723 294q31 12 60 13q47 0 77.5 -31t30.5 -80q0 -61 -59 -88l-670 -268l670 -269q28 -12 43.5 -35.5t15.5 -52.5q0 -49 -31.5 -80.5t-78.5 -31.5q-27 0 -58 12l-723 295q-51 23 -79.5 64.5t-28.5 97.5z" />
<glyph unicode="=" d="M127 383q0 45 30.5 74.5t75.5 29.5h787q45 0 75.5 -29.5t30.5 -74.5t-30.5 -76t-75.5 -31h-787q-45 0 -75.5 31t-30.5 76zM127 793q0 45 30.5 74.5t75.5 29.5h787q45 0 75.5 -29.5t30.5 -74.5t-30.5 -76t-75.5 -31h-787q-45 0 -75.5 31t-30.5 76z" />
<glyph unicode="&#x3e;" d="M115 231q0 29 15 52.5t44 35.5l670 269l-670 268q-59 27 -59 88q0 49 30.5 80t77.5 31q29 0 60 -13l723 -294q51 -21 79.5 -64t28.5 -96q0 -55 -28.5 -97t-79.5 -65l-723 -295q-31 -12 -58 -12q-47 0 -78.5 31.5t-31.5 80.5z" />
<glyph unicode="?" horiz-adv-x="958" d="M-4 1200q0 37 13.5 62.5t41.5 48.5q90 72 208 111.5t237 39.5q127 0 228 -45t157.5 -124t56.5 -177q0 -76 -29.5 -138.5t-70.5 -108.5t-111 -113q-78 -72 -117 -120t-49 -108q-8 -39 -33.5 -60.5t-62.5 -21.5q-45 0 -70.5 31t-25.5 82q0 104 37.5 174t111.5 154 q55 63 81 105t26 95q0 57 -42 91t-114 34q-66 0 -122 -26.5t-150 -81.5q-59 -33 -99 -33q-43 0 -72.5 38t-29.5 91zM295 164q0 76 49 126t125 50q74 0 123 -50t49 -126t-49 -126t-123 -50q-76 0 -125 50t-49 126z" />
<glyph unicode="@" horiz-adv-x="1923" d="M84 543q0 285 115.5 491.5t320.5 315t465 108.5q268 0 460.5 -100.5t293 -273.5t100.5 -388q0 -178 -54 -306t-150.5 -194.5t-219.5 -66.5q-109 0 -176.5 47t-83.5 125h-4q-55 -80 -124 -126t-173 -46q-152 0 -237 101.5t-85 269.5q0 145 55.5 265t153 189.5t222.5 69.5 q84 0 147.5 -35t89.5 -98h6l4 27q6 41 36 62t77 21t73.5 -26.5t26.5 -73.5q0 -20 -2 -31l-61 -348q-10 -61 -10 -96q0 -59 24.5 -90t79.5 -31q41 0 82 39t68.5 127t27.5 225q0 172 -73.5 301t-219 201t-354.5 72q-197 0 -350.5 -85t-241.5 -250t-88 -392q0 -205 81 -358.5 t233.5 -237.5t363.5 -84q133 0 230.5 27.5t189.5 86.5q33 20 61 21q41 0 69 -28.5t28 -67.5q0 -51 -50 -86q-82 -59 -221 -100.5t-307 -41.5q-274 0 -477 110t-312.5 306.5t-109.5 452.5zM758 500q0 -88 39 -141.5t106 -53.5q82 0 140.5 50.5t88 131t29.5 170.5 q0 94 -42 141.5t-118 47.5t-131 -51.5t-83.5 -131t-28.5 -163.5z" />
<glyph unicode="A" horiz-adv-x="1538" d="M35 129q0 29 16 66l553 1161q23 49 68 74.5t96 25.5q53 0 98 -26.5t70 -73.5l553 -1161q16 -37 16 -66q0 -57 -46 -97t-105 -40q-39 0 -74 21.5t-53 64.5l-109 241h-694l-109 -241q-18 -43 -52 -64.5t-75 -21.5q-59 0 -106 40t-47 97zM532 561h478l-238 533z" />
<glyph unicode="B" horiz-adv-x="1411" d="M143 150v1144q0 72 39 111t111 39h516q225 0 357 -100.5t132 -274.5q0 -113 -60 -198t-167 -123q125 -37 193.5 -128.5t68.5 -224.5q0 -182 -134 -288.5t-370 -106.5h-536q-72 0 -111 39t-39 111zM455 244h338q127 0 184 43t57 139t-57 141t-184 45h-338v-368zM455 856 h301q123 0 181 42t58 128q0 90 -58 132t-181 42h-301v-344z" />
<glyph unicode="C" horiz-adv-x="1388" d="M102 723q0 225 86 392t246 257t373 90q268 0 463 -147q31 -25 43 -49.5t12 -61.5q0 -53 -29.5 -91t-72.5 -38q-29 0 -50.5 7.5t-48.5 25.5q-82 53 -151.5 76.5t-149.5 23.5q-197 0 -296 -121.5t-99 -363.5q0 -487 395 -487q76 0 143.5 23.5t157.5 76.5q31 18 51.5 25.5 t47.5 7.5q43 0 72.5 -38t29.5 -91q0 -37 -13.5 -62.5t-41.5 -48.5q-195 -147 -463 -147q-213 0 -373 90t-246 258t-86 393z" />
<glyph unicode="D" horiz-adv-x="1562" d="M143 150v1144q0 72 39 111t111 39h412q236 0 405.5 -86t259.5 -248t90 -387t-89 -388t-259 -249t-407 -86h-412q-72 0 -111 39t-39 111zM463 258h219q461 0 461 465q0 463 -461 463h-219v-928z" />
<glyph unicode="E" horiz-adv-x="1214" d="M143 150v1144q0 72 39 111t111 39h725q151 0 151 -121q0 -127 -151 -127h-563v-338h522q151 0 151 -123q0 -125 -151 -125h-522v-362h563q151 0 151 -123q0 -125 -151 -125h-725q-72 0 -111 39t-39 111z" />
<glyph unicode="F" horiz-adv-x="1171" d="M143 147v1147q0 72 39 111t111 39h704q78 0 115 -31t37 -96q0 -63 -37 -94t-115 -31h-538v-332h497q78 0 115 -30.5t37 -96.5q0 -63 -37 -94t-115 -31h-497v-461q0 -74 -42 -116.5t-114 -42.5t-116 44t-44 115z" />
<glyph unicode="G" horiz-adv-x="1511" d="M102 723q0 225 89.5 392t255 257t387.5 90q285 0 471 -147q31 -25 43 -49.5t12 -61.5q0 -53 -30 -91t-70 -38q-27 0 -48.5 8.5t-52.5 26.5q-86 53 -157.5 75.5t-157.5 22.5q-418 0 -418 -485q0 -250 108.5 -373t327.5 -123q119 0 236 31v317h-189q-59 0 -92 29t-33 82 t33 82t92 29h351q57 0 90.5 -32t33.5 -87v-399q0 -82 -13 -127.5t-46 -72t-98 -44.5q-80 -25 -183.5 -39t-195.5 -14q-229 0 -397 89t-258.5 256t-90.5 396z" />
<glyph unicode="H" horiz-adv-x="1579" d="M143 147v1149q0 72 43 115t115 43t114 -43t42 -115v-436h665v436q0 72 42 115t114 43t115 -43t43 -115v-1149q0 -72 -43 -115.5t-115 -43.5t-114 43t-42 116v459h-665v-459q0 -72 -43 -115.5t-113 -43.5q-72 0 -115 43t-43 116z" />
<glyph unicode="I" horiz-adv-x="606" d="M143 147v1149q0 72 43 115t117 43t117 -43t43 -115v-1149q0 -74 -43 -116.5t-117 -42.5t-117 43t-43 116z" />
<glyph unicode="J" horiz-adv-x="772" d="M-33 117q0 61 31 91t96 34l66 4q147 6 147 174v876q0 72 45 115t117 43t116 -43t44 -115v-872q0 -406 -406 -432l-65 -4h-20q-80 0 -123 28q-48 33 -48 101z" />
<glyph unicode="K" horiz-adv-x="1388" d="M143 147v1149q0 72 43 115t117 43t117 -43t43 -115v-489l618 600q45 45 103 45q57 0 100 -42t43 -99q0 -59 -49 -107l-487 -456l522 -508q47 -48 47 -103q0 -57 -44 -100t-102 -43q-66 0 -116 53l-635 621v-521q0 -74 -43 -116.5t-117 -42.5t-117 43t-43 116z" />
<glyph unicode="L" horiz-adv-x="1153" d="M143 150v1146q0 72 43 115t117 43t117 -43t43 -115v-1036h524q150 0 150 -131q0 -129 -150 -129h-694q-72 0 -111 39t-39 111z" />
<glyph unicode="M" horiz-adv-x="1724" d="M147 133v1163q0 70 42 114t110 44q98 0 150 -104l415 -789l414 789q55 104 147 104q68 0 110 -44t42 -114v-1163q0 -68 -39 -106.5t-102 -38.5q-61 0 -100.5 39t-39.5 106v723l-290 -547q-29 -53 -63 -77.5t-81 -24.5q-45 0 -79.5 24.5t-63.5 77.5l-291 537v-713 q0 -66 -39 -105.5t-102 -39.5q-61 0 -100.5 39t-39.5 106z" />
<glyph unicode="N" horiz-adv-x="1540" d="M143 147v1149q0 70 42 114t110 44q76 0 117 -53l686 -873v768q0 70 41 114t106 44q68 0 110 -44t42 -114v-1149q0 -72 -42 -115.5t-110 -43.5q-74 0 -119 53l-686 879v-773q0 -72 -40 -115.5t-107 -43.5q-68 0 -109 44t-41 115z" />
<glyph unicode="O" horiz-adv-x="1611" d="M102 723q0 225 86 392t245 257t374 90t373.5 -90t244.5 -257t86 -392t-86 -392t-244.5 -258t-373.5 -91t-374 91t-245 258t-86 392zM422 723q0 -240 102.5 -367t282.5 -127t283.5 127t103.5 367t-102.5 365.5t-284.5 125.5t-283.5 -125.5t-101.5 -365.5z" />
<glyph unicode="P" horiz-adv-x="1368" d="M143 147v1147q0 72 39 111t111 39h514q236 0 367 -119t131 -332t-131.5 -331.5t-366.5 -118.5h-344v-396q0 -74 -43 -116.5t-117 -42.5t-117 43t-43 116zM463 784h303q240 0 240 207q0 209 -240 209h-303v-416z" />
<glyph unicode="Q" horiz-adv-x="1611" d="M102 723q0 225 86 392t245 257t374 90t373.5 -90t244.5 -257t86 -392q0 -236 -93 -407t-265 -255q100 -31 162 -131l57 -94q29 -45 29 -88q0 -55 -46 -92t-108 -37q-43 0 -81 20.5t-60 59.5l-123 205q-25 41 -65.5 59.5t-110.5 18.5q-215 0 -374 91t-245 258t-86 392z M422 723q0 -240 102.5 -367t282.5 -127t283.5 127t103.5 367t-102.5 365.5t-284.5 125.5t-283.5 -125.5t-101.5 -365.5z" />
<glyph unicode="R" horiz-adv-x="1435" d="M143 147v1147q0 72 39 111t111 39h514q254 0 384 -111.5t130 -322.5q0 -166 -92 -276.5t-260 -145.5q61 -12 109 -48t93 -104l156 -233q31 -45 31 -88q0 -57 -46 -94t-108 -37q-39 0 -75.5 18t-61.5 57l-270 402q-35 53 -74 76.5t-98 23.5h-166v-414q0 -74 -42 -116.5 t-114 -42.5q-74 0 -117 43t-43 116zM455 803h305q137 0 198.5 48t61.5 150q0 104 -61.5 151.5t-198.5 47.5h-305v-397z" />
<glyph unicode="S" horiz-adv-x="1333" d="M78 240q0 51 31.5 90t72.5 39q23 0 44.5 -7.5t52.5 -25.5q88 -55 178 -81t198 -26q135 0 207 45t72 129q0 63 -66.5 102.5t-236.5 74.5q-190 39 -304 94t-166 137t-52 199q0 129 74.5 232.5t206.5 161.5t298 58q291 0 479 -145q31 -25 44.5 -50.5t13.5 -62.5 q0 -51 -32 -90t-73 -39q-23 0 -42 6t-54 27q-84 53 -154.5 79.5t-179.5 26.5q-125 0 -196.5 -48t-71.5 -132q0 -49 27.5 -80.5t92 -56.5t183.5 -51q279 -61 400.5 -157.5t121.5 -264.5q0 -131 -72.5 -231.5t-204.5 -155.5t-306 -55q-162 0 -301.5 37.5t-227.5 107.5 q-31 23 -44 48.5t-13 64.5z" />
<glyph unicode="T" horiz-adv-x="1273" d="M145 1444h983q152 0 152 -129q0 -131 -152 -131h-331v-1037q0 -72 -43 -114.5t-117 -42.5q-72 0 -116 43t-44 114v1037h-332q-151 0 -151 129q0 131 151 131z" />
<glyph unicode="U" horiz-adv-x="1513" d="M135 596v700q0 72 43 115t115 43t114 -43t42 -115v-714q0 -172 78.5 -262.5t228.5 -90.5t229.5 91.5t79.5 261.5v714q0 72 42 115t114 43t114.5 -43t42.5 -115v-700q0 -299 -159.5 -456.5t-462.5 -157.5t-462 156.5t-159 457.5z" />
<glyph unicode="V" horiz-adv-x="1490" d="M12 1313q0 61 51.5 102t114.5 41q43 0 79 -21.5t54 -64.5l439 -958l438 958q18 43 53 64.5t78 21.5q61 0 110.5 -41t49.5 -100q0 -31 -15 -62l-553 -1167q-23 -47 -67.5 -72.5t-98.5 -25.5q-53 0 -98 25.5t-67 72.5l-553 1167q-14 29 -15 60z" />
<glyph unicode="W" horiz-adv-x="2283" d="M66 1319q0 63 45 101t106 38q49 0 89 -25.5t59 -74.5l315 -907l328 903q18 49 58 75.5t85 26.5q47 0 86 -26.5t57 -77.5l314 -918l325 924q19 49 57 74.5t85 25.5q59 0 101 -37t42 -100q0 -31 -12 -68l-426 -1165q-18 -49 -64.5 -76.5t-101.5 -27.5t-100.5 27.5 t-63.5 76.5l-305 862l-314 -862q-18 -49 -63 -76.5t-100 -27.5q-53 0 -99.5 27.5t-64.5 76.5l-426 1165q-12 35 -12 66z" />
<glyph unicode="X" horiz-adv-x="1382" d="M49 135q0 51 37 94l420 500l-406 485q-39 45 -39 95q0 59 46.5 103t103.5 44q61 0 106 -53l375 -453l371 453q45 53 106 53q57 0 103.5 -44t46.5 -103q0 -51 -37 -95l-405 -485l417 -500q39 -45 39 -94q0 -59 -46 -103t-105 -44q-61 0 -105 51l-385 471l-389 -471 q-45 -51 -104 -51q-57 0 -103.5 44t-46.5 103z" />
<glyph unicode="Y" horiz-adv-x="1302" d="M8 1311q0 57 44 101t102 44q61 0 106 -53l391 -477l391 477q46 53 107 53q57 0 103 -44t46 -101q0 -51 -38 -97l-449 -532v-535q0 -78 -45 -118.5t-113 -40.5q-72 0 -116.5 41t-44.5 118v535l-445 532q-39 41 -39 97z" />
<glyph unicode="Z" horiz-adv-x="1249" d="M72 133q0 59 41 115l682 944h-570q-78 0 -114.5 30.5t-36.5 94.5q0 66 36.5 96.5t114.5 30.5h815q63 0 101.5 -38t38.5 -95q0 -61 -39 -115l-684 -944h600q78 0 114.5 -31t36.5 -94q0 -66 -36.5 -96.5t-114.5 -30.5h-846q-63 0 -101 38t-38 95z" />
<glyph unicode="[" horiz-adv-x="763" d="M213 -96v1267q0 129 71.5 201t200.5 72h162q49 0 83 -30t34 -85q0 -57 -34 -87t-83 -30h-47q-43 0 -63.5 -19t-20.5 -69v-1173q0 -49 20.5 -68.5t63.5 -19.5h47q49 0 83 -30t34 -87q0 -55 -34 -85t-83 -30h-162q-129 0 -200.5 72t-71.5 201z" />
<glyph unicode="\" horiz-adv-x="675" d="M-20 1450q0 49 36.5 81t85.5 32q39 0 70 -21.5t45 -64.5l471 -1475q6 -23 6 -41q0 -51 -36.5 -83t-86.5 -32q-39 0 -69.5 21.5t-44.5 64.5l-469 1475q-8 29 -8 43z" />
<glyph unicode="]" horiz-adv-x="763" d="M0 -254q0 57 34 87t81 30h49q43 0 63.5 19.5t20.5 68.5v1173q0 49 -20.5 68.5t-63.5 19.5h-49q-47 0 -81 30t-34 87q0 55 34 85t81 30h164q127 0 198.5 -72t71.5 -201v-1267q0 -129 -71.5 -201t-198.5 -72h-164q-47 0 -81 30t-34 85z" />
<glyph unicode="^" d="M145 401q0 27 13 54l297 731q23 49 64.5 77.5t94.5 28.5t96.5 -28.5t63.5 -77.5l297 -731q12 -31 12 -56q0 -47 -34.5 -76.5t-77.5 -29.5q-27 0 -50.5 14.5t-35.5 42.5l-271 670l-270 -670q-23 -57 -84 -57q-43 0 -79 30.5t-36 77.5z" />
<glyph unicode="_" horiz-adv-x="1024" d="M0 -90q0 41 31.5 65.5t85.5 24.5h790q53 0 85 -24.5t32 -65.5t-31.5 -64.5t-85.5 -23.5h-790q-54 0 -85.5 23.5t-31.5 64.5z" />
<glyph unicode="`" horiz-adv-x="614" d="M-68 1438q0 51 38 87t91 36q74 0 123 -70l176 -236q18 -27 18 -53q0 -33 -22.5 -55.5t-54.5 -22.5q-27 0 -54 21l-249 182q-66 49 -66 111z" />
<glyph unicode="a" horiz-adv-x="1118" d="M78 303q0 111 56 174.5t181 92t342 28.5h54v37q0 86 -38 125t-126 39t-254 -62q-45 -22 -77 -22h-3q-45 0 -71.5 31.5t-26.5 82.5q0 41 18.5 68t59.5 49q72 39 175 61.5t203 22.5q222 0 328.5 -107.5t106.5 -328.5v-463q0 -68 -39 -105.5t-109 -37.5q-66 0 -105.5 40 t-39.5 103v14q-31 -76 -102.5 -118.5t-168.5 -42.5q-102 0 -185 41t-131 114.5t-48 163.5zM377 326q0 -57 38 -93t95 -36q90 0 145.5 60t55.5 157v35h-35q-166 0 -232.5 -27t-66.5 -96z" />
<glyph unicode="b" horiz-adv-x="1255" d="M119 133v1180q0 63 44 102t116 39q68 0 108.5 -37t40.5 -98v-449q45 76 128 118t185 42q131 0 231.5 -63.5t157 -181t56.5 -273.5t-56.5 -275.5t-158 -186t-230.5 -66.5q-104 0 -188 44t-129 122v-17q0 -66 -41 -105.5t-111 -39.5t-111.5 40t-41.5 105zM424 508 q0 -139 59.5 -214t167.5 -75q109 0 168.5 77t59.5 216q0 137 -59.5 210t-168.5 73t-168 -75t-59 -212z" />
<glyph unicode="c" horiz-adv-x="1011" d="M70 502q0 158 66.5 277.5t187 185t278.5 65.5q82 0 165 -22.5t148 -63.5q63 -39 64 -115q0 -53 -24.5 -86.5t-65.5 -33.5q-27 0 -50.5 9t-62.5 27q-43 23 -76.5 35.5t-76.5 12.5q-115 0 -175.5 -73t-60.5 -212t60.5 -213t175.5 -74q43 0 75.5 11.5t79.5 35.5 q39 18 61.5 27.5t49.5 9.5q39 0 64.5 -34.5t25.5 -88.5q0 -76 -64 -112q-66 -41 -151.5 -63.5t-179.5 -22.5q-156 0 -272.5 63.5t-179 180t-62.5 274.5z" />
<glyph unicode="d" horiz-adv-x="1255" d="M70 512q0 156 56 273.5t156.5 181t231.5 63.5q102 0 185 -43t128 -121v453q0 61 41 98t109 37q72 0 116 -39t44 -102v-1180q0 -66 -42 -105.5t-112 -39.5t-112 40t-42 105v17q-45 -78 -128 -122t-187 -44q-129 0 -230.5 66.5t-157.5 186t-56 275.5zM377 512 q0 -139 59.5 -216t167.5 -77q109 0 167 75t58 214t-58 213t-167 74t-168 -73t-59 -210z" />
<glyph unicode="e" horiz-adv-x="1091" d="M70 506q0 154 63.5 272.5t176 185t255.5 66.5q137 0 240.5 -60.5t161 -172t57.5 -260.5q0 -45 -21.5 -69t-60.5 -24h-573q14 -121 73.5 -175t169.5 -54q59 0 106.5 14.5t104.5 38.5q29 12 55.5 21.5t47.5 9.5q41 0 66.5 -33t25.5 -84q0 -35 -20.5 -64.5t-57.5 -49.5 q-70 -37 -162 -60.5t-170 -23.5q-164 0 -285.5 63.5t-187 181t-65.5 277.5zM369 598h395q-6 109 -54 164t-137 55q-88 0 -141 -56t-63 -163z" />
<glyph unicode="f" horiz-adv-x="770" d="M-20 889q0 117 137 117h82q0 197 108.5 309t298.5 127l53 4l37 2q141 0 142 -109q0 -106 -119 -116l-53 -4q-84 -7 -121 -52t-37 -127v-34h143q139 0 140 -117q0 -115 -140 -115h-143v-639q0 -72 -44 -108.5t-110 -36.5q-68 0 -111.5 36.5t-43.5 108.5v639h-82 q-137 0 -137 115z" />
<glyph unicode="g" horiz-adv-x="1263" d="M70 528q0 150 57 263.5t158.5 176t232.5 62.5q104 0 189.5 -44t130.5 -122v21q0 66 42 103.5t111 37.5q70 0 112 -40t42 -105v-772q0 -244 -141.5 -369t-413.5 -125q-229 0 -377 82q-37 20 -57.5 50t-20.5 67q0 51 24.5 83.5t65.5 32.5q23 0 53.5 -9t63.5 -21 q66 -25 121 -39.5t119 -14.5q131 0 194.5 59.5t63.5 180.5v111q-43 -78 -129 -123t-193 -45q-131 0 -232.5 61.5t-158.5 175t-57 262.5zM377 528q0 -125 61.5 -194.5t169.5 -69.5q109 0 169.5 69.5t60.5 194.5t-60.5 196t-169.5 71t-170 -71t-61 -196z" />
<glyph unicode="h" horiz-adv-x="1218" d="M119 133v1180q0 63 44 102t116 39q68 0 108.5 -37t40.5 -98v-447q53 78 137 118t191 40q350 0 350 -424v-473q0 -68 -42 -106.5t-114 -38.5t-112.5 39t-40.5 106v477q0 90 -38 134t-118 44q-96 0 -154.5 -61t-58.5 -164v-430q0 -68 -41 -106.5t-113 -38.5t-113.5 39 t-41.5 106z" />
<glyph unicode="i" horiz-adv-x="546" d="M99 1346q0 72 47 112.5t129 40.5q80 0 128 -42t48 -111q0 -72 -47 -114t-129 -42t-129 42t-47 114zM119 133v748q0 72 45 108.5t110 36.5q66 0 110 -37t44 -108v-748q0 -72 -44 -108.5t-110 -36.5q-67 0 -111 36.5t-44 108.5z" />
<glyph unicode="j" horiz-adv-x="546" d="M-170 -258q0 100 121 108l57 5q53 4 82 35.5t29 93.5v897q0 72 45 108.5t110 36.5q66 0 110 -37t44 -108v-875q0 -348 -356 -375l-58 -4q-14 -1 -28 -1q-66 0 -107 25q-49 30 -49 91zM97 1346q0 72 47 112.5t129 40.5q80 0 128 -42t48 -111q0 -72 -47 -114t-129 -42 t-129 42t-47 114z" />
<glyph unicode="k" horiz-adv-x="1142" d="M119 135v1174q0 72 44 108.5t111 36.5q66 0 110 -37t44 -108v-734l410 404q45 45 100 45q57 0 100 -42t43 -99q0 -53 -47 -101l-272 -260l305 -282q47 -46 47 -103t-42 -102t-97 -45q-53 0 -98 43l-449 416v-314q0 -72 -44 -108.5t-110 -36.5q-68 0 -111.5 36.5 t-43.5 108.5z" />
<glyph unicode="l" horiz-adv-x="546" d="M119 133v1176q0 72 44 108.5t111 36.5q66 0 110 -37t44 -108v-1176q0 -72 -44 -108.5t-110 -36.5q-67 0 -111 36.5t-44 108.5z" />
<glyph unicode="m" horiz-adv-x="1812" d="M119 133v752q0 68 46 104.5t111 36.5q61 0 102.5 -36t41.5 -99v-21q49 78 128 119t179 41q109 0 183.5 -44t115.5 -142q47 86 134 136t198 50q164 0 252 -99.5t88 -324.5v-473q0 -72 -43 -108.5t-111 -36.5q-66 0 -110.5 36.5t-44.5 108.5v477q0 98 -34 138t-104 40 q-86 0 -137 -59t-51 -166v-430q0 -72 -43 -108.5t-111 -36.5q-66 0 -110.5 36.5t-44.5 108.5v477q0 98 -34 138t-104 40q-86 0 -137 -59t-51 -166v-430q0 -72 -44 -108.5t-110 -36.5t-110.5 36.5t-44.5 108.5z" />
<glyph unicode="n" horiz-adv-x="1218" d="M119 133v752q0 63 44 102t113 39q63 0 103.5 -38t40.5 -97v-29q53 82 138 125t192 43q180 0 268 -105.5t88 -318.5v-473q0 -68 -42 -106.5t-114 -38.5t-112.5 39t-40.5 106v459q0 102 -38 149t-118 47q-96 0 -154.5 -61t-58.5 -164v-430q0 -68 -41 -106.5t-113 -38.5 t-113.5 39t-41.5 106z" />
<glyph unicode="o" horiz-adv-x="1204" d="M70 508q0 160 65.5 277.5t186 181t280.5 63.5t281 -63.5t186.5 -181t65.5 -277.5t-65.5 -277.5t-186.5 -182t-281 -64.5t-280.5 64.5t-186 182t-65.5 277.5zM377 508q0 -289 225 -289t225 289q0 145 -58 217t-167 72q-225 0 -225 -289z" />
<glyph unicode="p" horiz-adv-x="1255" d="M119 -238v1119q0 66 42 105.5t111 39.5q70 0 111 -40t41 -105v-17q45 78 129 122t188 44q129 0 230.5 -66.5t158 -186.5t56.5 -275q0 -156 -56.5 -273.5t-157 -181t-231.5 -63.5q-102 0 -185 42t-128 117v-387q0 -61 -41 -98t-108 -37q-72 0 -116 39t-44 102zM424 506 q0 -137 59.5 -212t167.5 -75q109 0 168.5 73t59.5 210q0 139 -59.5 216t-168.5 77t-168 -75t-59 -214z" />
<glyph unicode="q" horiz-adv-x="1255" d="M70 502q0 156 56 275.5t157.5 186t230.5 66.5q104 0 187 -44t128 -122v17q0 66 42 105.5t112 39.5t112 -40t42 -105v-1119q0 -63 -44 -102t-116 -39q-68 0 -109 37t-41 98v389q-45 -76 -128 -118.5t-185 -42.5q-131 0 -231.5 63.5t-156.5 181t-56 273.5zM377 502 q0 -137 59.5 -210t167.5 -73q109 0 167 74t58 213t-58 214t-167 75t-168 -77t-59 -216z" />
<glyph unicode="r" horiz-adv-x="821" d="M119 133v752q0 68 45 104.5t108 36.5q61 0 102.5 -36t41.5 -99v-55q37 88 111.5 135t162.5 53l29 2h13q52 0 84 -28q36 -32 36 -95q0 -68 -33 -100.5t-117 -40.5l-61 -6q-113 -12 -163 -73.5t-50 -158.5v-391q0 -72 -44 -108.5t-110 -36.5q-68 0 -111.5 36.5t-43.5 108.5 z" />
<glyph unicode="s" horiz-adv-x="997" d="M57 188q0 47 27 79t66 32q27 0 53 -9t55 -22q57 -27 112.5 -42t137.5 -15q72 0 111.5 22.5t39.5 61.5q0 29 -17 46t-64.5 31.5t-149.5 35.5q-182 35 -262 104.5t-80 194.5q0 92 56.5 165.5t154.5 115.5t221 42q88 0 172 -22.5t150 -63.5q63 -39 63 -115 q0 -49 -26.5 -81.5t-65.5 -32.5q-47 0 -113 37q-51 27 -93 40t-99 13q-63 0 -100 -23.5t-37 -64.5q0 -43 43 -65.5t166 -45.5q137 -27 214.5 -64.5t112.5 -95t35 -145.5q0 -145 -120 -231t-320 -86q-125 0 -217.5 20.5t-161.5 65.5q-31 18 -47.5 49t-16.5 69z" />
<glyph unicode="t" horiz-adv-x="792" d="M-20 889q0 57 34.5 87t102.5 30h82v159q0 68 42 107t113 39q72 0 113 -39t41 -107v-159h143q139 0 140 -117q0 -55 -35 -85t-105 -30h-143v-428q0 -61 28.5 -93t84.5 -36l57 -4q61 -4 90 -30.5t29 -78.5q1 -60 -47 -90q-40 -25 -108 -25q-13 0 -28 1l-57 4 q-358 29 -358 375v405h-82q-68 0 -102.5 30t-34.5 85z" />
<glyph unicode="u" horiz-adv-x="1206" d="M113 408v473q0 68 42 106.5t113 38.5q72 0 113 -39t41 -106v-480q0 -90 38 -133t115 -43q90 0 146.5 61.5t56.5 162.5v432q0 68 41 106.5t113 38.5t113.5 -39t41.5 -106v-752q0 -63 -44 -102t-113 -39q-66 0 -105 36.5t-39 98.5v20q-47 -78 -123.5 -118.5t-173.5 -40.5 q-190 0 -283 105.5t-93 318.5z" />
<glyph unicode="v" horiz-adv-x="1093" d="M14 891q0 55 48.5 94t107.5 39q43 0 78 -21.5t55 -64.5l252 -551l250 551q20 43 54 64.5t73 21.5q57 0 102 -38t45 -91q0 -31 -14 -59l-369 -756q-20 -45 -61 -68.5t-88 -23.5t-88 23.5t-64 68.5l-368 756q-12 29 -13 55z" />
<glyph unicode="w" horiz-adv-x="1767" d="M31 889q0 57 48 96t109 39q41 0 75 -22.5t52 -65.5l220 -551l223 547q18 43 54 66.5t79 23.5t80 -22.5t55 -67.5l227 -547l217 551q19 43 51.5 65.5t69.5 22.5q57 0 102.5 -39t45.5 -96q0 -25 -13 -55l-335 -754q-18 -45 -59.5 -68.5t-86.5 -23.5q-47 0 -87 23.5 t-58 68.5l-219 510l-211 -510q-18 -45 -57.5 -68.5t-88.5 -23.5q-47 0 -88 23.5t-59 68.5l-334 754q-12 29 -12 55z" />
<glyph unicode="x" horiz-adv-x="1105" d="M45 127q0 53 45 100l277 289l-258 268q-45 47 -46 101q0 57 42 98t98 41q57 0 104 -49l246 -262l248 262q47 49 104 49q55 0 97 -41t42 -98q0 -53 -45 -101l-260 -268l277 -289q45 -47 45 -102t-42 -97t-97 -42t-103 49l-266 287l-264 -287q-47 -49 -103 -49 q-57 0 -99 42t-42 99z" />
<glyph unicode="y" horiz-adv-x="1093" d="M14 891q0 55 48.5 94t109.5 39q41 0 76 -21.5t55 -64.5l254 -553l248 553q18 43 52 63.5t73 20.5q59 0 104 -38t45 -91q0 -29 -14 -57l-551 -1131q-20 -43 -55 -64.5t-74 -21.5q-57 0 -100 37t-43 90q0 33 14 61l135 281l-364 748q-12 29 -13 55z" />
<glyph unicode="z" horiz-adv-x="1052" d="M61 889q0 117 140 117h639q63 0 101 -39t38 -95q0 -61 -43 -106l-477 -535h415h2q138 0 138 -116q0 -115 -140 -115h-663q-61 0 -100 39t-39 92q0 61 43 107l479 536h-393q-139 0 -140 115z" />
<glyph unicode="{" horiz-adv-x="839" d="M51 539q0 49 30 80.5t85 35.5q68 6 95.5 42t27.5 116v358q0 129 71.5 201t200.5 72h162q49 0 83 -30t34 -85q0 -57 -34 -87t-83 -30h-47q-43 0 -63.5 -19t-20.5 -69v-348q0 -92 -51.5 -157.5t-118.5 -81.5q68 -16 119 -82t51 -158v-346q0 -49 20.5 -68.5t63.5 -19.5h47 q49 0 83 -30t34 -87q0 -55 -34 -85t-83 -30h-162q-129 0 -200.5 72t-71.5 201v356q0 80 -28 116t-95 42q-55 4 -85 35.5t-30 85.5z" />
<glyph unicode="|" horiz-adv-x="593" d="M154 -236v1547q0 63 39.5 103t103.5 40q61 0 102 -40t41 -103v-1547q0 -63 -40 -103t-103 -40q-61 0 -102 40t-41 103z" />
<glyph unicode="}" horiz-adv-x="839" d="M0 -254q0 57 34 87t81 30h49q43 0 63.5 19.5t20.5 68.5v346q0 92 51 157.5t119 82.5q-68 16 -119 81.5t-51 157.5v348q0 49 -20.5 68.5t-63.5 19.5h-49q-47 0 -81 30t-34 87q0 55 34 85t81 30h164q127 0 198.5 -72t71.5 -201v-358q0 -80 27.5 -115.5t97.5 -42.5 q55 -4 84.5 -35.5t29.5 -80.5q0 -53 -29.5 -85t-84.5 -36q-68 -6 -95.5 -42t-27.5 -116l-2 -356q0 -129 -71.5 -201t-198.5 -72h-164q-47 0 -81 30t-34 85z" />
<glyph unicode="~" d="M139 565q0 29 15 51q41 68 105.5 105t135.5 37q59 0 118.5 -21.5t135.5 -60.5q57 -29 94 -43.5t70 -14.5q51 0 94 37q45 49 88 50q27 0 52 -17q20 -14 31.5 -35.5t11.5 -46.5q0 -27 -15 -49q-43 -66 -106.5 -102.5t-134.5 -36.5q-60 0 -119.5 21.5t-134.5 60.5 q-63 31 -98.5 45t-65.5 14q-51 0 -94 -39q-49 -49 -93 -49q-23 0 -49 16q-18 12 -29.5 34t-11.5 44z" />
<glyph unicode="&#xa2;" d="M158 502q0 193 97 326t267 180v127q0 55 35 90t88 35q55 0 89 -35t34 -90v-111q137 -16 236 -80q63 -37 63 -115q0 -53 -24.5 -86.5t-65.5 -33.5q-27 0 -49.5 9t-61.5 27q-47 25 -79.5 36.5t-75.5 11.5q-115 0 -175.5 -73t-60.5 -212t60.5 -213t175.5 -74q43 0 75.5 11.5 t79.5 35.5q39 18 61.5 27.5t49.5 9.5q41 0 66.5 -34.5t25.5 -88.5q0 -74 -65 -112q-96 -61 -236 -80v-113q0 -55 -34 -89t-89 -34q-53 0 -88 34t-35 89v123q-172 41 -268 173t-96 329z" />
<glyph unicode="&#xa3;" d="M55 129q0 127 150 127h28v373h-79q-43 0 -71 26.5t-28 67.5t28 67.5t71 26.5h79v236q0 121 57.5 214t163 144t244.5 51q119 0 239 -40t204 -107q31 -25 43 -49.5t12 -61.5q0 -53 -29.5 -91t-72.5 -38q-27 0 -47.5 7.5t-51.5 25.5q-86 51 -149.5 77.5t-132.5 26.5 q-78 0 -121 -47t-43 -133v-215h262q43 0 70.5 -26.5t27.5 -67.5t-27.5 -67.5t-70.5 -26.5h-262v-373h495q152 0 152 -127q0 -66 -37 -97.5t-115 -31.5h-839q-150 0 -150 129z" />
<glyph unicode="&#xa5;" d="M16 1315q0 57 45 100t101 43q61 0 106 -53l346 -426l344 424q46 53 105 53q57 0 102 -44t45 -103q0 -51 -36 -95l-326 -389h178q41 0 69.5 -26.5t28.5 -67.5t-28.5 -67.5t-69.5 -26.5h-254v-127h254q41 0 69.5 -26.5t28.5 -67.5t-28.5 -67.5t-69.5 -26.5h-254v-175 q0 -78 -44 -118.5t-114 -40.5q-72 0 -115.5 41t-43.5 118v175h-252q-41 0 -70 26.5t-29 67.5t29 67.5t70 26.5h252v127h-252q-41 0 -70 26.5t-29 67.5t29 67.5t70 26.5h176l-324 392q-39 47 -39 98z" />
<glyph unicode="&#xa8;" horiz-adv-x="614" d="M-41 1346q0 66 43 104.5t110 38.5q68 0 111 -39t43 -104q0 -66 -42 -107t-112 -41q-67 0 -110 41t-43 107zM350 1346q0 66 42 104.5t109 38.5q68 0 111 -39t43 -104q0 -66 -43 -107t-111 -41q-67 0 -109 41t-42 107z" />
<glyph unicode="&#xa9;" horiz-adv-x="1669" d="M102 723q0 205 96.5 372t264.5 263t373 96t371.5 -96t263 -263t96.5 -372t-96.5 -372t-264.5 -264t-370 -97q-205 0 -373 97t-264.5 264t-96.5 372zM238 723q0 -172 76.5 -310.5t213 -217t308.5 -78.5q170 0 306 78.5t213 217t77 310.5t-77 309t-213 216t-306 79 q-172 0 -308.5 -79t-213 -216t-76.5 -309zM420 723q0 131 54 231.5t153.5 154.5t230.5 54q172 0 264 -73q27 -18 36 -39t9 -52q0 -41 -23.5 -75.5t-66.5 -34.5q-25 0 -48 10t-32 14q-70 35 -123 35q-88 0 -132 -53t-44 -172q0 -121 44 -174t132 -53q53 0 123 34q8 4 32 14.5 t48 10.5q43 0 66.5 -35t23.5 -76q0 -33 -9 -53t-36 -37q-57 -35 -119.5 -54t-144.5 -19q-131 0 -230.5 54t-153.5 154.5t-54 233.5z" />
<glyph unicode="&#xaa;" horiz-adv-x="694" d="M33 1018q0 90 74.5 132t254.5 42h46v25q0 31 -16.5 43t-61.5 12q-49 0 -137 -31q-18 -6 -50 -6q-39 0 -60.5 27.5t-21.5 60.5q0 55 52 80q43 20 109.5 35.5t133.5 15.5q150 0 222.5 -69.5t72.5 -215.5v-223q0 -63 -33.5 -94t-89.5 -31q-45 0 -78.5 26.5t-37.5 84.5 q-20 -53 -65.5 -82t-104.5 -29q-90 0 -149.5 59.5t-59.5 137.5zM260 1028q0 -18 15.5 -31.5t43.5 -13.5q39 0 64 21.5t25 62.5v12h-19q-76 0 -102.5 -13t-26.5 -38z" />
<glyph unicode="&#xab;" horiz-adv-x="1075" d="M106 545q0 47 31 92l154 246q41 66 110 65q47 0 81 -30.5t34 -79.5q0 -29 -14 -60l-109 -233l109 -234q14 -29 14 -59q0 -47 -33.5 -78t-81.5 -31q-68 0 -108 64l-156 246q-31 49 -31 92zM561 545q0 47 31 92l154 246q41 66 110 65q47 0 81 -30.5t34 -79.5q0 -29 -14 -60 l-109 -233l109 -234q14 -29 14 -59q0 -47 -33.5 -78t-81.5 -31q-68 0 -108 64l-156 246q-31 49 -31 92z" />
<glyph unicode="&#xac;" d="M115 793q0 45 30.5 75.5t75.5 30.5h787q45 0 75.5 -30.5t30.5 -75.5v-410q0 -47 -30.5 -77t-77.5 -30q-50 0 -79.5 31t-29.5 76v305h-676q-45 0 -75.5 30t-30.5 75z" />
<glyph unicode="&#xad;" horiz-adv-x="901" d="M104 549q0 121 146 121h401q145 0 146 -121q0 -121 -146 -121h-401q-146 0 -146 121z" />
<glyph unicode="&#xae;" horiz-adv-x="1669" d="M102 723q0 205 96.5 372t264.5 263t373 96q204 0 371 -96t263.5 -263t96.5 -372t-96.5 -372t-264.5 -264t-370 -97q-205 0 -373 97t-264.5 264t-96.5 372zM238 723q0 -172 76.5 -310.5t213 -217t308.5 -78.5q170 0 306 78.5t213 217t77 310.5t-77 309t-213 216t-306 79 q-172 0 -308.5 -79t-213 -216t-76.5 -309zM479 418v612q0 61 32 94t93 33h289q158 0 243 -73.5t85 -200.5q0 -96 -52.5 -166t-148.5 -96q41 -6 73.5 -27t67.5 -64l51 -61q31 -37 31 -74q0 -47 -44 -80.5t-99 -33.5q-33 0 -62.5 14t-50.5 43l-162 231q-23 31 -49 31h-26v-182 q0 -68 -37 -102.5t-95 -34.5q-61 0 -100 34.5t-39 102.5zM748 797h110q59 0 82 16t23 59q0 45 -22.5 62.5t-82.5 17.5h-110v-155z" />
<glyph unicode="&#xb1;" d="M115 688q0 47 30.5 78t75.5 31h287v184q0 45 30.5 75.5t75.5 30.5t76 -30.5t31 -75.5v-184h287q45 0 75.5 -31t30.5 -76t-29.5 -75.5t-76.5 -30.5h-287v-187q0 -45 -31 -74.5t-76 -29.5t-75.5 29.5t-30.5 74.5v187h-287q-45 0 -75.5 29.5t-30.5 74.5zM127 106 q0 45 30.5 75t75.5 30h787q45 0 75.5 -29.5t30.5 -75.5q0 -45 -30.5 -75.5t-75.5 -30.5h-787q-45 0 -75.5 30.5t-30.5 75.5z" />
<glyph unicode="&#xb4;" horiz-adv-x="614" d="M235 1202q0 27 19 53l176 236q51 70 123 70q51 0 90 -37t39 -86q0 -61 -66 -111l-250 -182q-24 -19 -53 -19q-33 0 -55.5 22.5t-22.5 53.5z" />
<glyph unicode="&#xb5;" horiz-adv-x="1206" d="M113 -244v1125q0 68 42 106.5t113 38.5q72 0 113 -39t41 -106v-480q0 -90 38 -133t115 -43q90 0 146.5 61.5t56.5 162.5v432q0 68 41 106.5t113 38.5t113.5 -39t41.5 -106v-752q0 -63 -44 -102t-113 -39q-66 0 -105 36.5t-39 98.5v20q-47 -78 -123.5 -118.5t-173.5 -40.5 q-27 0 -67 4v-226q0 -63 -44 -102t-114 -39t-110.5 37t-40.5 98z" />
<glyph unicode="&#xb8;" horiz-adv-x="614" d="M92 -322q0 29 18.5 49.5t45.5 12.5q70 -16 114 -16q94 0 95 53q0 18 -13.5 28.5t-36.5 10.5q-18 0 -46.5 -6.5t-43.5 -6.5q-20 0 -31.5 11.5t-9.5 31.5l25 195h166l-17 -127q33 4 45 4q64 0 108 -39t44 -102q0 -80 -71.5 -130t-204.5 -50q-86 0 -146 20q-41 14 -41 61z " />
<glyph unicode="&#xba;" horiz-adv-x="765" d="M31 1139q0 135 90 225t262 90t261 -90t89 -225t-89 -226.5t-261 -91.5t-262 91.5t-90 226.5zM283 1139q0 -57 26.5 -88t73.5 -31q49 0 76.5 31.5t27.5 87.5q0 59 -27.5 88.5t-76.5 29.5q-100 0 -100 -118z" />
<glyph unicode="&#xbb;" horiz-adv-x="1062" d="M104 842q0 47 35 76.5t82 29.5q31 0 60.5 -16.5t48.5 -48.5l143 -246q29 -43 29 -92q0 -47 -29 -92l-143 -246q-19 -33 -47.5 -49.5t-61.5 -16.5q-45 0 -80 32t-35 79q0 31 15 59l110 234l-110 233q-16 37 -17 64zM559 842q0 47 35 76.5t82 29.5q31 0 60.5 -16.5 t48.5 -48.5l143 -246q29 -43 29 -92q0 -47 -29 -92l-143 -246q-19 -33 -47.5 -49.5t-61.5 -16.5q-45 0 -80 32t-35 79q0 31 15 59l110 234l-110 233q-16 37 -17 64z" />
<glyph unicode="&#xc0;" horiz-adv-x="1538" d="M35 129q0 29 16 66l553 1161q23 49 68 74.5t96 25.5q53 0 98 -26.5t70 -73.5l553 -1161q16 -37 16 -66q0 -57 -46 -97t-105 -40q-39 0 -74 21.5t-53 64.5l-109 241h-694l-109 -241q-18 -43 -52 -64.5t-75 -21.5q-59 0 -106 40t-47 97zM426 1786q0 43 32.5 76.5t79.5 33.5 q53 0 101 -47l176 -174q25 -23 24 -53q0 -29 -20 -47.5t-51 -18.5q-20 0 -37 9l-223 110q-82 39 -82 111zM532 561h478l-238 533z" />
<glyph unicode="&#xc1;" horiz-adv-x="1538" d="M35 129q0 29 16 66l553 1161q23 49 68 74.5t96 25.5q53 0 98 -26.5t70 -73.5l553 -1161q16 -37 16 -66q0 -57 -46 -97t-105 -40q-39 0 -74 21.5t-53 64.5l-109 241h-694l-109 -241q-18 -43 -52 -64.5t-75 -21.5q-59 0 -106 40t-47 97zM532 561h478l-238 533zM694 1622 q0 27 27 53l176 174q47 47 100 47q45 0 79 -33.5t34 -78.5q0 -31 -20.5 -59.5t-61.5 -49.5l-223 -110q-16 -9 -39 -9q-29 0 -50.5 19.5t-21.5 46.5z" />
<glyph unicode="&#xc2;" horiz-adv-x="1538" d="M35 129q0 29 16 66l553 1161q23 49 68 74.5t96 25.5q53 0 98 -26.5t70 -73.5l553 -1161q16 -37 16 -66q0 -57 -46 -97t-105 -40q-39 0 -74 21.5t-53 64.5l-109 241h-694l-109 -241q-18 -43 -52 -64.5t-75 -21.5q-59 0 -106 40t-47 97zM463 1645q0 39 37 69l163 139 q47 41 105 41q57 0 104 -41l164 -139q37 -31 37 -69q0 -35 -26.5 -60.5t-63.5 -25.5q-41 0 -74 30l-141 137l-142 -137q-30 -30 -71 -30q-39 0 -65.5 25.5t-26.5 60.5zM532 561h478l-238 533z" />
<glyph unicode="&#xc3;" horiz-adv-x="1538" d="M35 129q0 29 16 66l553 1161q23 49 68 74.5t96 25.5q53 0 98 -26.5t70 -73.5l553 -1161q16 -37 16 -66q0 -57 -46 -97t-105 -40q-39 0 -74 21.5t-53 64.5l-109 241h-694l-109 -241q-18 -43 -52 -64.5t-75 -21.5q-59 0 -106 40t-47 97zM418 1665q0 43 25.5 88t70.5 75 t100 30q47 0 99.5 -14.5t60.5 -16.5q92 -31 145 -31q23 0 36.5 8t31.5 25q16 16 30.5 24.5t37.5 8.5q31 0 47 -18.5t16 -51.5q0 -43 -25.5 -88t-70.5 -75t-101 -30q-47 0 -99 14.5t-60 16.5q-92 31 -146 31q-23 0 -37 -8t-30 -25q-18 -18 -31.5 -26.5t-36.5 -8.5 q-29 0 -46 19.5t-17 52.5zM532 561h478l-238 533z" />
<glyph unicode="&#xc4;" horiz-adv-x="1538" d="M35 129q0 29 16 66l553 1161q23 49 68 74.5t96 25.5q53 0 98 -26.5t70 -73.5l553 -1161q16 -37 16 -66q0 -57 -46 -97t-105 -40q-39 0 -74 21.5t-53 64.5l-109 241h-694l-109 -241q-18 -43 -52 -64.5t-75 -21.5q-59 0 -106 40t-47 97zM420 1729q0 66 43 104.5t110 38.5 q68 0 111 -39t43 -104q0 -66 -42 -106t-112 -40q-67 0 -110 40t-43 106zM532 561h478l-238 533zM811 1729q0 66 42 104.5t109 38.5q68 0 111 -39t43 -104q0 -66 -43 -106t-111 -40q-67 0 -109 40t-42 106z" />
<glyph unicode="&#xc5;" horiz-adv-x="1538" d="M35 129q0 29 16 66l582 1222q-41 29 -63.5 75t-22.5 101q0 92 64.5 155.5t158.5 63.5t159.5 -63t65.5 -156q0 -53 -23.5 -99t-64.5 -77l582 -1222q16 -37 16 -66q0 -57 -46 -97t-105 -40q-39 0 -74 21.5t-53 64.5l-109 241h-694l-109 -241q-18 -43 -53 -64.5t-74 -21.5 q-59 0 -106 39t-47 98zM532 561h478l-238 533zM682 1593q0 -41 24.5 -67.5t63.5 -26.5t63.5 26.5t24.5 67.5q0 39 -24.5 66t-63.5 27t-63.5 -27t-24.5 -66z" />
<glyph unicode="&#xc6;" horiz-adv-x="2048" d="M8 109q0 43 29 86l751 1161q27 41 74 64.5t105 23.5h886q150 0 150 -123q0 -61 -39 -93t-111 -32h-673l75 -338h557q150 0 150 -125q0 -123 -150 -123h-501l80 -362h462q150 0 150 -125q0 -123 -150 -123h-577q-55 0 -93 24.5t-48 65.5l-52 229h-637l-149 -241 q-29 -45 -68 -67.5t-82 -22.5q-57 0 -98 33.5t-41 87.5zM598 561h432l-112 516z" />
<glyph unicode="&#xc7;" horiz-adv-x="1388" d="M102 723q0 225 86 392t246 257t373 90q268 0 463 -147q31 -25 43 -49.5t12 -61.5q0 -53 -29.5 -91t-72.5 -38q-29 0 -50.5 7.5t-48.5 25.5q-82 53 -151.5 76.5t-149.5 23.5q-197 0 -296 -121.5t-99 -363.5q0 -487 395 -487q76 0 143.5 23.5t157.5 76.5q31 18 51.5 25.5 t47.5 7.5q43 0 72.5 -38t29.5 -91q0 -37 -13.5 -62.5t-41.5 -48.5q-170 -131 -404 -145l-8 -70q33 4 45 4q63 0 107.5 -39t44.5 -102q0 -80 -72 -130t-205 -50q-86 0 -145 20q-41 14 -41 61q0 29 18.5 49.5t44.5 12.5q70 -16 115 -16q94 0 94 53q0 18 -13 28.5t-36 10.5 q-18 0 -47 -6.5t-43 -6.5q-20 0 -31.5 11.5t-9.5 31.5l18 142q-184 20 -319 116.5t-208 254t-73 364.5z" />
<glyph unicode="&#xc8;" horiz-adv-x="1214" d="M143 150v1144q0 72 39 111t111 39h725q152 0 151 -123q0 -125 -151 -125h-563v-338h522q152 0 151 -125q0 -123 -151 -123h-522v-362h563q152 0 151 -125q0 -123 -151 -123h-725q-72 0 -111 39t-39 111zM336 1786q0 43 32.5 76.5t79.5 33.5q53 0 101 -47l176 -174 q25 -23 24 -53q0 -29 -20 -47.5t-51 -18.5q-20 0 -37 9l-223 110q-82 39 -82 111z" />
<glyph unicode="&#xc9;" horiz-adv-x="1214" d="M143 150v1144q0 72 39 111t111 39h725q152 0 151 -123q0 -125 -151 -125h-563v-338h522q152 0 151 -125q0 -123 -151 -123h-522v-362h563q152 0 151 -125q0 -123 -151 -123h-725q-72 0 -111 39t-39 111zM604 1622q0 27 27 53l176 174q47 47 100 47q45 0 79 -33.5 t34 -78.5q0 -31 -20.5 -59.5t-61.5 -49.5l-223 -110q-16 -9 -39 -9q-29 0 -50.5 19.5t-21.5 46.5z" />
<glyph unicode="&#xca;" horiz-adv-x="1214" d="M143 150v1144q0 72 39 111t111 39h725q152 0 151 -123q0 -125 -151 -125h-563v-338h522q152 0 151 -125q0 -123 -151 -123h-522v-362h563q152 0 151 -125q0 -123 -151 -123h-725q-72 0 -111 39t-39 111zM373 1645q0 39 37 69l163 139q47 41 105 41q57 0 104 -41l164 -139 q37 -31 37 -69q0 -35 -26.5 -60.5t-63.5 -25.5q-41 0 -74 30l-141 137l-142 -137q-30 -30 -71 -30q-39 0 -65.5 25.5t-26.5 60.5z" />
<glyph unicode="&#xcb;" horiz-adv-x="1214" d="M143 150v1144q0 72 39 111t111 39h725q152 0 151 -123q0 -125 -151 -125h-563v-338h522q152 0 151 -125q0 -123 -151 -123h-522v-362h563q152 0 151 -125q0 -123 -151 -123h-725q-72 0 -111 39t-39 111zM330 1729q0 66 43 104.5t110 38.5q68 0 111 -39t43 -104 q0 -66 -42 -106t-112 -40q-67 0 -110 40t-43 106zM721 1729q0 66 42 104.5t109 38.5q68 0 111 -39t43 -104q0 -66 -43 -106t-111 -40q-67 0 -109 40t-42 106z" />
<glyph unicode="&#xcc;" horiz-adv-x="606" d="M-39 1786q0 43 32.5 76.5t79.5 33.5q53 0 101 -47l176 -174q25 -23 24 -53q0 -29 -20 -47.5t-51 -18.5q-20 0 -37 9l-223 110q-82 39 -82 111zM143 147v1149q0 72 43 115t117 43t117 -43t43 -115v-1149q0 -74 -43 -116.5t-117 -42.5t-117 43t-43 116z" />
<glyph unicode="&#xcd;" horiz-adv-x="606" d="M143 147v1149q0 72 43 115t117 43t117 -43t43 -115v-1149q0 -74 -43 -116.5t-117 -42.5t-117 43t-43 116zM229 1622q0 27 27 53l176 174q47 47 100 47q45 0 79 -33.5t34 -78.5q0 -31 -20.5 -59.5t-61.5 -49.5l-223 -110q-16 -9 -39 -9q-29 0 -50.5 19.5t-21.5 46.5z" />
<glyph unicode="&#xce;" horiz-adv-x="606" d="M-2 1645q0 39 37 69l163 139q47 41 105 41q57 0 104 -41l164 -139q37 -31 37 -69q0 -35 -26.5 -60.5t-63.5 -25.5q-41 0 -74 30l-141 137l-142 -137q-30 -30 -71 -30q-39 0 -65.5 25.5t-26.5 60.5zM143 147v1149q0 72 43 115t117 43t117 -43t43 -115v-1149 q0 -74 -43 -116.5t-117 -42.5t-117 43t-43 116z" />
<glyph unicode="&#xcf;" horiz-adv-x="606" d="M-45 1729q0 66 43 104.5t110 38.5q68 0 111 -39t43 -104q0 -66 -42 -106t-112 -40q-67 0 -110 40t-43 106zM143 147v1149q0 72 43 115t117 43t117 -43t43 -115v-1149q0 -74 -43 -116.5t-117 -42.5t-117 43t-43 116zM346 1729q0 66 42 104.5t109 38.5q68 0 111 -39 t43 -104q0 -66 -43 -106t-111 -40q-67 0 -109 40t-42 106z" />
<glyph unicode="&#xd0;" horiz-adv-x="1624" d="M0 729q0 57 37 89t106 32h62v444q0 72 39 111t110 39h410q237 0 407 -86t260.5 -248t90.5 -387t-89.5 -388t-260.5 -249t-408 -86h-410q-72 0 -110.5 39t-38.5 111v458h-62q-70 0 -106.5 32t-36.5 89zM524 258h219q459 0 459 465q0 233 -113.5 348t-345.5 115h-219v-336 h267q70 0 106.5 -32t36.5 -89t-37 -89t-106 -32h-267v-350z" />
<glyph unicode="&#xd1;" horiz-adv-x="1540" d="M143 147v1149q0 70 42 114t110 44q76 0 117 -53l686 -873v768q0 70 41 114t106 44q68 0 110 -44t42 -114v-1149q0 -72 -42 -115.5t-110 -43.5q-74 0 -119 53l-686 879v-773q0 -72 -40 -115.5t-107 -43.5q-68 0 -109 44t-41 115zM420 1665q0 43 25.5 88t70.5 75t100 30 q47 0 99.5 -14.5t60.5 -16.5q92 -31 145 -31q23 0 36.5 8t31.5 25q16 16 30.5 24.5t37.5 8.5q31 0 47 -18.5t16 -51.5q0 -43 -25.5 -88t-70.5 -75t-101 -30q-47 0 -99 14.5t-60 16.5q-92 31 -146 31q-23 0 -37 -8t-30 -25q-18 -18 -31.5 -26.5t-36.5 -8.5q-29 0 -46 19.5 t-17 52.5z" />
<glyph unicode="&#xd2;" horiz-adv-x="1611" d="M102 723q0 225 86 392t245 257t374 90t373.5 -90t244.5 -257t86 -392t-86 -392t-244.5 -258t-373.5 -91t-374 91t-245 258t-86 392zM422 723q0 -240 102.5 -367t282.5 -127t283.5 127t103.5 367t-102.5 365.5t-284.5 125.5t-283.5 -125.5t-101.5 -365.5zM463 1786 q0 43 32.5 76.5t79.5 33.5q53 0 101 -47l176 -174q25 -23 24 -53q0 -29 -20 -47.5t-51 -18.5q-20 0 -37 9l-223 110q-82 39 -82 111z" />
<glyph unicode="&#xd3;" horiz-adv-x="1611" d="M102 723q0 225 86 392t245 257t374 90t373.5 -90t244.5 -257t86 -392t-86 -392t-244.5 -258t-373.5 -91t-374 91t-245 258t-86 392zM422 723q0 -240 102.5 -367t282.5 -127t283.5 127t103.5 367t-102.5 365.5t-284.5 125.5t-283.5 -125.5t-101.5 -365.5zM731 1622 q0 27 27 53l176 174q47 47 100 47q45 0 79 -33.5t34 -78.5q0 -31 -20.5 -59.5t-61.5 -49.5l-223 -110q-16 -9 -39 -9q-29 0 -50.5 19.5t-21.5 46.5z" />
<glyph unicode="&#xd4;" horiz-adv-x="1611" d="M102 723q0 225 86 392t245 257t374 90t373.5 -90t244.5 -257t86 -392t-86 -392t-244.5 -258t-373.5 -91t-374 91t-245 258t-86 392zM422 723q0 -240 102.5 -367t282.5 -127t283.5 127t103.5 367t-102.5 365.5t-284.5 125.5t-283.5 -125.5t-101.5 -365.5zM500 1645 q0 39 37 69l163 139q47 41 105 41q57 0 104 -41l164 -139q37 -31 37 -69q0 -35 -26.5 -60.5t-63.5 -25.5q-41 0 -74 30l-141 137l-142 -137q-30 -30 -71 -30q-39 0 -65.5 25.5t-26.5 60.5z" />
<glyph unicode="&#xd5;" horiz-adv-x="1611" d="M102 723q0 225 86 392t245 257t374 90t373.5 -90t244.5 -257t86 -392t-86 -392t-244.5 -258t-373.5 -91t-374 91t-245 258t-86 392zM422 723q0 -240 102.5 -367t282.5 -127t283.5 127t103.5 367t-102.5 365.5t-284.5 125.5t-283.5 -125.5t-101.5 -365.5zM455 1665 q0 43 25.5 88t70.5 75t100 30q47 0 99.5 -14.5t60.5 -16.5q92 -31 145 -31q23 0 36.5 8t31.5 25q16 16 30.5 24.5t37.5 8.5q31 0 47 -18.5t16 -51.5q0 -43 -25.5 -88t-70.5 -75t-101 -30q-47 0 -99 14.5t-60 16.5q-92 31 -146 31q-23 0 -37 -8t-30 -25q-18 -18 -31.5 -26.5 t-36.5 -8.5q-29 0 -46 19.5t-17 52.5z" />
<glyph unicode="&#xd6;" horiz-adv-x="1611" d="M102 723q0 225 86 392t245 257t374 90t373.5 -90t244.5 -257t86 -392t-86 -392t-244.5 -258t-373.5 -91t-374 91t-245 258t-86 392zM422 723q0 -240 102.5 -367t282.5 -127t283.5 127t103.5 367t-102.5 365.5t-284.5 125.5t-283.5 -125.5t-101.5 -365.5zM457 1729 q0 66 43 104.5t110 38.5q68 0 111 -39t43 -104q0 -66 -42 -106t-112 -40q-67 0 -110 40t-43 106zM848 1729q0 66 42 104.5t109 38.5q68 0 111 -39t43 -104q0 -66 -43 -106t-111 -40q-67 0 -109 40t-42 106z" />
<glyph unicode="&#xd8;" horiz-adv-x="1611" d="M102 723q0 225 86 392t245 257t374 90q150 0 268 -43l33 58q23 41 55.5 60t65.5 19q45 0 77.5 -31.5t32.5 -78.5q0 -41 -26 -86l-33 -57q113 -99 172 -246.5t59 -333.5q0 -225 -86 -392t-244.5 -258t-373.5 -91q-147 0 -270 43l-33 -58q-45 -80 -121 -80q-45 0 -77 32 t-32 81q0 43 25 84l35 59q-113 98 -172.5 246t-59.5 334zM422 723q-1 -192 65 -313l457 784q-72 20 -137 20q-182 0 -283.5 -125.5t-101.5 -365.5zM670 252q63 -23 137 -23q180 0 283.5 127t103.5 367q0 190 -68 315z" />
<glyph unicode="&#xd9;" horiz-adv-x="1513" d="M135 596v700q0 72 43 115t115 43t114 -43t42 -115v-714q0 -172 78.5 -262.5t228.5 -90.5t229.5 91.5t79.5 261.5v714q0 72 42 115t114 43t114.5 -43t42.5 -115v-700q0 -299 -159.5 -456.5t-462.5 -157.5t-462 156.5t-159 457.5zM414 1786q0 43 32.5 76.5t79.5 33.5 q53 0 101 -47l176 -174q25 -23 24 -53q0 -29 -20 -47.5t-51 -18.5q-20 0 -37 9l-223 110q-82 39 -82 111z" />
<glyph unicode="&#xda;" horiz-adv-x="1513" d="M135 596v700q0 72 43 115t115 43t114 -43t42 -115v-714q0 -172 78.5 -262.5t228.5 -90.5t229.5 91.5t79.5 261.5v714q0 72 42 115t114 43t114.5 -43t42.5 -115v-700q0 -299 -159.5 -456.5t-462.5 -157.5t-462 156.5t-159 457.5zM682 1622q0 27 27 53l176 174 q47 47 100 47q45 0 79 -33.5t34 -78.5q0 -31 -20.5 -59.5t-61.5 -49.5l-223 -110q-16 -9 -39 -9q-29 0 -50.5 19.5t-21.5 46.5z" />
<glyph unicode="&#xdb;" horiz-adv-x="1513" d="M135 596v700q0 72 43 115t115 43t114 -43t42 -115v-714q0 -172 78.5 -262.5t228.5 -90.5t229.5 91.5t79.5 261.5v714q0 72 42 115t114 43t114.5 -43t42.5 -115v-700q0 -299 -159.5 -456.5t-462.5 -157.5t-462 156.5t-159 457.5zM451 1645q0 39 37 69l163 139 q47 41 105 41q57 0 104 -41l164 -139q37 -31 37 -69q0 -35 -26.5 -60.5t-63.5 -25.5q-41 0 -74 30l-141 137l-142 -137q-30 -30 -71 -30q-39 0 -65.5 25.5t-26.5 60.5z" />
<glyph unicode="&#xdc;" horiz-adv-x="1513" d="M135 596v700q0 72 43 115t115 43t114 -43t42 -115v-714q0 -172 78.5 -262.5t228.5 -90.5t229.5 91.5t79.5 261.5v714q0 72 42 115t114 43t114.5 -43t42.5 -115v-700q0 -299 -159.5 -456.5t-462.5 -157.5t-462 156.5t-159 457.5zM408 1729q0 66 43 104.5t110 38.5 q68 0 111 -39t43 -104q0 -66 -42 -106t-112 -40q-67 0 -110 40t-43 106zM799 1729q0 66 42 104.5t109 38.5q68 0 111 -39t43 -104q0 -66 -43 -106t-111 -40q-67 0 -109 40t-42 106z" />
<glyph unicode="&#xdd;" horiz-adv-x="1302" d="M8 1311q0 57 44 101t102 44q61 0 106 -53l391 -477l391 477q46 53 107 53q57 0 103 -44t46 -101q0 -51 -38 -97l-449 -532v-535q0 -78 -45 -118.5t-113 -40.5q-72 0 -116.5 41t-44.5 118v535l-445 532q-39 41 -39 97zM577 1622q0 27 27 53l176 174q47 47 100 47 q45 0 79 -33.5t34 -78.5q0 -31 -20.5 -59.5t-61.5 -49.5l-223 -110q-16 -9 -39 -9q-29 0 -50.5 19.5t-21.5 46.5z" />
<glyph unicode="&#xde;" horiz-adv-x="1370" d="M143 147v1149q0 72 43 115t115 43t114 -43t42 -115v-143h352q235 0 365.5 -110.5t130.5 -309.5q0 -195 -132.5 -307.5t-363.5 -112.5h-352v-166q0 -72 -43 -115.5t-113 -43.5q-72 0 -115 43t-43 116zM457 557h301q129 0 188.5 42t59.5 134t-59.5 134t-188.5 42h-301v-352 z" />
<glyph unicode="&#xdf;" horiz-adv-x="1390" d="M119 133v776q0 266 146.5 408.5t418.5 142.5q201 0 313.5 -80t112.5 -223q0 -80 -37 -138t-104 -128q-47 -49 -69.5 -81t-22.5 -67q0 -41 39.5 -63.5t123.5 -48.5q96 -31 156.5 -61.5t106 -91t45.5 -156.5q0 -156 -115 -247t-307 -91q-97 0 -184 22.5t-152 63.5 q-66 37 -66 118q0 47 27 79t65 32q27 0 50.5 -8t62.5 -27q57 -27 101 -40t106 -13q63 0 97 21.5t34 62.5q0 45 -42 69.5t-132 53.5q-94 31 -152.5 60.5t-101.5 86t-43 146.5q0 76 34 133t99 131q47 49 69.5 84t22.5 71q0 53 -39 81t-112 28q-115 0 -178.5 -73.5 t-63.5 -209.5v-823q0 -68 -41 -106.5t-113 -38.5t-113.5 39t-41.5 106z" />
<glyph unicode="&#xe0;" horiz-adv-x="1118" d="M78 303q0 111 56 174.5t181 92t342 28.5h54v37q0 86 -38 125t-126 39t-254 -62q-47 -23 -80 -22q-45 0 -71.5 31.5t-26.5 82.5q0 41 18.5 68t59.5 49q72 39 175 61.5t203 22.5q222 0 328.5 -107.5t106.5 -328.5v-463q0 -68 -39 -105.5t-109 -37.5q-66 0 -105.5 40 t-39.5 103v14q-31 -76 -102.5 -118.5t-168.5 -42.5q-102 0 -185 41t-131 114.5t-48 163.5zM197 1438q0 51 38 87t91 36q74 0 123 -70l176 -236q18 -27 18 -53q0 -33 -22.5 -55.5t-54.5 -22.5q-27 0 -54 21l-249 182q-66 49 -66 111zM377 326q0 -57 38 -93t95 -36 q90 0 145.5 60t55.5 157v35h-35q-166 0 -232.5 -27t-66.5 -96z" />
<glyph unicode="&#xe1;" horiz-adv-x="1118" d="M78 303q0 111 56 174.5t181 92t342 28.5h54v37q0 86 -38 125t-126 39t-254 -62q-47 -23 -80 -22q-45 0 -71.5 31.5t-26.5 82.5q0 41 18.5 68t59.5 49q72 39 175 61.5t203 22.5q222 0 328.5 -107.5t106.5 -328.5v-463q0 -68 -39 -105.5t-109 -37.5q-66 0 -105.5 40 t-39.5 103v14q-31 -76 -102.5 -118.5t-168.5 -42.5q-102 0 -185 41t-131 114.5t-48 163.5zM377 326q0 -57 38 -93t95 -36q90 0 145.5 60t55.5 157v35h-35q-166 0 -232.5 -27t-66.5 -96zM500 1202q0 27 19 53l176 236q51 70 123 70q51 0 90 -37t39 -86q0 -61 -66 -111 l-250 -182q-24 -19 -53 -19q-33 0 -55.5 22.5t-22.5 53.5z" />
<glyph unicode="&#xe2;" horiz-adv-x="1118" d="M78 303q0 111 56 174.5t181 92t342 28.5h54v37q0 86 -38 125t-126 39t-254 -62q-47 -23 -80 -22q-45 0 -71.5 31.5t-26.5 82.5q0 41 18.5 68t59.5 49q72 39 175 61.5t203 22.5q222 0 328.5 -107.5t106.5 -328.5v-463q0 -68 -39 -105.5t-109 -37.5q-66 0 -105.5 40 t-39.5 103v14q-31 -76 -102.5 -118.5t-168.5 -42.5q-102 0 -185 41t-131 114.5t-48 163.5zM258 1217q0 33 23 61l172 221q29 35 54.5 50.5t64.5 15.5t64.5 -15.5t54.5 -52.5l172 -219q23 -29 22 -59q0 -37 -29.5 -65t-66.5 -28q-49 0 -82 48l-135 200l-135 -200 q-33 -48 -82 -48q-39 0 -68 27t-29 64zM377 326q0 -57 38 -93t95 -36q90 0 145.5 60t55.5 157v35h-35q-166 0 -232.5 -27t-66.5 -96z" />
<glyph unicode="&#xe3;" horiz-adv-x="1118" d="M78 303q0 111 56 174.5t181 92t342 28.5h54v37q0 86 -38 125t-126 39t-254 -62q-47 -23 -80 -22q-45 0 -71.5 31.5t-26.5 82.5q0 41 18.5 68t59.5 49q72 39 175 61.5t203 22.5q222 0 328.5 -107.5t106.5 -328.5v-463q0 -68 -39 -105.5t-109 -37.5q-66 0 -105.5 40 t-39.5 103v14q-31 -76 -102.5 -118.5t-168.5 -42.5q-102 0 -185 41t-131 114.5t-48 163.5zM222 1272q0 43 25.5 96t70.5 91t100 38q37 0 73 -15.5t91 -45.5q41 -25 68.5 -37.5t52.5 -12.5q31 0 49 14.5t43 45.5q18 27 31.5 38t36.5 11q27 0 43 -22.5t16 -57.5 q0 -43 -25.5 -96t-70.5 -91t-101 -38q-39 0 -76.5 16.5t-86.5 44.5q-45 25 -72 36t-49 11q-31 0 -49.5 -14t-42.5 -45q-18 -25 -31.5 -36t-36.5 -11q-27 0 -43 22.5t-16 57.5zM377 326q0 -57 38 -93t95 -36q90 0 145.5 60t55.5 157v35h-35q-166 0 -232.5 -27t-66.5 -96z" />
<glyph unicode="&#xe4;" horiz-adv-x="1118" d="M78 303q0 111 56 174.5t181 92t342 28.5h54v37q0 86 -38 125t-126 39t-254 -62q-47 -23 -80 -22q-45 0 -71.5 31.5t-26.5 82.5q0 41 18.5 68t59.5 49q72 39 175 61.5t203 22.5q222 0 328.5 -107.5t106.5 -328.5v-463q0 -68 -39 -105.5t-109 -37.5q-66 0 -105.5 40 t-39.5 103v14q-31 -76 -102.5 -118.5t-168.5 -42.5q-102 0 -185 41t-131 114.5t-48 163.5zM224 1346q0 66 43 104.5t110 38.5q68 0 111 -39t43 -104q0 -66 -42 -107t-112 -41q-67 0 -110 41t-43 107zM377 326q0 -57 38 -93t95 -36q90 0 145.5 60t55.5 157v35h-35 q-166 0 -232.5 -27t-66.5 -96zM615 1346q0 66 42 104.5t109 38.5q68 0 111 -39t43 -104q0 -66 -43 -107t-111 -41q-67 0 -109 41t-42 107z" />
<glyph unicode="&#xe5;" horiz-adv-x="1118" d="M78 303q0 111 56 174.5t181 92t342 28.5h54v37q0 86 -38 125t-126 39t-254 -62q-47 -23 -80 -22q-45 0 -71.5 31.5t-26.5 82.5q0 41 18.5 68t59.5 49q72 39 175 61.5t203 22.5q222 0 328.5 -107.5t106.5 -328.5v-463q0 -68 -39 -105.5t-109 -37.5q-66 0 -105.5 40 t-39.5 103v14q-31 -76 -102.5 -118.5t-168.5 -42.5q-102 0 -185 41t-131 114.5t-48 163.5zM349 1348q0 92 64.5 155.5t158.5 63.5t158.5 -63.5t64.5 -155.5q0 -94 -64.5 -158t-158.5 -64t-158.5 63.5t-64.5 158.5zM377 326q0 -57 38 -93t95 -36q90 0 145.5 60t55.5 157v35 h-35q-166 0 -232.5 -27t-66.5 -96zM484 1348q0 -41 24.5 -68t63.5 -27t63.5 27t24.5 68q0 39 -24.5 65.5t-63.5 26.5t-63.5 -27t-24.5 -65z" />
<glyph unicode="&#xe6;" horiz-adv-x="1714" d="M78 303q0 111 56 174.5t181 92t340 28.5h54v37q0 86 -39 125t-123 39q-74 0 -129.5 -15.5t-112.5 -40.5q-63 -29 -98 -28q-41 0 -66.5 31.5t-25.5 82.5q0 74 78 117q72 41 169 62.5t201 21.5q231 0 328 -129q61 61 143 95t180 34q127 0 225.5 -61.5t153 -174t54.5 -257.5 q0 -92 -80 -93h-561q16 -119 72.5 -174t164.5 -55q55 0 97 12.5t106 38.5q70 33 104 33q41 0 65.5 -33t24.5 -84q0 -35 -20.5 -64.5t-56.5 -49.5q-68 -37 -159 -60.5t-167 -23.5q-141 0 -245.5 51t-164.5 147q-47 -96 -138 -147t-210 -51q-115 0 -206 41t-143 113.5 t-52 164.5zM377 326q0 -57 40 -93t103 -36q80 0 134.5 62.5t54.5 154.5v35h-37q-164 0 -229.5 -27t-65.5 -96zM1006 598h380q-4 104 -51 161.5t-127 57.5q-88 0 -140 -56t-62 -163z" />
<glyph unicode="&#xe7;" horiz-adv-x="1011" d="M70 502q0 158 66.5 277.5t187 185t278.5 65.5q82 0 165 -22.5t148 -63.5q63 -39 64 -115q0 -53 -24.5 -86.5t-65.5 -33.5q-27 0 -50.5 9t-62.5 27q-43 23 -76.5 35.5t-76.5 12.5q-115 0 -175.5 -73t-60.5 -212t60.5 -213t175.5 -74q43 0 75.5 11.5t79.5 35.5 q39 18 61.5 27.5t49.5 9.5q39 0 64.5 -34.5t25.5 -88.5q0 -76 -64 -112q-111 -72 -272 -84l-8 -72q33 4 45 4q63 0 107 -39t44 -102q0 -80 -71.5 -130t-204.5 -50q-86 0 -145 20q-41 14 -41 61q0 29 18.5 49.5t44.5 12.5q70 -16 115 -16q94 0 94 53q0 18 -13.5 28.5 t-35.5 10.5q-18 0 -47 -6.5t-43 -6.5q-20 0 -31.5 11.5t-9.5 31.5l18 146q-190 29 -299.5 165t-109.5 345z" />
<glyph unicode="&#xe8;" horiz-adv-x="1091" d="M70 506q0 154 63.5 272.5t176 185t255.5 66.5q137 0 240.5 -60.5t161 -172t57.5 -260.5q0 -45 -21.5 -69t-60.5 -24h-573q14 -121 73.5 -175t169.5 -54q59 0 106.5 14.5t104.5 38.5q29 12 55.5 21.5t47.5 9.5q41 0 66.5 -33t25.5 -84q0 -35 -20.5 -64.5t-57.5 -49.5 q-70 -37 -162 -60.5t-170 -23.5q-164 0 -285.5 63.5t-187 181t-65.5 277.5zM190 1438q0 51 38 87t91 36q74 0 123 -70l176 -236q18 -27 18 -53q0 -33 -22.5 -55.5t-54.5 -22.5q-27 0 -54 21l-249 182q-66 49 -66 111zM369 598h395q-6 109 -54 164t-137 55q-88 0 -141 -56 t-63 -163z" />
<glyph unicode="&#xe9;" horiz-adv-x="1091" d="M70 506q0 154 63.5 272.5t176 185t255.5 66.5q137 0 240.5 -60.5t161 -172t57.5 -260.5q0 -45 -21.5 -69t-60.5 -24h-573q14 -121 73.5 -175t169.5 -54q59 0 106.5 14.5t104.5 38.5q29 12 55.5 21.5t47.5 9.5q41 0 66.5 -33t25.5 -84q0 -35 -20.5 -64.5t-57.5 -49.5 q-70 -37 -162 -60.5t-170 -23.5q-164 0 -285.5 63.5t-187 181t-65.5 277.5zM369 598h395q-6 109 -54 164t-137 55q-88 0 -141 -56t-63 -163zM493 1202q0 27 19 53l176 236q51 70 123 70q51 0 90 -37t39 -86q0 -61 -66 -111l-250 -182q-24 -19 -53 -19q-33 0 -55.5 22.5 t-22.5 53.5z" />
<glyph unicode="&#xea;" horiz-adv-x="1091" d="M70 506q0 154 63.5 272.5t176 185t255.5 66.5q137 0 240.5 -60.5t161 -172t57.5 -260.5q0 -45 -21.5 -69t-60.5 -24h-573q14 -121 73.5 -175t169.5 -54q59 0 106.5 14.5t104.5 38.5q29 12 55.5 21.5t47.5 9.5q41 0 66.5 -33t25.5 -84q0 -35 -20.5 -64.5t-57.5 -49.5 q-70 -37 -162 -60.5t-170 -23.5q-164 0 -285.5 63.5t-187 181t-65.5 277.5zM251 1217q0 33 23 61l172 221q29 35 54.5 50.5t64.5 15.5t64.5 -15.5t54.5 -52.5l172 -219q23 -29 22 -59q0 -37 -29.5 -65t-66.5 -28q-49 0 -82 48l-135 200l-135 -200q-33 -48 -82 -48 q-39 0 -68 27t-29 64zM369 598h395q-6 109 -54 164t-137 55q-88 0 -141 -56t-63 -163z" />
<glyph unicode="&#xeb;" horiz-adv-x="1091" d="M70 506q0 154 63.5 272.5t176 185t255.5 66.5q137 0 240.5 -60.5t161 -172t57.5 -260.5q0 -45 -21.5 -69t-60.5 -24h-573q14 -121 73.5 -175t169.5 -54q59 0 106.5 14.5t104.5 38.5q29 12 55.5 21.5t47.5 9.5q41 0 66.5 -33t25.5 -84q0 -35 -20.5 -64.5t-57.5 -49.5 q-70 -37 -162 -60.5t-170 -23.5q-164 0 -285.5 63.5t-187 181t-65.5 277.5zM217 1346q0 66 43 104.5t110 38.5q68 0 111 -39t43 -104q0 -66 -42 -107t-112 -41q-67 0 -110 41t-43 107zM369 598h395q-6 109 -54 164t-137 55q-88 0 -141 -56t-63 -163zM608 1346q0 66 42 104.5 t109 38.5q68 0 111 -39t43 -104q0 -66 -43 -107t-111 -41q-67 0 -109 41t-42 107z" />
<glyph unicode="&#xec;" horiz-adv-x="546" d="M-100 1438q0 51 38 87t91 36q74 0 123 -70l176 -236q18 -27 18 -53q0 -33 -22.5 -55.5t-54.5 -22.5q-27 0 -54 21l-249 182q-66 49 -66 111zM119 133v748q0 72 45 108.5t110 36.5q66 0 110 -37t44 -108v-748q0 -72 -44 -108.5t-110 -36.5q-67 0 -111 36.5t-44 108.5z" />
<glyph unicode="&#xed;" horiz-adv-x="546" d="M119 133v748q0 72 45 108.5t110 36.5q66 0 110 -37t44 -108v-748q0 -72 -44 -108.5t-110 -36.5q-67 0 -111 36.5t-44 108.5zM203 1202q0 27 19 53l176 236q51 70 123 70q51 0 90 -37t39 -86q0 -61 -66 -111l-250 -182q-24 -19 -53 -19q-33 0 -55.5 22.5t-22.5 53.5z" />
<glyph unicode="&#xee;" horiz-adv-x="546" d="M-39 1217q0 33 23 61l172 221q29 35 54.5 50.5t64.5 15.5t64.5 -15.5t54.5 -52.5l172 -219q23 -29 22 -59q0 -37 -29.5 -65t-66.5 -28q-49 0 -82 48l-135 200l-135 -200q-33 -48 -82 -48q-39 0 -68 27t-29 64zM119 133v748q0 72 45 108.5t110 36.5q66 0 110 -37t44 -108 v-748q0 -72 -44 -108.5t-110 -36.5q-67 0 -111 36.5t-44 108.5z" />
<glyph unicode="&#xef;" horiz-adv-x="546" d="M-73 1346q0 66 43 104.5t110 38.5q68 0 111 -39t43 -104q0 -66 -42 -107t-112 -41q-67 0 -110 41t-43 107zM119 133v748q0 72 45 108.5t110 36.5q66 0 110 -37t44 -108v-748q0 -72 -44 -108.5t-110 -36.5q-67 0 -111 36.5t-44 108.5zM318 1346q0 66 42 104.5t109 38.5 q68 0 111 -39t43 -104q0 -66 -43 -107t-111 -41q-67 0 -109 41t-42 107z" />
<glyph unicode="&#xf0;" horiz-adv-x="1216" d="M70 461q0 137 62.5 243.5t174 167t254.5 60.5q160 0 254 -74q-45 100 -141 191l-258 -70q-20 -4 -31 -4q-37 0 -59.5 23.5t-22.5 54.5q0 29 18.5 51t53.5 33l133 37q-43 27 -125 65q-39 18 -58.5 46t-19.5 58q0 47 36 81t91 34q33 0 66 -12q170 -61 317 -191l211 58 q20 4 31 4q35 0 57.5 -23.5t22.5 -54.5q0 -29 -18.5 -51.5t-53.5 -32.5l-121 -33q96 -116 150.5 -252.5t54.5 -277.5q0 -289 -146.5 -448.5t-412.5 -159.5q-154 0 -271.5 59t-183 167.5t-65.5 250.5zM377 461q0 -119 57.5 -180.5t167.5 -61.5q109 0 167 62.5t58 179.5 q0 119 -57 180t-168 61t-168 -61t-57 -180z" />
<glyph unicode="&#xf1;" horiz-adv-x="1218" d="M119 133v752q0 63 44 102t113 39q63 0 103.5 -38t40.5 -97v-29q53 82 138 125t192 43q180 0 268 -105.5t88 -318.5v-473q0 -68 -42 -106.5t-114 -38.5t-112.5 39t-40.5 106v459q0 102 -38 149t-118 47q-96 0 -154.5 -61t-58.5 -164v-430q0 -68 -41 -106.5t-113 -38.5 t-113.5 39t-41.5 106zM263 1272q0 43 25.5 96t70.5 91t100 38q37 0 73 -15.5t91 -45.5q41 -25 68.5 -37.5t52.5 -12.5q31 0 49 14.5t43 45.5q18 27 31.5 38t36.5 11q27 0 43 -22.5t16 -57.5q0 -43 -25.5 -96t-70.5 -91t-101 -38q-39 0 -76.5 16.5t-86.5 44.5q-45 25 -72 36 t-49 11q-31 0 -49.5 -14t-42.5 -45q-18 -25 -31.5 -36t-36.5 -11q-27 0 -43 22.5t-16 57.5z" />
<glyph unicode="&#xf2;" horiz-adv-x="1204" d="M70 508q0 160 65.5 277.5t186 181t280.5 63.5t281 -63.5t186.5 -181t65.5 -277.5t-65.5 -277.5t-186.5 -182t-281 -64.5t-280.5 64.5t-186 182t-65.5 277.5zM227 1438q0 51 38 87t91 36q74 0 123 -70l176 -236q18 -27 18 -53q0 -33 -22.5 -55.5t-54.5 -22.5q-27 0 -54 21 l-249 182q-66 49 -66 111zM377 508q0 -289 225 -289t225 289q0 145 -58 217t-167 72q-225 0 -225 -289z" />
<glyph unicode="&#xf3;" horiz-adv-x="1204" d="M70 508q0 160 65.5 277.5t186 181t280.5 63.5t281 -63.5t186.5 -181t65.5 -277.5t-65.5 -277.5t-186.5 -182t-281 -64.5t-280.5 64.5t-186 182t-65.5 277.5zM377 508q0 -289 225 -289t225 289q0 145 -58 217t-167 72q-225 0 -225 -289zM530 1202q0 27 19 53l176 236 q51 70 123 70q51 0 90 -37t39 -86q0 -61 -66 -111l-250 -182q-24 -19 -53 -19q-33 0 -55.5 22.5t-22.5 53.5z" />
<glyph unicode="&#xf4;" horiz-adv-x="1204" d="M70 508q0 160 65.5 277.5t186 181t280.5 63.5t281 -63.5t186.5 -181t65.5 -277.5t-65.5 -277.5t-186.5 -182t-281 -64.5t-280.5 64.5t-186 182t-65.5 277.5zM288 1217q0 33 23 61l172 221q29 35 54.5 50.5t64.5 15.5t64.5 -15.5t54.5 -52.5l172 -219q23 -29 22 -59 q0 -37 -29.5 -65t-66.5 -28q-49 0 -82 48l-135 200l-135 -200q-33 -48 -82 -48q-39 0 -68 27t-29 64zM377 508q0 -289 225 -289t225 289q0 145 -58 217t-167 72q-225 0 -225 -289z" />
<glyph unicode="&#xf5;" horiz-adv-x="1204" d="M70 508q0 160 65.5 277.5t186 181t280.5 63.5t281 -63.5t186.5 -181t65.5 -277.5t-65.5 -277.5t-186.5 -182t-281 -64.5t-280.5 64.5t-186 182t-65.5 277.5zM252 1272q0 43 25.5 96t70.5 91t100 38q37 0 73 -15.5t91 -45.5q41 -25 68.5 -37.5t52.5 -12.5q31 0 49 14.5 t43 45.5q18 27 31.5 38t36.5 11q27 0 43 -22.5t16 -57.5q0 -43 -25.5 -96t-70.5 -91t-101 -38q-39 0 -76.5 16.5t-86.5 44.5q-45 25 -72 36t-49 11q-31 0 -49.5 -14t-42.5 -45q-18 -25 -31.5 -36t-36.5 -11q-27 0 -43 22.5t-16 57.5zM377 508q0 -289 225 -289t225 289 q0 145 -58 217t-167 72q-225 0 -225 -289z" />
<glyph unicode="&#xf6;" horiz-adv-x="1204" d="M70 508q0 160 65.5 277.5t186 181t280.5 63.5t281 -63.5t186.5 -181t65.5 -277.5t-65.5 -277.5t-186.5 -182t-281 -64.5t-280.5 64.5t-186 182t-65.5 277.5zM254 1346q0 66 43 104.5t110 38.5q68 0 111 -39t43 -104q0 -66 -42 -107t-112 -41q-67 0 -110 41t-43 107z M377 508q0 -289 225 -289t225 289q0 145 -58 217t-167 72q-225 0 -225 -289zM645 1346q0 66 42 104.5t109 38.5q68 0 111 -39t43 -104q0 -66 -43 -107t-111 -41q-67 0 -109 41t-42 107z" />
<glyph unicode="&#xf7;" d="M127 588q0 45 30.5 74.5t75.5 29.5h787q45 0 75.5 -29.5t30.5 -74.5t-30.5 -76t-75.5 -31h-787q-45 0 -75.5 31t-30.5 76zM496 186q0 53 34.5 89t85.5 36t86 -35.5t35 -89.5q0 -51 -34.5 -87t-86.5 -36q-51 0 -85.5 36t-34.5 87zM496 987q0 53 34.5 88t85.5 35t86 -36 t35 -87t-34.5 -87t-86.5 -36q-51 0 -85.5 36t-34.5 87z" />
<glyph unicode="&#xf8;" horiz-adv-x="1204" d="M70 508q0 160 65.5 277.5t186 181t280.5 63.5q96 0 193 -26l36 63q12 23 34 35t44 12q33 0 58.5 -22.5t25.5 -55.5q0 -25 -12 -45l-37 -63q92 -68 141.5 -175.5t49.5 -244.5q0 -160 -65.5 -277.5t-186.5 -182t-281 -64.5q-98 0 -190 26l-39 -65q-12 -23 -34 -35t-44 -12 q-33 0 -59.5 22.5t-26.5 54.5q0 25 14 48l37 63q-92 68 -141 176.5t-49 245.5zM371 508q-1 -110 32 -176l267 459q-27 8 -68 8q-231 0 -231 -291zM535 223q31 -6 67 -6q229 0 229 291q0 106 -30 174z" />
<glyph unicode="&#xf9;" horiz-adv-x="1206" d="M113 408v473q0 68 42 106.5t113 38.5q72 0 113 -39t41 -106v-480q0 -90 38 -133t115 -43q90 0 146.5 61.5t56.5 162.5v432q0 68 41 106.5t113 38.5t113.5 -39t41.5 -106v-752q0 -63 -44 -102t-113 -39q-66 0 -105 36.5t-39 98.5v20q-47 -78 -123.5 -118.5t-173.5 -40.5 q-190 0 -283 105.5t-93 318.5zM227 1438q0 51 38 87t91 36q74 0 123 -70l176 -236q18 -27 18 -53q0 -33 -22.5 -55.5t-54.5 -22.5q-27 0 -54 21l-249 182q-66 49 -66 111z" />
<glyph unicode="&#xfa;" horiz-adv-x="1206" d="M113 408v473q0 68 42 106.5t113 38.5q72 0 113 -39t41 -106v-480q0 -90 38 -133t115 -43q90 0 146.5 61.5t56.5 162.5v432q0 68 41 106.5t113 38.5t113.5 -39t41.5 -106v-752q0 -63 -44 -102t-113 -39q-66 0 -105 36.5t-39 98.5v20q-47 -78 -123.5 -118.5t-173.5 -40.5 q-190 0 -283 105.5t-93 318.5zM530 1202q0 27 19 53l176 236q51 70 123 70q51 0 90 -37t39 -86q0 -61 -66 -111l-250 -182q-24 -19 -53 -19q-33 0 -55.5 22.5t-22.5 53.5z" />
<glyph unicode="&#xfb;" horiz-adv-x="1206" d="M113 408v473q0 68 42 106.5t113 38.5q72 0 113 -39t41 -106v-480q0 -90 38 -133t115 -43q90 0 146.5 61.5t56.5 162.5v432q0 68 41 106.5t113 38.5t113.5 -39t41.5 -106v-752q0 -63 -44 -102t-113 -39q-66 0 -105 36.5t-39 98.5v20q-47 -78 -123.5 -118.5t-173.5 -40.5 q-190 0 -283 105.5t-93 318.5zM288 1217q0 33 23 61l172 221q29 35 54.5 50.5t64.5 15.5t64.5 -15.5t54.5 -52.5l172 -219q23 -29 22 -59q0 -37 -29.5 -65t-66.5 -28q-49 0 -82 48l-135 200l-135 -200q-33 -48 -82 -48q-39 0 -68 27t-29 64z" />
<glyph unicode="&#xfc;" horiz-adv-x="1206" d="M113 408v473q0 68 42 106.5t113 38.5q72 0 113 -39t41 -106v-480q0 -90 38 -133t115 -43q90 0 146.5 61.5t56.5 162.5v432q0 68 41 106.5t113 38.5t113.5 -39t41.5 -106v-752q0 -63 -44 -102t-113 -39q-66 0 -105 36.5t-39 98.5v20q-47 -78 -123.5 -118.5t-173.5 -40.5 q-190 0 -283 105.5t-93 318.5zM254 1346q0 66 43 104.5t110 38.5q68 0 111 -39t43 -104q0 -66 -42 -107t-112 -41q-67 0 -110 41t-43 107zM645 1346q0 66 42 104.5t109 38.5q68 0 111 -39t43 -104q0 -66 -43 -107t-111 -41q-67 0 -109 41t-42 107z" />
<glyph unicode="&#xfd;" horiz-adv-x="1093" d="M14 891q0 55 48.5 94t109.5 39q41 0 76 -21.5t55 -64.5l254 -553l248 553q18 43 52 63.5t73 20.5q59 0 104 -38t45 -91q0 -29 -14 -57l-551 -1131q-20 -43 -55 -64.5t-74 -21.5q-57 0 -100 37t-43 90q0 33 14 61l135 281l-364 748q-12 29 -13 55zM475 1202q0 27 19 53 l176 236q51 70 123 70q51 0 90 -37t39 -86q0 -61 -66 -111l-250 -182q-24 -19 -53 -19q-33 0 -55.5 22.5t-22.5 53.5z" />
<glyph unicode="&#xfe;" horiz-adv-x="1255" d="M119 -238v1551q0 63 44 102t116 39q68 0 108.5 -37t40.5 -98v-449q45 76 128 118t185 42q129 0 230.5 -67.5t158 -187.5t56.5 -273q0 -154 -56.5 -270.5t-158 -182t-230.5 -65.5q-102 0 -185 42t-128 117v-387q0 -61 -41 -98t-108 -37q-72 0 -116 39t-44 102zM424 506 q0 -137 59.5 -212t167.5 -75q109 0 168.5 73t59.5 210q0 139 -59.5 216t-168.5 77t-168 -75t-59 -214z" />
<glyph unicode="&#xff;" horiz-adv-x="1093" d="M14 891q0 55 48.5 94t109.5 39q41 0 76 -21.5t55 -64.5l254 -553l248 553q18 43 52 63.5t73 20.5q59 0 104 -38t45 -91q0 -29 -14 -57l-551 -1131q-20 -43 -55 -64.5t-74 -21.5q-57 0 -100 37t-43 90q0 33 14 61l135 281l-364 748q-12 29 -13 55zM199 1346q0 66 43 104.5 t110 38.5q68 0 111 -39t43 -104q0 -66 -42 -107t-112 -41q-67 0 -110 41t-43 107zM590 1346q0 66 42 104.5t109 38.5q68 0 111 -39t43 -104q0 -66 -43 -107t-111 -41q-67 0 -109 41t-42 107z" />
<glyph unicode="&#x100;" horiz-adv-x="1538" d="M35 129q0 29 16 66l553 1161q23 49 68 74.5t96 25.5q53 0 98 -26.5t70 -73.5l553 -1161q16 -37 16 -66q0 -57 -46 -97t-105 -40q-39 0 -74 21.5t-53 64.5l-109 241h-694l-109 -241q-18 -43 -52 -64.5t-75 -21.5q-59 0 -106 40t-47 97zM418 1726q0 45 28.5 71t73.5 26h496 q45 0 73.5 -25.5t28.5 -71.5q0 -45 -28.5 -70.5t-73.5 -25.5h-496q-45 0 -73.5 25.5t-28.5 70.5zM532 561h478l-238 533z" />
<glyph unicode="&#x101;" horiz-adv-x="1118" d="M78 303q0 111 56 174.5t181 92t342 28.5h54v37q0 86 -38 125t-126 39t-254 -62q-47 -23 -80 -22q-45 0 -71.5 31.5t-26.5 82.5q0 41 18.5 68t59.5 49q72 39 175 61.5t203 22.5q222 0 328.5 -107.5t106.5 -328.5v-463q0 -68 -39 -105.5t-109 -37.5q-66 0 -105.5 40 t-39.5 103v14q-31 -76 -102.5 -118.5t-168.5 -42.5q-102 0 -185 41t-131 114.5t-48 163.5zM222 1343q0 45 28.5 71t73.5 26h496q45 0 73.5 -25.5t28.5 -71.5q0 -45 -28.5 -70.5t-73.5 -25.5h-496q-45 0 -73.5 25.5t-28.5 70.5zM377 326q0 -57 38 -93t95 -36q90 0 145.5 60 t55.5 157v35h-35q-166 0 -232.5 -27t-66.5 -96z" />
<glyph unicode="&#x102;" horiz-adv-x="1538" d="M35 129q0 29 16 66l553 1161q23 49 68 74.5t96 25.5q53 0 98 -26.5t70 -73.5l553 -1161q16 -37 16 -66q0 -57 -46 -97t-105 -40q-39 0 -74 21.5t-53 64.5l-109 241h-694l-109 -241q-18 -43 -52 -64.5t-75 -21.5q-59 0 -106 40t-47 97zM411 1796q0 31 24 52.5t56 21.5 q43 0 78 -35q33 -33 86 -50.5t113 -17.5q59 0 112.5 17.5t85.5 50.5q35 33 78 33q33 0 56.5 -20.5t23.5 -53.5q0 -20 -16 -53q-39 -72 -130 -115t-210 -43t-210 43t-130 115q-16 33 -17 55zM532 561h478l-238 533z" />
<glyph unicode="&#x103;" horiz-adv-x="1118" d="M78 303q0 111 56 174.5t181 92t342 28.5h54v37q0 86 -38 125t-126 39t-254 -62q-47 -23 -80 -22q-45 0 -71.5 31.5t-26.5 82.5q0 41 18.5 68t59.5 49q72 39 175 61.5t203 22.5q222 0 328.5 -107.5t106.5 -328.5v-463q0 -68 -39 -105.5t-109 -37.5q-66 0 -105.5 40 t-39.5 103v14q-31 -76 -102.5 -118.5t-168.5 -42.5q-102 0 -185 41t-131 114.5t-48 163.5zM211 1440q0 37 26 60.5t60 23.5q47 0 78 -45q68 -106 197 -107q129 0 196 107q14 23 36 34t42 11q35 0 61.5 -23.5t26.5 -60.5q0 -12 -8 -37q-37 -102 -136 -165.5t-218 -63.5 t-218.5 63t-136.5 166q-6 18 -6 37zM377 326q0 -57 38 -93t95 -36q90 0 145.5 60t55.5 157v35h-35q-166 0 -232.5 -27t-66.5 -96z" />
<glyph unicode="&#x104;" horiz-adv-x="1538" d="M35 129q0 29 16 66l553 1161q23 49 68 74.5t96 25.5q53 0 98 -26.5t70 -73.5l553 -1161q16 -39 16 -66q0 -41 -23.5 -72.5t-58.5 -48.5q-53 -25 -85.5 -57.5t-32.5 -83.5t30.5 -81t75.5 -30q43 0 98 19q7 2 19 2q25 0 40 -20.5t15 -47.5q0 -45 -37 -65q-78 -47 -180 -47 q-113 0 -186.5 64.5t-73.5 166.5q0 66 35 123t102 96q-14 23 -16 31l-109 241h-694l-109 -241q-18 -43 -52 -64.5t-75 -21.5q-59 0 -106 40t-47 97zM532 561h478l-238 533z" />
<glyph unicode="&#x105;" horiz-adv-x="1118" d="M78 303q0 111 56 174.5t182 92t341 28.5h54v37q0 86 -38 125t-126 39t-254 -62q-47 -23 -80 -22q-45 0 -71.5 31.5t-26.5 82.5q0 41 18.5 68t59.5 49q72 39 175 61.5t203 22.5q221 0 328 -107.5t107 -328.5v-463q0 -96 -74 -127q-61 -31 -90 -62.5t-29 -74.5 q0 -49 30.5 -80t78.5 -31q25 0 57.5 8.5t40.5 10.5q6 2 18 2q25 0 40.5 -20.5t15.5 -47.5q0 -45 -37 -65q-80 -47 -180 -47q-115 0 -188 64.5t-73 166.5q0 63 33 118.5t92 94.5q-29 39 -28 90v14q-31 -76 -101.5 -118.5t-165.5 -42.5q-104 0 -188 41t-132 114.5t-48 163.5z M377 326q0 -57 38 -93t95 -36q90 0 145.5 60t55.5 157v35h-35q-166 0 -232.5 -28t-66.5 -95z" />
<glyph unicode="&#x106;" horiz-adv-x="1388" d="M102 723q0 225 86 392t246 257t373 90q268 0 463 -147q31 -25 43 -49.5t12 -61.5q0 -53 -29.5 -91t-72.5 -38q-29 0 -50.5 7.5t-48.5 25.5q-82 53 -151.5 76.5t-149.5 23.5q-197 0 -296 -121.5t-99 -363.5q0 -487 395 -487q76 0 143.5 23.5t157.5 76.5q31 18 51.5 25.5 t47.5 7.5q43 0 72.5 -38t29.5 -91q0 -37 -13.5 -62.5t-41.5 -48.5q-195 -147 -463 -147q-213 0 -373 90t-246 258t-86 393zM733 1622q0 27 27 53l176 174q47 47 100 47q45 0 79 -33.5t34 -78.5q0 -31 -20.5 -59.5t-61.5 -49.5l-223 -110q-16 -9 -39 -9q-29 0 -50.5 19.5 t-21.5 46.5z" />
<glyph unicode="&#x107;" horiz-adv-x="1011" d="M70 502q0 158 66.5 277.5t187 185t278.5 65.5q82 0 165 -22.5t148 -63.5q63 -39 64 -115q0 -53 -24.5 -86.5t-65.5 -33.5q-27 0 -50.5 9t-62.5 27q-43 23 -76.5 35.5t-76.5 12.5q-115 0 -175.5 -73t-60.5 -212t60.5 -213t175.5 -74q43 0 75.5 11.5t79.5 35.5 q39 18 61.5 27.5t49.5 9.5q39 0 64.5 -34.5t25.5 -88.5q0 -76 -64 -112q-66 -41 -151.5 -63.5t-179.5 -22.5q-156 0 -272.5 63.5t-179 180t-62.5 274.5zM530 1202q0 27 19 53l176 236q51 70 123 70q51 0 90 -37t39 -86q0 -61 -66 -111l-250 -182q-24 -19 -53 -19 q-33 0 -55.5 22.5t-22.5 53.5z" />
<glyph unicode="&#x108;" horiz-adv-x="1388" d="M102 723q0 225 86 392t246 257t373 90q268 0 463 -147q31 -25 43 -49.5t12 -61.5q0 -53 -29.5 -91t-72.5 -38q-29 0 -50.5 7.5t-48.5 25.5q-82 53 -151.5 76.5t-149.5 23.5q-197 0 -296 -121.5t-99 -363.5q0 -487 395 -487q76 0 143.5 23.5t157.5 76.5q31 18 51.5 25.5 t47.5 7.5q43 0 72.5 -38t29.5 -91q0 -37 -13.5 -62.5t-41.5 -48.5q-195 -147 -463 -147q-213 0 -373 90t-246 258t-86 393zM502 1645q0 39 37 69l163 139q47 41 105 41q57 0 104 -41l164 -139q37 -31 37 -69q0 -35 -26.5 -60.5t-63.5 -25.5q-41 0 -74 30l-141 137l-142 -137 q-30 -30 -71 -30q-39 0 -65.5 25.5t-26.5 60.5z" />
<glyph unicode="&#x109;" horiz-adv-x="1011" d="M70 502q0 158 66.5 277.5t187 185t278.5 65.5q82 0 165 -22.5t148 -63.5q63 -39 64 -115q0 -53 -24.5 -86.5t-65.5 -33.5q-27 0 -50.5 9t-62.5 27q-43 23 -76.5 35.5t-76.5 12.5q-115 0 -175.5 -73t-60.5 -212t60.5 -213t175.5 -74q43 0 75.5 11.5t79.5 35.5 q39 18 61.5 27.5t49.5 9.5q39 0 64.5 -34.5t25.5 -88.5q0 -76 -64 -112q-66 -41 -151.5 -63.5t-179.5 -22.5q-156 0 -272.5 63.5t-179 180t-62.5 274.5zM288 1217q0 33 23 61l172 221q29 35 54.5 50.5t64.5 15.5t64.5 -15.5t54.5 -52.5l172 -219q23 -29 22 -59 q0 -37 -29.5 -65t-66.5 -28q-49 0 -82 48l-135 200l-135 -200q-33 -48 -82 -48q-39 0 -68 27t-29 64z" />
<glyph unicode="&#x10a;" horiz-adv-x="1388" d="M102 723q0 225 86 392t246 257t373 90q268 0 463 -147q31 -25 43 -49.5t12 -61.5q0 -53 -29.5 -91t-72.5 -38q-29 0 -50.5 7.5t-48.5 25.5q-82 53 -151.5 76.5t-149.5 23.5q-197 0 -296 -121.5t-99 -363.5q0 -487 395 -487q76 0 143.5 23.5t157.5 76.5q31 18 51.5 25.5 t47.5 7.5q43 0 72.5 -38t29.5 -91q0 -37 -13.5 -62.5t-41.5 -48.5q-195 -147 -463 -147q-213 0 -373 90t-246 258t-86 393zM631 1729q0 72 47 112.5t129 40.5q80 0 128 -42t48 -111q0 -72 -47 -114t-129 -42t-129 42t-47 114z" />
<glyph unicode="&#x10b;" horiz-adv-x="1011" d="M70 502q0 158 66.5 277.5t187 185t278.5 65.5q82 0 165 -22.5t148 -63.5q63 -39 64 -115q0 -53 -24.5 -86.5t-65.5 -33.5q-27 0 -50.5 9t-62.5 27q-43 23 -76.5 35.5t-76.5 12.5q-115 0 -175.5 -73t-60.5 -212t60.5 -213t175.5 -74q43 0 75.5 11.5t79.5 35.5 q39 18 61.5 27.5t49.5 9.5q39 0 64.5 -34.5t25.5 -88.5q0 -76 -64 -112q-66 -41 -151.5 -63.5t-179.5 -22.5q-156 0 -272.5 63.5t-179 180t-62.5 274.5zM426 1346q0 72 47 112.5t129 40.5q80 0 128 -42t48 -111q0 -72 -47 -114t-129 -42t-129 42t-47 114z" />
<glyph unicode="&#x10c;" horiz-adv-x="1388" d="M102 723q0 225 86 392t246 257t373 90q268 0 463 -147q31 -25 43 -49.5t12 -61.5q0 -53 -29.5 -91t-72.5 -38q-29 0 -50.5 7.5t-48.5 25.5q-82 53 -151.5 76.5t-149.5 23.5q-197 0 -296 -121.5t-99 -363.5q0 -487 395 -487q76 0 143.5 23.5t157.5 76.5q31 18 51.5 25.5 t47.5 7.5q43 0 72.5 -38t29.5 -91q0 -37 -13.5 -62.5t-41.5 -48.5q-195 -147 -463 -147q-213 0 -373 90t-246 258t-86 393zM502 1806q0 35 26.5 60.5t63.5 25.5q41 0 73 -30l142 -138l141 138q31 31 72 30q39 0 65.5 -25.5t26.5 -60.5q0 -37 -37 -71l-164 -138 q-47 -41 -104 -41q-58 0 -105 41l-163 138q-37 31 -37 71z" />
<glyph unicode="&#x10d;" horiz-adv-x="1011" d="M70 502q0 158 66.5 277.5t187 185t278.5 65.5q82 0 165 -22.5t148 -63.5q63 -39 64 -115q0 -53 -24.5 -86.5t-65.5 -33.5q-27 0 -50.5 9t-62.5 27q-43 23 -76.5 35.5t-76.5 12.5q-115 0 -175.5 -73t-60.5 -212t60.5 -213t175.5 -74q43 0 75.5 11.5t79.5 35.5 q39 18 61.5 27.5t49.5 9.5q39 0 64.5 -34.5t25.5 -88.5q0 -76 -64 -112q-66 -41 -151.5 -63.5t-179.5 -22.5q-156 0 -272.5 63.5t-179 180t-62.5 274.5zM288 1475q0 37 29 63.5t68 26.5q51 0 82 -47l135 -199l135 199q31 47 82 47q39 0 67.5 -27t28.5 -63q0 -33 -22 -62 l-172 -221q-29 -35 -55.5 -50.5t-63.5 -15.5q-39 0 -63.5 15.5t-55.5 52.5l-172 219q-23 29 -23 62z" />
<glyph unicode="&#x10e;" horiz-adv-x="1562" d="M143 150v1144q0 72 39 111t111 39h412q236 0 405.5 -86t259.5 -248t90 -387t-89 -388t-259 -249t-407 -86h-412q-72 0 -111 39t-39 111zM463 258h219q461 0 461 465q0 463 -461 463h-219v-928zM475 1806q0 35 26.5 60.5t63.5 25.5q41 0 73 -30l142 -138l141 138 q31 31 72 30q39 0 65.5 -25.5t26.5 -60.5q0 -37 -37 -71l-164 -138q-47 -41 -104 -41q-58 0 -105 41l-163 138q-37 31 -37 71z" />
<glyph unicode="&#x10f;" horiz-adv-x="1255" d="M70 512q0 156 56 273.5t156.5 181t231.5 63.5q102 0 185 -43t128 -121v453q0 61 41 98t109 37q72 0 116 -39t44 -102v-1180q0 -66 -42 -105.5t-112 -39.5t-112 40t-42 105v17q-45 -78 -128 -122t-187 -44q-129 0 -230.5 66.5t-157.5 186t-56 275.5zM377 512 q0 -139 59.5 -216t167.5 -77q109 0 167 75t58 214t-58 213t-167 74t-168 -73t-59 -210zM1188 1077v291q0 43 24.5 65.5t57.5 22.5q31 0 53.5 -20.5t22.5 -55.5q0 -12 -3 -18l-47 -295q-4 -27 -19 -41t-34 -14q-23 0 -39 17.5t-16 47.5z" />
<glyph unicode="&#x110;" horiz-adv-x="1624" d="M0 729q0 57 37 89t106 32h62v444q0 72 39 111t110 39h410q237 0 407 -86t260.5 -248t90.5 -387t-89.5 -388t-260.5 -249t-408 -86h-410q-72 0 -110.5 39t-38.5 111v458h-62q-70 0 -106.5 32t-36.5 89zM524 258h219q459 0 459 465q0 233 -113.5 348t-345.5 115h-219v-336 h267q70 0 106.5 -32t36.5 -89t-37 -89t-106 -32h-267v-350z" />
<glyph unicode="&#x111;" horiz-adv-x="1255" d="M70 512q0 156 56 273.5t156.5 181t231.5 63.5q102 0 185 -43t128 -121v226h-280q-63 0 -96 28.5t-33 77.5q0 51 32.5 79t96.5 28h280v14q0 61 41 98t109 37q72 0 116 -39t44 -102v-8h75q62 0 95.5 -29t33.5 -78t-33.5 -77.5t-95.5 -28.5h-75v-959q0 -66 -42 -105.5 t-112 -39.5t-112 40t-42 105v17q-45 -78 -128 -122t-187 -44q-129 0 -230.5 66.5t-157.5 186t-56 275.5zM377 512q0 -139 59.5 -216t167.5 -77q109 0 167 75t58 214t-58 213t-167 74t-168 -73t-59 -210z" />
<glyph unicode="&#x112;" horiz-adv-x="1214" d="M143 150v1144q0 72 39 111t111 39h725q152 0 151 -123q0 -125 -151 -125h-563v-338h522q152 0 151 -125q0 -123 -151 -123h-522v-362h563q152 0 151 -125q0 -123 -151 -123h-725q-72 0 -111 39t-39 111zM328 1726q0 45 28.5 71t73.5 26h496q45 0 73.5 -25.5t28.5 -71.5 q0 -45 -28.5 -70.5t-73.5 -25.5h-496q-45 0 -73.5 25.5t-28.5 70.5z" />
<glyph unicode="&#x113;" horiz-adv-x="1091" d="M70 506q0 154 63.5 272.5t176 185t255.5 66.5q137 0 240.5 -60.5t161 -172t57.5 -260.5q0 -45 -21.5 -69t-60.5 -24h-573q14 -121 73.5 -175t169.5 -54q59 0 106.5 14.5t104.5 38.5q29 12 55.5 21.5t47.5 9.5q41 0 66.5 -33t25.5 -84q0 -35 -20.5 -64.5t-57.5 -49.5 q-70 -37 -162 -60.5t-170 -23.5q-164 0 -285.5 63.5t-187 181t-65.5 277.5zM215 1343q0 45 28.5 71t73.5 26h496q45 0 73.5 -25.5t28.5 -71.5q0 -45 -28.5 -70.5t-73.5 -25.5h-496q-45 0 -73.5 25.5t-28.5 70.5zM369 598h395q-6 109 -54 164t-137 55q-88 0 -141 -56 t-63 -163z" />
<glyph unicode="&#x114;" horiz-adv-x="1214" d="M143 150v1144q0 72 39 111t111 39h725q152 0 151 -123q0 -125 -151 -125h-563v-338h522q152 0 151 -125q0 -123 -151 -123h-522v-362h563q152 0 151 -125q0 -123 -151 -123h-725q-72 0 -111 39t-39 111zM321 1796q0 31 24 52.5t56 21.5q43 0 78 -35q33 -33 86 -50.5 t113 -17.5q59 0 112.5 17.5t85.5 50.5q35 33 78 33q33 0 56.5 -20.5t23.5 -53.5q0 -20 -16 -53q-39 -72 -130 -115t-210 -43t-210 43t-130 115q-16 33 -17 55z" />
<glyph unicode="&#x115;" horiz-adv-x="1091" d="M70 506q0 154 63.5 272.5t176 185t255.5 66.5q137 0 240.5 -60.5t161 -172t57.5 -260.5q0 -45 -21.5 -69t-60.5 -24h-573q14 -121 73.5 -175t169.5 -54q59 0 106.5 14.5t104.5 38.5q29 12 55.5 21.5t47.5 9.5q41 0 66.5 -33t25.5 -84q0 -35 -20.5 -64.5t-57.5 -49.5 q-70 -37 -162 -60.5t-170 -23.5q-164 0 -285.5 63.5t-187 181t-65.5 277.5zM204 1440q0 37 26 60.5t60 23.5q47 0 78 -45q68 -106 197 -107q129 0 196 107q14 23 36 34t42 11q35 0 61.5 -23.5t26.5 -60.5q0 -12 -8 -37q-37 -102 -136 -165.5t-218 -63.5t-218.5 63 t-136.5 166q-6 18 -6 37zM369 598h395q-6 109 -54 164t-137 55q-88 0 -141 -56t-63 -163z" />
<glyph unicode="&#x116;" horiz-adv-x="1214" d="M143 150v1144q0 72 39 111t111 39h725q152 0 151 -123q0 -125 -151 -125h-563v-338h522q152 0 151 -125q0 -123 -151 -123h-522v-362h563q152 0 151 -125q0 -123 -151 -123h-725q-72 0 -111 39t-39 111zM502 1729q0 72 47 112.5t129 40.5q80 0 128 -42t48 -111 q0 -72 -47 -114t-129 -42t-129 42t-47 114z" />
<glyph unicode="&#x117;" horiz-adv-x="1091" d="M70 506q0 154 63.5 272.5t176 185t255.5 66.5q137 0 240.5 -60.5t161 -172t57.5 -260.5q0 -45 -21.5 -69t-60.5 -24h-573q14 -121 73.5 -175t169.5 -54q59 0 106.5 14.5t104.5 38.5q29 12 55.5 21.5t47.5 9.5q41 0 66.5 -33t25.5 -84q0 -35 -20.5 -64.5t-57.5 -49.5 q-70 -37 -162 -60.5t-170 -23.5q-164 0 -285.5 63.5t-187 181t-65.5 277.5zM369 598h395q-6 109 -54 164t-137 55q-88 0 -141 -56t-63 -163zM389 1346q0 72 47 112.5t129 40.5q80 0 128 -42t48 -111q0 -72 -47 -114t-129 -42t-129 42t-47 114z" />
<glyph unicode="&#x118;" horiz-adv-x="1214" d="M143 150v1144q0 72 39 111t111 39h725q152 0 151 -123q0 -125 -151 -125h-563v-338h522q152 0 151 -125q0 -123 -151 -123h-522v-362h563q152 0 151 -125q0 -51 -26.5 -80t-83.5 -43q-51 -12 -80 -47t-29 -86q0 -49 31 -80t78 -31q23 0 54.5 7.5t43.5 11.5q7 2 19 2 q25 0 40 -20.5t15 -47.5q0 -45 -37 -65q-80 -47 -180 -47q-115 0 -187.5 63.5t-72.5 161.5q0 106 77 178h-538q-72 0 -111 39t-39 111z" />
<glyph unicode="&#x119;" horiz-adv-x="1091" d="M70 506q0 154 63.5 272.5t176 185t255.5 66.5q137 0 240.5 -60.5t161 -172t57.5 -260.5q0 -45 -21.5 -69t-60.5 -24h-573q14 -121 73.5 -175t169.5 -54q59 0 106.5 14.5t104.5 38.5q29 12 55.5 21.5t47.5 9.5q41 0 66.5 -33t25.5 -84q0 -74 -94 -123q-105 -53 -146 -96 t-41 -96q0 -49 31 -80t78 -31q25 0 48.5 5.5t49.5 13.5q6 2 19 2q25 0 40 -20.5t15 -47.5q0 -18 -9.5 -36.5t-27.5 -28.5q-80 -47 -180 -47q-115 0 -187.5 63.5t-72.5 161.5q0 94 67 162q-250 2 -394 141t-144 381zM369 598h395q-6 109 -54 164t-137 55q-88 0 -141 -56 t-63 -163z" />
<glyph unicode="&#x11a;" horiz-adv-x="1214" d="M143 150v1144q0 72 39 111t111 39h725q152 0 151 -123q0 -125 -151 -125h-563v-338h522q152 0 151 -125q0 -123 -151 -123h-522v-362h563q152 0 151 -125q0 -123 -151 -123h-725q-72 0 -111 39t-39 111zM373 1806q0 35 26.5 60.5t63.5 25.5q41 0 73 -30l142 -138l141 138 q31 31 72 30q39 0 65.5 -25.5t26.5 -60.5q0 -37 -37 -71l-164 -138q-47 -41 -104 -41q-58 0 -105 41l-163 138q-37 31 -37 71z" />
<glyph unicode="&#x11b;" horiz-adv-x="1091" d="M70 506q0 154 63.5 272.5t176 185t255.5 66.5q137 0 240.5 -60.5t161 -172t57.5 -260.5q0 -45 -21.5 -69t-60.5 -24h-573q14 -121 73.5 -175t169.5 -54q59 0 106.5 14.5t104.5 38.5q29 12 55.5 21.5t47.5 9.5q41 0 66.5 -33t25.5 -84q0 -35 -20.5 -64.5t-57.5 -49.5 q-70 -37 -162 -60.5t-170 -23.5q-164 0 -285.5 63.5t-187 181t-65.5 277.5zM251 1475q0 37 29 63.5t68 26.5q51 0 82 -47l135 -199l135 199q31 47 82 47q39 0 67.5 -27t28.5 -63q0 -33 -22 -62l-172 -221q-29 -35 -55.5 -50.5t-63.5 -15.5q-39 0 -63.5 15.5t-55.5 52.5 l-172 219q-23 29 -23 62zM369 598h395q-6 109 -54 164t-137 55q-88 0 -141 -56t-63 -163z" />
<glyph unicode="&#x11c;" horiz-adv-x="1511" d="M102 723q0 225 89.5 392t255 257t387.5 90q285 0 471 -147q31 -25 43 -49.5t12 -61.5q0 -53 -30 -91t-70 -38q-27 0 -48.5 8.5t-52.5 26.5q-86 53 -157.5 75.5t-157.5 22.5q-418 0 -418 -485q0 -250 108.5 -373t327.5 -123q119 0 236 31v317h-189q-59 0 -92 29t-33 82 t33 82t92 29h351q57 0 90.5 -32t33.5 -87v-399q0 -82 -13 -127.5t-46 -72t-98 -44.5q-80 -25 -183.5 -39t-195.5 -14q-229 0 -397 89t-258.5 256t-90.5 396zM529 1645q0 39 37 69l163 139q47 41 105 41q57 0 104 -41l164 -139q37 -31 37 -69q0 -35 -26.5 -60.5t-63.5 -25.5 q-41 0 -74 30l-141 137l-142 -137q-30 -30 -71 -30q-39 0 -65.5 25.5t-26.5 60.5z" />
<glyph unicode="&#x11d;" horiz-adv-x="1263" d="M70 528q0 150 57 263.5t158.5 176t232.5 62.5q104 0 189.5 -44t130.5 -122v21q0 66 42 103.5t111 37.5q70 0 112 -40t42 -105v-772q0 -244 -141.5 -369t-413.5 -125q-229 0 -377 82q-37 20 -57.5 50t-20.5 67q0 51 24.5 83.5t65.5 32.5q23 0 53.5 -9t63.5 -21 q66 -25 121 -39.5t119 -14.5q131 0 194.5 59.5t63.5 180.5v111q-43 -78 -129 -123t-193 -45q-131 0 -232.5 61.5t-158.5 175t-57 262.5zM319 1217q0 33 23 61l172 221q29 35 54.5 50.5t64.5 15.5t64.5 -15.5t54.5 -52.5l172 -219q23 -29 22 -59q0 -37 -29.5 -65t-66.5 -28 q-49 0 -82 48l-135 200l-135 -200q-33 -48 -82 -48q-39 0 -68 27t-29 64zM377 528q0 -125 61.5 -194.5t169.5 -69.5q109 0 169.5 69.5t60.5 194.5t-60.5 196t-169.5 71t-170 -71t-61 -196z" />
<glyph unicode="&#x11e;" horiz-adv-x="1511" d="M102 723q0 225 89.5 392t255 257t387.5 90q285 0 471 -147q31 -25 43 -49.5t12 -61.5q0 -53 -30 -91t-70 -38q-27 0 -48.5 8.5t-52.5 26.5q-86 53 -157.5 75.5t-157.5 22.5q-418 0 -418 -485q0 -250 108.5 -373t327.5 -123q119 0 236 31v317h-189q-59 0 -92 29t-33 82 t33 82t92 29h351q57 0 90.5 -32t33.5 -87v-399q0 -82 -13 -127.5t-46 -72t-98 -44.5q-80 -25 -183.5 -39t-195.5 -14q-229 0 -397 89t-258.5 256t-90.5 396zM477 1796q0 31 24 52.5t56 21.5q43 0 78 -35q33 -33 86 -50.5t113 -17.5q59 0 112.5 17.5t85.5 50.5q35 33 78 33 q33 0 56.5 -20.5t23.5 -53.5q0 -20 -16 -53q-39 -72 -130 -115t-210 -43t-210 43t-130 115q-16 33 -17 55z" />
<glyph unicode="&#x11f;" horiz-adv-x="1263" d="M70 528q0 150 57 263.5t158.5 176t232.5 62.5q104 0 189.5 -44t130.5 -122v21q0 66 42 103.5t111 37.5q70 0 112 -40t42 -105v-772q0 -244 -141.5 -369t-413.5 -125q-229 0 -377 82q-37 20 -57.5 50t-20.5 67q0 51 24.5 83.5t65.5 32.5q23 0 53.5 -9t63.5 -21 q66 -25 121 -39.5t119 -14.5q131 0 194.5 59.5t63.5 180.5v111q-43 -78 -129 -123t-193 -45q-131 0 -232.5 61.5t-158.5 175t-57 262.5zM272 1440q0 37 26 60.5t60 23.5q47 0 78 -45q68 -106 197 -107q129 0 196 107q14 23 36 34t42 11q35 0 61.5 -23.5t26.5 -60.5 q0 -12 -8 -37q-37 -102 -136 -165.5t-218 -63.5t-218.5 63t-136.5 166q-6 18 -6 37zM377 528q0 -125 61.5 -194.5t169.5 -69.5q109 0 169.5 69.5t60.5 194.5t-60.5 196t-169.5 71t-170 -71t-61 -196z" />
<glyph unicode="&#x120;" horiz-adv-x="1511" d="M102 723q0 225 89.5 392t255 257t387.5 90q285 0 471 -147q31 -25 43 -49.5t12 -61.5q0 -53 -30 -91t-70 -38q-27 0 -48.5 8.5t-52.5 26.5q-86 53 -157.5 75.5t-157.5 22.5q-418 0 -418 -485q0 -250 108.5 -373t327.5 -123q119 0 236 31v317h-189q-59 0 -92 29t-33 82 t33 82t92 29h351q57 0 90.5 -32t33.5 -87v-399q0 -82 -13 -127.5t-46 -72t-98 -44.5q-80 -25 -183.5 -39t-195.5 -14q-229 0 -397 89t-258.5 256t-90.5 396zM658 1729q0 72 47 112.5t129 40.5q80 0 128 -42t48 -111q0 -72 -47 -114t-129 -42t-129 42t-47 114z" />
<glyph unicode="&#x121;" horiz-adv-x="1263" d="M70 528q0 150 57 263.5t158.5 176t232.5 62.5q104 0 189.5 -44t130.5 -122v21q0 66 42 103.5t111 37.5q70 0 112 -40t42 -105v-772q0 -244 -141.5 -369t-413.5 -125q-229 0 -377 82q-37 20 -57.5 50t-20.5 67q0 51 24.5 83.5t65.5 32.5q23 0 53.5 -9t63.5 -21 q66 -25 121 -39.5t119 -14.5q131 0 194.5 59.5t63.5 180.5v111q-43 -78 -129 -123t-193 -45q-131 0 -232.5 61.5t-158.5 175t-57 262.5zM377 528q0 -125 61.5 -194.5t169.5 -69.5q109 0 169.5 69.5t60.5 194.5t-60.5 196t-169.5 71t-170 -71t-61 -196zM457 1346 q0 72 47 112.5t129 40.5q80 0 128 -42t48 -111q0 -72 -47 -114t-129 -42t-129 42t-47 114z" />
<glyph unicode="&#x122;" horiz-adv-x="1511" d="M102 723q0 225 89.5 392t255 257t387.5 90q285 0 471 -147q31 -25 43 -49.5t12 -61.5q0 -53 -30 -91t-70 -38q-27 0 -48.5 8.5t-52.5 26.5q-86 53 -157.5 75.5t-157.5 22.5q-418 0 -418 -485q0 -250 108.5 -373t327.5 -123q119 0 236 31v317h-189q-59 0 -92 29t-33 82 t33 82t92 29h351q57 0 90.5 -32t33.5 -87v-399q0 -82 -13 -127.5t-46 -72t-98 -44.5q-80 -25 -183.5 -39t-195.5 -14q-229 0 -397 89t-258.5 256t-90.5 396zM696 -260q0 61 42 99t106 38q78 0 124 -47t46 -137q0 -66 -20.5 -121t-53.5 -92q-16 -18 -38.5 -28.5t-43.5 -10.5 q-31 0 -50.5 14.5t-19.5 38.5q0 23 17 41q33 49 41 86h-10q-57 0 -98.5 32t-41.5 87z" />
<glyph unicode="&#x123;" horiz-adv-x="1263" d="M70 528q0 150 57 263.5t158.5 176t232.5 62.5q104 0 189.5 -44t130.5 -122v21q0 66 42 103.5t111 37.5q70 0 112 -40t42 -105v-772q0 -244 -141.5 -369t-413.5 -125q-229 0 -377 82q-37 20 -57.5 50t-20.5 67q0 51 24.5 83.5t65.5 32.5q23 0 53.5 -9t63.5 -21 q66 -25 121 -39.5t119 -14.5q131 0 194.5 59.5t63.5 180.5v111q-43 -78 -129 -123t-193 -45q-131 0 -232.5 61.5t-158.5 175t-57 262.5zM377 528q0 -125 61.5 -194.5t169.5 -69.5q109 0 169.5 69.5t60.5 194.5t-60.5 196t-169.5 71t-170 -71t-61 -196zM467 1368 q0 66 20.5 121t53.5 94q31 37 82 37q29 0 49 -14.5t20 -38.5q0 -23 -16 -41q-31 -43 -41 -86h10q57 0 98 -31t41 -88q0 -61 -42 -98t-105 -37q-78 0 -124 46t-46 136z" />
<glyph unicode="&#x124;" horiz-adv-x="1579" d="M143 147v1149q0 72 43 115t115 43t114 -43t42 -115v-436h665v436q0 72 42 115t114 43t115 -43t43 -115v-1149q0 -72 -43 -115.5t-115 -43.5t-114 43t-42 116v459h-665v-459q0 -72 -43 -115.5t-113 -43.5q-72 0 -115 43t-43 116zM486 1645q0 39 37 69l163 139 q47 41 105 41q57 0 104 -41l164 -139q37 -31 37 -69q0 -35 -26.5 -60.5t-63.5 -25.5q-41 0 -74 30l-141 137l-142 -137q-30 -30 -71 -30q-39 0 -65.5 25.5t-26.5 60.5z" />
<glyph unicode="&#x125;" horiz-adv-x="1218" d="M-26 1645q0 39 37 69l163 139q47 41 105 41q57 0 104 -41l164 -139q37 -31 37 -69q0 -35 -26.5 -60.5t-63.5 -25.5q-41 0 -74 30l-141 137l-142 -137q-30 -30 -71 -30q-39 0 -65.5 25.5t-26.5 60.5zM119 133v1180q0 63 44 102t116 39q68 0 108.5 -37t40.5 -98v-447 q53 78 137 118t191 40q350 0 350 -424v-473q0 -68 -42 -106.5t-114 -38.5t-112.5 39t-40.5 106v477q0 90 -38 134t-118 44q-96 0 -154.5 -61t-58.5 -164v-430q0 -68 -41 -106.5t-113 -38.5t-113.5 39t-41.5 106z" />
<glyph unicode="&#x126;" horiz-adv-x="1701" d="M0 1153q0 53 37 85t106 32h62v26q0 76 44 117t111 41q68 0 113 -41t45 -117v-26h666v26q0 76 44 117t111 41q68 0 113 -41t45 -117v-26h62q69 0 106 -32t37 -85t-37 -85t-106 -32h-62v-889q0 -78 -45 -118.5t-113 -40.5t-111.5 41t-43.5 118v459h-666v-459 q0 -78 -45 -118.5t-113 -40.5t-111.5 41t-43.5 118v889h-62q-70 0 -106.5 32t-36.5 85zM518 860h666v176h-666v-176z" />
<glyph unicode="&#x127;" horiz-adv-x="1218" d="M-86 1198q0 49 34 78t95 29h76v8q0 63 44 102t116 39q68 0 108.5 -37t40.5 -98v-14h281q63 0 96 -28t33 -79q0 -49 -33 -77.5t-96 -28.5h-281v-220q53 78 137 118t191 40q350 0 350 -424v-473q0 -68 -42 -106.5t-114 -38.5t-112.5 39t-40.5 106v477q0 90 -38 134t-118 44 q-96 0 -154.5 -61t-58.5 -164v-430q0 -68 -41 -106.5t-113 -38.5t-113.5 39t-41.5 106v959h-76q-61 0 -95 28.5t-34 77.5z" />
<glyph unicode="&#x128;" horiz-adv-x="606" d="M-47 1665q0 43 25.5 88t70.5 75t100 30q47 0 99.5 -14.5t60.5 -16.5q92 -31 145 -31q23 0 36.5 8t31.5 25q16 16 30.5 24.5t37.5 8.5q31 0 47 -18.5t16 -51.5q0 -43 -25.5 -88t-70.5 -75t-101 -30q-47 0 -99 14.5t-60 16.5q-92 31 -146 31q-23 0 -37 -8t-30 -25 q-18 -18 -31.5 -26.5t-36.5 -8.5q-29 0 -46 19.5t-17 52.5zM143 147v1149q0 72 43 115t117 43t117 -43t43 -115v-1149q0 -74 -43 -116.5t-117 -42.5t-117 43t-43 116z" />
<glyph unicode="&#x129;" horiz-adv-x="546" d="M-75 1272q0 43 25.5 96t70.5 91t100 38q37 0 73 -15.5t91 -45.5q41 -25 68.5 -37.5t52.5 -12.5q31 0 49 14.5t43 45.5q18 27 31.5 38t36.5 11q27 0 43 -22.5t16 -57.5q0 -43 -25.5 -96t-70.5 -91t-101 -38q-39 0 -76.5 16.5t-86.5 44.5q-45 25 -72 36t-49 11 q-31 0 -49.5 -14t-42.5 -45q-18 -25 -31.5 -36t-36.5 -11q-27 0 -43 22.5t-16 57.5zM119 133v748q0 72 45 108.5t110 36.5q66 0 110 -37t44 -108v-748q0 -72 -44 -108.5t-110 -36.5q-67 0 -111 36.5t-44 108.5z" />
<glyph unicode="&#x12a;" horiz-adv-x="606" d="M-47 1726q0 45 28.5 71t73.5 26h496q45 0 73.5 -25.5t28.5 -71.5q0 -45 -28.5 -70.5t-73.5 -25.5h-496q-45 0 -73.5 25.5t-28.5 70.5zM143 147v1149q0 72 43 115t117 43t117 -43t43 -115v-1149q0 -74 -43 -116.5t-117 -42.5t-117 43t-43 116z" />
<glyph unicode="&#x12b;" horiz-adv-x="546" d="M-75 1343q0 45 28.5 71t73.5 26h496q45 0 73.5 -25.5t28.5 -71.5q0 -45 -28.5 -70.5t-73.5 -25.5h-496q-45 0 -73.5 25.5t-28.5 70.5zM119 133v748q0 72 45 108.5t110 36.5q66 0 110 -37t44 -108v-748q0 -72 -44 -108.5t-110 -36.5q-67 0 -111 36.5t-44 108.5z" />
<glyph unicode="&#x12c;" horiz-adv-x="606" d="M-54 1796q0 31 24 52.5t56 21.5q43 0 78 -35q33 -33 86 -50.5t113 -17.5q59 0 112.5 17.5t85.5 50.5q35 33 78 33q33 0 56.5 -20.5t23.5 -53.5q0 -20 -16 -53q-39 -72 -130 -115t-210 -43t-210 43t-130 115q-16 33 -17 55zM143 147v1149q0 72 43 115t117 43t117 -43 t43 -115v-1149q0 -74 -43 -116.5t-117 -42.5t-117 43t-43 116z" />
<glyph unicode="&#x12d;" horiz-adv-x="546" d="M-86 1440q0 37 26 60.5t60 23.5q47 0 78 -45q68 -106 197 -107q129 0 196 107q14 23 36 34t42 11q35 0 61.5 -23.5t26.5 -60.5q0 -12 -8 -37q-37 -102 -136 -165.5t-218 -63.5t-218.5 63t-136.5 166q-6 18 -6 37zM119 133v748q0 72 45 108.5t110 36.5q66 0 110 -37 t44 -108v-748q0 -72 -44 -108.5t-110 -36.5q-67 0 -111 36.5t-44 108.5z" />
<glyph unicode="&#x12e;" horiz-adv-x="606" d="M74 -172q0 61 29.5 113.5t82.5 91.5q-43 43 -43 114v1149q0 72 43 115t117 43t117 -43t43 -115v-1149q0 -49 -19.5 -84.5t-52.5 -50.5q-119 -55 -119 -145q0 -49 30 -80t79 -31q37 0 98 19q7 2 19 2q25 0 39 -20.5t14 -47.5q0 -45 -37 -65q-76 -47 -180 -47 q-115 0 -187.5 64.5t-72.5 166.5z" />
<glyph unicode="&#x12f;" horiz-adv-x="546" d="M39 -172q0 59 28.5 112.5t86.5 92.5q-35 41 -35 100v748q0 72 45 108.5t110 36.5q66 0 110 -37t44 -108v-748q0 -92 -72 -125q-53 -25 -85.5 -57.5t-32.5 -83.5t30.5 -81t77.5 -30q41 0 98 19q7 2 19 2q25 0 40 -20.5t15 -47.5q0 -18 -9 -36.5t-28 -28.5 q-80 -47 -180 -47q-113 0 -187.5 63.5t-74.5 167.5zM98 1346q0 72 47.5 112.5t128.5 40.5q78 0 126.5 -42t48.5 -111q0 -72 -47.5 -114t-127.5 -42q-81 0 -128.5 42t-47.5 114z" />
<glyph unicode="&#x130;" horiz-adv-x="606" d="M127 1729q0 72 47 112.5t129 40.5q80 0 128 -42t48 -111q0 -72 -47 -114t-129 -42t-129 42t-47 114zM143 147v1149q0 72 43 115t117 43t117 -43t43 -115v-1149q0 -74 -43 -116.5t-117 -42.5t-117 43t-43 116z" />
<glyph unicode="&#x131;" horiz-adv-x="546" d="M119 133v748q0 72 45 108.5t110 36.5q66 0 110 -37t44 -108v-748q0 -72 -44 -108.5t-110 -36.5q-67 0 -111 36.5t-44 108.5z" />
<glyph unicode="&#x134;" horiz-adv-x="772" d="M-33 117q0 61 31 91t96 34l66 4q147 6 147 174v876q0 72 45 115t117 43t116 -43t44 -115v-872q0 -406 -406 -432l-65 -4q-95 -4 -143 28.5t-48 100.5zM164 1645q0 39 37 69l163 139q47 41 105 41q57 0 104 -41l164 -139q37 -31 37 -69q0 -35 -26.5 -60.5t-63.5 -25.5 q-41 0 -74 30l-141 137l-142 -137q-30 -30 -71 -30q-39 0 -65.5 25.5t-26.5 60.5z" />
<glyph unicode="&#x135;" horiz-adv-x="546" d="M-170 -258q0 100 121 108l57 5q53 4 82 35.5t29 93.5v897q0 72 45 108.5t110 36.5q66 0 110 -37t44 -108v-875q0 -348 -356 -375l-58 -4q-86 -6 -135 24t-49 91zM-41 1217q0 33 23 61l172 221q29 35 54.5 50.5t64.5 15.5t64.5 -15.5t54.5 -52.5l172 -219q23 -29 22 -59 q0 -37 -29.5 -65t-66.5 -28q-49 0 -82 48l-135 200l-135 -200q-33 -48 -82 -48q-39 0 -68 27t-29 64z" />
<glyph unicode="&#x136;" horiz-adv-x="1388" d="M143 147v1149q0 72 43 115t117 43t117 -43t43 -115v-489l618 600q45 45 103 45q57 0 100 -42t43 -99q0 -59 -49 -107l-487 -456l522 -508q47 -48 47 -103q0 -57 -44 -100t-102 -43q-66 0 -116 53l-635 621v-521q0 -74 -43 -116.5t-117 -42.5t-117 43t-43 116zM547 -260 q0 61 42 99t106 38q78 0 124 -47t46 -137q0 -66 -20.5 -121t-53.5 -92q-16 -18 -38.5 -28.5t-43.5 -10.5q-31 0 -50.5 14.5t-19.5 38.5q0 23 17 41q33 49 41 86h-10q-57 0 -98.5 32t-41.5 87z" />
<glyph unicode="&#x137;" horiz-adv-x="1142" d="M119 135v1174q0 72 44 108.5t111 36.5q66 0 110 -37t44 -108v-734l410 404q45 45 100 45q57 0 100 -42t43 -99q0 -53 -47 -101l-272 -260l305 -282q47 -46 47 -103t-42 -102t-97 -45q-53 0 -98 43l-449 416v-314q0 -72 -44 -108.5t-110 -36.5q-68 0 -111.5 36.5 t-43.5 108.5zM420 -260q0 61 42 99t106 38q78 0 124 -47t46 -137q0 -66 -20.5 -121t-53.5 -92q-16 -18 -38.5 -28.5t-43.5 -10.5q-31 0 -50.5 14.5t-19.5 38.5q0 23 17 41q33 49 41 86h-10q-57 0 -98.5 32t-41.5 87z" />
<glyph unicode="&#x138;" horiz-adv-x="1142" d="M119 135v746q0 72 45 108.5t110 36.5q66 0 110 -37t44 -108v-306l410 404q45 45 100 45q57 0 100 -42t43 -99q0 -53 -47 -101l-272 -260l305 -282q47 -46 47 -103t-42 -102t-97 -45q-53 0 -98 43l-449 416v-314q0 -72 -44 -108.5t-110 -36.5q-68 0 -111.5 36.5 t-43.5 108.5z" />
<glyph unicode="&#x139;" horiz-adv-x="1153" d="M143 150v1146q0 72 43 115t117 43t117 -43t43 -115v-1036h524q150 0 150 -131q0 -129 -150 -129h-694q-72 0 -111 39t-39 111zM229 1622q0 27 27 53l176 174q47 47 100 47q45 0 79 -33.5t34 -78.5q0 -31 -20.5 -59.5t-61.5 -49.5l-223 -110q-16 -9 -39 -9 q-29 0 -50.5 19.5t-21.5 46.5z" />
<glyph unicode="&#x13a;" horiz-adv-x="546" d="M119 133v1176q0 72 44 108.5t111 36.5q66 0 110 -37t44 -108v-1176q0 -72 -44 -108.5t-110 -36.5q-67 0 -111 36.5t-44 108.5zM201 1622q0 27 27 53l176 174q47 47 100 47q45 0 79 -33.5t34 -78.5q0 -31 -20.5 -59.5t-61.5 -49.5l-223 -110q-16 -9 -39 -9 q-29 0 -50.5 19.5t-21.5 46.5z" />
<glyph unicode="&#x13b;" horiz-adv-x="1153" d="M143 150v1146q0 72 43 115t117 43t117 -43t43 -115v-1036h524q150 0 150 -131q0 -129 -150 -129h-694q-72 0 -111 39t-39 111zM489 -260q0 61 42 99t106 38q78 0 124 -47t46 -137q0 -66 -20.5 -121t-53.5 -92q-16 -18 -38.5 -28.5t-43.5 -10.5q-31 0 -50.5 14.5 t-19.5 38.5q0 23 17 41q33 49 41 86h-10q-57 0 -98.5 32t-41.5 87z" />
<glyph unicode="&#x13c;" horiz-adv-x="546" d="M119 133v1176q0 72 44 108.5t111 36.5q66 0 110 -37t44 -108v-1176q0 -72 -44 -108.5t-110 -36.5q-67 0 -111 36.5t-44 108.5zM123 -260q0 61 42 99t106 38q78 0 124 -47t46 -137q0 -66 -20.5 -121t-53.5 -92q-16 -18 -38.5 -28.5t-43.5 -10.5q-31 0 -50.5 14.5 t-19.5 38.5q0 23 17 41q33 49 41 86h-10q-57 0 -98.5 32t-41.5 87z" />
<glyph unicode="&#x13d;" horiz-adv-x="1153" d="M143 150v1146q0 72 43 115t117 43t117 -43t43 -115v-1036h524q150 0 150 -131q0 -129 -150 -129h-694q-72 0 -111 39t-39 111zM641 1081v269q0 51 32.5 79.5t77.5 28.5t77 -25.5t32 -70.5q0 -20 -4 -33l-72 -262q-8 -25 -26.5 -38t-42.5 -13q-31 0 -52.5 17.5t-21.5 47.5 z" />
<glyph unicode="&#x13e;" horiz-adv-x="546" d="M119 133v1176q0 72 44 108.5t111 36.5q66 0 110 -37t44 -108v-1176q0 -72 -44 -108.5t-110 -36.5q-67 0 -111 36.5t-44 108.5zM481 1077v291q0 43 24.5 65.5t57.5 22.5q31 0 53.5 -20.5t22.5 -55.5q0 -12 -2 -18l-47 -295q-4 -27 -19.5 -41t-33.5 -14q-23 0 -39.5 17.5 t-16.5 47.5z" />
<glyph unicode="&#x13f;" horiz-adv-x="1153" d="M143 150v1146q0 72 43 115t117 43t117 -43t43 -115v-1036h524q150 0 150 -131q0 -129 -150 -129h-694q-72 0 -111 39t-39 111zM625 725q0 72 47 113t129 41q80 0 128 -42t48 -112q0 -72 -47 -113.5t-129 -41.5t-129 42t-47 113z" />
<glyph unicode="&#x140;" horiz-adv-x="765" d="M119 133v1176q0 72 44 108.5t111 36.5q66 0 110 -37t44 -108v-1176q0 -72 -44 -108.5t-110 -36.5q-67 0 -111 36.5t-44 108.5zM481 723q0 72 47 113t129 41q80 0 128 -42t48 -112q0 -72 -47 -113.5t-129 -41.5t-129 42t-47 113z" />
<glyph unicode="&#x141;" horiz-adv-x="1214" d="M0 584q0 33 18.5 62.5t53.5 49.5l133 76v524q0 72 43 115t114 43q76 0 119 -43t43 -115v-340l207 119q35 20 72 21q49 0 83 -35t34 -80q0 -31 -18.5 -59.5t-53.5 -49.5l-324 -186v-426h525q149 0 149 -131q0 -129 -149 -129h-695q-72 0 -110.5 39t-38.5 111v352l-17 -10 q-37 -23 -75 -23q-47 0 -80 35t-33 80z" />
<glyph unicode="&#x142;" horiz-adv-x="718" d="M0 584q0 33 18.5 62.5t53.5 49.5l133 76v537q0 72 44 108.5t111 36.5q66 0 110 -37t44 -108v-359l16 11q37 22 76 22q47 0 80 -35t33 -80q0 -33 -18.5 -62.5t-53.5 -49.5l-133 -76v-547q0 -72 -44 -108.5t-110 -36.5q-68 0 -111.5 36.5t-43.5 108.5v369l-17 -10 q-37 -23 -75 -23q-47 0 -80 35t-33 80z" />
<glyph unicode="&#x143;" horiz-adv-x="1540" d="M143 147v1149q0 70 42 114t110 44q76 0 117 -53l686 -873v768q0 70 41 114t106 44q68 0 110 -44t42 -114v-1149q0 -72 -42 -115.5t-110 -43.5q-74 0 -119 53l-686 879v-773q0 -72 -40 -115.5t-107 -43.5q-68 0 -109 44t-41 115zM696 1622q0 27 27 53l176 174 q47 47 100 47q45 0 79 -33.5t34 -78.5q0 -31 -20.5 -59.5t-61.5 -49.5l-223 -110q-16 -9 -39 -9q-29 0 -50.5 19.5t-21.5 46.5z" />
<glyph unicode="&#x144;" horiz-adv-x="1218" d="M119 133v752q0 63 44 102t113 39q63 0 103.5 -38t40.5 -97v-29q53 82 138 125t192 43q180 0 268 -105.5t88 -318.5v-473q0 -68 -42 -106.5t-114 -38.5t-112.5 39t-40.5 106v459q0 102 -38 149t-118 47q-96 0 -154.5 -61t-58.5 -164v-430q0 -68 -41 -106.5t-113 -38.5 t-113.5 39t-41.5 106zM541 1202q0 27 19 53l176 236q51 70 123 70q51 0 90 -37t39 -86q0 -61 -66 -111l-250 -182q-24 -19 -53 -19q-33 0 -55.5 22.5t-22.5 53.5z" />
<glyph unicode="&#x145;" horiz-adv-x="1540" d="M143 147v1149q0 70 42 114t110 44q76 0 117 -53l686 -873v768q0 70 41 114t106 44q68 0 110 -44t42 -114v-1149q0 -72 -42 -115.5t-110 -43.5q-74 0 -119 53l-686 879v-773q0 -72 -40 -115.5t-107 -43.5q-68 0 -109 44t-41 115zM620 -260q0 61 42 99t106 38q78 0 124 -47 t46 -137q0 -66 -20.5 -121t-53.5 -92q-16 -18 -38.5 -28.5t-43.5 -10.5q-31 0 -50.5 14.5t-19.5 38.5q0 23 17 41q33 49 41 86h-10q-57 0 -98.5 32t-41.5 87z" />
<glyph unicode="&#x146;" horiz-adv-x="1218" d="M119 133v752q0 63 44 102t113 39q63 0 103.5 -38t40.5 -97v-29q53 82 138 125t192 43q180 0 268 -105.5t88 -318.5v-473q0 -68 -42 -106.5t-114 -38.5t-112.5 39t-40.5 106v459q0 102 -38 149t-118 47q-96 0 -154.5 -61t-58.5 -164v-430q0 -68 -41 -106.5t-113 -38.5 t-113.5 39t-41.5 106zM461 -260q0 61 42 99t106 38q78 0 124 -47t46 -137q0 -66 -20.5 -121t-53.5 -92q-16 -18 -38.5 -28.5t-43.5 -10.5q-31 0 -50.5 14.5t-19.5 38.5q0 23 17 41q33 49 41 86h-10q-57 0 -98.5 32t-41.5 87z" />
<glyph unicode="&#x147;" horiz-adv-x="1540" d="M143 147v1149q0 70 42 114t110 44q76 0 117 -53l686 -873v768q0 70 41 114t106 44q68 0 110 -44t42 -114v-1149q0 -72 -42 -115.5t-110 -43.5q-74 0 -119 53l-686 879v-773q0 -72 -40 -115.5t-107 -43.5q-68 0 -109 44t-41 115zM465 1806q0 35 26.5 60.5t63.5 25.5 q41 0 73 -30l142 -138l141 138q31 31 72 30q39 0 65.5 -25.5t26.5 -60.5q0 -37 -37 -71l-164 -138q-47 -41 -104 -41q-58 0 -105 41l-163 138q-37 31 -37 71z" />
<glyph unicode="&#x148;" horiz-adv-x="1218" d="M119 133v752q0 63 44 102t113 39q63 0 103.5 -38t40.5 -97v-29q53 82 138 125t192 43q180 0 268 -105.5t88 -318.5v-473q0 -68 -42 -106.5t-114 -38.5t-112.5 39t-40.5 106v459q0 102 -38 149t-118 47q-96 0 -154.5 -61t-58.5 -164v-430q0 -68 -41 -106.5t-113 -38.5 t-113.5 39t-41.5 106zM299 1475q0 37 29 63.5t68 26.5q51 0 82 -47l135 -199l135 199q31 47 82 47q39 0 67.5 -27t28.5 -63q0 -33 -22 -62l-172 -221q-29 -35 -55.5 -50.5t-63.5 -15.5q-39 0 -63.5 15.5t-55.5 52.5l-172 219q-23 29 -23 62z" />
<glyph unicode="&#x149;" horiz-adv-x="1218" d="M119 133v752q0 63 44 102t113 39q63 0 103.5 -38t40.5 -97v-29q53 82 138 125t192 43q180 0 268 -105.5t88 -318.5v-473q0 -68 -42 -106.5t-114 -38.5t-112.5 39t-40.5 106v459q0 102 -38 149t-118 47q-96 0 -154.5 -61t-58.5 -164v-430q0 -68 -41 -106.5t-113 -38.5 t-113.5 39t-41.5 106zM141 1423q0 61 42 99.5t106 38.5q78 0 124 -47.5t46 -137.5q0 -63 -20.5 -118.5t-53.5 -94.5q-31 -37 -82 -37q-29 0 -49.5 14.5t-20.5 39.5q0 18 17 41q35 51 41 84h-10q-57 0 -98.5 31.5t-41.5 86.5z" />
<glyph unicode="&#x14a;" horiz-adv-x="1540" d="M143 147v1149q0 70 42 114t110 44q76 0 117 -53l686 -873v768q0 70 41 114t106 44q68 0 110 -44t42 -114v-1237q0 -406 -406 -432l-65 -4q-90 -6 -140.5 26t-50.5 95q0 109 125 117l68 4q78 4 123 51t45 123v43l-656 838v-773q0 -72 -41 -115.5t-106 -43.5q-68 0 -109 44 t-41 115z" />
<glyph unicode="&#x14b;" horiz-adv-x="1218" d="M119 133v752q0 63 44 102t113 39q63 0 103.5 -38t40.5 -97v-33q53 84 138 128t192 44q180 0 268 -105.5t88 -318.5v-600q0 -348 -358 -375l-58 -4q-88 -6 -135 24t-47 91q0 100 119 108l57 5q53 4 83 36.5t30 92.5v626q0 90 -38 134t-118 44q-96 0 -154.5 -61t-58.5 -164 v-430q0 -68 -41 -106.5t-113 -38.5t-113.5 39t-41.5 106z" />
<glyph unicode="&#x14c;" horiz-adv-x="1611" d="M102 723q0 225 86 392t245 257t374 90t373.5 -90t244.5 -257t86 -392t-86 -392t-244.5 -258t-373.5 -91t-374 91t-245 258t-86 392zM422 723q0 -240 102.5 -367t282.5 -127t283.5 127t103.5 367t-102.5 365.5t-284.5 125.5t-283.5 -125.5t-101.5 -365.5zM455 1726 q0 45 28.5 71t73.5 26h496q45 0 73.5 -25.5t28.5 -71.5q0 -45 -28.5 -70.5t-73.5 -25.5h-496q-45 0 -73.5 25.5t-28.5 70.5z" />
<glyph unicode="&#x14d;" horiz-adv-x="1204" d="M70 508q0 160 65.5 277.5t186 181t280.5 63.5t281 -63.5t186.5 -181t65.5 -277.5t-65.5 -277.5t-186.5 -182t-281 -64.5t-280.5 64.5t-186 182t-65.5 277.5zM252 1343q0 45 28.5 71t73.5 26h496q45 0 73.5 -25.5t28.5 -71.5q0 -45 -28.5 -70.5t-73.5 -25.5h-496 q-45 0 -73.5 25.5t-28.5 70.5zM377 508q0 -289 225 -289t225 289q0 145 -58 217t-167 72q-225 0 -225 -289z" />
<glyph unicode="&#x14e;" horiz-adv-x="1611" d="M102 723q0 225 86 392t245 257t374 90t373.5 -90t244.5 -257t86 -392t-86 -392t-244.5 -258t-373.5 -91t-374 91t-245 258t-86 392zM422 723q0 -240 102.5 -367t282.5 -127t283.5 127t103.5 367t-102.5 365.5t-284.5 125.5t-283.5 -125.5t-101.5 -365.5zM448 1796 q0 31 24 52.5t56 21.5q43 0 78 -35q33 -33 86 -50.5t113 -17.5q59 0 112.5 17.5t85.5 50.5q35 33 78 33q33 0 56.5 -20.5t23.5 -53.5q0 -20 -16 -53q-39 -72 -130 -115t-210 -43t-210 43t-130 115q-16 33 -17 55z" />
<glyph unicode="&#x14f;" horiz-adv-x="1204" d="M70 508q0 160 65.5 277.5t186 181t280.5 63.5t281 -63.5t186.5 -181t65.5 -277.5t-65.5 -277.5t-186.5 -182t-281 -64.5t-280.5 64.5t-186 182t-65.5 277.5zM241 1440q0 37 26 60.5t60 23.5q47 0 78 -45q68 -106 197 -107q129 0 196 107q14 23 36 34t42 11 q35 0 61.5 -23.5t26.5 -60.5q0 -12 -8 -37q-37 -102 -136 -165.5t-218 -63.5t-218.5 63t-136.5 166q-6 18 -6 37zM377 508q0 -289 225 -289t225 289q0 145 -58 217t-167 72q-225 0 -225 -289z" />
<glyph unicode="&#x150;" horiz-adv-x="1611" d="M102 723q0 225 86 392t245 257t374 90t373.5 -90t244.5 -257t86 -392t-86 -392t-244.5 -258t-373.5 -91t-374 91t-245 258t-86 392zM422 723q0 -240 102.5 -367t282.5 -127t283.5 127t103.5 367t-102.5 365.5t-284.5 125.5t-283.5 -125.5t-101.5 -365.5zM596 1622 q0 20 8 37l76 170q29 66 90 65q43 0 79 -30.5t36 -73.5q0 -37 -33 -72l-133 -135q-27 -27 -58 -27q-27 0 -46 18.5t-19 47.5zM881 1624q0 16 6 35l75 170q29 66 93 65q43 0 78.5 -30.5t35.5 -73.5q0 -37 -34 -72l-132 -135q-26 -27 -57 -27q-27 0 -46 19.5t-19 48.5z" />
<glyph unicode="&#x151;" horiz-adv-x="1204" d="M70 508q0 160 65.5 277.5t186 181t280.5 63.5t281 -63.5t186.5 -181t65.5 -277.5t-65.5 -277.5t-186.5 -182t-281 -64.5t-280.5 64.5t-186 182t-65.5 277.5zM377 508q0 -289 225 -289t225 289q0 145 -58 217t-167 72q-225 0 -225 -289zM393 1192q0 12 2 18l51 248 q12 55 44 83t73 28q43 0 75.5 -29t32.5 -74q0 -35 -20 -69l-127 -234q-25 -39 -64 -39q-27 0 -47 19.5t-20 48.5zM676 1192q0 12 2 18l53 248q12 55 44 83t73 28q43 0 75.5 -29t32.5 -74q0 -35 -20 -69l-129 -234q-21 -39 -64 -39q-27 0 -47 19.5t-20 48.5z" />
<glyph unicode="&#x152;" horiz-adv-x="2138" d="M102 723q0 225 90.5 387t260.5 248t407 86h1086q72 0 109.5 -32t37.5 -91q0 -125 -151 -125h-566v-338h525q152 0 151 -125q0 -123 -151 -123h-525v-362h566q152 0 151 -125q0 -59 -38 -91t-111 -32h-1084q-237 0 -408 86t-260.5 249t-89.5 388zM422 723q0 -475 459 -475 h184v948h-184q-459 0 -459 -473z" />
<glyph unicode="&#x153;" horiz-adv-x="1839" d="M70 508q0 158 64.5 276.5t183 182t276.5 63.5q125 0 223 -44t162 -126q61 82 153.5 126t206.5 44q127 0 226.5 -61.5t154 -174t54.5 -257.5q0 -45 -21.5 -69t-60.5 -24h-562q14 -121 70.5 -175t167.5 -54q55 0 101.5 14.5t103.5 38.5q29 12 55.5 21.5t46.5 9.5 q41 0 66.5 -33t25.5 -84q0 -35 -20.5 -64.5t-56.5 -49.5q-70 -37 -161 -60.5t-167 -23.5q-127 0 -224.5 43t-160.5 125q-66 -82 -163 -125t-220 -43q-158 0 -276.5 64.5t-183 183t-64.5 276.5zM377 508q0 -289 221 -289t221 289t-221 289t-221 -289zM1130 598h383 q-6 106 -52 162.5t-128 56.5q-88 0 -140 -56t-63 -163z" />
<glyph unicode="&#x154;" horiz-adv-x="1435" d="M143 147v1147q0 72 39 111t111 39h514q254 0 384 -111.5t130 -322.5q0 -166 -92 -276.5t-260 -145.5q61 -12 109 -48t93 -104l156 -233q31 -45 31 -88q0 -57 -46 -94t-108 -37q-39 0 -75.5 18t-61.5 57l-270 402q-35 53 -74 76.5t-98 23.5h-166v-414q0 -74 -42 -116.5 t-114 -42.5q-74 0 -117 43t-43 116zM455 803h305q137 0 198.5 48t61.5 150q0 104 -61.5 151.5t-198.5 47.5h-305v-397zM647 1622q0 27 27 53l176 174q47 47 100 47q45 0 79 -33.5t34 -78.5q0 -31 -20.5 -59.5t-61.5 -49.5l-223 -110q-16 -9 -39 -9q-29 0 -50.5 19.5 t-21.5 46.5z" />
<glyph unicode="&#x155;" horiz-adv-x="821" d="M119 133v752q0 68 45 104.5t108 36.5q61 0 102.5 -36t41.5 -99v-55q37 88 111.5 135t162.5 53l29 2q61 4 97 -27.5t36 -95.5q0 -68 -33 -100.5t-117 -40.5l-61 -6q-113 -12 -163 -73.5t-50 -158.5v-391q0 -72 -44 -108.5t-110 -36.5q-68 0 -111.5 36.5t-43.5 108.5z M407 1202q0 27 19 53l176 236q51 70 123 70q51 0 90 -37t39 -86q0 -61 -66 -111l-250 -182q-24 -19 -53 -19q-33 0 -55.5 22.5t-22.5 53.5z" />
<glyph unicode="&#x156;" horiz-adv-x="1435" d="M143 147v1147q0 72 39 111t111 39h514q254 0 384 -111.5t130 -322.5q0 -166 -92 -276.5t-260 -145.5q61 -12 109 -48t93 -104l156 -233q31 -45 31 -88q0 -57 -46 -94t-108 -37q-39 0 -75.5 18t-61.5 57l-270 402q-35 53 -74 76.5t-98 23.5h-166v-414q0 -74 -42 -116.5 t-114 -42.5q-74 0 -117 43t-43 116zM455 803h305q137 0 198.5 48t61.5 150q0 104 -61.5 151.5t-198.5 47.5h-305v-397zM571 -260q0 61 42 99t106 38q78 0 124 -47t46 -137q0 -66 -20.5 -121t-53.5 -92q-16 -18 -38.5 -28.5t-43.5 -10.5q-31 0 -50.5 14.5t-19.5 38.5 q0 23 17 41q33 49 41 86h-10q-57 0 -98.5 32t-41.5 87z" />
<glyph unicode="&#x157;" horiz-adv-x="821" d="M119 133v752q0 68 45 104.5t108 36.5q61 0 102.5 -36t41.5 -99v-55q37 88 111.5 135t162.5 53l29 2q61 4 97 -27.5t36 -95.5q0 -68 -33 -100.5t-117 -40.5l-61 -6q-113 -12 -163 -73.5t-50 -158.5v-391q0 -72 -44 -108.5t-110 -36.5q-68 0 -111.5 36.5t-43.5 108.5z M123 -260q0 61 42 99t106 38q78 0 124 -47t46 -137q0 -66 -20.5 -121t-53.5 -92q-16 -18 -38.5 -28.5t-43.5 -10.5q-31 0 -50.5 14.5t-19.5 38.5q0 23 17 41q33 49 41 86h-10q-57 0 -98.5 32t-41.5 87z" />
<glyph unicode="&#x158;" horiz-adv-x="1435" d="M143 147v1147q0 72 39 111t111 39h514q254 0 384 -111.5t130 -322.5q0 -166 -92 -276.5t-260 -145.5q61 -12 109 -48t93 -104l156 -233q31 -45 31 -88q0 -57 -46 -94t-108 -37q-39 0 -75.5 18t-61.5 57l-270 402q-35 53 -74 76.5t-98 23.5h-166v-414q0 -74 -42 -116.5 t-114 -42.5q-74 0 -117 43t-43 116zM416 1806q0 35 26.5 60.5t63.5 25.5q41 0 73 -30l142 -138l141 138q31 31 72 30q39 0 65.5 -25.5t26.5 -60.5q0 -37 -37 -71l-164 -138q-47 -41 -104 -41q-58 0 -105 41l-163 138q-37 31 -37 71zM455 803h305q137 0 198.5 48t61.5 150 q0 104 -61.5 151.5t-198.5 47.5h-305v-397z" />
<glyph unicode="&#x159;" horiz-adv-x="821" d="M119 133v752q0 68 45 104.5t108 36.5q61 0 102.5 -36t41.5 -99v-55q37 88 111.5 135t162.5 53l29 2q61 4 97 -27.5t36 -95.5q0 -68 -33 -100.5t-117 -40.5l-61 -6q-113 -12 -163 -73.5t-50 -158.5v-391q0 -72 -44 -108.5t-110 -36.5q-68 0 -111.5 36.5t-43.5 108.5z M165 1475q0 37 29 63.5t68 26.5q51 0 82 -47l135 -199l135 199q31 47 82 47q39 0 67.5 -27t28.5 -63q0 -33 -22 -62l-172 -221q-29 -35 -55.5 -50.5t-63.5 -15.5q-39 0 -63.5 15.5t-55.5 52.5l-172 219q-23 29 -23 62z" />
<glyph unicode="&#x15a;" horiz-adv-x="1333" d="M78 240q0 51 31.5 90t72.5 39q23 0 44.5 -7.5t52.5 -25.5q88 -55 178 -81t198 -26q135 0 207 45t72 129q0 63 -66.5 102.5t-236.5 74.5q-190 39 -304 94t-166 137t-52 199q0 129 74.5 232.5t206.5 161.5t298 58q291 0 479 -145q31 -25 44.5 -50.5t13.5 -62.5 q0 -51 -32 -90t-73 -39q-23 0 -42 6t-54 27q-84 53 -154.5 79.5t-179.5 26.5q-125 0 -196.5 -48t-71.5 -132q0 -49 27.5 -80.5t92 -56.5t183.5 -51q279 -61 400.5 -157.5t121.5 -264.5q0 -131 -72.5 -231.5t-204.5 -155.5t-306 -55q-162 0 -301.5 37.5t-227.5 107.5 q-31 23 -44 48.5t-13 64.5zM600 1622q0 27 27 53l176 174q47 47 100 47q45 0 79 -33.5t34 -78.5q0 -31 -20.5 -59.5t-61.5 -49.5l-223 -110q-16 -9 -39 -9q-29 0 -50.5 19.5t-21.5 46.5z" />
<glyph unicode="&#x15b;" horiz-adv-x="997" d="M57 188q0 47 27 79t66 32q27 0 53 -9t55 -22q57 -27 112.5 -42t137.5 -15q72 0 111.5 22.5t39.5 61.5q0 29 -17 46t-64.5 31.5t-149.5 35.5q-182 35 -262 104.5t-80 194.5q0 92 56.5 165.5t154.5 115.5t221 42q88 0 172 -22.5t150 -63.5q63 -39 63 -115 q0 -49 -26.5 -81.5t-65.5 -32.5q-47 0 -113 37q-51 27 -93 40t-99 13q-63 0 -100 -23.5t-37 -64.5q0 -43 43 -65.5t166 -45.5q137 -27 214.5 -64.5t112.5 -95t35 -145.5q0 -145 -120 -231t-320 -86q-125 0 -217.5 20.5t-161.5 65.5q-31 18 -47.5 49t-16.5 69zM446 1202 q0 27 19 53l176 236q51 70 123 70q51 0 90 -37t39 -86q0 -61 -66 -111l-250 -182q-24 -19 -53 -19q-33 0 -55.5 22.5t-22.5 53.5z" />
<glyph unicode="&#x15c;" horiz-adv-x="1333" d="M78 240q0 51 31.5 90t72.5 39q23 0 44.5 -7.5t52.5 -25.5q88 -55 178 -81t198 -26q135 0 207 45t72 129q0 63 -66.5 102.5t-236.5 74.5q-190 39 -304 94t-166 137t-52 199q0 129 74.5 232.5t206.5 161.5t298 58q291 0 479 -145q31 -25 44.5 -50.5t13.5 -62.5 q0 -51 -32 -90t-73 -39q-23 0 -42 6t-54 27q-84 53 -154.5 79.5t-179.5 26.5q-125 0 -196.5 -48t-71.5 -132q0 -49 27.5 -80.5t92 -56.5t183.5 -51q279 -61 400.5 -157.5t121.5 -264.5q0 -131 -72.5 -231.5t-204.5 -155.5t-306 -55q-162 0 -301.5 37.5t-227.5 107.5 q-31 23 -44 48.5t-13 64.5zM369 1645q0 39 37 69l163 139q47 41 105 41q57 0 104 -41l164 -139q37 -31 37 -69q0 -35 -26.5 -60.5t-63.5 -25.5q-41 0 -74 30l-141 137l-142 -137q-30 -30 -71 -30q-39 0 -65.5 25.5t-26.5 60.5z" />
<glyph unicode="&#x15d;" horiz-adv-x="997" d="M57 188q0 47 27 79t66 32q27 0 53 -9t55 -22q57 -27 112.5 -42t137.5 -15q72 0 111.5 22.5t39.5 61.5q0 29 -17 46t-64.5 31.5t-149.5 35.5q-182 35 -262 104.5t-80 194.5q0 92 56.5 165.5t154.5 115.5t221 42q88 0 172 -22.5t150 -63.5q63 -39 63 -115 q0 -49 -26.5 -81.5t-65.5 -32.5q-47 0 -113 37q-51 27 -93 40t-99 13q-63 0 -100 -23.5t-37 -64.5q0 -43 43 -65.5t166 -45.5q137 -27 214.5 -64.5t112.5 -95t35 -145.5q0 -145 -120 -231t-320 -86q-125 0 -217.5 20.5t-161.5 65.5q-31 18 -47.5 49t-16.5 69zM204 1217 q0 33 23 61l172 221q29 35 54.5 50.5t64.5 15.5t64.5 -15.5t54.5 -52.5l172 -219q23 -29 22 -59q0 -37 -29.5 -65t-66.5 -28q-49 0 -82 48l-135 200l-135 -200q-33 -48 -82 -48q-39 0 -68 27t-29 64z" />
<glyph unicode="&#x15e;" horiz-adv-x="1333" d="M78 240q0 51 31.5 90t72.5 39q23 0 44.5 -7.5t52.5 -25.5q88 -55 178 -81t198 -26q135 0 207 45t72 129q0 63 -66.5 102.5t-236.5 74.5q-190 39 -304 94t-166 137t-52 199q0 129 74.5 232.5t206.5 161.5t298 58q291 0 479 -145q31 -25 44.5 -50.5t13.5 -62.5 q0 -51 -32 -90t-73 -39q-23 0 -42 6t-54 27q-84 53 -154.5 79.5t-179.5 26.5q-125 0 -196.5 -48t-71.5 -132q0 -49 27.5 -80.5t92 -56.5t183.5 -51q279 -61 400.5 -157.5t121.5 -264.5q0 -123 -64.5 -219t-183 -154.5t-276.5 -66.5l-8 -70q33 4 45 4q63 0 107 -39t44 -102 q0 -80 -71.5 -130t-204.5 -50q-86 0 -146 20q-41 14 -40 61q0 29 18 49.5t45 12.5q70 -16 115 -16q94 0 94 53q0 18 -13.5 28.5t-35.5 10.5q-18 0 -47 -6.5t-43 -6.5q-20 0 -31.5 11.5t-9.5 31.5l18 140q-131 10 -240.5 47t-183.5 94q-31 23 -44 48.5t-13 64.5z" />
<glyph unicode="&#x15f;" horiz-adv-x="997" d="M57 188q0 47 27 79t66 32q27 0 53 -9t55 -22q57 -27 112.5 -42t137.5 -15q72 0 111.5 22.5t39.5 61.5q0 29 -17 46t-64.5 31.5t-149.5 35.5q-182 35 -262 104.5t-80 194.5q0 92 56.5 165.5t154.5 115.5t221 42q88 0 172 -22.5t150 -63.5q63 -39 63 -115 q0 -49 -26.5 -81.5t-65.5 -32.5q-47 0 -113 37q-51 27 -93 40t-99 13q-63 0 -100 -23.5t-37 -64.5q0 -43 43 -65.5t166 -45.5q137 -27 214.5 -64.5t112.5 -95t35 -145.5q0 -133 -102.5 -217t-278.5 -98l-8 -72q33 4 45 4q63 0 107.5 -39t44.5 -102q0 -80 -72 -130t-205 -50 q-86 0 -145 20q-41 14 -41 61q0 29 18.5 49.5t44.5 12.5q70 -16 115 -16q94 0 94 53q0 18 -13.5 28.5t-35.5 10.5q-18 0 -47 -6.5t-43 -6.5q-20 0 -31.5 11.5t-9.5 31.5l18 142q-166 14 -274 82q-31 18 -47.5 49t-16.5 69z" />
<glyph unicode="&#x160;" horiz-adv-x="1333" d="M78 240q0 51 31.5 90t72.5 39q23 0 44.5 -7.5t52.5 -25.5q88 -55 178 -81t198 -26q135 0 207 45t72 129q0 63 -66.5 102.5t-236.5 74.5q-190 39 -304 94t-166 137t-52 199q0 129 74.5 232.5t206.5 161.5t298 58q291 0 479 -145q31 -25 44.5 -50.5t13.5 -62.5 q0 -51 -32 -90t-73 -39q-23 0 -42 6t-54 27q-84 53 -154.5 79.5t-179.5 26.5q-125 0 -196.5 -48t-71.5 -132q0 -49 27.5 -80.5t92 -56.5t183.5 -51q279 -61 400.5 -157.5t121.5 -264.5q0 -131 -72.5 -231.5t-204.5 -155.5t-306 -55q-162 0 -301.5 37.5t-227.5 107.5 q-31 23 -44 48.5t-13 64.5zM369 1806q0 35 26.5 60.5t63.5 25.5q41 0 73 -30l142 -138l141 138q31 31 72 30q39 0 65.5 -25.5t26.5 -60.5q0 -37 -37 -71l-164 -138q-47 -41 -104 -41q-58 0 -105 41l-163 138q-37 31 -37 71z" />
<glyph unicode="&#x161;" horiz-adv-x="997" d="M57 188q0 47 27 79t66 32q27 0 53 -9t55 -22q57 -27 112.5 -42t137.5 -15q72 0 111.5 22.5t39.5 61.5q0 29 -17 46t-64.5 31.5t-149.5 35.5q-182 35 -262 104.5t-80 194.5q0 92 56.5 165.5t154.5 115.5t221 42q88 0 172 -22.5t150 -63.5q63 -39 63 -115 q0 -49 -26.5 -81.5t-65.5 -32.5q-47 0 -113 37q-51 27 -93 40t-99 13q-63 0 -100 -23.5t-37 -64.5q0 -43 43 -65.5t166 -45.5q137 -27 214.5 -64.5t112.5 -95t35 -145.5q0 -145 -120 -231t-320 -86q-125 0 -217.5 20.5t-161.5 65.5q-31 18 -47.5 49t-16.5 69zM204 1475 q0 37 29 63.5t68 26.5q51 0 82 -47l135 -199l135 199q31 47 82 47q39 0 67.5 -27t28.5 -63q0 -33 -22 -62l-172 -221q-29 -35 -55.5 -50.5t-63.5 -15.5q-39 0 -63.5 15.5t-55.5 52.5l-172 219q-23 29 -23 62z" />
<glyph unicode="&#x162;" horiz-adv-x="1273" d="M-6 1315q0 129 151 129h983q152 0 152 -129q0 -131 -152 -131h-331v-1037q0 -55 -26 -93t-73 -54l-10 -86q33 4 45 4q63 0 107.5 -39t44.5 -102q0 -80 -72 -130t-205 -50q-86 0 -145 20q-41 14 -41 61q0 29 18.5 49.5t44.5 12.5q70 -16 115 -16q94 0 94 53q0 18 -13 28.5 t-36 10.5q-18 0 -47 -6.5t-43 -6.5q-20 0 -31.5 11.5t-9.5 31.5l23 174q-59 43 -60 127v1037h-332q-152 0 -151 131z" />
<glyph unicode="&#x163;" horiz-adv-x="792" d="M-20 889q0 57 34.5 87t102.5 30h82v159q0 68 42 107t113 39q72 0 113 -39t41 -107v-159h143q139 0 140 -117q0 -55 -35 -85t-105 -30h-143v-428q0 -61 28.5 -93t84.5 -36l57 -4q61 -4 90 -30.5t29 -78.5q0 -59 -47.5 -89.5t-135.5 -24.5l-55 4l-10 -80q33 4 45 4 q63 0 107 -39t44 -102q0 -80 -71.5 -130t-204.5 -50q-86 0 -145 20q-41 14 -41 61q0 29 18 49.5t45 12.5q70 -16 115 -16q94 0 94 53q0 18 -13.5 28.5t-35.5 10.5q-18 0 -47 -6.5t-43 -6.5q-20 0 -31.5 11.5t-9.5 31.5l22 183q-199 84 -198 340v405h-82q-68 0 -102.5 30 t-34.5 85z" />
<glyph unicode="&#x164;" horiz-adv-x="1273" d="M-6 1315q0 129 151 129h983q152 0 152 -129q0 -131 -152 -131h-331v-1037q0 -72 -43 -114.5t-117 -42.5q-72 0 -116 43t-44 114v1037h-332q-152 0 -151 131zM332 1806q0 35 26.5 60.5t63.5 25.5q41 0 73 -30l142 -138l141 138q31 31 72 30q39 0 65.5 -25.5t26.5 -60.5 q0 -37 -37 -71l-164 -138q-47 -41 -104 -41q-58 0 -105 41l-163 138q-37 31 -37 71z" />
<glyph unicode="&#x165;" horiz-adv-x="792" d="M-20 889q0 57 34.5 87t102.5 30h82v159q0 68 42 107t113 39q72 0 113 -39t41 -107v-159h143q139 0 140 -117q0 -55 -35 -85t-105 -30h-143v-428q0 -61 28.5 -93t84.5 -36l57 -4q61 -4 90 -30.5t29 -78.5q0 -59 -47.5 -89.5t-135.5 -24.5l-57 4q-358 29 -358 375v405h-82 q-68 0 -102.5 30t-34.5 85zM594 1118v242q0 47 39 71.5t92 24.5t91 -23.5t38 -62.5q0 -18 -4 -29l-86 -235q-8 -23 -30.5 -35t-53.5 -12q-35 0 -60.5 16.5t-25.5 42.5z" />
<glyph unicode="&#x166;" horiz-adv-x="1273" d="M-6 1315q0 129 151 129h983q152 0 152 -129q0 -131 -152 -131h-331v-334h166q68 0 104.5 -32t36.5 -89t-37 -89t-104 -32h-166v-461q0 -72 -43 -114.5t-117 -42.5q-72 0 -116 43t-44 114v461h-166q-68 0 -104.5 32t-36.5 89t37 89t104 32h166v334h-332q-152 0 -151 131z " />
<glyph unicode="&#x167;" horiz-adv-x="813" d="M-10 889q0 57 34.5 87t102.5 30h82v159q0 68 42 107t114 39t112.5 -39t40.5 -107v-159h144q139 0 139 -117q0 -55 -35 -85t-104 -30h-144v-94h113q61 0 95 -27.5t34 -79.5q0 -51 -34 -78.5t-95 -27.5h-113v-121q0 -61 28.5 -93t84.5 -36l57 -4q62 -4 90.5 -30.5 t28.5 -78.5q0 -59 -47 -89.5t-135 -24.5l-58 4q-358 29 -358 375v98h-49q-61 0 -95 27.5t-34 78.5t33.5 79t95.5 28h49v94h-82q-68 0 -102.5 30t-34.5 85z" />
<glyph unicode="&#x168;" horiz-adv-x="1513" d="M135 596v700q0 72 43 115t115 43t114 -43t42 -115v-714q0 -172 78.5 -262.5t228.5 -90.5t229.5 91.5t79.5 261.5v714q0 72 42 115t114 43t114.5 -43t42.5 -115v-700q0 -299 -159.5 -456.5t-462.5 -157.5t-462 156.5t-159 457.5zM406 1665q0 43 25.5 88t70.5 75t100 30 q47 0 99.5 -14.5t60.5 -16.5q92 -31 145 -31q23 0 36.5 8t31.5 25q16 16 30.5 24.5t37.5 8.5q31 0 47 -18.5t16 -51.5q0 -43 -25.5 -88t-70.5 -75t-101 -30q-47 0 -99 14.5t-60 16.5q-92 31 -146 31q-23 0 -37 -8t-30 -25q-18 -18 -31.5 -26.5t-36.5 -8.5q-29 0 -46 19.5 t-17 52.5z" />
<glyph unicode="&#x169;" horiz-adv-x="1206" d="M113 408v473q0 68 42 106.5t113 38.5q72 0 113 -39t41 -106v-480q0 -90 38 -133t115 -43q90 0 146.5 61.5t56.5 162.5v432q0 68 41 106.5t113 38.5t113.5 -39t41.5 -106v-752q0 -63 -44 -102t-113 -39q-66 0 -105 36.5t-39 98.5v20q-47 -78 -123.5 -118.5t-173.5 -40.5 q-190 0 -283 105.5t-93 318.5zM252 1272q0 43 25.5 96t70.5 91t100 38q37 0 73 -15.5t91 -45.5q41 -25 68.5 -37.5t52.5 -12.5q31 0 49 14.5t43 45.5q18 27 31.5 38t36.5 11q27 0 43 -22.5t16 -57.5q0 -43 -25.5 -96t-70.5 -91t-101 -38q-39 0 -76.5 16.5t-86.5 44.5 q-45 25 -72 36t-49 11q-31 0 -49.5 -14t-42.5 -45q-18 -25 -31.5 -36t-36.5 -11q-27 0 -43 22.5t-16 57.5z" />
<glyph unicode="&#x16a;" horiz-adv-x="1513" d="M135 596v700q0 72 43 115t115 43t114 -43t42 -115v-714q0 -172 78.5 -262.5t228.5 -90.5t229.5 91.5t79.5 261.5v714q0 72 42 115t114 43t114.5 -43t42.5 -115v-700q0 -299 -159.5 -456.5t-462.5 -157.5t-462 156.5t-159 457.5zM406 1726q0 45 28.5 71t73.5 26h496 q45 0 73.5 -25.5t28.5 -71.5q0 -45 -28.5 -70.5t-73.5 -25.5h-496q-45 0 -73.5 25.5t-28.5 70.5z" />
<glyph unicode="&#x16b;" horiz-adv-x="1206" d="M113 408v473q0 68 42 106.5t113 38.5q72 0 113 -39t41 -106v-480q0 -90 38 -133t115 -43q90 0 146.5 61.5t56.5 162.5v432q0 68 41 106.5t113 38.5t113.5 -39t41.5 -106v-752q0 -63 -44 -102t-113 -39q-66 0 -105 36.5t-39 98.5v20q-47 -78 -123.5 -118.5t-173.5 -40.5 q-190 0 -283 105.5t-93 318.5zM252 1343q0 45 28.5 71t73.5 26h496q45 0 73.5 -25.5t28.5 -71.5q0 -45 -28.5 -70.5t-73.5 -25.5h-496q-45 0 -73.5 25.5t-28.5 70.5z" />
<glyph unicode="&#x16c;" horiz-adv-x="1513" d="M135 596v700q0 72 43 115t115 43t114 -43t42 -115v-714q0 -172 78.5 -262.5t228.5 -90.5t229.5 91.5t79.5 261.5v714q0 72 42 115t114 43t114.5 -43t42.5 -115v-700q0 -299 -159.5 -456.5t-462.5 -157.5t-462 156.5t-159 457.5zM399 1796q0 31 24 52.5t56 21.5 q43 0 78 -35q33 -33 86 -50.5t113 -17.5q59 0 112.5 17.5t85.5 50.5q35 33 78 33q33 0 56.5 -20.5t23.5 -53.5q0 -20 -16 -53q-39 -72 -130 -115t-210 -43t-210 43t-130 115q-16 33 -17 55z" />
<glyph unicode="&#x16d;" horiz-adv-x="1206" d="M113 408v473q0 68 42 106.5t113 38.5q72 0 113 -39t41 -106v-480q0 -90 38 -133t115 -43q90 0 146.5 61.5t56.5 162.5v432q0 68 41 106.5t113 38.5t113.5 -39t41.5 -106v-752q0 -63 -44 -102t-113 -39q-66 0 -105 36.5t-39 98.5v20q-47 -78 -123.5 -118.5t-173.5 -40.5 q-190 0 -283 105.5t-93 318.5zM241 1440q0 37 26 60.5t60 23.5q47 0 78 -45q68 -106 197 -107q129 0 196 107q14 23 36 34t42 11q35 0 61.5 -23.5t26.5 -60.5q0 -12 -8 -37q-37 -102 -136 -165.5t-218 -63.5t-218.5 63t-136.5 166q-6 18 -6 37z" />
<glyph unicode="&#x16e;" horiz-adv-x="1513" d="M135 596v700q0 72 43 115t115 43t114 -43t42 -115v-714q0 -172 78.5 -262.5t228.5 -90.5t229.5 91.5t79.5 261.5v714q0 72 42 115t114 43t114.5 -43t42.5 -115v-700q0 -299 -159.5 -456.5t-462.5 -157.5t-462 156.5t-159 457.5zM533 1776q0 94 64.5 157.5t158.5 63.5 t158.5 -63.5t64.5 -157.5q0 -92 -64.5 -156t-158.5 -64t-158.5 63.5t-64.5 156.5zM668 1776q0 -39 24.5 -66t63.5 -27t63.5 27t24.5 66q0 41 -24.5 67.5t-63.5 26.5t-63.5 -26.5t-24.5 -67.5z" />
<glyph unicode="&#x16f;" horiz-adv-x="1206" d="M113 408v473q0 68 42 106.5t113 38.5q72 0 113 -39t41 -106v-480q0 -90 38 -133t115 -43q90 0 146.5 61.5t56.5 162.5v432q0 68 41 106.5t113 38.5t113.5 -39t41.5 -106v-752q0 -63 -44 -102t-113 -39q-66 0 -105 36.5t-39 98.5v20q-47 -78 -123.5 -118.5t-173.5 -40.5 q-190 0 -283 105.5t-93 318.5zM379 1348q0 92 64.5 155.5t158.5 63.5t158.5 -63.5t64.5 -155.5q0 -94 -64.5 -158t-158.5 -64t-158.5 63.5t-64.5 158.5zM514 1348q0 -41 24.5 -68t63.5 -27t63.5 27t24.5 68q0 39 -24.5 65.5t-63.5 26.5t-63.5 -27t-24.5 -65z" />
<glyph unicode="&#x170;" horiz-adv-x="1513" d="M135 596v700q0 72 43 115t115 43t114 -43t42 -115v-714q0 -172 78.5 -262.5t228.5 -90.5t229.5 91.5t79.5 261.5v714q0 72 42 115t114 43t114.5 -43t42.5 -115v-700q0 -299 -159.5 -456.5t-462.5 -157.5t-462 156.5t-159 457.5zM547 1622q0 20 8 37l76 170q29 66 90 65 q43 0 79 -30.5t36 -73.5q0 -37 -33 -72l-133 -135q-27 -27 -58 -27q-27 0 -46 18.5t-19 47.5zM832 1624q0 16 6 35l75 170q29 66 93 65q43 0 78.5 -30.5t35.5 -73.5q0 -37 -34 -72l-132 -135q-26 -27 -57 -27q-27 0 -46 19.5t-19 48.5z" />
<glyph unicode="&#x171;" horiz-adv-x="1206" d="M113 408v473q0 68 42 106.5t113 38.5q72 0 113 -39t41 -106v-480q0 -90 38 -133t115 -43q90 0 146.5 61.5t56.5 162.5v432q0 68 41 106.5t113 38.5t113.5 -39t41.5 -106v-752q0 -63 -44 -102t-113 -39q-66 0 -105 36.5t-39 98.5v20q-47 -78 -123.5 -118.5t-173.5 -40.5 q-190 0 -283 105.5t-93 318.5zM393 1192q0 12 2 18l51 248q12 55 44 83t73 28q43 0 75.5 -29t32.5 -74q0 -35 -20 -69l-127 -234q-25 -39 -64 -39q-27 0 -47 19.5t-20 48.5zM676 1192q0 12 2 18l53 248q12 55 44 83t73 28q43 0 75.5 -29t32.5 -74q0 -35 -20 -69l-129 -234 q-21 -39 -64 -39q-27 0 -47 19.5t-20 48.5z" />
<glyph unicode="&#x172;" horiz-adv-x="1513" d="M135 596v700q0 72 43 115t115 43t114 -43t42 -115v-714q0 -172 78.5 -262.5t228.5 -90.5t229.5 91.5t79.5 261.5v714q0 72 42 115t114 43q71 0 114 -43t43 -115v-700q0 -236 -99 -384.5t-288 -199.5q-129 -35 -129 -145q0 -49 30 -80t79 -31q41 0 98 19q6 2 18 2 q25 0 39.5 -20.5t14.5 -47.5q0 -45 -35 -65q-80 -47 -180 -47q-115 0 -188.5 63.5t-73.5 161.5q0 92 67 160q-293 8 -444.5 163.5t-151.5 450.5z" />
<glyph unicode="&#x173;" horiz-adv-x="1206" d="M113 408v473q0 68 42 106.5t113 38.5q72 0 113 -39t41 -106v-480q0 -90 37 -133t112 -43q94 0 150.5 61.5t56.5 162.5v432q0 68 41 106.5t113 38.5t113.5 -39t41.5 -106v-752q0 -43 -20 -76t-57 -49q-113 -51 -113 -137q0 -49 29.5 -80t77.5 -31q41 0 98 19q6 2 18 2 q25 0 40.5 -20.5t15.5 -47.5q0 -45 -37 -65q-76 -47 -181 -47q-115 0 -187.5 64.5t-72.5 166.5q0 127 117 207q-29 31 -29 88v20q-47 -78 -123.5 -118.5t-173.5 -40.5q-190 0 -283 105.5t-93 318.5z" />
<glyph unicode="&#x174;" horiz-adv-x="2283" d="M66 1319q0 63 45 101t106 38q49 0 89 -25.5t59 -74.5l315 -907l328 903q18 49 58 75.5t85 26.5q47 0 86 -26.5t57 -77.5l314 -918l325 924q19 49 57 74.5t85 25.5q59 0 101 -37t42 -100q0 -31 -12 -68l-426 -1165q-18 -49 -64.5 -76.5t-101.5 -27.5t-100.5 27.5 t-63.5 76.5l-305 862l-314 -862q-18 -49 -63 -76.5t-100 -27.5q-53 0 -99.5 27.5t-64.5 76.5l-426 1165q-12 35 -12 66zM836 1645q0 39 37 69l163 139q47 41 105 41q57 0 104 -41l164 -139q37 -31 37 -69q0 -35 -26.5 -60.5t-63.5 -25.5q-41 0 -74 30l-141 137l-142 -137 q-30 -30 -71 -30q-39 0 -65.5 25.5t-26.5 60.5z" />
<glyph unicode="&#x175;" horiz-adv-x="1767" d="M31 889q0 57 48 96t109 39q41 0 75 -22.5t52 -65.5l220 -551l223 547q18 43 54 66.5t79 23.5t80 -22.5t55 -67.5l227 -547l217 551q19 43 51.5 65.5t69.5 22.5q57 0 102.5 -39t45.5 -96q0 -25 -13 -55l-335 -754q-18 -45 -59.5 -68.5t-86.5 -23.5q-47 0 -87 23.5 t-58 68.5l-219 510l-211 -510q-18 -45 -57.5 -68.5t-88.5 -23.5q-47 0 -88 23.5t-59 68.5l-334 754q-12 29 -12 55zM571 1217q0 33 23 61l172 221q29 35 54.5 50.5t64.5 15.5t64.5 -15.5t54.5 -52.5l172 -219q23 -29 22 -59q0 -37 -29.5 -65t-66.5 -28q-49 0 -82 48 l-135 200l-135 -200q-33 -48 -82 -48q-39 0 -68 27t-29 64z" />
<glyph unicode="&#x176;" horiz-adv-x="1302" d="M8 1311q0 57 44 101t102 44q61 0 106 -53l391 -477l391 477q46 53 107 53q57 0 103 -44t46 -101q0 -51 -38 -97l-449 -532v-535q0 -78 -45 -118.5t-113 -40.5q-72 0 -116.5 41t-44.5 118v535l-445 532q-39 41 -39 97zM346 1645q0 39 37 69l163 139q47 41 105 41 q57 0 104 -41l164 -139q37 -31 37 -69q0 -35 -26.5 -60.5t-63.5 -25.5q-41 0 -74 30l-141 137l-142 -137q-30 -30 -71 -30q-39 0 -65.5 25.5t-26.5 60.5z" />
<glyph unicode="&#x177;" horiz-adv-x="1093" d="M14 891q0 55 48.5 94t109.5 39q41 0 76 -21.5t55 -64.5l254 -553l248 553q18 43 52 63.5t73 20.5q59 0 104 -38t45 -91q0 -29 -14 -57l-551 -1131q-20 -43 -55 -64.5t-74 -21.5q-57 0 -100 37t-43 90q0 33 14 61l135 281l-364 748q-12 29 -13 55zM233 1217q0 33 23 61 l172 221q29 35 54.5 50.5t64.5 15.5t64.5 -15.5t54.5 -52.5l172 -219q23 -29 22 -59q0 -37 -29.5 -65t-66.5 -28q-49 0 -82 48l-135 200l-135 -200q-33 -48 -82 -48q-39 0 -68 27t-29 64z" />
<glyph unicode="&#x178;" horiz-adv-x="1302" d="M8 1311q0 57 44 101t102 44q61 0 106 -53l391 -477l391 477q46 53 107 53q57 0 103 -44t46 -101q0 -51 -38 -97l-449 -532v-535q0 -78 -45 -118.5t-113 -40.5q-72 0 -116.5 41t-44.5 118v535l-445 532q-39 41 -39 97zM303 1729q0 66 43 104.5t110 38.5q68 0 111 -39 t43 -104q0 -66 -42 -106t-112 -40q-67 0 -110 40t-43 106zM694 1729q0 66 42 104.5t109 38.5q68 0 111 -39t43 -104q0 -66 -43 -106t-111 -40q-67 0 -109 40t-42 106z" />
<glyph unicode="&#x179;" horiz-adv-x="1249" d="M72 133q0 59 41 115l682 944h-570q-78 0 -114.5 30.5t-36.5 94.5q0 66 36.5 96.5t114.5 30.5h815q63 0 101.5 -38t38.5 -95q0 -61 -39 -115l-684 -944h600q78 0 114.5 -31t36.5 -94q0 -66 -36.5 -96.5t-114.5 -30.5h-846q-63 0 -101 38t-38 95zM553 1622q0 27 27 53 l176 174q47 47 100 47q45 0 79 -33.5t34 -78.5q0 -31 -20.5 -59.5t-61.5 -49.5l-223 -110q-16 -9 -39 -9q-29 0 -50.5 19.5t-21.5 46.5z" />
<glyph unicode="&#x17a;" horiz-adv-x="1052" d="M61 889q0 117 140 117h639q63 0 101 -39t38 -95q0 -61 -43 -106l-477 -535h415q140 1 140 -116q0 -115 -140 -115h-663q-61 0 -100 39t-39 92q0 61 43 107l479 536h-393q-139 0 -140 115zM471 1202q0 27 19 53l176 236q51 70 123 70q51 0 90 -37t39 -86q0 -61 -66 -111 l-250 -182q-24 -19 -53 -19q-33 0 -55.5 22.5t-22.5 53.5z" />
<glyph unicode="&#x17b;" horiz-adv-x="1249" d="M72 133q0 59 41 115l682 944h-570q-78 0 -114.5 30.5t-36.5 94.5q0 66 36.5 96.5t114.5 30.5h815q63 0 101.5 -38t38.5 -95q0 -61 -39 -115l-684 -944h600q78 0 114.5 -31t36.5 -94q0 -66 -36.5 -96.5t-114.5 -30.5h-846q-63 0 -101 38t-38 95zM451 1729q0 72 47 112.5 t129 40.5q80 0 128 -42t48 -111q0 -72 -47 -114t-129 -42t-129 42t-47 114z" />
<glyph unicode="&#x17c;" horiz-adv-x="1052" d="M61 889q0 117 140 117h639q63 0 101 -39t38 -95q0 -61 -43 -106l-477 -535h415q140 1 140 -116q0 -115 -140 -115h-663q-61 0 -100 39t-39 92q0 61 43 107l479 536h-393q-139 0 -140 115zM367 1346q0 72 47 112.5t129 40.5q80 0 128 -42t48 -111q0 -72 -47 -114t-129 -42 t-129 42t-47 114z" />
<glyph unicode="&#x17d;" horiz-adv-x="1249" d="M72 133q0 59 41 115l682 944h-570q-78 0 -114.5 30.5t-36.5 94.5q0 66 36.5 96.5t114.5 30.5h815q63 0 101.5 -38t38.5 -95q0 -61 -39 -115l-684 -944h600q78 0 114.5 -31t36.5 -94q0 -66 -36.5 -96.5t-114.5 -30.5h-846q-63 0 -101 38t-38 95zM322 1806q0 35 26.5 60.5 t63.5 25.5q41 0 73 -30l142 -138l141 138q31 31 72 30q39 0 65.5 -25.5t26.5 -60.5q0 -37 -37 -71l-164 -138q-47 -41 -104 -41q-58 0 -105 41l-163 138q-37 31 -37 71z" />
<glyph unicode="&#x17e;" horiz-adv-x="1052" d="M61 889q0 117 140 117h639q63 0 101 -39t38 -95q0 -61 -43 -106l-477 -535h415q140 1 140 -116q0 -115 -140 -115h-663q-61 0 -100 39t-39 92q0 61 43 107l479 536h-393q-139 0 -140 115zM229 1475q0 37 29 63.5t68 26.5q51 0 82 -47l135 -199l135 199q31 47 82 47 q39 0 67.5 -27t28.5 -63q0 -33 -22 -62l-172 -221q-29 -35 -55.5 -50.5t-63.5 -15.5q-39 0 -63.5 15.5t-55.5 52.5l-172 219q-23 29 -23 62z" />
<glyph unicode="&#x192;" d="M27 -264q0 51 38.5 89t106.5 38h29q59 0 98 41t53 119l174 813h-153q-41 0 -70 24.5t-29 65.5q0 39 30 63.5t69 24.5h190l10 45q41 207 166 301t285 94h41q68 0 102.5 -34t34.5 -83q0 -51 -39 -89t-106 -38h-29q-59 0 -98 -41t-53 -118l-9 -37h154q41 0 69.5 -24.5 t28.5 -63.5q0 -41 -28.5 -65.5t-69.5 -24.5h-191l-176 -822q-41 -207 -165.5 -300t-284.5 -93h-41q-66 0 -101.5 34t-35.5 81z" />
<glyph unicode="&#x2c6;" horiz-adv-x="614" d="M-7 1217q0 33 23 61l172 221q29 35 54.5 50.5t64.5 15.5t64.5 -15.5t54.5 -52.5l172 -219q23 -29 22 -59q0 -37 -29.5 -65t-66.5 -28q-49 0 -82 48l-135 200l-135 -200q-33 -48 -82 -48q-39 0 -68 27t-29 64z" />
<glyph unicode="&#x2da;" horiz-adv-x="614" d="M84 1348q0 92 64.5 155.5t158.5 63.5t158.5 -63.5t64.5 -155.5q0 -94 -64.5 -158t-158.5 -64t-158.5 63.5t-64.5 158.5zM219 1348q0 -41 24.5 -68t63.5 -27t63.5 27t24.5 68q0 39 -24.5 65.5t-63.5 26.5t-63.5 -27t-24.5 -65z" />
<glyph unicode="&#x2dc;" horiz-adv-x="614" d="M-43 1272q0 43 25.5 96t70.5 91t100 38q37 0 73 -15.5t91 -45.5q41 -25 68.5 -37.5t52.5 -12.5q31 0 49 14.5t43 45.5q18 27 31.5 38t36.5 11q27 0 43 -22.5t16 -57.5q0 -43 -25.5 -96t-70.5 -91t-101 -38q-39 0 -76.5 16.5t-86.5 44.5q-45 25 -72 36t-49 11 q-31 0 -49.5 -14t-42.5 -45q-18 -25 -31.5 -36t-36.5 -11q-27 0 -43 22.5t-16 57.5z" />
<glyph unicode="&#x3a9;" horiz-adv-x="1662" d="M96 129q0 127 150 127h188q-139 186 -210.5 300t-99.5 197t-28 171q0 166 88 287.5t254 187t393 65.5q223 0 389 -66.5t256.5 -188.5t90.5 -285q0 -88 -29 -171t-100.5 -198t-210.5 -299h190q150 0 150 -127q0 -129 -150 -129h-375q-61 0 -98 37t-37 94q0 55 37 117 q178 295 240.5 432t62.5 233q0 145 -107.5 223t-308.5 78t-308 -77.5t-107 -223.5q0 -98 63.5 -237t239.5 -428q37 -61 37 -117q0 -57 -37 -94t-98 -37h-375q-150 0 -150 129z" />
<glyph unicode="&#x3c0;" horiz-adv-x="1261" d="M-20 889q0 117 137 117h964q70 0 105 -31t35 -86t-35 -85t-105 -30h-102v-428q0 -61 28.5 -93t84.5 -36l57 -4q61 -4 90 -31.5t29 -77.5q0 -61 -49.5 -90.5t-133.5 -23.5l-57 4q-358 27 -358 375v405h-152q-4 -201 -28.5 -367.5t-75.5 -318.5q-18 -51 -60.5 -76.5 t-93.5 -25.5q-61 0 -108.5 36.5t-47.5 98.5q0 20 7 45q41 154 67.5 300t34.5 308h-96q-137 0 -137 115z" />
<glyph unicode="&#x2000;" horiz-adv-x="998" />
<glyph unicode="&#x2001;" horiz-adv-x="1997" />
<glyph unicode="&#x2002;" horiz-adv-x="998" />
<glyph unicode="&#x2003;" horiz-adv-x="1997" />
<glyph unicode="&#x2004;" horiz-adv-x="665" />
<glyph unicode="&#x2005;" horiz-adv-x="499" />
<glyph unicode="&#x2006;" horiz-adv-x="332" />
<glyph unicode="&#x2007;" horiz-adv-x="332" />
<glyph unicode="&#x2008;" horiz-adv-x="249" />
<glyph unicode="&#x2009;" horiz-adv-x="399" />
<glyph unicode="&#x200a;" horiz-adv-x="110" />
<glyph unicode="&#x2010;" horiz-adv-x="901" d="M104 549q0 121 146 121h401q145 0 146 -121q0 -121 -146 -121h-401q-146 0 -146 121z" />
<glyph unicode="&#x2011;" horiz-adv-x="901" d="M104 549q0 121 146 121h401q145 0 146 -121q0 -121 -146 -121h-401q-146 0 -146 121z" />
<glyph unicode="&#x2012;" horiz-adv-x="901" d="M104 549q0 121 146 121h401q145 0 146 -121q0 -121 -146 -121h-401q-146 0 -146 121z" />
<glyph unicode="&#x2013;" horiz-adv-x="1024" d="M0 549q0 41 31.5 65.5t85.5 24.5h790q53 0 85 -24.5t32 -65.5t-31.5 -65.5t-85.5 -24.5h-790q-54 0 -85.5 24.5t-31.5 65.5z" />
<glyph unicode="&#x2014;" horiz-adv-x="2048" d="M0 549q0 41 31.5 65.5t85.5 24.5h1814q53 0 85 -24.5t32 -65.5t-31.5 -65.5t-85.5 -24.5h-1814q-54 0 -85.5 24.5t-31.5 65.5z" />
<glyph unicode="&#x2018;" horiz-adv-x="532" d="M92 1053q0 215 152 372q29 29 65 29q35 0 61.5 -23.5t26.5 -56.5q0 -29 -22 -53q-68 -72 -90 -154q69 -6 112 -51t43 -115q0 -76 -48 -126t-120 -50q-82 0 -131 58.5t-49 169.5z" />
<glyph unicode="&#x2019;" horiz-adv-x="532" d="M92 1278q0 76 48 126t120 50q82 0 131 -58.5t49 -168.5q0 -213 -153 -373q-27 -29 -64 -29q-35 0 -61.5 23.5t-26.5 56.5q0 29 23 53q68 72 90 154q-70 6 -113 51t-43 115z" />
<glyph unicode="&#x201a;" horiz-adv-x="532" d="M92 164q0 76 48 126t120 50q82 0 131 -58.5t49 -168.5q0 -213 -153 -373q-31 -31 -66 -31t-60.5 23.5t-25.5 56.5q0 31 23 53q68 70 90 156q-70 6 -113 51t-43 115z" />
<glyph unicode="&#x201c;" horiz-adv-x="956" d="M92 1053q0 215 152 372q29 29 65 29q35 0 61.5 -23.5t26.5 -56.5q0 -29 -22 -53q-68 -72 -90 -154q69 -6 112 -51t43 -115q0 -76 -48 -126t-120 -50q-82 0 -131 58.5t-49 169.5zM516 1053q0 215 152 372q29 29 65 29q35 0 61.5 -23.5t26.5 -56.5q0 -29 -22 -53 q-68 -72 -90 -154q69 -6 112 -51t43 -115q0 -76 -48 -126t-120 -50q-82 0 -131 58.5t-49 169.5z" />
<glyph unicode="&#x201d;" horiz-adv-x="956" d="M92 1278q0 76 48 126t120 50q82 0 131 -58.5t49 -168.5q0 -213 -153 -373q-27 -29 -64 -29q-35 0 -61.5 23.5t-26.5 56.5q0 29 23 53q68 72 90 154q-70 6 -113 51t-43 115zM516 1278q0 76 48 126t120 50q82 0 131 -58.5t49 -168.5q0 -213 -153 -373q-27 -29 -64 -29 q-35 0 -61.5 23.5t-26.5 56.5q0 29 23 53q68 72 90 154q-70 6 -113 51t-43 115z" />
<glyph unicode="&#x201e;" horiz-adv-x="956" d="M92 164q0 76 48 126t120 50q82 0 131 -58.5t49 -168.5q0 -213 -153 -373q-31 -31 -66 -31t-60.5 23.5t-25.5 56.5q0 31 23 53q68 70 90 156q-70 6 -113 51t-43 115zM516 164q0 76 48 126t120 50q82 0 131 -58.5t49 -168.5q0 -213 -153 -373q-31 -31 -66 -31t-60.5 23.5 t-25.5 56.5q0 31 23 53q68 70 90 156q-70 6 -113 51t-43 115z" />
<glyph unicode="&#x2026;" horiz-adv-x="1595" d="M92 164q0 76 49 126t125 50t125 -50t49 -126t-49 -126t-125 -50t-125 50t-49 126zM625 164q0 76 49 126t125 50q74 0 124 -50t50 -126t-50.5 -126t-123.5 -50q-76 0 -125 50t-49 126zM1157 164q0 76 49 126t125 50q74 0 123 -50t49 -126t-49 -126t-123 -50q-76 0 -125 50 t-49 126z" />
<glyph unicode="&#x202f;" horiz-adv-x="399" />
<glyph unicode="&#x2030;" horiz-adv-x="2772" d="M74 1028q0 211 100 324.5t275 113.5q176 0 275 -113.5t99 -326.5q0 -217 -99 -329.5t-275 -112.5q-177 0 -276 113.5t-99 330.5zM330 1026q0 -133 28.5 -191.5t90.5 -58.5q63 0 91.5 57.5t28.5 192.5q0 129 -29.5 187.5t-90.5 58.5t-90 -57.5t-29 -188.5zM492 72 q0 39 24 82l725 1251q43 78 115 78q45 0 76.5 -32t31.5 -79q0 -39 -24 -82l-725 -1251q-47 -78 -117 -78q-43 0 -74.5 32t-31.5 79zM1130 430q0 213 99.5 325.5t275.5 112.5q174 0 274.5 -113.5t100.5 -326.5q0 -215 -99.5 -328.5t-275.5 -113.5t-275.5 113.5t-99.5 330.5z M1384 428q0 -135 29 -192.5t92 -57.5q64 0 92.5 57.5t28.5 192.5q0 131 -29.5 189.5t-91.5 58.5q-61 0 -91 -58.5t-30 -189.5zM1950 430q0 213 99 325.5t275 112.5q174 0 274.5 -113.5t100.5 -326.5q0 -215 -99 -328.5t-276 -113.5q-176 0 -275 113.5t-99 330.5zM2204 428 q0 -135 28.5 -192.5t91.5 -57.5q62 0 90.5 58.5t28.5 191.5q0 131 -28.5 189.5t-90.5 58.5q-61 0 -90.5 -58.5t-29.5 -189.5z" />
<glyph unicode="&#x2039;" horiz-adv-x="620" d="M106 545q0 47 31 92l154 246q41 66 110 65q47 0 81 -30.5t34 -79.5q0 -29 -14 -60l-109 -233l109 -234q14 -29 14 -59q0 -47 -33.5 -78t-81.5 -31q-68 0 -108 64l-156 246q-31 49 -31 92z" />
<glyph unicode="&#x203a;" horiz-adv-x="608" d="M104 842q0 47 35 76.5t82 29.5q31 0 60.5 -16.5t48.5 -48.5l143 -246q29 -43 29 -92q0 -47 -29 -92l-143 -246q-19 -33 -47.5 -49.5t-61.5 -16.5q-45 0 -80 32t-35 79q0 31 15 59l110 234l-110 233q-16 37 -17 64z" />
<glyph unicode="&#x2044;" horiz-adv-x="409" d="M-283 72q0 39 25 82l725 1251q47 78 117 78q45 0 76.5 -32t31.5 -79q0 -39 -24 -82l-725 -1251q-47 -78 -117 -78q-45 0 -77 32t-32 79z" />
<glyph unicode="&#x205f;" horiz-adv-x="499" />
<glyph unicode="&#x20ac;" d="M12 565q0 39 29 66.5t70 27.5h90q-2 20 -2 64q0 43 2 63h-90q-41 0 -70 28t-29 67t29 66.5t70 27.5h112q47 233 185.5 360t345.5 127q215 0 407 -147q29 -23 42.5 -47.5t13.5 -63.5q0 -53 -30 -91t-73 -38q-27 0 -47 7.5t-51 27.5q-74 51 -133.5 74.5t-112.5 23.5 q-94 0 -151.5 -56t-83.5 -177h235q41 0 68.5 -26.5t27.5 -67.5t-27.5 -68t-68.5 -27h-256v-63v-64h256q41 0 68.5 -26.5t27.5 -67.5t-27.5 -67.5t-68.5 -26.5h-235q27 -123 84 -179t151 -56q53 0 111.5 23.5t134.5 74.5q31 20 51 27.5t47 7.5q43 0 73 -38t30 -91 q0 -35 -13.5 -61.5t-42.5 -49.5q-180 -147 -407 -147q-207 0 -345.5 128t-185.5 361h-112q-41 0 -70 27.5t-29 66.5z" />
<glyph unicode="&#x2122;" horiz-adv-x="1935" d="M0 1331q0 57 31.5 85t99.5 28h551q70 0 101.5 -27.5t31.5 -85.5q0 -113 -133 -112h-135v-514q0 -63 -41 -98.5t-100 -35.5q-57 0 -98.5 35t-41.5 99v514h-135q-131 0 -131 112zM905 709v612q0 63 39 98t92 35q78 0 127 -90l191 -360l192 360q47 90 123 90q53 0 91 -35 t38 -98v-612q0 -66 -37 -102t-84 -36t-84 36t-37 102v245l-86 -159q-25 -47 -52 -67.5t-66 -20.5t-65.5 20.5t-51.5 67.5l-88 157v-243q0 -66 -37 -102t-84 -36q-45 0 -83 36t-38 102z" />
<glyph unicode="&#x2202;" d="M53 494q0 164 63.5 284.5t170 184t231.5 63.5q190 0 289 -125q-14 209 -133 322.5t-326 113.5h-33q-45 0 -79.5 34t-34.5 81q0 102 131 123q14 0 40.5 3t49.5 3q194 0 354 -90t256 -283.5t96 -488.5q0 -360 -137 -557t-418 -197q-150 0 -267.5 62.5t-185 182.5t-67.5 284 zM365 494q2 -129 60 -205t153 -76q94 0 154.5 76t60.5 207q0 129 -59.5 203.5t-155.5 74.5q-94 0 -153.5 -74.5t-59.5 -205.5z" />
<glyph unicode="&#x2206;" horiz-adv-x="1662" d="M96 129q0 127 150 127h188q-139 186 -210.5 300t-99.5 197t-28 171q0 166 88 287.5t254 187t393 65.5q223 0 389 -66.5t256.5 -188.5t90.5 -285q0 -88 -29 -171t-100.5 -198t-210.5 -299h190q150 0 150 -127q0 -129 -150 -129h-375q-61 0 -98 37t-37 94q0 55 37 117 q178 295 240.5 432t62.5 233q0 145 -107.5 223t-308.5 78t-308 -77.5t-107 -223.5q0 -98 63.5 -237t239.5 -428q37 -61 37 -117q0 -57 -37 -94t-98 -37h-375q-150 0 -150 129z" />
<glyph unicode="&#x220f;" d="M115 -236v1536q0 63 40 103.5t103 40.5h713q63 0 103 -40t40 -104v-1536q0 -63 -40 -103t-103 -40q-59 0 -100.5 40t-41.5 103v1430h-430v-1430q0 -63 -40 -103t-101 -40t-102 40t-41 103z" />
<glyph unicode="&#x2211;" horiz-adv-x="1239" d="M63 -236q0 57 41 115l474 660l-474 657q-41 53 -41 115q0 57 38 95t102 38h817q150 0 149 -129q0 -127 -149 -127h-565l376 -518q51 -70 52 -129q0 -61 -54 -133l-374 -521h565q149 0 149 -127q0 -129 -149 -129h-817q-63 0 -101.5 38t-38.5 95z" />
<glyph unicode="&#x221a;" d="M12 588q0 45 31 74.5t76 29.5h192q35 0 61.5 -19.5t35.5 -54.5l180 -669l334 1444q8 35 35.5 56t62.5 21q115 0 115 -94q0 -23 -7 -47l-378 -1571q-23 -90 -59 -129t-99 -39q-62 0 -99.5 38t-60.5 124l-209 729h-104q-45 0 -76 31t-31 76z" />
<glyph unicode="&#x221e;" d="M63 582q0 162 82 257t224 95q72 0 136 -36t109 -118q45 82 109.5 118t136.5 36q141 0 223 -95.5t82 -256.5q0 -164 -82 -258.5t-223 -94.5q-72 0 -136.5 36t-109.5 118q-45 -82 -109.5 -118t-135.5 -36q-141 0 -223.5 94.5t-82.5 258.5zM252 582q0 -76 33.5 -124 t95.5 -48q51 0 95 42t71 132q-27 88 -71 129t-95 41q-61 0 -95 -48.5t-34 -123.5zM682 584q27 -90 71 -132t95 -42q61 0 95 48t34 124t-34 124t-95 48q-51 0 -95 -41t-71 -129z" />
<glyph unicode="&#x222b;" d="M184 -258q0 51 33 86t80 35h27q68 0 102.5 40t34.5 120v1036q0 211 116.5 303t311.5 92h43q49 0 80.5 -36t31.5 -85q0 -53 -32.5 -88t-79.5 -35h-27q-68 0 -102.5 -40t-34.5 -119v-1037q0 -211 -116.5 -302t-311.5 -91h-43q-49 0 -81 36t-32 85z" />
<glyph unicode="&#x2248;" d="M151 360q0 29 15 51q41 68 105.5 105t135.5 37q59 0 118.5 -21.5t135.5 -60.5q57 -29 94 -43.5t70 -14.5q51 0 94 37q45 49 88 50q27 0 52 -17q20 -14 31.5 -35.5t11.5 -46.5q0 -27 -15 -49q-43 -66 -106.5 -102.5t-134.5 -36.5q-60 0 -119.5 21.5t-134.5 60.5 q-63 31 -98.5 45t-65.5 14q-51 0 -94 -39q-49 -49 -93 -49q-23 0 -49 16q-18 12 -29.5 34t-11.5 44zM151 770q0 29 15 51q41 68 105.5 105t135.5 37q59 0 118.5 -21.5t135.5 -60.5q57 -29 94 -43.5t70 -14.5q51 0 94 37q45 49 88 50q27 0 52 -17q20 -14 31.5 -35.5 t11.5 -46.5q0 -27 -15 -49q-43 -66 -106.5 -102.5t-134.5 -36.5q-60 0 -119.5 21.5t-134.5 60.5q-63 31 -98.5 45t-65.5 14q-51 0 -94 -39q-49 -49 -93 -49q-23 0 -49 16q-18 12 -29.5 34t-11.5 44z" />
<glyph unicode="&#x2260;" d="M127 383q0 45 30.5 74.5t75.5 29.5h226l84 199h-310q-45 0 -75.5 31t-30.5 76t30.5 74.5t75.5 29.5h396l71 170q12 31 38 48.5t55 17.5q49 0 79.5 -31t30.5 -72q0 -20 -10 -45l-37 -88h164q45 0 75.5 -29.5t30.5 -74.5t-30.5 -76t-75.5 -31h-252l-82 -199h334 q45 0 75.5 -29.5t30.5 -74.5t-30.5 -76t-75.5 -31h-422l-70 -167q-12 -31 -37.5 -48.5t-56.5 -17.5q-25 0 -43 8q-31 14 -48 39t-17 55q0 20 10 45l35 86h-138q-45 0 -75.5 31t-30.5 76z" />
<glyph unicode="&#x2264;" d="M115 688q0 53 28.5 95t79.5 57l723 221q25 8 55 8q49 0 81 -29.5t32 -78.5q0 -31 -16.5 -54.5t-42.5 -32.5l-627 -184l627 -182q29 -8 44 -32.5t15 -55.5q0 -49 -30.5 -78t-79.5 -29q-31 0 -58 9l-723 217q-108 32 -108 149zM127 106q0 45 30.5 75t75.5 30h787 q45 0 75.5 -29.5t30.5 -75.5q0 -45 -30.5 -75.5t-75.5 -30.5h-787q-45 0 -75.5 30.5t-30.5 75.5z" />
<glyph unicode="&#x2265;" d="M115 420q0 31 15 55.5t44 32.5l627 182l-627 184q-27 8 -43 32t-16 55q0 49 31.5 78.5t80.5 29.5q31 0 56 -8l723 -221q51 -14 79.5 -56.5t28.5 -95.5q0 -117 -108 -149l-723 -217q-27 -8 -58 -9q-49 0 -79.5 29t-30.5 78zM127 106q0 45 30.5 75t75.5 30h787 q45 0 75.5 -29.5t30.5 -75.5q0 -45 -30.5 -75.5t-75.5 -30.5h-787q-45 0 -75.5 30.5t-30.5 75.5z" />
<glyph unicode="&#x25fc;" horiz-adv-x="1024" d="M0 0v1024h1024v-1024h-1024z" />
</font>
</defs>
</svg>
