<?xml version="1.0" standalone="no"?>
<!DOCTYPE svg PUBLIC "-//W3C//DTD SVG 1.1//EN" "http://www.w3.org/Graphics/SVG/1.1/DTD/svg11.dtd" >
<svg xmlns="http://www.w3.org/2000/svg" xmlns:xlink="http://www.w3.org/1999/xlink" version="1.1">
<metadata>
Created by FontForge 20170924 at Thu Jul 21 23:26:19 2016
 By www-data
Copyright \251 2015 by Radomir Tinkov. All rights reserved.
</metadata>
<defs>
<font id="Gilroy-BoldItalic" horiz-adv-x="575" >
  <font-face 
    font-family="Gilroy"
    font-weight="700"
    font-style="italic"
    font-stretch="normal"
    units-per-em="1000"
    panose-1="0 0 8 0 0 0 0 0 0 0"
    ascent="773"
    descent="-227"
    x-height="500"
    cap-height="700"
    bbox="-361 -263 1079.38 975"
    underline-thickness="50"
    underline-position="-100"
    slope="-10"
    unicode-range="U+0020-FB02"
  />
<missing-glyph horiz-adv-x="500" 
d="M93 800h317v-1000h-317v1000zM333 700v33h-165v-33h65v-37h-66v-33h166v33h-66v37h66zM267 534v70h-100v-104h166v34h-66zM200 570h33v-36h-33v36zM333 440v33h-166v-33h66v-37h-66v-33h100v70h66zM333 313v100h-33v-66h-133v-34h166zM333 178v113h-100v-56h34v23h33v-47
h-100v80h-33v-113h166zM333 5v113h-166v-113h166zM200 85h100v-47h-100v47zM333 -51v33h-166v-33h70l-70 -47v-33h166v33h-102l70 47h32z" />
    <glyph glyph-name="fi" unicode="fi" horiz-adv-x="557" 
d="M266 500h276l-88 -500h-129l66 376h-147l-66 -376h-129l66 376h-71l21 124h72l1 5c25 144 112 209 272 209c35 0 73 -5 114 -14l-20 -118c-29 5 -62 8 -99 8c-82 0 -128 -28 -138 -85z" />
    <glyph glyph-name="fl" unicode="fl" horiz-adv-x="557" 
d="M410 714c43 0 99 -7 166 -21l-122 -693h-129l105 600c-9 1 -22 1 -40 1c-71 0 -112 -32 -123 -96l-1 -5h83l-21 -124h-84l-66 -376h-129l66 376h-71l21 124h72l1 5c25 144 112 209 272 209z" />
    <glyph glyph-name="f_f" unicode="ff" horiz-adv-x="605" 
d="M414 500l3 15c25 149 116 219 272 209l-22 -124c-70 5 -110 -23 -121 -85l-3 -15h106l-21 -124h-107l-66 -376h-129l66 376h-148l-66 -376h-129l66 376h-71l21 124h72l1 5c25 149 116 219 272 209l-22 -124c-70 5 -110 -23 -121 -85l-1 -5h148z" />
    <glyph glyph-name="f_f_i" unicode="ffi" horiz-adv-x="834" 
d="M543 500h276l-88 -500h-129l66 376h-147l-66 -376h-129l66 376h-148l-66 -376h-129l66 376h-71l21 124h72l1 5c25 149 116 219 272 209l-22 -124c-70 5 -110 -23 -121 -85l-1 -5h148l3 15c24 144 112 209 264 209c41 0 82 -5 123 -14l-21 -118c-29 5 -62 8 -98 8
c-83 0 -129 -28 -139 -85z" />
    <glyph glyph-name="f_f_l" unicode="ffl" horiz-adv-x="834" 
d="M689 724c45 0 100 -7 166 -21l-124 -703h-129l107 610c-9 1 -22 1 -40 1c-71 0 -112 -32 -123 -96l-3 -15h84l-22 -124h-84l-66 -376h-129l66 376h-148l-66 -376h-129l66 376h-71l21 124h72l1 5c25 149 116 219 272 209l-22 -124c-70 5 -110 -23 -121 -85l-1 -5h148l3 15
c25 144 112 209 272 209z" />
    <glyph glyph-name=".notdef" horiz-adv-x="500" 
d="M93 800h317v-1000h-317v1000zM333 700v33h-165v-33h65v-37h-66v-33h166v33h-66v37h66zM267 534v70h-100v-104h166v34h-66zM200 570h33v-36h-33v36zM333 440v33h-166v-33h66v-37h-66v-33h100v70h66zM333 313v100h-33v-66h-133v-34h166zM333 178v113h-100v-56h34v23h33v-47
h-100v80h-33v-113h166zM333 5v113h-166v-113h166zM200 85h100v-47h-100v47zM333 -51v33h-166v-33h70l-70 -47v-33h166v33h-102l70 47h32z" />
    <glyph glyph-name="NULL" horiz-adv-x="0" 
 />
    <glyph glyph-name="CR" horiz-adv-x="333" 
 />
    <glyph glyph-name="space" unicode=" " horiz-adv-x="250" 
 />
    <glyph glyph-name="exclam" unicode="!" horiz-adv-x="268" 
d="M183 235h-103l20 265l35 200h155l-35 -200zM87 -13c-47 0 -78 40 -70 87s51 83 100 83c47 0 79 -40 70 -87c-8 -47 -49 -83 -100 -83z" />
    <glyph glyph-name="quotedbl" unicode="&#x22;" horiz-adv-x="378" 
d="M186 470h-87l23 230h122zM356 470h-87l23 230h122z" />
    <glyph glyph-name="numbersign" unicode="#" horiz-adv-x="616" 
d="M636 493l-33 -98h-109l-30 -90h109l-33 -97h-110l-54 -158h-102l54 158h-102l-54 -158h-101l54 158h-110l34 97h110l30 90h-110l33 98h111l54 157h101l-54 -157h102l54 157h102l-54 -157h108zM260 305h102l30 90h-102z" />
    <glyph glyph-name="dollar" unicode="$" horiz-adv-x="560" 
d="M380 571l-29 -165c59 -27 99 -49 120 -67c46 -40 63 -94 51 -162c-21 -117 -116 -183 -245 -190l-15 -87h-68l16 89c-105 13 -178 71 -203 158l125 64c16 -50 50 -80 101 -89l31 175c-95 41 -193 94 -168 228c11 61 39 107 86 139c47 33 99 49 156 50l15 86h68l-16 -93
c75 -19 128 -64 158 -137l-122 -63c-17 32 -37 53 -61 64zM236 514c-5 -31 12 -57 53 -78l25 144c-45 -6 -71 -28 -78 -66zM381 192c6 31 -12 57 -54 78l-26 -148c45 9 72 33 80 70z" />
    <glyph glyph-name="percent" unicode="%" horiz-adv-x="766" 
d="M242 384c-49 0 -86 16 -113 49s-37 71 -31 115c7 45 27 84 62 117s79 49 132 49c50 0 88 -18 115 -54s35 -77 26 -123c-9 -43 -31 -80 -65 -109s-76 -44 -126 -44zM148 69l-59 38l545 508l59 -37zM214 503c19 -24 61 -24 88 0c28 25 36 67 17 91s-61 24 -89 0
c-27 -24 -35 -66 -16 -91zM510 -12c-49 0 -87 17 -114 51c-26 34 -35 73 -28 117c7 45 27 83 62 114c35 32 79 48 131 48c49 0 87 -18 114 -53s36 -75 27 -120c-9 -44 -30 -81 -65 -112c-34 -30 -76 -45 -127 -45zM523 89c37 0 67 29 74 64c7 37 -14 64 -51 64
c-36 0 -65 -28 -72 -64s13 -64 49 -64z" />
    <glyph glyph-name="ampersand" unicode="&#x26;" horiz-adv-x="684" 
d="M526 352l112 -69c-27 -59 -57 -109 -91 -150l77 -104l-116 -61l-57 77c-60 -39 -127 -59 -201 -59c-75 0 -133 21 -172 63s-52 95 -40 158c15 83 68 147 157 192c-21 41 -27 83 -19 128c10 57 37 103 81 136c45 34 98 51 161 51c109 0 181 -50 214 -150l-125 -66
c-17 55 -51 82 -100 82c-48 0 -88 -28 -96 -76c-5 -29 9 -64 40 -106l120 -162c21 35 40 73 55 116zM278 113c36 0 70 9 101 28l-119 161l-4 6c-44 -22 -70 -55 -79 -98c-9 -57 28 -97 101 -97z" />
    <glyph glyph-name="quotesingle" unicode="'" horiz-adv-x="208" 
d="M186 470h-87l23 230h122z" />
    <glyph glyph-name="parenleft" unicode="(" horiz-adv-x="307" 
d="M230 -100h-129c-48 144 -58 297 -29 459c27 153 89 300 188 441h129c-199 -292 -252 -608 -159 -900z" />
    <glyph glyph-name="parenright" unicode=")" horiz-adv-x="306" 
d="M112 800h129c48 -144 58 -297 29 -459c-27 -153 -89 -300 -188 -441h-129c199 292 252 608 159 900z" />
    <glyph glyph-name="asterisk" unicode="*" horiz-adv-x="398" 
d="M318 601l91 8l-14 -80l-89 7l42 -70l-71 -42l-29 84l-57 -84l-64 42l66 70l-91 -7l14 80l89 -8l-42 71l71 42l28 -84l58 84l64 -42z" />
    <glyph glyph-name="plus" unicode="+" horiz-adv-x="555" 
d="M366 411h165l-22 -121h-164l-29 -165h-121l29 165h-165l22 121h164l29 164h121z" />
    <glyph glyph-name="comma" unicode="," horiz-adv-x="278" 
d="M69 138h140l-124 -278h-105z" />
    <glyph glyph-name="hyphen" unicode="-" horiz-adv-x="505" 
d="M438 240h-375l22 124h375z" />
    <glyph glyph-name="period" unicode="." horiz-adv-x="268" 
d="M87 -13c-47 0 -77 39 -69 87s50 83 99 83c47 0 79 -40 70 -87c-8 -47 -49 -83 -100 -83z" />
    <glyph glyph-name="slash" unicode="/" horiz-adv-x="523" 
d="M587 800l-554 -900h-63l555 900h62z" />
    <glyph glyph-name="zero" unicode="0" horiz-adv-x="631" 
d="M277 -14c-89 0 -153 35 -193 104c-39 70 -49 160 -30 270s58 196 116 259c59 63 132 95 220 95s152 -35 191 -104c40 -69 50 -159 31 -269s-58 -197 -117 -260c-58 -63 -131 -95 -218 -95zM293 121c92 0 154 80 181 229s-8 230 -101 230c-92 0 -154 -81 -181 -230
s8 -229 101 -229z" />
    <glyph glyph-name="one" unicode="1" horiz-adv-x="388" 
d="M79 635l196 65h120l-123 -700h-138l96 549l-138 -37z" />
    <glyph glyph-name="two" unicode="2" horiz-adv-x="532" 
d="M452 0h-469l18 103l283 246c63 55 98 101 105 140c9 55 -22 91 -73 91c-49 0 -92 -28 -128 -85l-110 71c61 97 153 148 256 148c61 0 112 -22 151 -65c40 -43 54 -98 42 -165c-15 -80 -60 -141 -145 -214l-161 -137h254z" />
    <glyph glyph-name="three" unicode="3" horiz-adv-x="545" 
d="M123 700h440l-19 -114l-160 -173c87 -33 137 -110 121 -206c-13 -71 -45 -126 -97 -164s-113 -57 -183 -57c-108 0 -192 51 -223 148l125 67c15 -53 53 -80 113 -80c71 0 117 36 128 95c9 57 -23 95 -94 95h-31l-39 80l165 180h-268z" />
    <glyph glyph-name="four" unicode="4" horiz-adv-x="578" 
d="M491 247h75l-22 -128h-76l-21 -119h-139l21 119h-331l23 128l306 453h155l-307 -453h177l29 166h139z" />
    <glyph glyph-name="five" unicode="5" horiz-adv-x="548" 
d="M566 700l-23 -129h-266l-32 -126h70c63 0 114 -22 155 -66c41 -43 55 -101 42 -172c-13 -72 -45 -127 -97 -165c-51 -37 -111 -56 -180 -56c-112 0 -195 51 -230 150l127 66c15 -54 54 -81 118 -81c68 0 115 38 124 95c11 57 -22 95 -90 95h-212l96 389h398z" />
    <glyph glyph-name="six" unicode="6" horiz-adv-x="553" 
d="M525 700l-195 -228c66 -5 118 -32 156 -79s51 -105 39 -172c-13 -71 -45 -128 -97 -171c-51 -43 -115 -64 -190 -64s-133 24 -174 72c-41 49 -56 109 -43 181c11 63 37 114 78 154l261 307h165zM387 230c13 68 -27 113 -94 113c-68 0 -122 -44 -135 -113
c-12 -69 28 -114 95 -114s122 45 134 114z" />
    <glyph glyph-name="seven" unicode="7" horiz-adv-x="490" 
d="M69 568l23 132h452l-20 -117l-333 -583h-153l325 568h-294z" />
    <glyph glyph-name="eight" unicode="8" horiz-adv-x="568" 
d="M557 503c-11 -63 -45 -111 -101 -143c55 -40 81 -103 68 -174c-23 -128 -125 -200 -280 -200c-76 0 -135 20 -176 61s-55 93 -44 157c13 74 56 129 127 165c-43 37 -60 85 -49 146c11 65 41 114 89 148s105 51 170 51c63 0 115 -19 154 -57s53 -89 42 -154zM238 502
c-8 -51 24 -83 75 -83c53 0 97 32 105 83c9 51 -23 82 -75 82c-53 0 -96 -31 -105 -82zM391 213c9 60 -31 96 -96 96c-68 0 -122 -36 -131 -96c-12 -61 29 -97 96 -97c68 0 119 36 131 97z" />
    <glyph glyph-name="nine" unicode="9" horiz-adv-x="553" 
d="M350 714c75 0 133 -24 174 -73c41 -48 56 -108 44 -180c-11 -59 -35 -107 -72 -146l-267 -315h-166l195 229c-66 5 -118 32 -156 79s-51 105 -39 172c13 71 45 128 96 170c52 43 116 64 191 64zM201 471c-13 -69 27 -114 94 -114c68 0 123 45 135 114
c13 69 -27 113 -95 113c-67 0 -122 -45 -134 -113z" />
    <glyph glyph-name="colon" unicode=":" horiz-adv-x="268" 
d="M150 345c-47 0 -77 39 -69 87s50 83 99 83c47 0 79 -40 70 -87c-8 -47 -49 -83 -100 -83zM87 -13c-47 0 -77 39 -69 87s50 83 99 83c47 0 79 -40 70 -87c-8 -47 -49 -83 -100 -83z" />
    <glyph glyph-name="semicolon" unicode=";" horiz-adv-x="279" 
d="M162 345c-47 0 -77 39 -69 87s50 83 99 83c47 0 79 -40 70 -87c-8 -47 -49 -83 -100 -83zM69 138h140l-124 -278h-105z" />
    <glyph glyph-name="less" unicode="&#x3c;" horiz-adv-x="528" 
d="M73 408l471 190l-25 -141l-310 -114l270 -113l-22 -127l-404 190l10 57z" />
    <glyph glyph-name="equal" unicode="=" horiz-adv-x="525" 
d="M505 393h-434l21 121h434zM468 186h-434l22 121h434z" />
    <glyph glyph-name="greater" unicode="&#x3e;" horiz-adv-x="528" 
d="M84 471l23 127l403 -190l-10 -58l-10 -57l-471 -190l26 141l311 113z" />
    <glyph glyph-name="question" unicode="?" horiz-adv-x="553" 
d="M330 235h-138c11 67 62 123 109 154c48 31 97 75 105 118c8 45 -21 73 -70 73c-57 0 -102 -31 -135 -92l-112 71c49 99 152 155 264 155c63 0 113 -19 152 -57c39 -37 52 -87 41 -149c-12 -68 -65 -128 -113 -160c-47 -32 -96 -74 -103 -113zM217 -13
c-47 0 -77 39 -69 87s50 83 99 83c47 0 79 -40 70 -87c-8 -47 -49 -83 -100 -83z" />
    <glyph glyph-name="at" unicode="@" horiz-adv-x="779" 
d="M458 612c105 0 192 -45 239 -113c47 -67 67 -152 52 -236c-25 -140 -101 -210 -196 -210c-60 0 -103 29 -115 77c-31 -29 -67 -44 -108 -44c-42 0 -75 17 -98 50s-30 74 -22 121c17 93 86 157 167 157c39 0 69 -15 92 -45l6 34h107l-41 -231c-8 -49 7 -73 46 -73
c57 0 105 56 126 171c15 87 -2 160 -52 219c-49 59 -118 89 -206 89c-92 0 -175 -31 -249 -94c-73 -63 -118 -140 -135 -233c-17 -95 1 -173 55 -236c55 -62 132 -93 231 -93c63 0 119 8 167 25l-6 -36c-48 -15 -103 -23 -166 -23c-109 0 -194 36 -255 107s-82 159 -63 264
c17 100 66 184 147 251c81 68 173 102 277 102zM372 182c37 0 68 28 76 68c7 40 -15 68 -52 68c-39 0 -70 -28 -77 -68s14 -68 53 -68z" />
    <glyph glyph-name="A" unicode="A" horiz-adv-x="668" 
d="M621 0h-149l-18 126h-280l-65 -126h-151l369 700h171zM393 547l-152 -292h194z" />
    <glyph glyph-name="B" unicode="B" horiz-adv-x="605" 
d="M597 498c-9 -58 -38 -104 -89 -139c51 -36 72 -90 63 -161c-17 -117 -110 -198 -261 -198h-289l123 700h265c61 0 110 -19 147 -57s50 -86 41 -145zM393 571h-134l-27 -154h135c47 0 84 33 92 77c8 43 -17 77 -66 77zM436 212c8 48 -19 82 -70 82h-155l-29 -165h153
c52 0 92 35 101 83z" />
    <glyph glyph-name="C" unicode="C" horiz-adv-x="729" 
d="M359 -14c-211 -4 -346 174 -307 374c17 103 64 187 142 254c79 67 169 100 272 100c133 0 233 -62 280 -166l-126 -66c-31 65 -87 98 -167 98c-67 0 -125 -21 -174 -64s-79 -98 -90 -166c-12 -67 -1 -122 32 -165s82 -64 147 -64c87 0 154 34 203 102l113 -73
c-76 -101 -196 -164 -325 -164z" />
    <glyph glyph-name="D" unicode="D" horiz-adv-x="715" 
d="M144 700h278c92 0 165 -36 220 -107s73 -155 56 -253c-17 -99 -63 -181 -138 -245c-74 -63 -161 -95 -261 -95h-278zM566 354c11 64 1 116 -30 155s-76 59 -137 59h-140l-77 -436h132c64 0 119 21 165 62c47 41 76 95 87 160z" />
    <glyph glyph-name="E" unicode="E" horiz-adv-x="530" 
d="M572 700l-23 -132h-290l-27 -150h266l-24 -129h-264l-28 -157h295l-23 -132h-433l123 700h428z" />
    <glyph glyph-name="F" unicode="F" horiz-adv-x="519" 
d="M562 700l-24 -132h-279l-29 -166h272l-24 -132h-272l-47 -270h-138l123 700h418z" />
    <glyph glyph-name="G" unicode="G" horiz-adv-x="786" 
d="M424 376h351l-9 -54c-17 -102 -63 -184 -136 -245s-162 -91 -265 -91c-108 0 -192 36 -251 109s-80 162 -62 266c17 102 65 186 143 253s169 100 272 100c139 0 240 -62 292 -170l-126 -66c-35 68 -95 102 -179 102c-67 0 -126 -21 -175 -64c-49 -42 -79 -97 -90 -165
c-12 -68 -1 -123 33 -166c35 -43 87 -64 156 -64c115 0 191 44 230 133h-205z" />
    <glyph glyph-name="H" unicode="H" horiz-adv-x="665" 
d="M493 422l49 278h137l-123 -700h-137l51 290h-260l-51 -290h-138l123 700h138l-49 -278h260z" />
    <glyph glyph-name="I" unicode="I" horiz-adv-x="268" 
d="M21 0l123 700h138l-123 -700h-138z" />
    <glyph glyph-name="J" unicode="J" horiz-adv-x="566" 
d="M228 -14c-112 0 -185 46 -218 137l126 69c15 -51 47 -71 104 -71c73 0 116 32 127 97l85 482h138l-85 -482c-28 -156 -132 -232 -277 -232z" />
    <glyph glyph-name="K" unicode="K" horiz-adv-x="614" 
d="M524 700h165l-337 -344l216 -356h-145l-205 338l-59 -338h-138l123 700h138l-53 -300z" />
    <glyph glyph-name="L" unicode="L" horiz-adv-x="483" 
d="M282 700l-100 -568h267l-23 -132h-405l23 132l100 568h138z" />
    <glyph glyph-name="M" unicode="M" horiz-adv-x="815" 
d="M677 700h152l-123 -700h-137l80 455l-258 -326h-16l-135 330l-81 -459h-138l123 700h141l132 -335z" />
    <glyph glyph-name="N" unicode="N" horiz-adv-x="673" 
d="M159 0h-138l123 700h104l225 -437l76 437h138l-123 -700h-104l-224 437z" />
    <glyph glyph-name="O" unicode="O" horiz-adv-x="793" 
d="M354 -14c-101 0 -182 37 -241 110c-59 74 -80 162 -61 264c17 103 65 188 143 254c79 67 172 100 279 100c100 0 180 -37 239 -111c60 -74 81 -162 63 -264c-18 -103 -66 -188 -144 -254s-171 -99 -278 -99zM370 121c65 0 123 21 174 64s83 97 95 164
c11 67 -1 122 -36 165c-35 44 -85 66 -150 66s-122 -22 -172 -65c-49 -43 -80 -98 -92 -165s-1 -122 33 -165c35 -43 84 -64 148 -64z" />
    <glyph glyph-name="P" unicode="P" horiz-adv-x="590" 
d="M144 700h251c71 0 125 -23 164 -70c39 -46 53 -103 42 -172c-10 -67 -40 -122 -91 -165c-51 -42 -115 -63 -194 -63h-117l-40 -230h-138zM464 468c12 63 -19 103 -90 103h-115l-37 -212h108c73 0 122 44 134 109z" />
    <glyph glyph-name="Q" unicode="Q" horiz-adv-x="798" 
d="M776 339c-16 -93 -58 -171 -125 -235l54 -68l-105 -80l-57 73c-59 -29 -122 -43 -189 -43c-191 -5 -343 175 -302 374c17 103 66 187 145 254c80 67 172 100 277 100c100 0 180 -37 239 -111c60 -74 81 -162 63 -264zM364 257l105 80l101 -128c36 39 59 86 69 140
c11 67 -1 122 -36 165c-35 44 -85 66 -150 66s-122 -22 -172 -65c-49 -43 -80 -98 -92 -165s-1 -122 33 -165c35 -43 84 -64 148 -64c31 0 61 5 89 15z" />
    <glyph glyph-name="R" unicode="R" horiz-adv-x="614" 
d="M616 458c-17 -93 -80 -166 -168 -197l106 -261h-140l-97 243h-115l-43 -243h-138l123 700h273c63 0 115 -24 155 -73c41 -49 55 -105 44 -169zM394 571h-135l-36 -207h142c56 0 103 45 114 104s-25 103 -85 103z" />
    <glyph glyph-name="S" unicode="S" horiz-adv-x="586" 
d="M269 -14c-141 0 -235 66 -260 173l125 64c17 -69 66 -104 146 -104c73 0 116 29 124 73c11 51 -27 72 -124 104c-65 22 -115 50 -148 83c-33 34 -44 82 -33 143c11 63 41 111 89 143c49 33 104 49 166 49c115 0 199 -57 235 -156l-121 -64c-25 58 -66 87 -125 87
c-56 0 -95 -26 -104 -67c-11 -49 27 -72 119 -105c24 -9 36 -12 60 -23c31 -13 56 -27 81 -49c37 -33 60 -81 46 -157c-23 -125 -129 -194 -276 -194z" />
    <glyph glyph-name="T" unicode="T" horiz-adv-x="540" 
d="M92 700h515l-23 -132h-189l-100 -568h-138l100 568h-188z" />
    <glyph glyph-name="U" unicode="U" horiz-adv-x="646" 
d="M291 -14c-83 0 -147 23 -192 68s-60 104 -47 175l83 471h137l-81 -460c-12 -72 20 -119 109 -119s139 48 151 119l81 460h138l-83 -471c-28 -157 -143 -243 -296 -243z" />
    <glyph glyph-name="V" unicode="V" horiz-adv-x="632" 
d="M358 0h-171l-105 700h142l70 -539l258 539h157z" />
    <glyph glyph-name="W" unicode="W" horiz-adv-x="999" 
d="M324 0h-157l-73 700h137l45 -519l238 519h118l56 -519l226 519h149l-319 -700h-157l-51 462z" />
    <glyph glyph-name="X" unicode="X" horiz-adv-x="610" 
d="M502 700h163l-264 -347l153 -353h-149l-99 229l-174 -229h-164l279 366l-144 334h148l91 -210z" />
    <glyph glyph-name="Y" unicode="Y" horiz-adv-x="601" 
d="M514 700h164l-298 -390l-55 -310h-137l55 312l-161 388h147l98 -258z" />
    <glyph glyph-name="Z" unicode="Z" horiz-adv-x="535" 
d="M122 700h460l-19 -109l-371 -459h296l-23 -132h-473l20 110l371 458h-284z" />
    <glyph glyph-name="bracketleft" unicode="[" horiz-adv-x="310" 
d="M387 800l-21 -124h-109l-115 -652h109l-23 -124h-238l160 900h237z" />
    <glyph glyph-name="backslash" unicode="\" horiz-adv-x="523" 
d="M428 -100h-56l-242 900h56z" />
    <glyph glyph-name="bracketright" unicode="]" horiz-adv-x="310" 
d="M117 800h238l-159 -900h-238l22 124h109l115 652h-108z" />
    <glyph glyph-name="asciicircum" unicode="^" horiz-adv-x="560" 
d="M310 700h98l133 -330h-135l-67 182l-135 -182h-143z" />
    <glyph glyph-name="underscore" unicode="_" horiz-adv-x="520" 
d="M413 -171h-455l22 124h455z" />
    <glyph glyph-name="grave" unicode="`" horiz-adv-x="275" 
d="M311 563h-122l-90 137h150z" />
    <glyph glyph-name="a" unicode="a" horiz-adv-x="627" 
d="M471 433l12 67h129l-88 -500h-129l8 46c-43 -40 -99 -60 -166 -60c-75 0 -131 28 -168 83s-48 120 -34 193c13 71 45 131 96 179c52 49 114 73 186 73c71 0 122 -27 154 -81zM277 109c77 0 144 53 161 133l2 16c11 81 -40 133 -116 133c-79 0 -145 -53 -160 -140
c-15 -84 33 -142 113 -142z" />
    <glyph glyph-name="b" unicode="b" horiz-adv-x="626" 
d="M388 514c71 0 126 -27 164 -82c39 -54 52 -117 40 -190c-11 -71 -42 -131 -93 -181s-113 -75 -187 -75c-72 0 -124 27 -156 82l-12 -68h-129l123 700h129l-45 -254c45 45 101 68 166 68zM463 251c15 84 -32 140 -112 140c-40 0 -75 -13 -106 -39s-50 -60 -57 -102
c-15 -84 35 -141 115 -141s147 58 160 142z" />
    <glyph glyph-name="c" unicode="c" horiz-adv-x="540" 
d="M263 -14c-77 0 -138 26 -182 79c-43 53 -59 118 -46 195c11 73 45 134 101 182c57 48 123 72 198 72c103 0 179 -51 211 -130l-117 -62c-18 43 -53 65 -105 65c-39 0 -73 -13 -104 -38c-30 -25 -48 -57 -55 -96c-13 -80 33 -139 110 -139c52 0 93 22 124 67l104 -67
c-51 -83 -140 -128 -239 -128z" />
    <glyph glyph-name="d" unicode="d" horiz-adv-x="628" 
d="M473 431l47 269h129l-123 -700h-129l8 48c-43 -41 -99 -62 -168 -62c-75 0 -131 28 -168 83s-48 120 -34 193c13 71 45 131 96 179c52 49 114 73 186 73s124 -28 156 -83zM278 109c81 0 149 57 162 140c16 87 -34 142 -114 142c-79 0 -147 -53 -162 -140
c-15 -84 34 -142 114 -142z" />
    <glyph glyph-name="e" unicode="e" horiz-adv-x="583" 
d="M551 250c-1 -15 -6 -32 -14 -53h-378c5 -64 53 -94 120 -94c50 0 91 17 123 51l91 -73c-56 -63 -131 -95 -224 -95c-83 0 -146 26 -189 79s-58 118 -45 195c11 73 45 133 102 181c57 49 122 73 196 73s132 -26 175 -77s57 -113 43 -187zM177 298h254
c-1 68 -45 100 -106 100c-67 0 -120 -36 -148 -100z" />
    <glyph glyph-name="f" unicode="f" horiz-adv-x="329" 
d="M410 714l-22 -124c-70 5 -110 -23 -121 -85l-1 -5h106l-22 -124h-106l-66 -376h-129l66 376h-71l21 124h72l1 5c25 144 117 218 272 209z" />
    <glyph glyph-name="g" unicode="g" horiz-adv-x="628" 
d="M474 428l13 72h126l-84 -476c-28 -163 -140 -238 -289 -238c-111 0 -193 42 -229 122l115 60c21 -45 62 -67 123 -67c84 0 141 43 154 123l8 44c-44 -44 -99 -66 -166 -66c-77 0 -134 26 -171 79s-50 115 -38 188c11 68 42 126 93 173c51 48 112 72 183 72
c77 0 131 -29 162 -86zM281 123c79 0 146 53 162 130l2 10c12 79 -40 130 -119 130c-39 0 -75 -12 -106 -37s-49 -57 -56 -97c-7 -39 1 -72 23 -98c22 -25 53 -38 94 -38z" />
    <glyph glyph-name="h" unicode="h" 
d="M377 514c56 0 99 -19 130 -56s40 -88 29 -151l-54 -307h-129l51 291c12 68 -21 103 -81 103c-61 0 -110 -36 -129 -109l-50 -285h-129l123 700h129l-45 -255c39 46 90 69 155 69z" />
    <glyph glyph-name="i" unicode="i" horiz-adv-x="247" 
d="M113 639c7 44 48 80 92 80s74 -37 67 -80c-8 -44 -49 -79 -93 -79s-73 36 -66 79zM144 0h-129l88 500h129z" />
    <glyph glyph-name="j" unicode="j" horiz-adv-x="264" 
d="M289 639c-7 -44 -48 -79 -93 -79c-44 0 -73 36 -66 79c7 44 48 80 92 80s74 -37 67 -80zM30 -10l90 510h129l-90 -510c-27 -156 -104 -213 -253 -204l22 124c59 -4 93 23 102 80z" />
    <glyph glyph-name="k" unicode="k" horiz-adv-x="517" 
d="M397 500h153l-241 -247l159 -253h-140l-143 235l-41 -235h-129l123 700h129l-72 -411z" />
    <glyph glyph-name="l" unicode="l" horiz-adv-x="248" 
d="M145 0h-129l55 314l73 416h129l-74 -421z" />
    <glyph glyph-name="m" unicode="m" horiz-adv-x="850" 
d="M654 514c57 0 100 -19 129 -57c30 -38 40 -88 29 -149l-55 -308h-129l52 299c11 60 -14 95 -67 95c-56 0 -93 -32 -110 -95l-52 -299h-129l52 299c11 60 -14 95 -66 95c-59 0 -102 -38 -114 -110l-50 -284h-129l88 500h129l-9 -50c39 43 87 64 145 64
c61 0 104 -25 127 -75c41 50 94 75 159 75z" />
    <glyph glyph-name="n" unicode="n" 
d="M377 514c56 0 99 -19 130 -56s40 -88 29 -151l-54 -307h-129l51 291c12 68 -21 103 -81 103c-61 0 -110 -36 -129 -108l-50 -286h-129l88 500h129l-10 -54c39 45 91 68 155 68z" />
    <glyph glyph-name="o" unicode="o" horiz-adv-x="594" 
d="M264 -14c-83 0 -145 28 -187 83c-42 56 -56 122 -41 197c14 71 49 130 104 177s121 71 198 71s137 -28 178 -84c42 -55 56 -120 43 -193c-12 -71 -46 -130 -103 -179c-56 -48 -120 -72 -192 -72zM273 112c38 0 72 13 102 38c31 25 49 59 56 101c16 83 -33 137 -109 137
c-75 0 -141 -54 -157 -138c-15 -84 33 -138 108 -138z" />
    <glyph glyph-name="p" unicode="p" horiz-adv-x="627" 
d="M389 514c71 0 125 -28 163 -83c39 -55 52 -118 40 -191c-11 -71 -41 -131 -92 -180s-112 -74 -184 -74c-73 0 -127 28 -160 84l-47 -270h-129l123 700h129l-9 -52c44 44 99 66 166 66zM463 249c15 84 -32 142 -112 142c-76 0 -141 -51 -161 -127l-4 -25
c-9 -80 42 -130 118 -130c39 0 73 12 103 37s49 60 56 103z" />
    <glyph glyph-name="q" unicode="q" horiz-adv-x="627" 
d="M471 433l12 67h129l-123 -700h-129l43 246c-43 -40 -99 -60 -166 -60c-75 0 -131 28 -168 83c-36 55 -47 120 -34 193c13 71 45 131 96 179c52 49 114 73 186 73c71 0 122 -27 154 -81zM277 109c77 0 143 51 160 130l4 20c9 81 -41 132 -117 132
c-79 0 -145 -53 -160 -140c-15 -84 33 -142 113 -142z" />
    <glyph glyph-name="r" unicode="r" horiz-adv-x="357" 
d="M232 500l-14 -80c36 61 92 91 168 90l-25 -144c-64 10 -151 -21 -174 -122l-43 -244h-129l88 500h129z" />
    <glyph glyph-name="s" unicode="s" horiz-adv-x="470" 
d="M206 -14c-102 0 -170 41 -203 123l116 58c13 -43 46 -64 98 -64c43 0 68 13 73 39c4 28 -35 43 -84 58c-71 18 -162 55 -142 167c9 47 32 83 71 108c39 26 83 39 132 39c87 0 155 -39 186 -106l-116 -58c-12 33 -38 50 -77 50s-61 -14 -67 -43c-5 -31 33 -46 82 -59
c73 -17 165 -48 143 -166c-17 -97 -100 -146 -212 -146z" />
    <glyph glyph-name="t" unicode="t" horiz-adv-x="386" 
d="M367 376h-112l-37 -208c-9 -52 20 -56 104 -51l-20 -117c-168 -20 -237 33 -213 168l37 208h-87l22 124h86l18 101l136 39l-25 -140h114z" />
    <glyph glyph-name="u" unicode="u" 
d="M381 214l50 286h129l-88 -500h-129l10 54c-39 -45 -91 -68 -155 -68c-56 0 -99 19 -130 56s-40 88 -29 151l54 307h129l-51 -291c-12 -68 21 -103 81 -103c61 0 110 36 129 108z" />
    <glyph glyph-name="v" unicode="v" horiz-adv-x="500" 
d="M230 159l169 341h143l-270 -500h-132l-93 500h132z" />
    <glyph glyph-name="w" unicode="w" horiz-adv-x="778" 
d="M528 192l137 308h142l-247 -500h-123l-39 302l-138 -302h-130l-71 500h129l36 -307l140 307h125z" />
    <glyph glyph-name="x" unicode="x" horiz-adv-x="525" 
d="M403 500h153l-220 -249l140 -251h-140l-86 154l-136 -154h-153l230 260l-134 240h140l80 -143z" />
    <glyph glyph-name="y" unicode="y" horiz-adv-x="525" 
d="M253 163l171 337h143l-270 -500c-81 -152 -175 -207 -300 -200l21 120c71 -1 106 22 142 93l3 5l-116 482h132z" />
    <glyph glyph-name="z" unicode="z" horiz-adv-x="454" 
d="M87 500h375l-15 -86l-258 -293h216l-21 -121h-396l16 86l257 293h-196z" />
    <glyph glyph-name="braceleft" unicode="{" horiz-adv-x="360" 
d="M298 17l-22 -124c-132 -11 -199 59 -178 186l26 148c11 55 -12 66 -67 62l22 125c53 -4 79 7 90 62l26 148c24 143 99 197 243 186l-23 -124c-53 7 -82 -7 -91 -62l-26 -148c-12 -68 -37 -102 -82 -125c35 -24 48 -65 37 -124l-26 -148c-9 -55 14 -69 71 -62z" />
    <glyph glyph-name="bar" unicode="|" horiz-adv-x="259" 
d="M115 -200h-129l162 920h129z" />
    <glyph glyph-name="braceright" unicode="}" horiz-adv-x="359" 
d="M97 685l22 124c132 11 199 -59 178 -186l-26 -148c-11 -55 12 -66 67 -62l-22 -125c-53 4 -79 -7 -90 -62l-26 -148c-24 -143 -99 -197 -243 -186l23 124c53 -7 82 7 91 62l26 148c12 68 37 102 82 125c-35 24 -48 65 -37 124l26 148c9 55 -14 69 -71 62z" />
    <glyph glyph-name="asciitilde" unicode="~" horiz-adv-x="599" 
d="M151 255l-96 50c24 66 61 109 110 128c49 20 100 15 152 -14c46 -25 80 -36 103 -33s44 22 63 57l95 -51c-25 -66 -61 -109 -110 -128s-99 -14 -151 15c-46 24 -81 35 -104 32s-44 -21 -62 -56z" />
    <glyph glyph-name="exclamdown" unicode="&#xa1;" horiz-adv-x="268" 
d="M181 513c47 0 78 -40 70 -87s-51 -83 -100 -83c-47 0 -79 40 -70 87c8 47 49 83 100 83zM85 265h103l-20 -265l-35 -200h-155l35 200z" />
    <glyph glyph-name="cent" unicode="&#xa2;" horiz-adv-x="540" 
d="M291 214c52 0 93 22 124 67l104 -67c-51 -83 -140 -128 -239 -128c-21 0 -43 3 -66 8l-46 -94h-60l56 113c-85 44 -129 139 -112 247c11 73 45 134 101 182c57 48 123 72 198 72c21 0 40 -2 58 -6l46 92h60l-54 -109c47 -23 81 -58 101 -107l-117 -62
c-9 22 -23 39 -43 50l-127 -257c3 -1 9 -1 16 -1zM181 353c-9 -54 5 -94 43 -120l125 254h-9c-39 0 -73 -13 -104 -38c-30 -25 -48 -57 -55 -96z" />
    <glyph glyph-name="sterling" unicode="&#xa3;" horiz-adv-x="581" 
d="M451 274h-204l-24 -141h326l-23 -133h-538l24 133h73l25 141h-60l21 121h60l17 98c27 147 120 221 249 221c97 0 171 -55 202 -146l-122 -64c-18 51 -50 76 -96 76c-48 0 -86 -31 -95 -87l-17 -98h204z" />
    <glyph glyph-name="currency" unicode="&#xa4;" horiz-adv-x="543" 
d="M526 589l38 -38l-82 -70c23 -39 31 -83 22 -132s-31 -93 -68 -130l57 -70l-44 -36l-56 70c-43 -29 -90 -43 -141 -43c-47 0 -87 13 -120 40l-81 -69l-36 38l82 70c-23 39 -31 83 -22 132c9 50 31 94 68 131l-57 69l41 37l58 -71c44 29 91 44 142 44c46 0 86 -13 119 -40z
M203 350c-9 -51 20 -88 71 -88c52 0 92 36 103 88c8 52 -20 88 -72 88c-51 0 -94 -36 -102 -88z" />
    <glyph glyph-name="yen" unicode="&#xa5;" horiz-adv-x="601" 
d="M514 700h164l-259 -338h132l-15 -80h-161l-8 -45h161l-13 -81h-162l-28 -156h-137l28 156h-161l13 81h162l8 45h-162l15 80h131l-140 338h147l98 -258z" />
    <glyph glyph-name="brokenbar" unicode="&#xa6;" horiz-adv-x="259" 
d="M212 350h-129l65 370h129zM115 -200h-129l65 370h129z" />
    <glyph glyph-name="section" unicode="&#xa7;" horiz-adv-x="546" 
d="M385 454c85 -33 144 -94 129 -182c-9 -49 -37 -90 -84 -121c19 -29 25 -64 18 -105c-20 -107 -105 -158 -222 -158c-105 0 -175 42 -210 126l116 63c19 -50 54 -75 106 -75c48 0 75 16 80 47c4 24 -9 42 -36 58c-13 8 -18 10 -35 17l-19 9c-9 5 -32 14 -41 18
c-95 43 -135 105 -122 186c9 50 38 89 85 118c-16 29 -21 63 -14 104c19 103 101 155 208 155c85 0 156 -43 191 -126l-109 -55c-19 45 -49 67 -91 67c-37 0 -65 -18 -70 -49c-3 -17 7 -34 18 -46c6 -5 15 -11 28 -18c27 -13 38 -18 74 -33zM262 254l85 -36
c19 13 31 30 35 51c7 39 -19 59 -75 82c-39 15 -65 26 -77 33c-19 -13 -31 -30 -35 -52c-7 -36 18 -58 67 -78z" />
    <glyph glyph-name="dieresis" unicode="&#xa8;" horiz-adv-x="343" 
d="M191 568c-31 -25 -74 -25 -95 0c-21 27 -14 69 17 96s74 27 95 0c23 -27 15 -69 -17 -96zM381 568c-31 -25 -74 -25 -95 0c-21 27 -14 69 17 96s74 27 95 0c23 -27 15 -69 -17 -96z" />
    <glyph glyph-name="copyright" unicode="&#xa9;" horiz-adv-x="789" 
d="M355 -12c-98 0 -178 36 -239 109s-82 160 -64 259c17 101 66 185 145 253c80 69 171 103 273 103c98 0 177 -37 238 -110s83 -159 66 -258c-18 -101 -67 -185 -147 -254c-79 -68 -170 -102 -272 -102zM358 22c91 0 173 32 246 95c73 64 117 142 133 233
c15 90 -4 167 -58 231c-53 65 -124 97 -213 97c-91 0 -172 -32 -245 -96c-73 -63 -117 -141 -133 -232c-16 -90 3 -167 57 -232c54 -64 125 -96 213 -96zM381 154c-55 0 -99 20 -131 61c-31 41 -42 89 -32 144c9 54 35 99 76 134s89 53 144 53c68 0 129 -39 160 -98
l-101 -53c-14 27 -37 40 -70 40c-51 0 -91 -38 -98 -85c-9 -45 18 -85 65 -85c35 0 63 14 82 42l91 -57c-44 -60 -114 -96 -186 -96z" />
    <glyph glyph-name="guillemotleft" unicode="&#xab;" horiz-adv-x="546" 
d="M211 497h123l-141 -192l73 -183h-118l-75 187zM404 497h123l-144 -196l73 -179h-118l-74 183z" />
    <glyph glyph-name="logicalnot" unicode="&#xac;" horiz-adv-x="550" 
d="M73 411h460l-42 -240h-129l21 119h-331z" />
    <glyph glyph-name="registered" unicode="&#xae;" horiz-adv-x="789" 
d="M470 712c98 0 177 -37 238 -110s83 -159 66 -258c-18 -101 -67 -185 -147 -254c-79 -68 -170 -102 -272 -102c-98 0 -178 36 -239 109s-82 160 -64 259c17 101 66 185 145 253c80 69 171 103 273 103zM737 350c15 90 -4 167 -58 231c-53 65 -124 97 -213 97
c-91 0 -172 -32 -245 -96c-73 -63 -117 -141 -133 -232c-16 -90 3 -167 57 -232c54 -64 125 -96 213 -96c91 0 173 32 246 95c73 64 117 142 133 233zM309 535h150c39 0 70 -13 94 -40s33 -58 26 -95c-9 -49 -33 -84 -73 -105l51 -130h-112l-34 110h-41l-19 -110h-107z
M433 438h-34l-13 -73h34c29 0 45 12 50 36c4 25 -8 37 -37 37z" />
    <glyph glyph-name="overscore" unicode="&#xaf;" horiz-adv-x="331" 
d="M366 564h-290l18 105h290z" />
    <glyph glyph-name="degree" unicode="&#xb0;" horiz-adv-x="401" 
d="M243 480c-47 0 -85 17 -112 50c-27 34 -37 74 -28 120c7 46 29 84 66 114c37 31 80 46 129 46c47 0 84 -17 111 -50s37 -73 29 -120c-8 -46 -30 -84 -66 -115c-35 -30 -78 -45 -129 -45zM329 645c7 35 -13 60 -48 60s-62 -25 -69 -60s12 -60 48 -60s64 25 69 60z" />
    <glyph glyph-name="plusminus" unicode="&#xb1;" horiz-adv-x="555" 
d="M408 648l-26 -146h165l-21 -121h-165l-26 -146h-121l26 146h-164l21 121h164l26 146h121zM468 53h-450l21 121h450z" />
    <glyph glyph-name="acute" unicode="&#xb4;" horiz-adv-x="275" 
d="M76 563l100 137h158l-131 -137h-127z" />
    <glyph glyph-name="uni00B5" unicode="&#xb5;" horiz-adv-x="617" 
d="M536 121h36l-22 -121h-60c-47 0 -80 17 -100 50c-39 -43 -90 -64 -151 -64c-35 0 -66 8 -93 25l-37 -211h-129l123 700h129l-51 -293c-11 -67 22 -101 82 -101s108 34 127 105l51 289h129l-61 -347c-3 -21 6 -32 27 -32z" />
    <glyph glyph-name="paragraph" unicode="&#xb6;" horiz-adv-x="669" 
d="M319 700h382l-19 -113h-62l-138 -787h-121l138 787h-79l-138 -787h-121l83 470c-59 1 -106 23 -141 68c-34 45 -46 97 -35 156s40 108 88 147c49 39 103 59 163 59z" />
    <glyph glyph-name="middot" unicode="&#xb7;" horiz-adv-x="267" 
d="M135 262c-47 0 -77 39 -69 87s50 83 99 83c47 0 79 -40 70 -87c-8 -47 -49 -83 -100 -83z" />
    <glyph glyph-name="cedilla" unicode="&#xb8;" horiz-adv-x="260" 
d="M126 0l-8 -46c36 -11 64 -41 56 -86c-13 -67 -91 -95 -236 -84l16 91c71 -5 108 2 112 20c2 15 -18 23 -59 25l14 80h105z" />
    <glyph glyph-name="guillemotright" unicode="&#xbb;" horiz-adv-x="547" 
d="M111 496h118l74 -183l-140 -192h-123l144 196zM301 496h118l75 -187l-138 -188h-123l141 192z" />
    <glyph glyph-name="onequarter" unicode="&#xbc;" horiz-adv-x="813" 
d="M73 0l518 700h95l-518 -700h-95zM118 300l51 285l-85 -23l-10 95l128 43h94l-71 -400h-107zM742 162h39l-16 -98h-41l-11 -64h-102l11 64h-186l16 98l167 238h118l-162 -238h65l12 69h102z" />
    <glyph glyph-name="onehalf" unicode="&#xbd;" horiz-adv-x="813" 
d="M73 0l518 700h95l-518 -700h-95zM118 300l51 285l-85 -23l-10 95l128 43h94l-71 -400h-107zM782 275c-8 -41 -35 -72 -88 -116l-73 -62h135l-17 -97h-300l12 70l178 153c29 25 44 44 46 58c4 21 -9 35 -33 35c-26 0 -49 -18 -70 -53l-84 53c35 60 95 98 168 98
c85 0 142 -55 126 -139z" />
    <glyph glyph-name="threequarters" unicode="&#xbe;" horiz-adv-x="894" 
d="M349 414c-15 -85 -77 -128 -173 -128c-75 0 -123 30 -144 89l94 50c11 -30 31 -45 62 -45c32 0 50 14 54 41c5 25 -12 40 -44 40h-19l-29 57l81 85h-142l17 97h275l-14 -79l-85 -88c51 -20 76 -64 67 -119zM154 0l518 700h95l-518 -700h-95zM823 162h39l-16 -98h-41
l-11 -64h-102l11 64h-186l16 98l167 238h118l-162 -238h65l12 69h102z" />
    <glyph glyph-name="questiondown" unicode="&#xbf;" horiz-adv-x="553" 
d="M336 513c47 0 77 -39 69 -87s-50 -83 -99 -83c-47 0 -79 40 -70 87c8 47 49 83 100 83zM223 265h138c-11 -67 -62 -123 -110 -154c-47 -31 -96 -75 -104 -118c-8 -45 21 -73 70 -73c57 0 102 31 135 92l112 -71c-49 -99 -152 -155 -264 -155c-63 0 -113 19 -152 57
c-39 37 -52 87 -41 149c6 34 20 65 43 93c23 29 46 51 69 67c48 32 97 74 104 113z" />
    <glyph glyph-name="Agrave" unicode="&#xc0;" horiz-adv-x="668" 
d="M440 900l62 -137h-122l-90 137h150zM621 0h-149l-18 126h-280l-65 -126h-151l369 700h171zM393 547l-152 -292h194z" />
    <glyph glyph-name="Aacute" unicode="&#xc1;" horiz-adv-x="668" 
d="M445 900h158l-131 -137h-127zM621 0h-149l-18 126h-280l-65 -126h-151l369 700h171zM393 547l-152 -292h194z" />
    <glyph glyph-name="Acircumflex" unicode="&#xc2;" horiz-adv-x="668" 
d="M464 755l-30 65l-58 -65h-128l131 145h130l81 -145h-126zM621 0h-149l-18 126h-280l-65 -126h-151l369 700h171zM393 547l-152 -292h194z" />
    <glyph glyph-name="Atilde" unicode="&#xc3;" horiz-adv-x="668" 
d="M419 784c-35 27 -53 24 -61 -24h-104c17 156 124 176 200 121c33 -27 52 -24 60 24h104c-17 -155 -122 -176 -199 -121zM621 0h-149l-18 126h-280l-65 -126h-151l369 700h171zM393 547l-152 -292h194z" />
    <glyph glyph-name="Adieresis" unicode="&#xc4;" horiz-adv-x="668" 
d="M377 768c-31 -25 -74 -25 -95 0c-21 27 -14 69 17 96s74 27 95 0c23 -27 15 -69 -17 -96zM567 768c-31 -25 -74 -25 -95 0c-21 27 -14 69 17 96s74 27 95 0c23 -27 15 -69 -17 -96zM621 0h-149l-18 126h-280l-65 -126h-151l369 700h171zM393 547l-152 -292h194z" />
    <glyph glyph-name="Aring" unicode="&#xc5;" horiz-adv-x="668" 
d="M621 0h-149l-18 126h-280l-65 -126h-151l361 685c-20 23 -27 52 -21 86s22 62 49 83s58 32 95 32s65 -12 86 -36s28 -53 22 -86c-6 -35 -22 -62 -49 -83zM385 768c-4 -21 8 -38 32 -38c27 0 42 12 47 37c4 23 -9 38 -33 38c-26 0 -41 -12 -46 -37zM393 547l-152 -292h194
z" />
    <glyph glyph-name="AE" unicode="&#xc6;" horiz-adv-x="880" 
d="M922 700l-23 -132h-259l-27 -150h237l-23 -129h-236l-28 -157h264l-23 -132h-398l22 126h-218l-98 -126h-156l537 700h429zM492 491l-183 -236h142z" />
    <glyph glyph-name="Ccedilla" unicode="&#xc7;" horiz-adv-x="729" 
d="M368 121c87 0 154 34 203 102l113 -73c-65 -88 -165 -148 -274 -161l-6 -35c36 -11 64 -41 56 -86c-13 -67 -91 -95 -236 -84l16 91c71 -5 108 2 112 20c2 15 -18 23 -59 25l12 70c-91 13 -160 54 -207 124s-62 152 -46 246c17 103 64 187 142 254c79 67 169 100 272 100
c133 0 233 -62 280 -166l-126 -66c-31 65 -87 98 -167 98c-67 0 -125 -21 -174 -64s-79 -98 -90 -166c-12 -67 -1 -122 32 -165s82 -64 147 -64z" />
    <glyph glyph-name="Egrave" unicode="&#xc8;" horiz-adv-x="530" 
d="M385 900l62 -137h-122l-90 137h150zM572 700l-23 -132h-290l-27 -150h266l-24 -129h-264l-28 -157h295l-23 -132h-433l123 700h428z" />
    <glyph glyph-name="Eacute" unicode="&#xc9;" horiz-adv-x="530" 
d="M390 900h158l-131 -137h-127zM572 700l-23 -132h-290l-27 -150h266l-24 -129h-264l-28 -157h295l-23 -132h-433l123 700h428z" />
    <glyph glyph-name="Ecircumflex" unicode="&#xca;" horiz-adv-x="530" 
d="M409 755l-30 65l-58 -65h-128l131 145h130l81 -145h-126zM572 700l-23 -132h-290l-27 -150h266l-24 -129h-264l-28 -157h295l-23 -132h-433l123 700h428z" />
    <glyph glyph-name="Edieresis" unicode="&#xcb;" horiz-adv-x="530" 
d="M322 768c-31 -25 -74 -25 -95 0c-21 27 -14 69 17 96s74 27 95 0c23 -27 15 -69 -17 -96zM512 768c-31 -25 -74 -25 -95 0c-21 27 -14 69 17 96s74 27 95 0c23 -27 15 -69 -17 -96zM572 700l-23 -132h-290l-27 -150h266l-24 -129h-264l-28 -157h295l-23 -132h-433
l123 700h428z" />
    <glyph glyph-name="Igrave" unicode="&#xcc;" horiz-adv-x="268" 
d="M302 763h-122l-90 137h150zM144 700l-123 -700h138l123 700h-138z" />
    <glyph glyph-name="Iacute" unicode="&#xcd;" horiz-adv-x="268" 
d="M145 763l100 137h158l-131 -137h-127zM144 700l-123 -700h138l123 700h-138z" />
    <glyph glyph-name="Icircumflex" unicode="&#xce;" horiz-adv-x="268" 
d="M264 755l-30 65l-58 -65h-128l131 145h130l81 -145h-126zM159 0h-138l123 700h138z" />
    <glyph glyph-name="Idieresis" unicode="&#xcf;" horiz-adv-x="268" 
d="M177 768c-31 -25 -74 -25 -95 0c-21 27 -14 69 17 96s74 27 95 0c23 -27 15 -69 -17 -96zM367 768c-31 -25 -74 -25 -95 0c-21 27 -14 69 17 96s74 27 95 0c23 -27 15 -69 -17 -96zM21 0l123 700h138l-123 -700h-138z" />
    <glyph glyph-name="Eth" unicode="&#xd0;" horiz-adv-x="750" 
d="M180 700h278c92 0 165 -36 220 -107s73 -155 56 -253c-17 -99 -63 -181 -138 -245c-74 -63 -161 -95 -261 -95h-278l49 281h-78l22 124h78zM602 354c11 64 1 116 -30 155s-76 59 -137 59h-140l-29 -163h159l-22 -124h-159l-26 -149h132c64 0 119 21 165 62
c47 41 76 95 87 160z" />
    <glyph glyph-name="Ntilde" unicode="&#xd1;" horiz-adv-x="673" 
d="M360 760h-104c17 156 124 176 200 121c33 -27 52 -24 60 24h104c-17 -155 -122 -176 -199 -121c-35 27 -53 24 -61 -24zM159 0h-138l123 700h104l225 -437l76 437h138l-123 -700h-104l-224 437z" />
    <glyph glyph-name="Ograve" unicode="&#xd2;" horiz-adv-x="793" 
d="M566 771h-122l-90 137h150zM354 -14c107 0 200 33 278 99s126 151 144 254c18 102 -3 190 -63 264c-59 74 -139 111 -239 111c-107 0 -200 -33 -279 -100c-78 -66 -126 -151 -143 -254c-19 -102 2 -190 61 -264c59 -73 140 -110 241 -110zM370 121c-64 0 -113 21 -148 64
c-34 43 -45 98 -33 165s43 122 92 165c50 43 107 65 172 65s115 -22 150 -66c35 -43 47 -98 36 -165c-12 -67 -44 -121 -95 -164s-109 -64 -174 -64z" />
    <glyph glyph-name="Oacute" unicode="&#xd3;" horiz-adv-x="793" 
d="M409 771l100 137h158l-131 -137h-127zM354 -14c107 0 200 33 278 99s126 151 144 254c18 102 -3 190 -63 264c-59 74 -139 111 -239 111c-107 0 -200 -33 -279 -100c-78 -66 -126 -151 -143 -254c-19 -102 2 -190 61 -264c59 -73 140 -110 241 -110zM370 121
c-64 0 -113 21 -148 64c-34 43 -45 98 -33 165s43 122 92 165c50 43 107 65 172 65s115 -22 150 -66c35 -43 47 -98 36 -165c-12 -67 -44 -121 -95 -164s-109 -64 -174 -64z" />
    <glyph glyph-name="Ocircumflex" unicode="&#xd4;" horiz-adv-x="793" 
d="M528 763l-30 65l-58 -65h-128l131 145h130l81 -145h-126zM474 714c100 0 180 -37 239 -111c60 -74 81 -162 63 -264c-18 -103 -66 -188 -144 -254s-171 -99 -278 -99c-101 0 -182 37 -241 110c-59 74 -80 162 -61 264c17 103 65 188 143 254c79 67 172 100 279 100z
M639 349c11 67 -1 122 -36 165c-35 44 -85 66 -150 66s-122 -22 -172 -65c-49 -43 -80 -98 -92 -165s-1 -122 33 -165c35 -43 84 -64 148 -64c65 0 123 21 174 64s83 97 95 164z" />
    <glyph glyph-name="Otilde" unicode="&#xd5;" horiz-adv-x="793" 
d="M422 768h-104c17 156 124 176 200 121c33 -27 52 -24 60 24h104c-17 -155 -122 -176 -199 -121c-35 27 -53 24 -61 -24zM354 -14c-101 0 -182 37 -241 110c-59 74 -80 162 -61 264c17 103 65 188 143 254c79 67 172 100 279 100c100 0 180 -37 239 -111
c60 -74 81 -162 63 -264c-18 -103 -66 -188 -144 -254s-171 -99 -278 -99zM370 121c65 0 123 21 174 64s83 97 95 164c11 67 -1 122 -36 165c-35 44 -85 66 -150 66s-122 -22 -172 -65c-49 -43 -80 -98 -92 -165s-1 -122 33 -165c35 -43 84 -64 148 -64z" />
    <glyph glyph-name="Odieresis" unicode="&#xd6;" horiz-adv-x="793" 
d="M441 776c-31 -25 -74 -25 -95 0c-21 27 -14 69 17 96s74 27 95 0c23 -27 15 -69 -17 -96zM631 776c-31 -25 -74 -25 -95 0c-21 27 -14 69 17 96s74 27 95 0c23 -27 15 -69 -17 -96zM354 -14c-101 0 -182 37 -241 110c-59 74 -80 162 -61 264c17 103 65 188 143 254
c79 67 172 100 279 100c100 0 180 -37 239 -111c60 -74 81 -162 63 -264c-18 -103 -66 -188 -144 -254s-171 -99 -278 -99zM370 121c65 0 123 21 174 64s83 97 95 164c11 67 -1 122 -36 165c-35 44 -85 66 -150 66s-122 -22 -172 -65c-49 -43 -80 -98 -92 -165
s-1 -122 33 -165c35 -43 84 -64 148 -64z" />
    <glyph glyph-name="multiply" unicode="&#xd7;" horiz-adv-x="512" 
d="M423 555l78 -84l-143 -124l100 -118l-94 -84l-101 120l-139 -120l-77 84l142 123l-100 119l93 84l102 -120z" />
    <glyph glyph-name="Oslash" unicode="&#xd8;" horiz-adv-x="799" 
d="M783 669l-64 -64c61 -75 82 -163 64 -266c-19 -103 -67 -188 -145 -254s-171 -99 -278 -99c-73 0 -137 21 -192 63l-59 -60l-66 42l72 72c-55 72 -74 158 -57 257c18 103 66 188 144 254c78 67 171 100 278 100c69 0 130 -19 183 -57l54 54zM195 350
c-10 -56 -3 -104 20 -145l347 350c-30 17 -64 25 -103 25c-65 0 -122 -22 -172 -65c-49 -43 -80 -98 -92 -165zM645 349c11 60 2 111 -27 154l-350 -353c31 -19 67 -29 108 -29c65 0 123 21 174 64s83 97 95 164z" />
    <glyph glyph-name="Ugrave" unicode="&#xd9;" horiz-adv-x="646" 
d="M491 763h-122l-90 137h150zM291 -14c153 0 268 86 296 243l83 471h-138l-81 -460c-12 -71 -62 -119 -151 -119s-121 47 -109 119l81 460h-137l-83 -471c-13 -71 2 -130 47 -175s109 -68 192 -68z" />
    <glyph glyph-name="Uacute" unicode="&#xda;" horiz-adv-x="646" 
d="M334 763l100 137h158l-131 -137h-127zM291 -14c153 0 268 86 296 243l83 471h-138l-81 -460c-12 -71 -62 -119 -151 -119s-121 47 -109 119l81 460h-137l-83 -471c-13 -71 2 -130 47 -175s109 -68 192 -68z" />
    <glyph glyph-name="Ucircumflex" unicode="&#xdb;" horiz-adv-x="646" 
d="M453 755l-30 65l-58 -65h-128l131 145h130l81 -145h-126zM451 240l81 460h138l-83 -471c-28 -157 -143 -243 -296 -243c-83 0 -147 23 -192 68s-60 104 -47 175l83 471h137l-81 -460c-12 -72 20 -119 109 -119s139 48 151 119z" />
    <glyph glyph-name="Udieresis" unicode="&#xdc;" horiz-adv-x="646" 
d="M366 768c-31 -25 -74 -25 -95 0c-21 27 -14 69 17 96s74 27 95 0c23 -27 15 -69 -17 -96zM556 768c-31 -25 -74 -25 -95 0c-21 27 -14 69 17 96s74 27 95 0c23 -27 15 -69 -17 -96zM291 -14c-83 0 -147 23 -192 68s-60 104 -47 175l83 471h137l-81 -460
c-12 -72 20 -119 109 -119s139 48 151 119l81 460h138l-83 -471c-28 -157 -143 -243 -296 -243z" />
    <glyph glyph-name="Yacute" unicode="&#xdd;" horiz-adv-x="601" 
d="M411 900h158l-131 -137h-127zM514 700h164l-298 -390l-55 -310h-137l55 312l-161 388h147l98 -258z" />
    <glyph glyph-name="Thorn" unicode="&#xde;" horiz-adv-x="590" 
d="M262 585h113c71 0 125 -23 164 -70c39 -46 53 -103 43 -172c-10 -67 -40 -122 -91 -165c-51 -42 -115 -63 -194 -63h-118l-20 -115h-138l123 700h138zM445 353c12 63 -20 103 -91 103h-115l-37 -212h109c72 0 122 44 134 109z" />
    <glyph glyph-name="germandbls" unicode="&#xdf;" horiz-adv-x="537" 
d="M234 -6l20 114c74 -9 115 11 123 58c4 22 -9 59 -40 111c-30 52 -43 90 -39 113c3 19 18 44 44 75c27 31 42 54 45 68c9 40 -18 63 -61 63c-45 0 -82 -25 -91 -82l-91 -514h-129l91 515c21 125 102 199 241 199c56 0 101 -17 134 -50s46 -72 37 -119
c-12 -64 -81 -124 -87 -156c-5 -25 16 -70 37 -107c23 -37 41 -97 33 -146c-16 -101 -102 -162 -267 -142z" />
    <glyph glyph-name="agrave" unicode="&#xe0;" horiz-adv-x="627" 
d="M372 700l62 -137h-122l-90 137h150zM471 433l12 67h129l-88 -500h-129l8 46c-43 -40 -99 -60 -166 -60c-75 0 -131 28 -168 83s-48 120 -34 193c13 71 45 131 96 179c52 49 114 73 186 73c71 0 122 -27 154 -81zM277 109c77 0 144 53 161 133l2 16
c11 81 -40 133 -116 133c-79 0 -145 -53 -160 -140c-15 -84 33 -142 113 -142z" />
    <glyph glyph-name="aacute" unicode="&#xe1;" horiz-adv-x="627" 
d="M377 700h158l-131 -137h-127zM471 433l12 67h129l-88 -500h-129l8 46c-43 -40 -99 -60 -166 -60c-75 0 -131 28 -168 83s-48 120 -34 193c13 71 45 131 96 179c52 49 114 73 186 73c71 0 122 -27 154 -81zM277 109c77 0 144 53 161 133l2 16c11 81 -40 133 -116 133
c-79 0 -145 -53 -160 -140c-15 -84 33 -142 113 -142z" />
    <glyph glyph-name="acircumflex" unicode="&#xe2;" horiz-adv-x="627" 
d="M396 555l-30 65l-58 -65h-128l131 145h130l81 -145h-126zM471 433l12 67h129l-88 -500h-129l8 46c-43 -40 -99 -60 -166 -60c-75 0 -131 28 -168 83s-48 120 -34 193c13 71 45 131 96 179c52 49 114 73 186 73c71 0 122 -27 154 -81zM277 109c77 0 144 53 161 133l2 16
c11 81 -40 133 -116 133c-79 0 -145 -53 -160 -140c-15 -84 33 -142 113 -142z" />
    <glyph glyph-name="atilde" unicode="&#xe3;" horiz-adv-x="627" 
d="M351 584c-35 27 -53 24 -61 -24h-104c17 156 124 176 200 121c33 -27 52 -24 60 24h104c-17 -155 -122 -176 -199 -121zM471 433l12 67h129l-88 -500h-129l8 46c-43 -40 -99 -60 -166 -60c-75 0 -131 28 -168 83s-48 120 -34 193c13 71 45 131 96 179
c52 49 114 73 186 73c71 0 122 -27 154 -81zM277 109c77 0 144 53 161 133l2 16c11 81 -40 133 -116 133c-79 0 -145 -53 -160 -140c-15 -84 33 -142 113 -142z" />
    <glyph glyph-name="adieresis" unicode="&#xe4;" horiz-adv-x="627" 
d="M309 568c-31 -25 -74 -25 -95 0c-21 27 -14 69 17 96s74 27 95 0c23 -27 15 -69 -17 -96zM499 568c-31 -25 -74 -25 -95 0c-21 27 -14 69 17 96s74 27 95 0c23 -27 15 -69 -17 -96zM471 433l12 67h129l-88 -500h-129l8 46c-43 -40 -99 -60 -166 -60
c-75 0 -131 28 -168 83s-48 120 -34 193c13 71 45 131 96 179c52 49 114 73 186 73c71 0 122 -27 154 -81zM277 109c77 0 144 53 161 133l2 16c11 81 -40 133 -116 133c-79 0 -145 -53 -160 -140c-15 -84 33 -142 113 -142z" />
    <glyph glyph-name="aring" unicode="&#xe5;" horiz-adv-x="627" 
d="M355 539c-37 0 -65 12 -86 35c-21 24 -28 53 -22 87s22 62 49 83s58 32 95 32s65 -12 86 -36s28 -53 22 -86c-11 -68 -69 -115 -144 -115zM334 658c-4 -21 8 -38 32 -38c27 0 42 12 47 37c4 23 -9 38 -33 38c-26 0 -41 -12 -46 -37zM471 433l12 67h129l-88 -500h-129
l8 46c-43 -40 -99 -60 -166 -60c-75 0 -131 28 -168 83s-48 120 -34 193c13 71 45 131 96 179c52 49 114 73 186 73c71 0 122 -27 154 -81zM277 109c77 0 144 53 161 133l2 16c11 81 -40 133 -116 133c-79 0 -145 -53 -160 -140c-15 -84 33 -142 113 -142z" />
    <glyph glyph-name="ae" unicode="&#xe6;" horiz-adv-x="989" 
d="M765 514c69 0 122 -25 158 -76s47 -113 34 -188c-3 -20 -8 -38 -14 -53h-378c5 -64 54 -94 119 -94c51 0 92 17 124 51l92 -73c-58 -63 -128 -95 -209 -95c-73 0 -128 24 -164 73l-10 -59h-122l10 55c-47 -46 -103 -69 -168 -69c-75 0 -131 28 -168 83s-48 120 -34 193
c13 71 45 131 96 179c52 49 114 73 186 73c73 0 124 -25 155 -76l11 62h122l-8 -44c46 39 102 58 168 58zM584 298h252c-1 67 -45 100 -105 100c-67 0 -120 -37 -147 -100zM277 109c77 0 144 53 161 133l2 16c11 81 -40 133 -116 133c-79 0 -146 -53 -162 -140
c-13 -84 35 -142 115 -142z" />
    <glyph glyph-name="ccedilla" unicode="&#xe7;" horiz-adv-x="540" 
d="M274 114c52 0 93 22 124 67l104 -67c-43 -70 -108 -112 -193 -125l-6 -35c36 -11 64 -41 56 -86c-13 -67 -91 -95 -236 -84l16 91c71 -5 108 2 112 20c2 15 -18 23 -59 25l13 72c-61 13 -107 45 -139 94c-31 50 -42 108 -31 174c11 73 45 134 101 182
c57 48 123 72 198 72c103 0 179 -51 211 -130l-117 -62c-18 43 -53 65 -105 65c-39 0 -73 -13 -104 -38c-30 -25 -48 -57 -55 -96c-13 -80 33 -139 110 -139z" />
    <glyph glyph-name="egrave" unicode="&#xe8;" horiz-adv-x="583" 
d="M374 704l62 -137h-122l-90 137h150zM551 250c-1 -15 -6 -32 -14 -53h-378c5 -64 53 -94 120 -94c50 0 91 17 123 51l91 -73c-56 -63 -131 -95 -224 -95c-83 0 -146 26 -189 79s-58 118 -45 195c11 73 45 133 102 181c57 49 122 73 196 73s132 -26 175 -77
s57 -113 43 -187zM177 298h254c-1 68 -45 100 -106 100c-67 0 -120 -36 -148 -100z" />
    <glyph glyph-name="eacute" unicode="&#xe9;" horiz-adv-x="583" 
d="M379 704h158l-131 -137h-127zM551 250c-1 -15 -6 -32 -14 -53h-378c5 -64 53 -94 120 -94c50 0 91 17 123 51l91 -73c-56 -63 -131 -95 -224 -95c-83 0 -146 26 -189 79s-58 118 -45 195c11 73 45 133 102 181c57 49 122 73 196 73s132 -26 175 -77s57 -113 43 -187z
M177 298h254c-1 68 -45 100 -106 100c-67 0 -120 -36 -148 -100z" />
    <glyph glyph-name="ecircumflex" unicode="&#xea;" horiz-adv-x="583" 
d="M398 559l-30 65l-58 -65h-128l131 145h130l81 -145h-126zM551 250c-1 -15 -6 -32 -14 -53h-378c5 -64 53 -94 120 -94c50 0 91 17 123 51l91 -73c-56 -63 -131 -95 -224 -95c-83 0 -146 26 -189 79s-58 118 -45 195c11 73 45 133 102 181c57 49 122 73 196 73
s132 -26 175 -77s57 -113 43 -187zM177 298h254c-1 68 -45 100 -106 100c-67 0 -120 -36 -148 -100z" />
    <glyph glyph-name="edieresis" unicode="&#xeb;" horiz-adv-x="583" 
d="M311 572c-31 -25 -74 -25 -95 0c-21 27 -14 69 17 96s74 27 95 0c23 -27 15 -69 -17 -96zM501 572c-31 -25 -74 -25 -95 0c-21 27 -14 69 17 96s74 27 95 0c23 -27 15 -69 -17 -96zM551 250c-1 -15 -6 -32 -14 -53h-378c5 -64 53 -94 120 -94c50 0 91 17 123 51l91 -73
c-56 -63 -131 -95 -224 -95c-83 0 -146 26 -189 79s-58 118 -45 195c11 73 45 133 102 181c57 49 122 73 196 73s132 -26 175 -77s57 -113 43 -187zM177 298h254c-1 68 -45 100 -106 100c-67 0 -120 -36 -148 -100z" />
    <glyph glyph-name="igrave" unicode="&#xec;" horiz-adv-x="247" 
d="M238 555h-121l-44 145h140zM144 0l88 500h-129l-88 -500h129z" />
    <glyph glyph-name="iacute" unicode="&#xed;" horiz-adv-x="247" 
d="M114 555l67 145h148l-91 -145h-124zM15 0h129l88 500h-129z" />
    <glyph glyph-name="icircumflex" unicode="&#xee;" horiz-adv-x="247" 
d="M212 555l-23 53l-39 -53h-131l118 145h131l68 -145h-124zM144 0h-129l88 500h129z" />
    <glyph glyph-name="idieresis" unicode="&#xef;" horiz-adv-x="247" 
d="M171 620c-5 -37 -42 -67 -79 -67s-63 30 -56 67s42 68 79 68s63 -31 56 -68zM312 572c-31 -25 -74 -25 -95 0c-21 27 -14 69 17 96s74 27 95 0c23 -27 15 -69 -17 -96zM144 0h-129l88 500h129z" />
    <glyph glyph-name="eth" unicode="&#xf0;" horiz-adv-x="574" 
d="M381 584l124 -213c29 -51 39 -101 31 -152c-13 -73 -46 -130 -100 -171c-53 -40 -115 -60 -186 -60c-69 0 -127 24 -172 72s-60 108 -47 181c11 66 44 120 99 161s116 59 183 52l-44 81l-142 -63l16 93l88 39l-53 96h135l27 -47l137 61l-16 -94zM407 228
c5 28 2 52 -10 72c-19 31 -50 47 -95 47c-75 0 -130 -43 -142 -114c-13 -75 31 -124 104 -124s130 44 143 119z" />
    <glyph glyph-name="ntilde" unicode="&#xf1;" 
d="M337 592c-35 27 -53 24 -61 -24h-104c17 156 124 176 200 121c33 -27 52 -24 60 24h104c-17 -155 -122 -176 -199 -121zM377 514c56 0 99 -19 130 -56s40 -88 29 -151l-54 -307h-129l51 291c12 68 -21 103 -81 103c-61 0 -110 -36 -129 -108l-50 -286h-129l88 500h129
l-10 -54c39 45 91 68 155 68z" />
    <glyph glyph-name="ograve" unicode="&#xf2;" horiz-adv-x="594" 
d="M432 571h-122l-90 137h150zM264 -14c72 0 136 24 192 72c57 49 91 108 103 179c13 73 -1 138 -43 193c-41 56 -101 84 -178 84s-143 -24 -198 -71s-90 -106 -104 -177c-15 -75 -1 -141 41 -197c42 -55 104 -83 187 -83zM273 112c-75 0 -123 54 -108 138
c16 84 82 138 157 138c76 0 125 -54 109 -137c-7 -42 -25 -76 -56 -101c-30 -25 -64 -38 -102 -38z" />
    <glyph glyph-name="oacute" unicode="&#xf3;" horiz-adv-x="594" 
d="M275 571l100 137h158l-131 -137h-127zM264 -14c72 0 136 24 192 72c57 49 91 108 103 179c13 73 -1 138 -43 193c-41 56 -101 84 -178 84s-143 -24 -198 -71s-90 -106 -104 -177c-15 -75 -1 -141 41 -197c42 -55 104 -83 187 -83zM273 112c-75 0 -123 54 -108 138
c16 84 82 138 157 138c76 0 125 -54 109 -137c-7 -42 -25 -76 -56 -101c-30 -25 -64 -38 -102 -38z" />
    <glyph glyph-name="ocircumflex" unicode="&#xf4;" horiz-adv-x="594" 
d="M394 563l-30 65l-58 -65h-128l131 145h130l81 -145h-126zM338 514c77 0 137 -28 178 -84c42 -55 56 -120 43 -193c-12 -71 -46 -130 -103 -179c-56 -48 -120 -72 -192 -72c-83 0 -145 28 -187 83c-42 56 -56 122 -41 197c14 71 49 130 104 177s121 71 198 71zM431 251
c16 83 -33 137 -109 137c-75 0 -141 -54 -157 -138c-15 -84 33 -138 108 -138c38 0 72 13 102 38c31 25 49 59 56 101z" />
    <glyph glyph-name="otilde" unicode="&#xf5;" horiz-adv-x="594" 
d="M288 568h-104c17 156 124 176 200 121c33 -27 52 -24 60 24h104c-17 -155 -122 -176 -199 -121c-35 27 -53 24 -61 -24zM264 -14c-83 0 -145 28 -187 83c-42 56 -56 122 -41 197c14 71 49 130 104 177s121 71 198 71s137 -28 178 -84c42 -55 56 -120 43 -193
c-12 -71 -46 -130 -103 -179c-56 -48 -120 -72 -192 -72zM273 112c38 0 72 13 102 38c31 25 49 59 56 101c16 83 -33 137 -109 137c-75 0 -141 -54 -157 -138c-15 -84 33 -138 108 -138z" />
    <glyph glyph-name="odieresis" unicode="&#xf6;" horiz-adv-x="594" 
d="M307 576c-31 -25 -74 -25 -95 0c-21 27 -14 69 17 96s74 27 95 0c23 -27 15 -69 -17 -96zM497 576c-31 -25 -74 -25 -95 0c-21 27 -14 69 17 96s74 27 95 0c23 -27 15 -69 -17 -96zM264 -14c-83 0 -145 28 -187 83c-42 56 -56 122 -41 197c14 71 49 130 104 177
s121 71 198 71s137 -28 178 -84c42 -55 56 -120 43 -193c-12 -71 -46 -130 -103 -179c-56 -48 -120 -72 -192 -72zM273 112c38 0 72 13 102 38c31 25 49 59 56 101c16 83 -33 137 -109 137c-75 0 -141 -54 -157 -138c-15 -84 33 -138 108 -138z" />
    <glyph glyph-name="divide" unicode="&#xf7;" horiz-adv-x="565" 
d="M321 463c-45 0 -76 39 -68 84s48 79 95 79c45 0 76 -36 68 -83c-9 -47 -48 -80 -95 -80zM527 290h-475l21 121h475zM252 74c-45 0 -75 37 -67 84c8 45 48 79 95 79c45 0 75 -38 67 -83c-8 -47 -48 -80 -95 -80z" />
    <glyph glyph-name="oslash" unicode="&#xf8;" horiz-adv-x="594" 
d="M515 509l57 -33l-51 -51c39 -55 51 -117 38 -188c-12 -72 -46 -132 -101 -180c-55 -47 -119 -71 -194 -71c-55 0 -103 14 -143 42l-37 -37l-58 32l49 49c-41 54 -54 119 -39 194c14 71 49 130 104 177s121 71 198 71c54 0 100 -15 138 -44zM165 250c-5 -30 -3 -57 8 -81
l207 206c-19 9 -38 13 -58 13c-75 0 -141 -54 -157 -138zM431 251c6 30 4 56 -7 78l-206 -205c16 -8 34 -12 55 -12c38 0 72 13 102 38c31 25 49 59 56 101z" />
    <glyph glyph-name="ugrave" unicode="&#xf9;" 
d="M348 700l62 -137h-122l-90 137h150zM381 214l50 286h129l-88 -500h-129l10 54c-39 -45 -91 -68 -155 -68c-56 0 -99 19 -130 56s-40 88 -29 151l54 307h129l-51 -291c-12 -68 21 -103 81 -103c61 0 110 36 129 108z" />
    <glyph glyph-name="uacute" unicode="&#xfa;" 
d="M353 700h158l-131 -137h-127zM381 214l50 286h129l-88 -500h-129l10 54c-39 -45 -91 -68 -155 -68c-56 0 -99 19 -130 56s-40 88 -29 151l54 307h129l-51 -291c-12 -68 21 -103 81 -103c61 0 110 36 129 108z" />
    <glyph glyph-name="ucircumflex" unicode="&#xfb;" 
d="M372 555l-30 65l-58 -65h-128l131 145h130l81 -145h-126zM381 214l50 286h129l-88 -500h-129l10 54c-39 -45 -91 -68 -155 -68c-56 0 -99 19 -130 56s-40 88 -29 151l54 307h129l-51 -291c-12 -68 21 -103 81 -103c61 0 110 36 129 108z" />
    <glyph glyph-name="udieresis" unicode="&#xfc;" 
d="M285 568c-31 -25 -74 -25 -95 0c-21 27 -14 69 17 96s74 27 95 0c23 -27 15 -69 -17 -96zM475 568c-31 -25 -74 -25 -95 0c-21 27 -14 69 17 96s74 27 95 0c23 -27 15 -69 -17 -96zM381 214l50 286h129l-88 -500h-129l10 54c-39 -45 -91 -68 -155 -68
c-56 0 -99 19 -130 56s-40 88 -29 151l54 307h129l-51 -291c-12 -68 21 -103 81 -103c61 0 110 36 129 108z" />
    <glyph glyph-name="yacute" unicode="&#xfd;" horiz-adv-x="525" 
d="M324 700h158l-131 -137h-127zM253 163l171 337h143l-270 -500c-81 -152 -175 -207 -300 -200l21 120c71 -1 106 22 142 93l3 5l-116 482h132z" />
    <glyph glyph-name="thorn" unicode="&#xfe;" horiz-adv-x="627" 
d="M389 514c71 0 125 -28 163 -83c39 -55 52 -118 40 -191c-11 -71 -41 -131 -92 -180s-112 -74 -184 -74c-73 0 -127 28 -160 84l-47 -270h-129l158 900h129l-44 -252c44 44 99 66 166 66zM463 249c15 84 -32 142 -112 142c-77 0 -142 -51 -161 -128l-4 -23
c-9 -81 42 -131 118 -131c39 0 73 12 103 37s49 60 56 103z" />
    <glyph glyph-name="ydieresis" unicode="&#xff;" horiz-adv-x="525" 
d="M256 568c-31 -25 -74 -25 -95 0c-21 27 -14 69 17 96s74 27 95 0c23 -27 15 -69 -17 -96zM446 568c-31 -25 -74 -25 -95 0c-21 27 -14 69 17 96s74 27 95 0c23 -27 15 -69 -17 -96zM253 163l171 337h143l-270 -500c-81 -152 -175 -207 -300 -200l21 120
c71 -1 106 22 142 93l3 5l-116 482h132z" />
    <glyph glyph-name="Amacron" unicode="&#x100;" horiz-adv-x="668" 
d="M298 869h290l-18 -105h-290zM621 0h-149l-18 126h-280l-65 -126h-151l369 700h171zM393 547l-152 -292h194z" />
    <glyph glyph-name="amacron" unicode="&#x101;" horiz-adv-x="627" 
d="M230 669h290l-18 -105h-290zM471 433l12 67h129l-88 -500h-129l8 46c-43 -40 -99 -60 -166 -60c-75 0 -131 28 -168 83s-48 120 -34 193c13 71 45 131 96 179c52 49 114 73 186 73c71 0 122 -27 154 -81zM277 109c77 0 144 53 161 133l2 16c11 81 -40 133 -116 133
c-79 0 -145 -53 -160 -140c-15 -84 33 -142 113 -142z" />
    <glyph glyph-name="Abreve" unicode="&#x102;" horiz-adv-x="668" 
d="M428 747c-105 0 -163 56 -147 145h115c-6 -35 8 -52 42 -52c35 0 55 17 61 52h115c-15 -93 -79 -145 -186 -145zM621 0h-149l-18 126h-280l-65 -126h-151l369 700h171zM393 547l-152 -292h194z" />
    <glyph glyph-name="abreve" unicode="&#x103;" horiz-adv-x="627" 
d="M360 547c-105 0 -163 56 -147 145h115c-6 -35 8 -52 42 -52c35 0 55 17 61 52h115c-15 -93 -79 -145 -186 -145zM471 433l12 67h129l-88 -500h-129l8 46c-43 -40 -99 -60 -166 -60c-75 0 -131 28 -168 83s-48 120 -34 193c13 71 45 131 96 179c52 49 114 73 186 73
c71 0 122 -27 154 -81zM277 109c77 0 144 53 161 133l2 16c11 81 -40 133 -116 133c-79 0 -145 -53 -160 -140c-15 -84 33 -142 113 -142z" />
    <glyph glyph-name="Aogonek" unicode="&#x104;" horiz-adv-x="668" 
d="M552 -90c-4 -17 4 -29 20 -29c11 0 20 2 29 5l-15 -84c-28 -11 -56 -16 -83 -16c-56 0 -92 39 -81 96c7 39 35 79 84 118h-34l-18 126h-280l-65 -126h-151l369 700h171l123 -700c-41 -35 -64 -65 -69 -90zM393 547l-152 -292h194z" />
    <glyph glyph-name="aogonek" unicode="&#x105;" horiz-adv-x="627" 
d="M471 433l12 67h129l-88 -500c-37 -32 -69 -76 -70 -100c-2 -15 5 -22 21 -22c10 0 19 2 28 5l-14 -81c-22 -11 -47 -16 -74 -16c-61 0 -101 33 -90 90c6 36 35 77 86 124h-16l8 46c-43 -40 -99 -60 -166 -60c-75 0 -131 28 -168 83s-48 120 -34 193c13 71 45 131 96 179
c52 49 114 73 186 73c71 0 122 -27 154 -81zM277 109c77 0 144 53 161 133l2 16c11 81 -40 133 -116 133c-79 0 -145 -53 -160 -140c-15 -84 33 -142 113 -142z" />
    <glyph glyph-name="Cacute" unicode="&#x106;" horiz-adv-x="729" 
d="M410 771l100 137h158l-131 -137h-127zM359 -14c129 0 249 63 325 164l-113 73c-49 -68 -116 -102 -203 -102c-65 0 -114 21 -147 64s-44 98 -32 165c11 68 41 123 90 166s107 64 174 64c80 0 136 -33 167 -98l126 66c-47 104 -147 166 -280 166
c-103 0 -193 -33 -272 -100c-78 -67 -125 -151 -142 -254c-39 -200 96 -378 307 -374z" />
    <glyph glyph-name="cacute" unicode="&#x107;" horiz-adv-x="540" 
d="M261 563l100 137h158l-131 -137h-127zM263 -14c99 0 188 45 239 128l-104 67c-31 -45 -72 -67 -124 -67c-77 0 -123 59 -110 139c7 39 25 71 55 96c31 25 65 38 104 38c52 0 87 -22 105 -65l117 62c-32 79 -108 130 -211 130c-75 0 -141 -24 -198 -72
c-56 -48 -90 -109 -101 -182c-13 -77 3 -142 46 -195c44 -53 105 -79 182 -79z" />
    <glyph glyph-name="Cdotaccent" unicode="&#x10a;" horiz-adv-x="729" 
d="M488 759c-43 0 -72 35 -64 78c7 41 47 77 90 77s72 -36 65 -77c-8 -43 -50 -78 -91 -78zM359 -14c-211 -4 -346 174 -307 374c17 103 64 187 142 254c79 67 169 100 272 100c133 0 233 -62 280 -166l-126 -66c-31 65 -87 98 -167 98c-67 0 -125 -21 -174 -64
s-79 -98 -90 -166c-12 -67 -1 -122 32 -165s82 -64 147 -64c87 0 154 34 203 102l113 -73c-76 -101 -196 -164 -325 -164z" />
    <glyph glyph-name="cdotaccent" unicode="&#x10b;" horiz-adv-x="540" 
d="M339 551c-43 0 -72 35 -64 78c7 41 47 77 90 77s72 -36 65 -77c-8 -43 -50 -78 -91 -78zM263 -14c-77 0 -138 26 -182 79c-43 53 -59 118 -46 195c11 73 45 134 101 182c57 48 123 72 198 72c103 0 179 -51 211 -130l-117 -62c-18 43 -53 65 -105 65
c-39 0 -73 -13 -104 -38c-30 -25 -48 -57 -55 -96c-13 -80 33 -139 110 -139c52 0 93 22 124 67l104 -67c-51 -83 -140 -128 -239 -128z" />
    <glyph glyph-name="Ccaron" unicode="&#x10c;" horiz-adv-x="729" 
d="M550 763h-131l-81 145h123l32 -65l55 65h133zM368 121c87 0 154 34 203 102l113 -73c-76 -101 -196 -164 -325 -164c-211 -4 -346 174 -307 374c17 103 64 187 142 254c79 67 169 100 272 100c133 0 233 -62 280 -166l-126 -66c-31 65 -87 98 -167 98
c-67 0 -125 -21 -174 -64s-79 -98 -90 -166c-12 -67 -1 -122 32 -165s82 -64 147 -64z" />
    <glyph glyph-name="ccaron" unicode="&#x10d;" horiz-adv-x="540" 
d="M401 555h-131l-81 145h123l32 -65l55 65h133zM274 114c52 0 93 22 124 67l104 -67c-51 -83 -140 -128 -239 -128c-77 0 -138 26 -182 79c-43 53 -59 118 -46 195c11 73 45 134 101 182c57 48 123 72 198 72c103 0 179 -51 211 -130l-117 -62c-18 43 -53 65 -105 65
c-39 0 -73 -13 -104 -38c-30 -25 -48 -57 -55 -96c-13 -80 33 -139 110 -139z" />
    <glyph glyph-name="Dcaron" unicode="&#x10e;" horiz-adv-x="715" 
d="M476 755h-131l-81 145h123l32 -65l55 65h133zM144 700h278c92 0 165 -36 220 -107s73 -155 56 -253c-17 -99 -63 -181 -138 -245c-74 -63 -161 -95 -261 -95h-278zM566 354c11 64 1 116 -30 155s-76 59 -137 59h-140l-77 -436h132c64 0 119 21 165 62c47 41 76 95 87 160
z" />
    <glyph glyph-name="dcaron" unicode="&#x10f;" horiz-adv-x="739" 
d="M473 431l47 269h129l-123 -700h-129l8 48c-43 -41 -99 -62 -168 -62c-75 0 -131 28 -168 83s-48 120 -34 193c13 71 45 131 96 179c52 49 114 73 186 73s124 -28 156 -83zM661 500l46 200h121l-65 -200h-102zM278 109c81 0 149 57 162 140c16 87 -34 142 -114 142
c-79 0 -147 -53 -162 -140c-15 -84 34 -142 114 -142z" />
    <glyph glyph-name="Dcroat" unicode="&#x110;" horiz-adv-x="750" 
d="M180 700h278c92 0 165 -36 220 -107s73 -155 56 -253c-17 -99 -63 -181 -138 -245c-74 -63 -161 -95 -261 -95h-278l49 281h-78l22 124h78zM602 354c11 64 1 116 -30 155s-76 59 -137 59h-140l-29 -163h159l-22 -124h-159l-26 -149h132c64 0 119 21 165 62
c47 41 76 95 87 160z" />
    <glyph glyph-name="dslash" unicode="&#x111;" horiz-adv-x="633" 
d="M637 638h62l-15 -84h-62l-97 -554h-129l8 47c-43 -41 -98 -61 -167 -61c-75 0 -131 28 -168 83s-48 120 -34 193c13 71 45 131 96 179c52 49 114 73 186 73c71 0 123 -27 155 -82l21 122h-152l15 84h152l11 62h129zM278 109c76 0 140 49 159 125l5 27
c9 80 -41 130 -116 130c-79 0 -147 -53 -162 -140c-15 -84 34 -142 114 -142z" />
    <glyph glyph-name="Emacron" unicode="&#x112;" horiz-adv-x="530" 
d="M243 869h290l-18 -105h-290zM572 700l-23 -132h-290l-27 -150h266l-24 -129h-264l-28 -157h295l-23 -132h-433l123 700h428z" />
    <glyph glyph-name="emacron" unicode="&#x113;" horiz-adv-x="583" 
d="M232 673h290l-18 -105h-290zM551 250c-1 -15 -6 -32 -14 -53h-378c5 -64 53 -94 120 -94c50 0 91 17 123 51l91 -73c-56 -63 -131 -95 -224 -95c-83 0 -146 26 -189 79s-58 118 -45 195c11 73 45 133 102 181c57 49 122 73 196 73s132 -26 175 -77s57 -113 43 -187z
M177 298h254c-1 68 -45 100 -106 100c-67 0 -120 -36 -148 -100z" />
    <glyph glyph-name="Edotaccent" unicode="&#x116;" horiz-adv-x="530" 
d="M368 751c-43 0 -72 35 -64 78c7 41 47 77 90 77s72 -36 65 -77c-8 -43 -50 -78 -91 -78zM572 700l-23 -132h-290l-27 -150h266l-24 -129h-264l-28 -157h295l-23 -132h-433l123 700h428z" />
    <glyph glyph-name="edotaccent" unicode="&#x117;" horiz-adv-x="583" 
d="M357 555c-43 0 -72 35 -64 78c7 41 47 77 90 77s72 -36 65 -77c-8 -43 -50 -78 -91 -78zM551 250c-1 -15 -6 -32 -14 -53h-378c5 -64 53 -94 120 -94c50 0 91 17 123 51l91 -73c-56 -63 -131 -95 -224 -95c-83 0 -146 26 -189 79s-58 118 -45 195c11 73 45 133 102 181
c57 49 122 73 196 73s132 -26 175 -77s57 -113 43 -187zM177 298h254c-1 68 -45 100 -106 100c-67 0 -120 -36 -148 -100z" />
    <glyph glyph-name="Eogonek" unicode="&#x118;" horiz-adv-x="530" 
d="M572 700l-23 -132h-290l-27 -150h266l-24 -129h-264l-28 -157h295l-23 -132c-41 -36 -65 -67 -70 -94c-3 -19 3 -28 20 -28c9 -1 18 1 29 5l-14 -81c-28 -11 -56 -16 -83 -16c-57 0 -90 34 -81 90c7 38 36 79 89 124h-323l123 700h428z" />
    <glyph glyph-name="eogonek" unicode="&#x119;" horiz-adv-x="583" 
d="M551 250c-1 -15 -6 -32 -14 -53h-378c5 -64 53 -94 120 -94c50 0 91 17 123 51l91 -73c-10 -12 -22 -23 -36 -34h1c-69 -54 -107 -100 -114 -139c-4 -20 3 -30 22 -30c9 0 18 2 27 5l-14 -81c-25 -11 -50 -16 -76 -16c-67 0 -98 38 -89 89c5 35 32 72 79 112
c-5 -1 -13 -1 -24 -1c-83 0 -146 26 -189 79s-58 118 -45 195c11 73 45 133 102 181c57 49 122 73 196 73s132 -26 175 -77s57 -113 43 -187zM177 298h254c-1 68 -45 100 -106 100c-67 0 -120 -36 -148 -100z" />
    <glyph glyph-name="Ecaron" unicode="&#x11a;" horiz-adv-x="530" 
d="M430 755h-131l-81 145h123l32 -65l55 65h133zM572 700l-23 -132h-290l-27 -150h266l-24 -129h-264l-28 -157h295l-23 -132h-433l123 700h428z" />
    <glyph glyph-name="ecaron" unicode="&#x11b;" horiz-adv-x="583" 
d="M419 559h-131l-81 145h123l32 -65l55 65h133zM551 250c-1 -15 -6 -32 -14 -53h-378c5 -64 53 -94 120 -94c50 0 91 17 123 51l91 -73c-56 -63 -131 -95 -224 -95c-83 0 -146 26 -189 79s-58 118 -45 195c11 73 45 133 102 181c57 49 122 73 196 73s132 -26 175 -77
s57 -113 43 -187zM177 298h254c-1 68 -45 100 -106 100c-67 0 -120 -36 -148 -100z" />
    <glyph glyph-name="Gbreve" unicode="&#x11e;" horiz-adv-x="786" 
d="M490 755c-105 0 -163 56 -147 145h115c-6 -35 8 -52 42 -52c35 0 55 17 61 52h115c-15 -93 -79 -145 -186 -145zM424 376h351l-9 -54c-17 -102 -63 -184 -136 -245s-162 -91 -265 -91c-108 0 -192 36 -251 109s-80 162 -62 266c17 102 65 186 143 253s169 100 272 100
c139 0 240 -62 292 -170l-126 -66c-35 68 -95 102 -179 102c-67 0 -126 -21 -175 -64c-49 -42 -79 -97 -90 -165c-12 -68 -1 -123 33 -166c35 -43 87 -64 156 -64c115 0 191 44 230 133h-205z" />
    <glyph glyph-name="gbreve" unicode="&#x11f;" horiz-adv-x="628" 
d="M359 555c-105 0 -163 56 -147 145h115c-6 -35 8 -52 42 -52c35 0 55 17 61 52h115c-15 -93 -79 -145 -186 -145zM474 428l13 72h126l-84 -476c-28 -163 -140 -238 -289 -238c-111 0 -193 42 -229 122l115 60c21 -45 62 -67 123 -67c84 0 141 43 154 123l8 44
c-44 -44 -99 -66 -166 -66c-77 0 -134 26 -171 79s-50 115 -38 188c11 68 42 126 93 173c51 48 112 72 183 72c77 0 131 -29 162 -86zM281 123c79 0 146 53 162 130l2 10c12 79 -40 130 -119 130c-39 0 -75 -12 -106 -37s-49 -57 -56 -97c-7 -39 1 -72 23 -98
c22 -25 53 -38 94 -38z" />
    <glyph glyph-name="Gdotaccent" unicode="&#x120;" horiz-adv-x="786" 
d="M485 759c-43 0 -72 35 -64 78c7 41 47 77 90 77s72 -36 65 -77c-8 -43 -50 -78 -91 -78zM424 376h351l-9 -54c-17 -102 -63 -184 -136 -245s-162 -91 -265 -91c-108 0 -192 36 -251 109s-80 162 -62 266c17 102 65 186 143 253s169 100 272 100c139 0 240 -62 292 -170
l-126 -66c-35 68 -95 102 -179 102c-67 0 -126 -21 -175 -64c-49 -42 -79 -97 -90 -165c-12 -68 -1 -123 33 -166c35 -43 87 -64 156 -64c115 0 191 44 230 133h-205z" />
    <glyph glyph-name="gdotaccent" unicode="&#x121;" horiz-adv-x="628" 
d="M354 559c-43 0 -72 35 -64 78c7 41 47 77 90 77s72 -36 65 -77c-8 -43 -50 -78 -91 -78zM474 428l13 72h126l-84 -476c-28 -163 -140 -238 -289 -238c-111 0 -193 42 -229 122l115 60c21 -45 62 -67 123 -67c84 0 141 43 154 123l8 44c-44 -44 -99 -66 -166 -66
c-77 0 -134 26 -171 79s-50 115 -38 188c11 68 42 126 93 173c51 48 112 72 183 72c77 0 131 -29 162 -86zM281 123c79 0 146 53 162 130l2 10c12 79 -40 130 -119 130c-39 0 -75 -12 -106 -37s-49 -57 -56 -97c-7 -39 1 -72 23 -98c22 -25 53 -38 94 -38z" />
    <glyph glyph-name="Gcommaaccent" unicode="&#x122;" horiz-adv-x="786" 
d="M424 376h351l-9 -54c-17 -102 -63 -184 -136 -245s-162 -91 -265 -91c-108 0 -192 36 -251 109s-80 162 -62 266c17 102 65 186 143 253s169 100 272 100c139 0 240 -62 292 -170l-126 -66c-35 68 -95 102 -179 102c-67 0 -126 -21 -175 -64c-49 -42 -79 -97 -90 -165
c-12 -68 -1 -123 33 -166c35 -43 87 -64 156 -64c115 0 191 44 230 133h-205zM349 -263h-102l46 200h121z" />
    <glyph glyph-name="gcommaaccent" unicode="&#x123;" horiz-adv-x="628" 
d="M355 783h102l-46 -200h-121zM474 428l13 72h126l-84 -476c-28 -163 -140 -238 -289 -238c-111 0 -193 42 -229 122l115 60c21 -45 62 -67 123 -67c84 0 141 43 154 123l8 44c-44 -44 -99 -66 -166 -66c-77 0 -134 26 -171 79s-50 115 -38 188c11 68 42 126 93 173
c51 48 112 72 183 72c77 0 131 -29 162 -86zM281 123c79 0 146 53 162 130l2 10c12 79 -40 130 -119 130c-39 0 -75 -12 -106 -37s-49 -57 -56 -97c-7 -39 1 -72 23 -98c22 -25 53 -38 94 -38z" />
    <glyph glyph-name="Hbar" unicode="&#x126;" horiz-adv-x="708" 
d="M683 602h62l-18 -101h-62l-88 -501h-137l48 272h-260l-48 -272h-138l88 501h-60l17 101h61l17 98h138l-17 -98h260l17 98h137zM251 404h260l17 97h-260z" />
    <glyph glyph-name="hbar" unicode="&#x127;" horiz-adv-x="581" 
d="M384 514c55 0 98 -19 129 -56s41 -88 30 -151l-54 -307h-129l51 291c12 68 -21 103 -82 103c-65 0 -118 -40 -131 -124v3l-48 -273h-129l97 554h-62l15 84h62l11 62h129l-11 -62h142l-15 -84h-142l-19 -109c39 46 91 69 156 69z" />
    <glyph glyph-name="Imacron" unicode="&#x12a;" horiz-adv-x="268" 
d="M370 764h-290l18 105h290zM21 0l123 700h138l-123 -700h-138z" />
    <glyph glyph-name="imacron" unicode="&#x12b;" horiz-adv-x="247" 
d="M294 564h-230l19 112h230zM144 0h-129l88 500h129z" />
    <glyph glyph-name="Iogonek" unicode="&#x12e;" horiz-adv-x="268" 
d="M282 700l-123 -700c-33 -38 -50 -69 -53 -94c-2 -19 5 -28 22 -28c7 -1 17 1 29 5l-14 -81c-28 -11 -56 -16 -84 -16c-57 0 -86 38 -81 89c6 41 29 82 68 125h-25l123 700h138z" />
    <glyph glyph-name="iogonek" unicode="&#x12f;" horiz-adv-x="247" 
d="M272 639c-8 -44 -49 -79 -93 -79s-73 36 -66 79c7 44 48 80 92 80s74 -37 67 -80zM29 0h-14l88 500h129l-88 -500c-30 -37 -47 -68 -51 -94c-3 -19 3 -28 20 -28c7 -1 17 1 29 5l-15 -81c-27 -11 -54 -16 -83 -16c-55 0 -86 38 -81 86c4 35 26 78 66 128z" />
    <glyph glyph-name="Idot" unicode="&#x130;" horiz-adv-x="268" 
d="M223 751c-43 0 -72 35 -64 78c7 41 47 77 90 77s72 -36 65 -77c-8 -43 -50 -78 -91 -78zM21 0l123 700h138l-123 -700h-138z" />
    <glyph glyph-name="dotlessi" unicode="&#x131;" horiz-adv-x="247" 
d="M144 0h-129l88 500h129z" />
    <glyph glyph-name="Kcommaaccent" unicode="&#x136;" horiz-adv-x="614" 
d="M524 700h165l-337 -344l216 -356h-145l-205 338l-59 -338h-138l123 700h138l-53 -300zM253 -263h-102l46 200h121z" />
    <glyph glyph-name="kcommaaccent" unicode="&#x137;" horiz-adv-x="517" 
d="M397 500h153l-241 -247l159 -253h-140l-143 235l-41 -235h-129l123 700h129l-72 -411zM226 -263h-102l46 200h121z" />
    <glyph glyph-name="Lacute" unicode="&#x139;" horiz-adv-x="483" 
d="M258 900h158l-131 -137h-127zM282 700l-100 -568h267l-23 -132h-405l23 132l100 568h138z" />
    <glyph glyph-name="lacute" unicode="&#x13a;" horiz-adv-x="248" 
d="M148 763l100 137h158l-131 -137h-127zM16 0h129l54 309l74 421h-129l-73 -416z" />
    <glyph glyph-name="Lcommaaccent" unicode="&#x13b;" horiz-adv-x="483" 
d="M282 700l-100 -568h267l-23 -132h-405l23 132l100 568h138zM212 -263h-102l46 200h121z" />
    <glyph glyph-name="lcommaaccent" unicode="&#x13c;" horiz-adv-x="248" 
d="M145 0h-129l55 314l73 416h129l-74 -421zM66 -263h-102l46 200h121z" />
    <glyph glyph-name="Lcaron" unicode="&#x13d;" horiz-adv-x="483" 
d="M144 700h138l-100 -568h267l-23 -132h-405l23 132zM360 700h129l-62 -185h-109z" />
    <glyph glyph-name="lcaron" unicode="&#x13e;" horiz-adv-x="348" 
d="M145 0h-129l55 314l73 416h129l-74 -421zM377 530h-101l45 200h122z" />
    <glyph glyph-name="Lslash" unicode="&#x141;" horiz-adv-x="513" 
d="M242 304l-30 -172h267l-23 -132h-405l23 132l15 82l-70 -41l24 139l70 41l61 347h138l-45 -256l145 85l-25 -140z" />
    <glyph glyph-name="lslash" unicode="&#x142;" horiz-adv-x="263" 
d="M231 453l61 37l-21 -124l-62 -38l-3 -19l-54 -309h-129l42 240l-60 -37l21 125l61 37l64 365h129z" />
    <glyph glyph-name="Nacute" unicode="&#x143;" horiz-adv-x="673" 
d="M347 763l100 137h158l-131 -137h-127zM21 0h138l77 437l224 -437h104l123 700h-138l-76 -437l-225 437h-104z" />
    <glyph glyph-name="nacute" unicode="&#x144;" 
d="M363 708h158l-131 -137h-127zM377 514c56 0 99 -19 130 -56s40 -88 29 -151l-54 -307h-129l51 291c12 68 -21 103 -81 103c-61 0 -110 -36 -129 -108l-50 -286h-129l88 500h129l-10 -54c39 45 91 68 155 68z" />
    <glyph glyph-name="Ncommaaccent" unicode="&#x145;" horiz-adv-x="673" 
d="M159 0h-138l123 700h104l225 -437l76 437h138l-123 -700h-104l-224 437zM282 -263h-102l46 200h121z" />
    <glyph glyph-name="ncommaaccent" unicode="&#x146;" 
d="M377 514c56 0 99 -19 130 -56s40 -88 29 -151l-54 -307h-129l51 291c12 68 -21 103 -81 103c-61 0 -110 -36 -129 -108l-50 -286h-129l88 500h129l-10 -54c39 45 91 68 155 68zM244 -263h-102l46 200h121z" />
    <glyph glyph-name="Ncaron" unicode="&#x147;" horiz-adv-x="673" 
d="M487 755h-131l-81 145h123l32 -65l55 65h133zM473 263l76 437h138l-123 -700h-104l-224 437l-77 -437h-138l123 700h104z" />
    <glyph glyph-name="ncaron" unicode="&#x148;" 
d="M403 563h-131l-81 145h123l32 -65l55 65h133zM377 514c56 0 99 -19 130 -56s40 -88 29 -151l-54 -307h-129l51 291c12 68 -21 103 -81 103c-61 0 -110 -36 -129 -108l-50 -286h-129l88 500h129l-10 -54c39 45 91 68 155 68z" />
    <glyph glyph-name="Eng" unicode="&#x14a;" horiz-adv-x="673" 
d="M473 263l76 437h138l-123 -700c-25 -145 -115 -212 -268 -200l23 126c63 -3 97 21 109 85l7 38l-199 388l-77 -437h-138l123 700h104z" />
    <glyph glyph-name="eng" unicode="&#x14b;" 
d="M377 514c56 0 99 -19 130 -56s40 -88 29 -151l-55 -317c-25 -146 -107 -214 -246 -204l22 124c53 -5 84 21 95 80l52 301c12 68 -21 103 -81 103c-61 0 -110 -36 -129 -108l-50 -286h-129l88 500h129l-10 -54c39 45 91 68 155 68z" />
    <glyph glyph-name="Omacron" unicode="&#x14c;" horiz-adv-x="793" 
d="M634 772h-290l18 105h290zM354 -14c-101 0 -182 37 -241 110c-59 74 -80 162 -61 264c17 103 65 188 143 254c79 67 172 100 279 100c100 0 180 -37 239 -111c60 -74 81 -162 63 -264c-18 -103 -66 -188 -144 -254s-171 -99 -278 -99zM370 121c65 0 123 21 174 64
s83 97 95 164c11 67 -1 122 -36 165c-35 44 -85 66 -150 66s-122 -22 -172 -65c-49 -43 -80 -98 -92 -165s-1 -122 33 -165c35 -43 84 -64 148 -64z" />
    <glyph glyph-name="omacron" unicode="&#x14d;" horiz-adv-x="594" 
d="M500 572h-290l18 105h290zM264 -14c-83 0 -145 28 -187 83c-42 56 -56 122 -41 197c14 71 49 130 104 177s121 71 198 71s137 -28 178 -84c42 -55 56 -120 43 -193c-12 -71 -46 -130 -103 -179c-56 -48 -120 -72 -192 -72zM273 112c38 0 72 13 102 38c31 25 49 59 56 101
c16 83 -33 137 -109 137c-75 0 -141 -54 -157 -138c-15 -84 33 -138 108 -138z" />
    <glyph glyph-name="Ohungarumlaut" unicode="&#x150;" horiz-adv-x="793" 
d="M312 763l101 138h135l-107 -138h-129zM485 763l111 138h135l-117 -138h-129zM354 -14c107 0 200 33 278 99s126 151 144 254c18 102 -3 190 -63 264c-59 74 -139 111 -239 111c-107 0 -200 -33 -279 -100c-78 -66 -126 -151 -143 -254c-19 -102 2 -190 61 -264
c59 -73 140 -110 241 -110zM370 121c-64 0 -113 21 -148 64c-34 43 -45 98 -33 165s43 122 92 165c50 43 107 65 172 65s115 -22 150 -66c35 -43 47 -98 36 -165c-12 -67 -44 -121 -95 -164s-109 -64 -174 -64z" />
    <glyph glyph-name="ohungarumlaut" unicode="&#x151;" horiz-adv-x="594" 
d="M178 563l101 138h135l-107 -138h-129zM351 563l111 138h135l-117 -138h-129zM264 -14c72 0 136 24 192 72c57 49 91 108 103 179c13 73 -1 138 -43 193c-41 56 -101 84 -178 84s-143 -24 -198 -71s-90 -106 -104 -177c-15 -75 -1 -141 41 -197c42 -55 104 -83 187 -83z
M273 112c-75 0 -123 54 -108 138c16 84 82 138 157 138c76 0 125 -54 109 -137c-7 -42 -25 -76 -56 -101c-30 -25 -64 -38 -102 -38z" />
    <glyph glyph-name="OE" unicode="&#x152;" horiz-adv-x="916" 
d="M958 700l-23 -132h-255l-27 -150h233l-23 -129h-232l-28 -157h260l-23 -132h-398c-34 -9 -68 -14 -102 -14c-99 0 -177 36 -233 109c-55 73 -74 161 -55 264c17 101 65 186 143 253c79 68 167 102 266 102c39 0 74 -5 104 -14h393zM466 136l75 429c-28 10 -60 15 -97 15
c-63 0 -119 -21 -166 -64s-77 -98 -89 -166c-12 -67 -2 -122 29 -165s79 -64 142 -64c43 0 78 5 106 15z" />
    <glyph glyph-name="oe" unicode="&#x153;" horiz-adv-x="981" 
d="M740 514c70 0 126 -26 167 -77s56 -113 43 -187c-4 -21 -9 -39 -14 -53h-379c7 -63 47 -94 120 -94c51 0 92 17 123 51l92 -73c-56 -63 -129 -95 -219 -95c-98 0 -165 36 -201 107c-57 -71 -130 -107 -217 -107c-81 0 -142 27 -181 81c-39 55 -52 119 -40 192
c12 71 45 131 99 180c54 50 121 75 200 75c83 0 147 -41 182 -106c57 71 132 106 225 106zM576 298h253c-1 68 -45 100 -106 100c-65 0 -119 -37 -147 -100zM433 250c15 80 -34 138 -111 138c-79 0 -144 -57 -159 -138c-13 -81 33 -138 110 -138c39 0 73 13 104 39
s49 59 56 99z" />
    <glyph glyph-name="Racute" unicode="&#x154;" horiz-adv-x="614" 
d="M394 900h158l-131 -137h-127zM616 458c-17 -93 -80 -166 -168 -197l106 -261h-140l-97 243h-115l-43 -243h-138l123 700h273c63 0 115 -24 155 -73c41 -49 55 -105 44 -169zM394 571h-135l-36 -207h142c56 0 103 45 114 104s-25 103 -85 103z" />
    <glyph glyph-name="racute" unicode="&#x155;" horiz-adv-x="357" 
d="M269 700h158l-131 -137h-127zM232 500l-14 -80c36 61 92 91 168 90l-25 -144c-64 10 -151 -21 -174 -122l-43 -244h-129l88 500h129z" />
    <glyph glyph-name="Rcommaaccent" unicode="&#x156;" horiz-adv-x="614" 
d="M616 458c-17 -93 -80 -166 -168 -197l106 -261h-140l-97 243h-115l-43 -243h-138l123 700h273c63 0 115 -24 155 -73c41 -49 55 -105 44 -169zM394 571h-135l-36 -207h142c56 0 103 45 114 104s-25 103 -85 103zM281 -263h-102l46 200h121z" />
    <glyph glyph-name="rcommaaccent" unicode="&#x157;" horiz-adv-x="357" 
d="M232 500l-14 -80c36 61 92 91 168 90l-25 -144c-64 10 -151 -21 -174 -122l-43 -244h-129l88 500h129zM66 -263h-102l46 200h121z" />
    <glyph glyph-name="Rcaron" unicode="&#x158;" horiz-adv-x="614" 
d="M434 755h-131l-81 145h123l32 -65l55 65h133zM616 458c-17 -93 -80 -166 -168 -197l106 -261h-140l-97 243h-115l-43 -243h-138l123 700h273c63 0 115 -24 155 -73c41 -49 55 -105 44 -169zM394 571h-135l-36 -207h142c56 0 103 45 114 104s-25 103 -85 103z" />
    <glyph glyph-name="rcaron" unicode="&#x159;" horiz-adv-x="357" 
d="M309 555h-131l-81 145h123l32 -65l55 65h133zM232 500l-14 -80c36 61 92 91 168 90l-25 -144c-64 10 -151 -21 -174 -122l-43 -244h-129l88 500h129z" />
    <glyph glyph-name="Sacute" unicode="&#x15a;" horiz-adv-x="586" 
d="M306 771l100 137h158l-131 -137h-127zM269 -14c147 0 253 69 276 194c14 76 -9 124 -46 157c-25 22 -50 36 -81 49c-24 11 -36 14 -60 23c-92 33 -130 56 -119 105c9 41 48 67 104 67c59 0 100 -29 125 -87l121 64c-36 99 -120 156 -235 156c-62 0 -117 -16 -166 -49
c-48 -32 -78 -80 -89 -143c-11 -61 0 -109 33 -143c33 -33 83 -61 148 -83c97 -32 135 -53 124 -104c-8 -44 -51 -73 -124 -73c-80 0 -129 35 -146 104l-125 -64c25 -107 119 -173 260 -173z" />
    <glyph glyph-name="sacute" unicode="&#x15b;" horiz-adv-x="470" 
d="M213 571l100 137h158l-131 -137h-127zM206 -14c112 0 195 49 212 146c22 118 -70 149 -143 166c-49 13 -87 28 -82 59c6 29 28 43 67 43s65 -17 77 -50l116 58c-31 67 -99 106 -186 106c-49 0 -93 -13 -132 -39c-39 -25 -62 -61 -71 -108c-20 -112 71 -149 142 -167
c49 -15 88 -30 84 -58c-5 -26 -30 -39 -73 -39c-52 0 -85 21 -98 64l-116 -58c33 -82 101 -123 203 -123z" />
    <glyph glyph-name="Scedilla" unicode="&#x15e;" horiz-adv-x="586" 
d="M358 409c24 -9 36 -12 60 -23c31 -13 56 -27 81 -49c37 -33 60 -81 46 -157c-20 -112 -107 -179 -231 -192l-6 -34c36 -11 64 -41 56 -86c-13 -67 -91 -95 -236 -84l16 91c71 -5 108 2 112 20c2 15 -18 23 -59 25l12 70c-108 17 -179 78 -200 169l125 64
c17 -69 66 -104 146 -104c73 0 116 29 124 73c11 51 -27 72 -124 104c-65 22 -115 50 -148 83c-33 34 -44 82 -33 143c11 63 41 111 89 143c49 33 104 49 166 49c115 0 199 -57 235 -156l-121 -64c-25 58 -66 87 -125 87c-56 0 -95 -26 -104 -67c-11 -49 27 -72 119 -105z
" />
    <glyph glyph-name="scedilla" unicode="&#x15f;" horiz-adv-x="470" 
d="M193 357c-5 -31 33 -46 82 -59c73 -17 165 -48 143 -166c-15 -81 -75 -130 -162 -142l-6 -36c36 -11 64 -41 56 -86c-13 -67 -91 -95 -236 -84l16 91c71 -5 108 2 112 20c2 15 -18 23 -59 25l12 71c-71 13 -121 52 -148 118l116 58c13 -43 46 -64 98 -64
c43 0 68 13 73 39c4 28 -35 43 -84 58c-71 18 -162 55 -142 167c9 47 32 83 71 108c39 26 83 39 132 39c87 0 155 -39 186 -106l-116 -58c-12 33 -38 50 -77 50s-61 -14 -67 -43z" />
    <glyph glyph-name="Scaron" unicode="&#x160;" horiz-adv-x="586" 
d="M446 763h-131l-81 145h123l32 -65l55 65h133zM358 409c24 -9 36 -12 60 -23c31 -13 56 -27 81 -49c37 -33 60 -81 46 -157c-23 -125 -129 -194 -276 -194c-141 0 -235 66 -260 173l125 64c17 -69 66 -104 146 -104c73 0 116 29 124 73c11 51 -27 72 -124 104
c-65 22 -115 50 -148 83c-33 34 -44 82 -33 143c11 63 41 111 89 143c49 33 104 49 166 49c115 0 199 -57 235 -156l-121 -64c-25 58 -66 87 -125 87c-56 0 -95 -26 -104 -67c-11 -49 27 -72 119 -105z" />
    <glyph glyph-name="scaron" unicode="&#x161;" horiz-adv-x="470" 
d="M353 563h-131l-81 145h123l32 -65l55 65h133zM260 400c-39 0 -61 -14 -67 -43c-5 -31 33 -46 82 -59c73 -17 165 -48 143 -166c-17 -97 -100 -146 -212 -146c-102 0 -170 41 -203 123l116 58c13 -43 46 -64 98 -64c43 0 68 13 73 39c4 28 -35 43 -84 58
c-71 18 -162 55 -142 167c9 47 32 83 71 108c39 26 83 39 132 39c87 0 155 -39 186 -106l-116 -58c-12 33 -38 50 -77 50z" />
    <glyph glyph-name="uni0162" unicode="&#x162;" horiz-adv-x="540" 
d="M92 700h515l-23 -132h-189l-100 -568h-138l100 568h-188zM212 -263h-102l46 200h121z" />
    <glyph glyph-name="uni0163" unicode="&#x163;" horiz-adv-x="386" 
d="M367 376h-112l-37 -208c-9 -52 20 -56 104 -51l-20 -117c-168 -20 -237 33 -213 168l37 208h-87l22 124h86l18 101l136 39l-25 -140h114zM174 -263h-102l46 200h121z" />
    <glyph glyph-name="Tcaron" unicode="&#x164;" horiz-adv-x="540" 
d="M421 755h-131l-81 145h123l32 -65l55 65h133zM92 700h515l-23 -132h-189l-100 -568h-138l100 568h-188z" />
    <glyph glyph-name="tcaron" unicode="&#x165;" horiz-adv-x="406" 
d="M329 544l42 182h121l-62 -182h-101zM165 601l136 39l-25 -140h114l-23 -124h-112l-37 -208c-9 -52 20 -56 104 -51l-20 -117c-168 -20 -237 33 -213 168l37 208h-87l22 124h86z" />
    <glyph glyph-name="Tbar" unicode="&#x166;" horiz-adv-x="540" 
d="M607 700l-23 -132h-189l-29 -163h119l-22 -124h-119l-49 -281h-138l49 281h-118l22 124h118l29 163h-188l23 132h515z" />
    <glyph glyph-name="tbar" unicode="&#x167;" horiz-adv-x="386" 
d="M390 500l-23 -124h-112l-13 -73h80l-18 -104h-81l-5 -31c-9 -52 20 -56 104 -51l-20 -117c-168 -20 -237 33 -213 168l5 31h-57l18 104h58l13 73h-87l22 124h86l18 101l136 39l-25 -140h114z" />
    <glyph glyph-name="Umacron" unicode="&#x16a;" horiz-adv-x="646" 
d="M559 764h-290l18 105h290zM291 -14c-83 0 -147 23 -192 68s-60 104 -47 175l83 471h137l-81 -460c-12 -72 20 -119 109 -119s139 48 151 119l81 460h138l-83 -471c-28 -157 -143 -243 -296 -243z" />
    <glyph glyph-name="umacron" unicode="&#x16b;" 
d="M206 669h290l-18 -105h-290zM381 214l50 286h129l-88 -500h-129l10 54c-39 -45 -91 -68 -155 -68c-56 0 -99 19 -130 56s-40 88 -29 151l54 307h129l-51 -291c-12 -68 21 -103 81 -103c61 0 110 36 129 108z" />
    <glyph glyph-name="Uring" unicode="&#x16e;" horiz-adv-x="646" 
d="M407 709c-37 0 -65 12 -86 35c-21 24 -28 53 -22 87s22 62 49 83s58 32 95 32s65 -12 86 -36s28 -53 22 -86c-11 -68 -69 -115 -144 -115zM418 790c27 0 42 12 47 37c4 23 -9 38 -33 38c-26 0 -41 -12 -46 -37c-4 -21 8 -38 32 -38zM291 -14c-83 0 -147 23 -192 68
s-60 104 -47 175l83 471h137l-81 -460c-12 -72 20 -119 109 -119s139 48 151 119l81 460h138l-83 -471c-28 -157 -143 -243 -296 -243z" />
    <glyph glyph-name="uring" unicode="&#x16f;" 
d="M331 539c-37 0 -65 12 -86 35c-21 24 -28 53 -22 87s22 62 49 83s58 32 95 32s65 -12 86 -36s28 -53 22 -86c-11 -68 -69 -115 -144 -115zM310 658c-4 -21 8 -38 32 -38c27 0 42 12 47 37c4 23 -9 38 -33 38c-26 0 -41 -12 -46 -37zM381 214l50 286h129l-88 -500h-129
l10 54c-39 -45 -91 -68 -155 -68c-56 0 -99 19 -130 56s-40 88 -29 151l54 307h129l-51 -291c-12 -68 21 -103 81 -103c61 0 110 36 129 108z" />
    <glyph glyph-name="Uhungarumlaut" unicode="&#x170;" horiz-adv-x="646" 
d="M237 755l101 138h135l-107 -138h-129zM410 755l111 138h135l-117 -138h-129zM291 -14c153 0 268 86 296 243l83 471h-138l-81 -460c-12 -71 -62 -119 -151 -119s-121 47 -109 119l81 460h-137l-83 -471c-13 -71 2 -130 47 -175s109 -68 192 -68z" />
    <glyph glyph-name="uhungarumlaut" unicode="&#x171;" 
d="M257 693h135l-107 -138h-129zM575 693l-117 -138h-129l111 138h135zM381 214l50 286h129l-88 -500h-129l10 54c-39 -45 -91 -68 -155 -68c-56 0 -99 19 -130 56s-40 88 -29 151l54 307h129l-51 -291c-12 -68 21 -103 81 -103c61 0 110 36 129 108z" />
    <glyph glyph-name="Uogonek" unicode="&#x172;" horiz-adv-x="646" 
d="M451 240l81 460h138l-83 -471c-15 -87 -55 -151 -119 -194c-79 -59 -113 -94 -120 -130c-4 -17 3 -26 21 -27c7 -1 17 1 28 5l-15 -81c-28 -11 -53 -16 -76 -16c-68 0 -99 43 -87 96c7 37 30 72 70 104c-83 1 -146 24 -191 69c-44 45 -59 103 -46 174l83 471h137
l-81 -460c-12 -72 20 -119 109 -119s139 48 151 119z" />
    <glyph glyph-name="uogonek" unicode="&#x173;" 
d="M381 214l50 286h129l-88 -500h-2c-37 -32 -68 -75 -71 -100c-1 -15 6 -22 21 -22c10 0 20 2 29 5l-14 -81c-23 -11 -48 -16 -73 -16c-61 0 -102 31 -91 90c7 37 36 78 87 124h-15l10 54c-39 -45 -91 -68 -155 -68c-56 0 -99 19 -130 56s-40 88 -29 151l54 307h129
l-51 -291c-12 -68 21 -103 81 -103c61 0 110 36 129 108z" />
    <glyph glyph-name="Wcircumflex" unicode="&#x174;" horiz-adv-x="999" 
d="M629 755l-30 65l-58 -65h-128l131 145h130l81 -145h-126zM688 181l226 519h149l-319 -700h-157l-51 462l-212 -462h-157l-73 700h137l45 -519l238 519h118z" />
    <glyph glyph-name="wcircumflex" unicode="&#x175;" horiz-adv-x="778" 
d="M484 555l-30 65l-58 -65h-128l131 145h130l81 -145h-126zM528 192l137 308h142l-247 -500h-123l-39 302l-138 -302h-130l-71 500h129l36 -307l140 307h125z" />
    <glyph glyph-name="Ycircumflex" unicode="&#x176;" horiz-adv-x="601" 
d="M430 755l-30 65l-58 -65h-128l131 145h130l81 -145h-126zM514 700h164l-298 -390l-55 -310h-137l55 312l-161 388h147l98 -258z" />
    <glyph glyph-name="ycircumflex" unicode="&#x177;" horiz-adv-x="525" 
d="M343 555l-30 65l-58 -65h-128l131 145h130l81 -145h-126zM253 163l171 337h143l-270 -500c-81 -152 -175 -207 -300 -200l21 120c71 -1 106 22 142 93l3 5l-116 482h132z" />
    <glyph glyph-name="Ydieresis" unicode="&#x178;" horiz-adv-x="601" 
d="M343 768c-31 -25 -74 -25 -95 0c-21 27 -14 69 17 96s74 27 95 0c23 -27 15 -69 -17 -96zM533 768c-31 -25 -74 -25 -95 0c-21 27 -14 69 17 96s74 27 95 0c23 -27 15 -69 -17 -96zM514 700h164l-298 -390l-55 -310h-137l55 312l-161 388h147l98 -258z" />
    <glyph glyph-name="Zacute" unicode="&#x179;" horiz-adv-x="535" 
d="M384 900h158l-131 -137h-127zM122 700h460l-19 -109l-371 -459h296l-23 -132h-473l20 110l371 458h-284z" />
    <glyph glyph-name="zacute" unicode="&#x17a;" horiz-adv-x="454" 
d="M307 700h158l-131 -137h-127zM261 379h-196l22 121h375l-15 -86l-258 -293h216l-21 -121h-396l16 86z" />
    <glyph glyph-name="Zdotaccent" unicode="&#x17b;" horiz-adv-x="535" 
d="M362 751c-43 0 -72 35 -64 78c7 41 47 77 90 77s72 -36 65 -77c-8 -43 -50 -78 -91 -78zM122 700h460l-19 -109l-371 -459h296l-23 -132h-473l20 110l371 458h-284z" />
    <glyph glyph-name="zdotaccent" unicode="&#x17c;" horiz-adv-x="454" 
d="M285 551c-43 0 -72 35 -64 78c7 41 47 77 90 77s72 -36 65 -77c-8 -43 -50 -78 -91 -78zM87 500h375l-15 -86l-258 -293h216l-21 -121h-396l16 86l257 293h-196z" />
    <glyph glyph-name="Zcaron" unicode="&#x17d;" horiz-adv-x="535" 
d="M424 755h-131l-81 145h123l32 -65l55 65h133zM122 700h460l-19 -109l-371 -459h296l-23 -132h-473l20 110l371 458h-284z" />
    <glyph glyph-name="zcaron" unicode="&#x17e;" horiz-adv-x="454" 
d="M347 555h-131l-81 145h123l32 -65l55 65h133zM261 379h-196l22 121h375l-15 -86l-258 -293h216l-21 -121h-396l16 86z" />
    <glyph glyph-name="florin" unicode="&#x192;" horiz-adv-x="441" 
d="M210 414l45 131c52 148 150 192 266 160l-22 -129c-19 12 -41 13 -66 3s-42 -30 -52 -59l-37 -106h91l-22 -124h-112l-114 -331c-51 -148 -149 -192 -266 -160l22 128c19 -12 41 -13 66 -3s42 30 52 59l106 307h-85l23 124h105z" />
    <glyph glyph-name="Scommaaccent" unicode="&#x218;" horiz-adv-x="586" 
d="M269 -14c-141 0 -235 66 -260 173l125 64c17 -69 66 -104 146 -104c73 0 116 29 124 73c11 51 -27 72 -124 104c-65 22 -115 50 -148 83c-33 34 -44 82 -33 143c11 63 41 111 89 143c49 33 104 49 166 49c115 0 199 -57 235 -156l-121 -64c-25 58 -66 87 -125 87
c-56 0 -95 -26 -104 -67c-11 -49 27 -72 119 -105c24 -9 36 -12 60 -23c31 -13 56 -27 81 -49c37 -33 60 -81 46 -157c-23 -125 -129 -194 -276 -194zM252 -263h-102l46 200h121z" />
    <glyph glyph-name="scommaaccent" unicode="&#x219;" horiz-adv-x="470" 
d="M206 -14c-102 0 -170 41 -203 123l116 58c13 -43 46 -64 98 -64c43 0 68 13 73 39c4 28 -35 43 -84 58c-71 18 -162 55 -142 167c9 47 32 83 71 108c39 26 83 39 132 39c87 0 155 -39 186 -106l-116 -58c-12 33 -38 50 -77 50s-61 -14 -67 -43c-5 -31 33 -46 82 -59
c73 -17 165 -48 143 -166c-17 -97 -100 -146 -212 -146zM194 -263h-102l46 200h121z" />
    <glyph glyph-name="uni021A" unicode="&#x21a;" horiz-adv-x="540" 
d="M92 700h515l-23 -132h-189l-100 -568h-138l100 568h-188zM212 -263h-102l46 200h121z" />
    <glyph glyph-name="uni021B" unicode="&#x21b;" horiz-adv-x="386" 
d="M367 376h-112l-37 -208c-9 -52 20 -56 104 -51l-20 -117c-168 -20 -237 33 -213 168l37 208h-87l22 124h86l18 101l136 39l-25 -140h114zM174 -263h-102l46 200h121z" />
    <glyph glyph-name="circumflex" unicode="&#x2c6;" horiz-adv-x="383" 
d="M335 700l81 -145h-126l-30 65l-58 -65h-128l131 145h130z" />
    <glyph glyph-name="caron" unicode="&#x2c7;" horiz-adv-x="383" 
d="M254 635l55 65h133l-131 -145h-131l-81 145h123z" />
    <glyph glyph-name="breve" unicode="&#x2d8;" horiz-adv-x="373" 
d="M245 547c-105 0 -163 56 -147 145h115c-6 -35 8 -52 42 -52c35 0 55 17 61 52h115c-15 -93 -79 -145 -186 -145z" />
    <glyph glyph-name="dotaccent" unicode="&#x2d9;" horiz-adv-x="175" 
d="M150 551c-43 0 -72 35 -64 78c7 41 47 77 90 77s72 -36 65 -77c-8 -43 -50 -78 -91 -78z" />
    <glyph glyph-name="ring" unicode="&#x2da;" horiz-adv-x="293" 
d="M197 539c-37 0 -65 12 -86 35c-21 24 -28 53 -22 87s22 62 49 83s58 32 95 32s65 -12 86 -36s28 -53 22 -86c-11 -68 -69 -115 -144 -115zM208 620c27 0 42 12 47 37c4 23 -9 38 -33 38c-26 0 -41 -12 -46 -37c-4 -21 8 -38 32 -38z" />
    <glyph glyph-name="ogonek" unicode="&#x2db;" horiz-adv-x="217" 
d="M35 -214c-57 0 -90 34 -81 90c7 38 36 79 89 124h110c-41 -36 -65 -67 -70 -94c-3 -19 3 -28 20 -28c9 -1 18 1 29 5l-14 -81c-28 -11 -56 -16 -83 -16z" />
    <glyph glyph-name="tilde" unicode="&#x2dc;" horiz-adv-x="379" 
d="M187 560h-104c17 156 124 176 200 121c33 -27 52 -24 60 24h104c-17 -155 -122 -176 -199 -121c-35 27 -53 24 -61 -24z" />
    <glyph glyph-name="hungarumlaut" unicode="&#x2dd;" horiz-adv-x="434" 
d="M74 555l101 138h135l-107 -138h-129zM247 555l111 138h135l-117 -138h-129z" />
    <glyph glyph-name="gravecomb" unicode="&#x300;" horiz-adv-x="0" 
d="M36 563h-122l-90 137h150z" />
    <glyph glyph-name="acutecomb" unicode="&#x301;" horiz-adv-x="0" 
d="M-199 563l100 137h158l-131 -137h-127z" />
    <glyph glyph-name="uni0302" unicode="&#x302;" horiz-adv-x="0" 
d="M-48 700l81 -145h-126l-30 65l-58 -65h-128l131 145h130z" />
    <glyph glyph-name="tildecomb" unicode="&#x303;" horiz-adv-x="0" 
d="M-201 560h-104c17 156 124 176 200 121c33 -27 52 -24 60 24h104c-17 -155 -122 -176 -199 -121c-35 27 -53 24 -61 -24z" />
    <glyph glyph-name="uni0304" unicode="&#x304;" horiz-adv-x="0" 
d="M36 564h-290l18 105h290z" />
    <glyph glyph-name="uni0306" unicode="&#x306;" horiz-adv-x="0" 
d="M-128 547c-105 0 -163 56 -147 145h115c-6 -35 8 -52 42 -52c35 0 55 17 61 52h115c-15 -93 -79 -145 -186 -145z" />
    <glyph glyph-name="uni0307" unicode="&#x307;" horiz-adv-x="0" 
d="M-44 551c-43 0 -72 35 -64 78c7 41 47 77 90 77s72 -36 65 -77c-8 -43 -50 -78 -91 -78z" />
    <glyph glyph-name="uni0308" unicode="&#x308;" horiz-adv-x="0" 
d="M-173 568c-32 -25 -75 -25 -96 0c-21 27 -14 69 17 96s73 27 96 0c21 -27 14 -69 -17 -96zM16 568c-31 -25 -74 -25 -95 0c-21 27 -14 69 17 96s74 27 95 0c23 -27 15 -69 -17 -96z" />
    <glyph glyph-name="uni030A" unicode="&#x30a;" horiz-adv-x="0" 
d="M-93 539c-37 0 -65 12 -86 35c-21 24 -28 53 -22 87s22 62 49 83s58 32 95 32s65 -12 86 -36s28 -53 22 -86c-11 -68 -69 -115 -144 -115zM-82 620c27 0 42 12 47 37c4 23 -9 38 -33 38c-26 0 -41 -12 -46 -37c-4 -21 8 -38 32 -38z" />
    <glyph glyph-name="uni030B" unicode="&#x30b;" horiz-adv-x="0" 
d="M-361 555l101 138h135l-107 -138h-129zM-188 555l111 138h135l-117 -138h-129z" />
    <glyph glyph-name="uni030C" unicode="&#x30c;" horiz-adv-x="0" 
d="M-129 635l55 65h133l-131 -145h-131l-81 145h123z" />
    <glyph glyph-name="uni0312" unicode="&#x312;" horiz-adv-x="0" 
d="M6 975h102l-46 -200h-121z" />
    <glyph glyph-name="uni0326" unicode="&#x326;" horiz-adv-x="0" 
d="M-141 -263h-102l46 200h121z" />
    <glyph glyph-name="uni0327" unicode="&#x327;" horiz-adv-x="0" 
d="M-135 0l-8 -46c36 -11 64 -41 56 -86c-13 -67 -91 -95 -236 -84l16 91c71 -5 108 2 112 20c2 15 -18 23 -59 25l14 80h105z" />
    <glyph glyph-name="uni0328" unicode="&#x328;" horiz-adv-x="0" 
d="M-189 -214c-57 0 -90 34 -81 90c7 38 36 79 89 124h110c-41 -36 -65 -67 -70 -94c-3 -19 3 -28 20 -28c9 -1 18 1 29 5l-14 -81c-28 -11 -56 -16 -83 -16z" />
    <glyph glyph-name="uni0394" unicode="&#x394;" horiz-adv-x="653" 
d="M320 700h171l115 -700h-648zM384 547l-206 -418h266z" />
    <glyph glyph-name="uni03A9" unicode="&#x3a9;" horiz-adv-x="778" 
d="M771 356c-16 -92 -62 -167 -139 -224h86l-23 -132h-277l23 132c97 29 173 113 190 218c12 67 0 122 -35 165s-85 65 -149 65c-65 0 -122 -22 -172 -65s-81 -98 -93 -165c-17 -105 26 -189 113 -218l-14 -81l-9 -51h-277l23 132h100c-64 66 -88 147 -71 243
c17 99 65 180 143 243c78 64 169 96 273 96c99 0 179 -35 241 -106s84 -155 67 -252z" />
    <glyph glyph-name="pi" unicode="&#x3c0;" horiz-adv-x="665" 
d="M67 500h620l-22 -121h-79l-67 -379h-129l67 379h-199l-67 -379h-129l67 379h-84z" />
    <glyph glyph-name="uni0401" unicode="&#x401;" horiz-adv-x="530" 
d="M322 768c-31 -25 -74 -25 -95 0c-21 27 -14 69 17 96s74 27 95 0c23 -27 15 -69 -17 -96zM512 768c-31 -25 -74 -25 -95 0c-21 27 -14 69 17 96s74 27 95 0c23 -27 15 -69 -17 -96zM572 700l-23 -132h-290l-27 -150h266l-24 -129h-264l-28 -157h295l-23 -132h-433
l123 700h428z" />
    <glyph glyph-name="uni0402" unicode="&#x402;" horiz-adv-x="693" 
d="M494 466c120 0 184 -75 163 -195l-13 -77c-28 -153 -105 -213 -254 -204l23 128c59 -4 82 17 93 76l11 63c9 63 -15 85 -71 85c-35 0 -71 -8 -108 -25l-56 -317h-137l100 568h-176l23 132h512l-23 -132h-199l-22 -124c47 15 91 22 134 22z" />
    <glyph glyph-name="uni0403" unicode="&#x403;" horiz-adv-x="475" 
d="M380 899h158l-131 -137h-127zM144 700h398l-23 -132h-260l-100 -568h-138z" />
    <glyph glyph-name="uni0404" unicode="&#x404;" horiz-adv-x="729" 
d="M368 121c87 0 154 34 203 102l113 -73c-76 -101 -196 -164 -325 -164c-211 -4 -346 174 -307 374c17 103 64 187 142 254c79 67 169 100 272 100c133 0 233 -62 280 -166l-126 -66c-31 65 -87 98 -167 98c-111 0 -204 -64 -245 -165h311l-24 -129h-310
c7 -100 76 -165 183 -165z" />
    <glyph glyph-name="uni0405" unicode="&#x405;" horiz-adv-x="586" 
d="M269 -14c-141 0 -235 66 -260 173l125 64c17 -69 66 -104 146 -104c73 0 116 29 124 73c11 51 -27 72 -124 104c-65 22 -115 50 -148 83c-33 34 -44 82 -33 143c11 63 41 111 89 143c49 33 104 49 166 49c115 0 199 -57 235 -156l-121 -64c-25 58 -66 87 -125 87
c-56 0 -95 -26 -104 -67c-11 -49 27 -72 119 -105c24 -9 36 -12 60 -23c31 -13 56 -27 81 -49c37 -33 60 -81 46 -157c-23 -125 -129 -194 -276 -194z" />
    <glyph glyph-name="uni0406" unicode="&#x406;" horiz-adv-x="268" 
d="M21 0l123 700h138l-123 -700h-138z" />
    <glyph glyph-name="uni0407" unicode="&#x407;" horiz-adv-x="268" 
d="M177 768c-31 -25 -74 -25 -95 0c-21 27 -14 69 17 96s74 27 95 0c23 -27 15 -69 -17 -96zM367 768c-31 -25 -74 -25 -95 0c-21 27 -14 69 17 96s74 27 95 0c23 -27 15 -69 -17 -96zM21 0l123 700h138l-123 -700h-138z" />
    <glyph glyph-name="uni0408" unicode="&#x408;" horiz-adv-x="566" 
d="M228 -14c-112 0 -185 46 -218 137l126 69c15 -51 47 -71 104 -71c73 0 116 32 127 97l85 482h138l-85 -482c-28 -156 -132 -232 -277 -232z" />
    <glyph glyph-name="uni0409" unicode="&#x409;" horiz-adv-x="962" 
d="M629 438h104c63 0 115 -22 154 -67c40 -44 54 -98 43 -161c-11 -64 -42 -115 -92 -153s-111 -57 -182 -57h-241l100 568h-187l-49 -278c-47 -268 -183 -305 -312 -292l22 128c81 -9 128 28 152 160l73 414h461zM711 309h-105l-31 -180h104c57 0 104 34 113 90
s-24 90 -81 90z" />
    <glyph glyph-name="uni040A" unicode="&#x40a;" horiz-adv-x="958" 
d="M626 438h103c63 0 115 -22 154 -67c40 -44 54 -98 43 -161c-11 -64 -42 -115 -92 -153s-111 -57 -182 -57h-241l54 309h-252l-54 -309h-138l123 700h138l-46 -262h252l46 262h138zM788 219c11 56 -24 90 -81 90h-104l-31 -180h103c57 0 104 34 113 90z" />
    <glyph glyph-name="uni040B" unicode="&#x40b;" horiz-adv-x="698" 
d="M487 466c124 0 190 -72 169 -195l-47 -271h-137l45 257c11 63 -17 85 -77 85c-38 0 -72 -8 -102 -24l-56 -318h-137l100 568h-176l23 132h512l-23 -132h-199l-22 -123c41 14 84 21 127 21z" />
    <glyph glyph-name="uni040C" unicode="&#x40c;" horiz-adv-x="614" 
d="M420 899h158l-131 -137h-127zM524 700h165l-337 -344l216 -356h-145l-205 338l-59 -338h-138l123 700h138l-53 -300z" />
    <glyph glyph-name="uni040E" unicode="&#x40e;" horiz-adv-x="600" 
d="M268 875h290l-19 -112h-290zM336 361l191 339h142l-289 -507c-84 -148 -179 -200 -310 -193l22 128c73 -7 120 22 160 86l-150 486h132z" />
    <glyph glyph-name="uni040F" unicode="&#x40f;" horiz-adv-x="653" 
d="M429 132l100 568h138l-123 -700h-193l-24 -134h-137l23 134h-192l123 700h138l-100 -568h247z" />
    <glyph glyph-name="uni0410" unicode="&#x410;" horiz-adv-x="668" 
d="M621 0h-149l-18 126h-280l-65 -126h-151l369 700h171zM393 547l-152 -292h194z" />
    <glyph glyph-name="uni0411" unicode="&#x411;" horiz-adv-x="586" 
d="M235 435h131c64 0 115 -22 152 -66c38 -44 51 -98 40 -161c-23 -129 -124 -208 -269 -208h-268l123 700h440l-23 -132h-302zM423 218c9 56 -25 88 -81 88h-129l-31 -177h129c55 0 101 33 112 89z" />
    <glyph glyph-name="uni0412" unicode="&#x412;" horiz-adv-x="605" 
d="M597 498c-9 -58 -38 -104 -89 -139c51 -36 72 -90 63 -161c-17 -117 -110 -198 -261 -198h-289l123 700h265c61 0 110 -19 147 -57s50 -86 41 -145zM393 571h-134l-27 -154h135c47 0 84 33 92 77c8 43 -17 77 -66 77zM436 212c8 48 -19 82 -70 82h-155l-29 -165h153
c52 0 92 35 101 83z" />
    <glyph glyph-name="uni0413" unicode="&#x413;" horiz-adv-x="475" 
d="M144 700h398l-23 -132h-260l-100 -568h-138z" />
    <glyph glyph-name="uni0414" unicode="&#x414;" horiz-adv-x="705" 
d="M220 700h462l-100 -568h75l-47 -266h-138l24 134h-388l-23 -134h-138l47 266h68c48 52 81 131 100 237zM215 132h229l78 439h-187l-36 -204c-18 -103 -46 -181 -84 -235z" />
    <glyph glyph-name="uni0415" unicode="&#x415;" horiz-adv-x="530" 
d="M572 700l-23 -132h-290l-27 -150h266l-24 -129h-264l-28 -157h295l-23 -132h-433l123 700h428z" />
    <glyph glyph-name="uni0416" unicode="&#x416;" horiz-adv-x="904" 
d="M804 700h160l-298 -355l182 -345h-145l-169 322l-56 -322h-137l56 319l-270 -319h-159l310 364l-181 336h145l167 -314l55 314h137l-55 -313z" />
    <glyph glyph-name="uni0417" unicode="&#x417;" horiz-adv-x="560" 
d="M554 501c-11 -64 -44 -112 -101 -145c61 -39 84 -95 70 -169c-23 -127 -125 -201 -284 -201c-128 0 -207 64 -239 165l126 65c17 -63 52 -100 133 -100c71 0 118 35 129 90s-25 88 -98 88h-87l22 123h65c69 0 116 33 125 85c9 51 -22 83 -87 83c-55 0 -99 -30 -134 -90
l-112 71c53 89 145 148 268 148c67 0 120 -20 160 -61s55 -91 44 -152z" />
    <glyph glyph-name="uni0418" unicode="&#x418;" horiz-adv-x="673" 
d="M126 0h-105l123 700h138l-74 -418l374 418h105l-123 -700h-138l74 418z" />
    <glyph glyph-name="uni0419" unicode="&#x419;" horiz-adv-x="673" 
d="M565 764h-290l19 112h290zM126 0h-105l123 700h138l-74 -418l374 418h105l-123 -700h-138l74 418z" />
    <glyph glyph-name="uni041A" unicode="&#x41a;" horiz-adv-x="614" 
d="M524 700h165l-337 -344l216 -356h-145l-205 338l-59 -338h-138l123 700h138l-53 -300z" />
    <glyph glyph-name="uni041B" unicode="&#x41b;" horiz-adv-x="676" 
d="M-33 -2l22 128c81 -9 128 28 152 160l73 414h476l-123 -700h-137l100 568h-202l-49 -278c-47 -269 -185 -305 -312 -292z" />
    <glyph glyph-name="uni041C" unicode="&#x41c;" horiz-adv-x="815" 
d="M677 700h152l-123 -700h-137l80 455l-258 -326h-16l-135 330l-81 -459h-138l123 700h141l132 -335z" />
    <glyph glyph-name="uni041D" unicode="&#x41d;" horiz-adv-x="665" 
d="M493 422l49 278h137l-123 -700h-137l51 290h-260l-51 -290h-138l123 700h138l-49 -278h260z" />
    <glyph glyph-name="uni041E" unicode="&#x41e;" horiz-adv-x="793" 
d="M354 -14c-101 0 -182 37 -241 110c-59 74 -80 162 -61 264c17 103 65 188 143 254c79 67 172 100 279 100c100 0 180 -37 239 -111c60 -74 81 -162 63 -264c-18 -103 -66 -188 -144 -254s-171 -99 -278 -99zM370 121c65 0 123 21 174 64s83 97 95 164
c11 67 -1 122 -36 165c-35 44 -85 66 -150 66s-122 -22 -172 -65c-49 -43 -80 -98 -92 -165s-1 -122 33 -165c35 -43 84 -64 148 -64z" />
    <glyph glyph-name="uni041F" unicode="&#x41f;" horiz-adv-x="653" 
d="M144 700h523l-123 -700h-138l100 568h-247l-100 -568h-138z" />
    <glyph glyph-name="uni0420" unicode="&#x420;" horiz-adv-x="590" 
d="M144 700h251c71 0 125 -23 164 -70c39 -46 53 -103 42 -172c-10 -67 -40 -122 -91 -165c-51 -42 -115 -63 -194 -63h-117l-40 -230h-138zM464 468c12 63 -19 103 -90 103h-115l-37 -212h108c73 0 122 44 134 109z" />
    <glyph glyph-name="uni0421" unicode="&#x421;" horiz-adv-x="729" 
d="M359 -14c-211 -4 -346 174 -307 374c17 103 64 187 142 254c79 67 169 100 272 100c133 0 233 -62 280 -166l-126 -66c-31 65 -87 98 -167 98c-67 0 -125 -21 -174 -64s-79 -98 -90 -166c-12 -67 -1 -122 32 -165s82 -64 147 -64c87 0 154 34 203 102l113 -73
c-76 -101 -196 -164 -325 -164z" />
    <glyph glyph-name="uni0422" unicode="&#x422;" horiz-adv-x="540" 
d="M92 700h515l-23 -132h-189l-100 -568h-138l100 568h-188z" />
    <glyph glyph-name="uni0423" unicode="&#x423;" horiz-adv-x="600" 
d="M336 361l191 339h142l-289 -507c-84 -148 -179 -200 -310 -193l22 128c73 -7 120 22 160 86l-150 486h132z" />
    <glyph glyph-name="uni0424" unicode="&#x424;" horiz-adv-x="820" 
d="M559 715l-15 -83c94 -12 166 -44 215 -96c50 -52 68 -117 54 -195c-14 -80 -54 -144 -119 -192s-149 -76 -250 -84l-14 -80h-134l15 83c-94 12 -166 44 -216 96c-49 52 -67 117 -53 195c14 80 54 144 119 192s149 76 250 84l14 80h134zM179 350c-17 -91 35 -144 154 -158
l56 317c-124 -14 -194 -67 -210 -159zM676 350c16 92 -35 145 -153 158l-56 -316c123 14 192 67 209 158z" />
    <glyph glyph-name="uni0425" unicode="&#x425;" horiz-adv-x="610" 
d="M502 700h163l-264 -347l153 -353h-149l-99 229l-174 -229h-164l279 366l-144 334h148l91 -210z" />
    <glyph glyph-name="uni0426" unicode="&#x426;" horiz-adv-x="690" 
d="M667 700l-100 -568h75l-47 -266h-138l24 134h-460l123 700h138l-100 -568h247l100 568h138z" />
    <glyph glyph-name="uni0427" unicode="&#x427;" horiz-adv-x="633" 
d="M453 383l56 317h138l-123 -700h-138l43 245c-39 -11 -78 -16 -117 -16c-163 0 -251 84 -227 221l44 250h138l-41 -232c-13 -76 19 -107 104 -107c44 0 85 7 123 22z" />
    <glyph glyph-name="uni0428" unicode="&#x428;" horiz-adv-x="943" 
d="M719 132l100 568h138l-123 -700h-813l123 700h138l-100 -568h200l100 568h137l-100 -568h200z" />
    <glyph glyph-name="uni0429" unicode="&#x429;" horiz-adv-x="980" 
d="M957 700l-100 -568h75l-47 -266h-138l24 134h-750l123 700h138l-100 -568h200l100 568h137l-100 -568h200l100 568h138z" />
    <glyph glyph-name="uni042A" unicode="&#x42a;" horiz-adv-x="693" 
d="M383 0h-259l99 568h-167l23 132h305l-40 -230h120c64 0 116 -25 156 -74s54 -106 43 -171c-12 -69 -43 -124 -93 -165c-50 -40 -112 -60 -187 -60zM321 341l-37 -212h122c60 0 109 45 120 106s-24 106 -84 106h-121z" />
    <glyph glyph-name="uni042B" unicode="&#x42b;" horiz-adv-x="831" 
d="M281 0h-260l123 700h138l-41 -230h121c63 0 115 -25 155 -74s55 -106 44 -171c-25 -139 -132 -225 -280 -225zM722 0h-137l123 700h137zM219 341l-38 -212h122c61 0 109 45 120 106s-24 106 -83 106h-121z" />
    <glyph glyph-name="uni042C" unicode="&#x42c;" horiz-adv-x="590" 
d="M242 470h120c63 0 115 -25 155 -74s55 -106 44 -171c-25 -139 -132 -225 -280 -225h-260l123 700h138zM340 341h-121l-37 -212h121c61 0 109 45 120 106s-24 106 -83 106z" />
    <glyph glyph-name="uni042D" unicode="&#x42d;" horiz-adv-x="725" 
d="M406 714c106 0 187 -36 243 -109c57 -73 76 -161 59 -264s-63 -188 -139 -255c-75 -67 -166 -100 -271 -100c-132 0 -239 62 -284 167l127 66c27 -63 88 -98 169 -98c111 0 202 65 242 165h-311l24 129h310c-7 101 -74 165 -182 165c-85 0 -152 -35 -202 -104l-111 72
c72 103 195 166 326 166z" />
    <glyph glyph-name="uni042E" unicode="&#x42e;" horiz-adv-x="1056" 
d="M737 714c100 0 180 -37 239 -111c60 -74 81 -162 63 -264c-19 -103 -68 -187 -147 -254c-79 -66 -170 -99 -275 -99c-89 0 -163 29 -220 88s-85 133 -84 220h-102l-52 -294h-138l123 700h138l-48 -274h102c29 86 80 155 153 208s156 80 248 80zM901 349
c12 67 0 122 -35 165c-35 44 -85 66 -150 66s-122 -22 -172 -65s-81 -98 -92 -165c-12 -67 -1 -122 33 -165s83 -64 147 -64c65 0 124 21 175 64s83 97 94 164z" />
    <glyph glyph-name="uni042F" unicode="&#x42f;" horiz-adv-x="624" 
d="M363 700h275l-123 -700h-138l43 243h-70l-200 -243h-168l219 259c-89 35 -130 124 -114 220c11 61 41 113 90 156s111 65 186 65zM309 364h132l36 207h-133c-60 0 -111 -44 -122 -103s28 -104 87 -104z" />
    <glyph glyph-name="uni0430" unicode="&#x430;" horiz-adv-x="627" 
d="M471 433l12 67h129l-88 -500h-129l8 46c-43 -40 -99 -60 -166 -60c-75 0 -131 28 -168 83s-48 120 -34 193c13 71 45 131 96 179c52 49 114 73 186 73c71 0 122 -27 154 -81zM277 109c77 0 144 53 161 133l2 16c11 81 -40 133 -116 133c-79 0 -145 -53 -160 -140
c-15 -84 33 -142 113 -142z" />
    <glyph glyph-name="uni0431" unicode="&#x431;" horiz-adv-x="567" 
d="M258 -14c-78 0 -138 25 -181 76s-57 115 -44 193c10 58 22 105 37 140c29 71 93 133 206 184l52 23l46 20l36 18c38 22 57 40 79 79l98 -61c-16 -41 -41 -72 -76 -95c-34 -22 -83 -45 -148 -68c-91 -33 -129 -63 -153 -107c43 36 94 54 154 54c53 0 99 -22 137 -66
c39 -43 52 -98 40 -164c-11 -68 -43 -123 -94 -164s-114 -62 -189 -62zM309 339c-33 0 -65 -10 -94 -31c-29 -20 -46 -47 -52 -82c-7 -35 0 -65 21 -88s49 -34 85 -34s68 11 95 33s44 50 50 84c12 68 -32 118 -105 118z" />
    <glyph glyph-name="uni0432" unicode="&#x432;" horiz-adv-x="511" 
d="M486 352c-8 -47 -30 -80 -66 -100c42 -27 58 -66 49 -117c-16 -85 -80 -135 -191 -135h-263l88 500h243c48 0 85 -14 111 -43c27 -29 36 -64 29 -105zM315 394h-110l-15 -90h108c38 0 59 15 64 45c5 29 -11 45 -47 45zM346 157c5 28 -13 45 -48 45h-126l-17 -93h127
c33 0 59 17 64 48z" />
    <glyph glyph-name="uni0433" unicode="&#x433;" horiz-adv-x="403" 
d="M103 500h342l-21 -124h-214l-66 -376h-129l66 376z" />
    <glyph glyph-name="uni0434" unicode="&#x434;" horiz-adv-x="598" 
d="M161 500h392l-67 -379h67l-46 -255h-126l24 134h-311l-23 -134h-127l46 255h62c35 42 60 101 74 177zM192 121h168l47 263h-140l-15 -86c-13 -74 -33 -133 -60 -177z" />
    <glyph glyph-name="uni0435" unicode="&#x435;" horiz-adv-x="583" 
d="M551 250c-1 -15 -6 -32 -14 -53h-378c5 -64 53 -94 120 -94c50 0 91 17 123 51l91 -73c-56 -63 -131 -95 -224 -95c-83 0 -146 26 -189 79s-58 118 -45 195c11 73 45 133 102 181c57 49 122 73 196 73s132 -26 175 -77s57 -113 43 -187zM177 298h254
c-1 68 -45 100 -106 100c-67 0 -120 -36 -148 -100z" />
    <glyph glyph-name="uni0436" unicode="&#x436;" horiz-adv-x="746" 
d="M628 500h143l-220 -252l138 -248h-131l-126 230l-41 -230h-126l40 228l-198 -228h-139l230 265l-130 235h129l118 -216l38 216h126l-38 -219z" />
    <glyph glyph-name="uni0437" unicode="&#x437;" horiz-adv-x="451" 
d="M426 357c-9 -49 -34 -85 -73 -107c45 -29 63 -70 54 -122c-16 -87 -91 -142 -220 -142c-105 0 -169 40 -194 120l111 57c12 -42 44 -63 97 -63c49 0 77 17 84 52c5 28 -12 46 -51 46h-72l20 110h53c38 0 60 15 67 46c5 29 -16 48 -55 48c-43 0 -77 -21 -102 -62l-98 61
c53 75 123 113 212 113c57 0 101 -16 132 -48c31 -31 42 -68 35 -109z" />
    <glyph glyph-name="uni0438" unicode="&#x438;" 
d="M180 222l284 278h96l-88 -500h-126l49 278l-284 -278h-96l88 500h126z" />
    <glyph glyph-name="uni0439" unicode="&#x439;" 
d="M489 564h-290l19 112h290zM180 222l284 278h96l-88 -500h-126l49 278l-284 -278h-96l88 500h126z" />
    <glyph glyph-name="uni043A" unicode="&#x43a;" horiz-adv-x="517" 
d="M397 500h153l-241 -247l159 -253h-140l-143 235l-41 -235h-129l88 500h129l-37 -211z" />
    <glyph glyph-name="uni043B" unicode="&#x43b;" horiz-adv-x="546" 
d="M136 500h396l-88 -500h-129l66 376h-138l-29 -167c-29 -165 -110 -225 -247 -209l20 121c53 -11 86 21 99 95z" />
    <glyph glyph-name="uni043C" unicode="&#x43c;" horiz-adv-x="638" 
d="M487 500h136l-88 -500h-125l52 293l-164 -201h-15l-92 202l-52 -294h-124l88 500h126l88 -214z" />
    <glyph glyph-name="uni043D" unicode="&#x43d;" 
d="M398 311l33 189h129l-88 -500h-129l33 190h-199l-33 -190h-129l88 500h129l-33 -189h199z" />
    <glyph glyph-name="uni043E" unicode="&#x43e;" horiz-adv-x="594" 
d="M264 -14c-83 0 -145 28 -187 83c-42 56 -56 122 -41 197c14 71 49 130 104 177s121 71 198 71s137 -28 178 -84c42 -55 56 -120 43 -193c-12 -71 -46 -130 -103 -179c-56 -48 -120 -72 -192 -72zM273 112c38 0 72 13 102 38c31 25 49 59 56 101c16 83 -33 137 -109 137
c-75 0 -141 -54 -157 -138c-15 -84 33 -138 108 -138z" />
    <glyph glyph-name="uni043F" unicode="&#x43f;" 
d="M103 500h457l-88 -500h-129l67 379h-199l-67 -379h-129z" />
    <glyph glyph-name="uni0440" unicode="&#x440;" horiz-adv-x="627" 
d="M389 514c71 0 125 -28 163 -83c39 -55 52 -118 40 -191c-11 -71 -41 -131 -92 -180s-112 -74 -184 -74c-73 0 -127 28 -160 84l-47 -270h-129l123 700h129l-9 -52c44 44 99 66 166 66zM463 249c15 84 -32 142 -112 142c-76 0 -141 -51 -161 -127l-4 -25
c-9 -80 42 -130 118 -130c39 0 73 12 103 37s49 60 56 103z" />
    <glyph glyph-name="uni0441" unicode="&#x441;" horiz-adv-x="540" 
d="M263 -14c-77 0 -138 26 -182 79c-43 53 -59 118 -46 195c11 73 45 134 101 182c57 48 123 72 198 72c103 0 179 -51 211 -130l-117 -62c-18 43 -53 65 -105 65c-39 0 -73 -13 -104 -38c-30 -25 -48 -57 -55 -96c-13 -80 33 -139 110 -139c52 0 93 22 124 67l104 -67
c-51 -83 -140 -128 -239 -128z" />
    <glyph glyph-name="uni0442" unicode="&#x442;" horiz-adv-x="463" 
d="M54 500h443l-22 -124h-156l-66 -376h-129l66 376h-157z" />
    <glyph glyph-name="uni0443" unicode="&#x443;" horiz-adv-x="525" 
d="M253 163l171 337h143l-270 -500c-81 -152 -175 -207 -300 -200l21 120c71 -1 106 22 142 93l3 5l-116 482h132z" />
    <glyph glyph-name="uni0444" unicode="&#x444;" horiz-adv-x="686" 
d="M485 700l-34 -194c71 -13 125 -44 162 -94c37 -49 49 -106 38 -171c-11 -67 -43 -123 -94 -168s-117 -72 -196 -82l-34 -191h-126l34 194c-71 13 -126 44 -163 93c-37 50 -49 107 -38 172c11 67 43 123 94 168c52 45 118 73 197 82l34 191h126zM525 250
c12 68 -22 118 -95 135l-48 -270c81 17 132 68 143 135zM160 250c-11 -67 23 -118 96 -135l48 270c-80 -17 -132 -67 -144 -135z" />
    <glyph glyph-name="uni0445" unicode="&#x445;" horiz-adv-x="525" 
d="M403 500h153l-220 -249l140 -251h-140l-86 154l-136 -154h-153l230 260l-134 240h140l80 -143z" />
    <glyph glyph-name="uni0446" unicode="&#x446;" horiz-adv-x="605" 
d="M543 500l-67 -379h84l-45 -255h-126l24 134h-398l88 500h129l-67 -379h182l67 379h129z" />
    <glyph glyph-name="uni0447" unicode="&#x447;" horiz-adv-x="541" 
d="M360 281l38 219h129l-88 -500h-129l28 157c-43 -11 -82 -16 -117 -16c-121 0 -193 71 -173 180l31 179h129l-29 -164c-8 -48 18 -75 77 -75c31 0 65 7 104 20z" />
    <glyph glyph-name="uni0448" unicode="&#x448;" horiz-adv-x="833" 
d="M622 121l67 379h129l-88 -500h-715l88 500h129l-67 -379h164l67 379h129l-67 -379h164z" />
    <glyph glyph-name="uni0449" unicode="&#x449;" horiz-adv-x="848" 
d="M674 500h129l-67 -379h67l-46 -255h-126l24 134h-640l88 500h129l-67 -379h156l67 379h129l-67 -379h157z" />
    <glyph glyph-name="uni044A" unicode="&#x44a;" horiz-adv-x="574" 
d="M281 340h98c53 0 94 -17 124 -52c31 -34 42 -76 33 -127c-19 -103 -96 -161 -217 -161h-227l66 376h-135l21 124h265zM359 227h-98l-20 -113h98c36 0 67 23 72 56s-16 57 -52 57z" />
    <glyph glyph-name="uni044B" unicode="&#x44b;" horiz-adv-x="717" 
d="M204 340h97c53 0 94 -17 124 -52c31 -34 42 -76 33 -127c-19 -103 -96 -161 -217 -161h-226l88 500h129zM485 0l88 500h129l-88 -500h-129zM282 227h-98l-20 -113h98c36 0 67 23 72 56s-16 57 -52 57z" />
    <glyph glyph-name="uni044C" unicode="&#x44c;" horiz-adv-x="497" 
d="M204 340h97c53 0 94 -17 124 -52c31 -34 42 -76 33 -127c-19 -103 -96 -161 -217 -161h-226l88 500h129zM282 227h-98l-20 -113h98c36 0 67 23 72 56s-16 57 -52 57z" />
    <glyph glyph-name="uni044D" unicode="&#x44d;" horiz-adv-x="540" 
d="M281 514c75 0 135 -27 178 -81c44 -54 59 -118 46 -193s-47 -137 -102 -184s-121 -70 -199 -70c-97 0 -179 51 -210 130l114 60c17 -44 54 -66 111 -66s110 31 141 82h-169l21 116h168c-11 51 -52 82 -112 82c-55 0 -98 -23 -129 -68l-101 64c52 79 144 128 243 128z" />
    <glyph glyph-name="uni044E" unicode="&#x44e;" horiz-adv-x="811" 
d="M557 514c77 0 136 -28 177 -84c41 -55 55 -120 42 -193c-12 -71 -46 -130 -102 -179c-56 -48 -120 -72 -192 -72c-67 0 -121 19 -162 57c-41 39 -63 88 -68 147h-75l-33 -190h-129l88 500h129l-33 -189h70c21 60 58 109 109 146c51 38 111 57 179 57zM650 251
c15 83 -35 137 -111 137s-143 -54 -159 -138c-13 -84 35 -138 110 -138c38 0 72 13 103 38s50 59 57 101z" />
    <glyph glyph-name="uni044F" unicode="&#x44f;" horiz-adv-x="519" 
d="M270 500h234l-88 -500h-126l27 156h-45l-139 -156h-152l159 174c-60 31 -93 98 -81 163c8 47 31 85 68 116s85 47 143 47zM184 324c-5 -33 16 -59 55 -59h98l21 120h-98c-39 0 -69 -26 -76 -61z" />
    <glyph glyph-name="uni0451" unicode="&#x451;" horiz-adv-x="583" 
d="M311 572c-31 -25 -74 -25 -95 0c-21 27 -14 69 17 96s74 27 95 0c23 -27 15 -69 -17 -96zM501 572c-31 -25 -74 -25 -95 0c-21 27 -14 69 17 96s74 27 95 0c23 -27 15 -69 -17 -96zM551 250c-1 -15 -6 -32 -14 -53h-378c5 -64 53 -94 120 -94c50 0 91 17 123 51l91 -73
c-56 -63 -131 -95 -224 -95c-83 0 -146 26 -189 79s-58 118 -45 195c11 73 45 133 102 181c57 49 122 73 196 73s132 -26 175 -77s57 -113 43 -187zM177 298h254c-1 68 -45 100 -106 100c-67 0 -120 -36 -148 -100z" />
    <glyph glyph-name="uni0452" unicode="&#x452;" horiz-adv-x="581" 
d="M384 514c55 0 98 -19 129 -56s41 -88 30 -151l-56 -317c-28 -153 -105 -212 -254 -204l23 124c59 -4 91 20 102 80l53 301c12 68 -21 103 -82 103c-65 0 -118 -40 -131 -124v3l-48 -273h-129l97 554h-62l15 84h62l11 62h129l-11 -62h142l-15 -84h-142l-19 -109
c39 46 91 69 156 69z" />
    <glyph glyph-name="uni0453" unicode="&#x453;" horiz-adv-x="403" 
d="M290 700h158l-131 -137h-127zM81 376l22 124h342l-21 -124h-214l-66 -376h-129z" />
    <glyph glyph-name="uni0454" unicode="&#x454;" horiz-adv-x="540" 
d="M268 110c58 0 102 23 132 68l102 -64c-52 -79 -144 -128 -243 -128c-75 0 -135 27 -179 81c-43 54 -58 118 -45 193s48 136 103 183c56 47 122 71 197 71c97 0 179 -51 210 -130l-113 -59c-18 43 -54 65 -109 65c-59 0 -111 -33 -142 -82h167l-21 -116h-167
c12 -49 53 -82 108 -82z" />
    <glyph glyph-name="uni0455" unicode="&#x455;" horiz-adv-x="470" 
d="M206 -14c-102 0 -170 41 -203 123l116 58c13 -43 46 -64 98 -64c43 0 68 13 73 39c4 28 -35 43 -84 58c-71 18 -162 55 -142 167c9 47 32 83 71 108c39 26 83 39 132 39c87 0 155 -39 186 -106l-116 -58c-12 33 -38 50 -77 50s-61 -14 -67 -43c-5 -31 33 -46 82 -59
c73 -17 165 -48 143 -166c-17 -97 -100 -146 -212 -146z" />
    <glyph glyph-name="uni0456" unicode="&#x456;" horiz-adv-x="247" 
d="M113 639c7 44 48 80 92 80s74 -37 67 -80c-8 -44 -49 -79 -93 -79s-73 36 -66 79zM144 0h-129l88 500h129z" />
    <glyph glyph-name="uni0457" unicode="&#x457;" horiz-adv-x="247" 
d="M131 568c-31 -25 -74 -25 -95 0c-21 27 -14 69 17 96s74 27 95 0c23 -27 15 -69 -17 -96zM321 568c-31 -25 -74 -25 -95 0c-21 27 -14 69 17 96s74 27 95 0c23 -27 15 -69 -17 -96zM144 0h-129l88 500h129z" />
    <glyph glyph-name="uni0458" unicode="&#x458;" horiz-adv-x="264" 
d="M289 639c-7 -44 -48 -79 -93 -79c-44 0 -73 36 -66 79c7 44 48 80 92 80s74 -37 67 -80zM30 -10l90 510h129l-90 -510c-27 -156 -104 -213 -253 -204l22 124c59 -4 93 23 102 80z" />
    <glyph glyph-name="uni0459" unicode="&#x459;" horiz-adv-x="772" 
d="M492 328h92c49 0 89 -16 118 -49s39 -74 30 -124c-17 -100 -94 -155 -206 -155h-221l66 376h-128l-29 -167c-29 -165 -110 -225 -247 -209l20 121c53 -10 86 22 99 95l50 284h386zM608 164c5 32 -15 50 -44 50h-92l-18 -100h93c29 0 54 18 61 50z" />
    <glyph glyph-name="uni045A" unicode="&#x45a;" horiz-adv-x="798" 
d="M518 328h92c49 0 89 -16 118 -49s39 -74 30 -124c-17 -100 -94 -155 -206 -155h-221l36 207h-187l-36 -207h-129l88 500h129l-30 -172h187l30 172h129zM591 214h-93l-18 -100h93c29 0 56 18 61 50s-14 50 -43 50z" />
    <glyph glyph-name="uni045B" unicode="&#x45b;" horiz-adv-x="581" 
d="M384 514c55 0 98 -19 129 -56s41 -88 30 -151l-54 -307h-129l51 291c12 68 -21 103 -82 103c-65 0 -118 -40 -131 -124v3l-48 -273h-129l97 554h-62l15 84h62l11 62h129l-11 -62h142l-15 -84h-142l-19 -109c39 46 91 69 156 69z" />
    <glyph glyph-name="uni045C" unicode="&#x45c;" horiz-adv-x="517" 
d="M345 700h158l-131 -137h-127zM397 500h153l-241 -247l159 -253h-140l-143 235l-41 -235h-129l88 500h129l-37 -211z" />
    <glyph glyph-name="uni045E" unicode="&#x45e;" horiz-adv-x="525" 
d="M178 676h290l-19 -112h-290zM253 163l171 337h143l-270 -500c-81 -152 -175 -207 -300 -200l21 120c71 -1 106 22 142 93l3 5l-116 482h132z" />
    <glyph glyph-name="uni045F" unicode="&#x45f;" 
d="M364 121l67 379h129l-88 -500h-165l-24 -134h-126l24 134h-166l88 500h129l-67 -379h199z" />
    <glyph glyph-name="uni0490" unicode="&#x490;" horiz-adv-x="475" 
d="M405 700l21 120h138l-45 -252h-260l-100 -568h-138l123 700h261z" />
    <glyph glyph-name="uni0491" unicode="&#x491;" horiz-adv-x="403" 
d="M319 500l18 101h126l-39 -225h-214l-66 -376h-129l66 376l22 124h216z" />
    <glyph glyph-name="Wgrave" unicode="&#x1e80;" horiz-adv-x="999" 
d="M667 763h-122l-90 137h150zM167 0h157l212 462l51 -462h157l319 700h-149l-226 -519l-56 519h-118l-238 -519l-45 519h-137z" />
    <glyph glyph-name="wgrave" unicode="&#x1e81;" horiz-adv-x="778" 
d="M460 700l62 -137h-122l-90 137h150zM528 192l137 308h142l-247 -500h-123l-39 302l-138 -302h-130l-71 500h129l36 -307l140 307h125z" />
    <glyph glyph-name="Wacute" unicode="&#x1e82;" horiz-adv-x="999" 
d="M510 763l100 137h158l-131 -137h-127zM167 0h157l212 462l51 -462h157l319 700h-149l-226 -519l-56 519h-118l-238 -519l-45 519h-137z" />
    <glyph glyph-name="wacute" unicode="&#x1e83;" horiz-adv-x="778" 
d="M465 700h158l-131 -137h-127zM528 192l137 308h142l-247 -500h-123l-39 302l-138 -302h-130l-71 500h129l36 -307l140 307h125z" />
    <glyph glyph-name="Wdieresis" unicode="&#x1e84;" horiz-adv-x="999" 
d="M542 768c-31 -25 -74 -25 -95 0c-21 27 -14 69 17 96s74 27 95 0c23 -27 15 -69 -17 -96zM732 768c-31 -25 -74 -25 -95 0c-21 27 -14 69 17 96s74 27 95 0c23 -27 15 -69 -17 -96zM324 0h-157l-73 700h137l45 -519l238 519h118l56 -519l226 519h149l-319 -700h-157
l-51 462z" />
    <glyph glyph-name="wdieresis" unicode="&#x1e85;" horiz-adv-x="778" 
d="M397 568c-31 -25 -74 -25 -95 0c-21 27 -14 69 17 96s74 27 95 0c23 -27 15 -69 -17 -96zM587 568c-31 -25 -74 -25 -95 0c-21 27 -14 69 17 96s74 27 95 0c23 -27 15 -69 -17 -96zM528 192l137 308h142l-247 -500h-123l-39 302l-138 -302h-130l-71 500h129l36 -307
l140 307h125z" />
    <glyph glyph-name="Ygrave" unicode="&#x1ef2;" horiz-adv-x="601" 
d="M406 900l62 -137h-122l-90 137h150zM514 700h164l-298 -390l-55 -310h-137l55 312l-161 388h147l98 -258z" />
    <glyph glyph-name="ygrave" unicode="&#x1ef3;" horiz-adv-x="525" 
d="M319 700l62 -137h-122l-90 137h150zM253 163l171 337h143l-270 -500c-81 -152 -175 -207 -300 -200l21 120c71 -1 106 22 142 93l3 5l-116 482h132z" />
    <glyph glyph-name="endash" unicode="&#x2013;" horiz-adv-x="624" 
d="M557 240h-494l22 124h493z" />
    <glyph glyph-name="emdash" unicode="&#x2014;" horiz-adv-x="724" 
d="M657 240h-594l22 124h593z" />
    <glyph glyph-name="quoteleft" unicode="&#x2018;" horiz-adv-x="278" 
d="M219 422h-140l124 278h105z" />
    <glyph glyph-name="quoteright" unicode="&#x2019;" horiz-adv-x="278" 
d="M168 701h140l-124 -278h-105z" />
    <glyph glyph-name="quotesinglbase" unicode="&#x201a;" horiz-adv-x="278" 
d="M69 138h140l-124 -278h-105z" />
    <glyph glyph-name="quotedblleft" unicode="&#x201c;" horiz-adv-x="463" 
d="M219 422h-140l124 278h105zM404 422h-140l124 278h105z" />
    <glyph glyph-name="quotedblright" unicode="&#x201d;" horiz-adv-x="463" 
d="M168 701h140l-124 -278h-105zM353 701h140l-124 -278h-105z" />
    <glyph glyph-name="quotedblbase" unicode="&#x201e;" horiz-adv-x="463" 
d="M69 138h140l-124 -278h-105zM254 138h140l-124 -278h-105z" />
    <glyph glyph-name="dagger" unicode="&#x2020;" horiz-adv-x="480" 
d="M360 565h130l-21 -124h-131l-77 -441h-129l77 441h-130l21 124h131l24 135h129z" />
    <glyph glyph-name="daggerdbl" unicode="&#x2021;" horiz-adv-x="480" 
d="M490 565l-21 -124h-131l-31 -182h129l-21 -124h-130l-24 -135h-129l24 135h-131l21 124h132l31 182h-130l21 124h131l24 135h129l-24 -135h130z" />
    <glyph glyph-name="bullet" unicode="&#x2022;" horiz-adv-x="360" 
d="M174 213c-38 0 -68 14 -90 42c-22 29 -29 62 -22 101c7 38 25 69 56 94s66 38 106 38c37 0 67 -14 88 -42c22 -27 30 -60 23 -98c-15 -77 -81 -135 -161 -135z" />
    <glyph glyph-name="ellipsis" unicode="&#x2026;" horiz-adv-x="723" 
d="M87 -13c-47 0 -77 39 -69 87s50 83 99 83c47 0 79 -40 70 -87c-8 -47 -49 -83 -100 -83zM315 -13c-47 0 -77 39 -69 87s50 83 99 83c47 0 79 -40 70 -87c-8 -47 -49 -83 -100 -83zM542 -13c-47 0 -77 39 -69 87s50 83 99 83c47 0 79 -40 70 -87c-8 -47 -49 -83 -100 -83z
" />
    <glyph glyph-name="perthousand" unicode="&#x2030;" horiz-adv-x="1139" 
d="M242 384c-49 0 -86 16 -113 49s-37 71 -31 115c7 45 27 84 62 117s79 49 132 49c50 0 88 -18 115 -54s35 -77 26 -123c-9 -43 -31 -80 -65 -109s-76 -44 -126 -44zM148 69l-59 38l545 508l59 -37zM214 503c19 -24 61 -24 88 0c28 25 36 67 17 91s-61 24 -89 0
c-27 -24 -35 -66 -16 -91zM510 -12c-49 0 -87 17 -114 51c-26 34 -35 73 -28 117c7 45 27 83 62 114c35 32 79 48 131 48c49 0 87 -18 114 -53s36 -75 27 -120c-9 -44 -30 -81 -65 -112c-34 -30 -76 -45 -127 -45zM884 -12c-49 0 -87 17 -114 51c-26 34 -36 73 -29 117
c7 45 28 84 63 115s78 47 131 47c49 0 87 -18 114 -53s36 -75 27 -120c-9 -44 -30 -81 -65 -112c-34 -30 -76 -45 -127 -45zM523 89c37 0 67 29 74 64c7 37 -14 64 -51 64c-36 0 -65 -28 -72 -64s13 -64 49 -64zM971 153c7 36 -15 64 -51 64s-66 -28 -73 -64s14 -64 50 -64
s67 29 74 64z" />
    <glyph glyph-name="guilsinglleft" unicode="&#x2039;" horiz-adv-x="356" 
d="M214 497h123l-144 -192l75 -183h-118l-77 187z" />
    <glyph glyph-name="guilsinglright" unicode="&#x203a;" horiz-adv-x="357" 
d="M109 496h118l77 -187l-141 -188h-123l144 192z" />
    <glyph glyph-name="fraction" unicode="&#x2044;" horiz-adv-x="190" 
d="M419 700l-518 -700h-95l518 700h95z" />
    <glyph glyph-name="Euro" unicode="&#x20ac;" horiz-adv-x="616" 
d="M336 121c52 0 96 27 131 81l108 -66c-58 -100 -144 -150 -258 -150c-145 0 -229 106 -229 271h-70l14 78h61l4 24l3 15h-62l14 77h68c53 165 167 263 316 263c99 0 174 -56 206 -145l-120 -63c-19 49 -54 74 -105 74c-69 0 -121 -43 -155 -129h205l-14 -77h-214
c-3 -11 -4 -19 -5 -24c-1 -7 -2 -12 -2 -15h215l-14 -78h-207c1 -91 38 -136 110 -136z" />
    <glyph glyph-name="uni20BD" unicode="&#x20bd;" horiz-adv-x="602" 
d="M167 700h261c62 0 113 -24 152 -73c39 -48 53 -104 42 -168c-11 -65 -42 -118 -91 -157s-110 -59 -183 -59h-124l-10 -55h223l-16 -88h-222l-18 -100h-137l18 100h-76l16 88h75l10 55h-75l21 121h75zM406 571h-125l-36 -207h124c56 0 106 45 117 104s-24 103 -80 103z
" />
    <glyph glyph-name="uni2116" unicode="&#x2116;" horiz-adv-x="1040" 
d="M864 383c-47 0 -85 17 -112 50c-27 34 -37 74 -28 120c7 46 29 84 66 114c37 31 80 46 129 46c47 0 84 -17 111 -50s37 -73 29 -120c-8 -46 -30 -84 -66 -115c-35 -30 -78 -45 -129 -45zM159 0h-138l123 700h104l225 -437l76 437h138l-123 -700h-104l-224 437zM950 548
c7 35 -13 60 -48 60s-62 -25 -69 -60s12 -60 48 -60s64 25 69 60zM989 208h-312l21 121h312z" />
    <glyph glyph-name="trademark" unicode="&#x2122;" horiz-adv-x="474" 
d="M283 700l-10 -56h-55l-25 -144h-60l25 144h-56l10 56h171zM454 700h66l-35 -200h-58l19 108l-61 -72h-5l-34 72l-19 -108h-58l35 200h58l32 -77z" />
    <glyph glyph-name="estimated" unicode="&#x212e;" horiz-adv-x="790" 
d="M476 710c107 0 190 -35 247 -105c58 -69 78 -154 60 -255c-2 -10 -8 -15 -18 -15h-560c-10 0 -16 -5 -18 -15l-33 -192c-2 -7 -1 -14 3 -19c46 -59 119 -89 218 -89c95 0 179 32 250 97c6 6 12 9 19 9h35c13 0 17 -10 6 -19c-87 -78 -192 -117 -316 -117
c-115 0 -203 36 -263 108c-59 72 -80 159 -62 262c18 101 67 185 146 251c80 66 175 99 286 99zM638 380l35 194c1 7 -1 14 -4 19c-45 58 -111 87 -198 87c-86 0 -162 -30 -229 -89c-6 -6 -9 -12 -10 -19l-34 -192c-2 -10 2 -15 12 -15h410c10 0 16 5 18 15z" />
    <glyph glyph-name="oneeighth" unicode="&#x215b;" horiz-adv-x="806" 
d="M73 0l518 700h95l-518 -700h-95zM118 300l51 285l-85 -23l-10 95l128 43h94l-71 -400h-107zM779 290c-6 -36 -26 -64 -59 -83c33 -25 46 -59 40 -102c-12 -75 -75 -119 -172 -119c-92 0 -147 52 -134 127c7 44 33 77 77 99c-27 22 -37 51 -31 87c13 73 75 115 159 115
c39 0 71 -12 94 -35c24 -23 33 -52 26 -89zM590 285c-5 -25 11 -39 42 -39s49 13 54 39c4 24 -12 38 -41 38c-33 0 -51 -13 -55 -38zM662 124c5 28 -12 45 -44 45c-35 0 -56 -15 -61 -45c-5 -28 11 -46 44 -46c35 0 56 15 61 46z" />
    <glyph glyph-name="threeeighths" unicode="&#x215c;" horiz-adv-x="887" 
d="M349 414c-15 -85 -77 -128 -173 -128c-75 0 -123 30 -144 89l94 50c11 -30 31 -45 62 -45c32 0 50 14 54 41c5 25 -12 40 -44 40h-19l-29 57l81 85h-142l17 97h275l-14 -79l-85 -88c51 -20 76 -64 67 -119zM154 0l518 700h95l-518 -700h-95zM860 290
c-6 -36 -26 -64 -59 -83c33 -25 46 -59 40 -102c-12 -75 -75 -119 -172 -119c-92 0 -147 52 -134 127c7 44 33 77 77 99c-27 22 -37 51 -31 87c13 73 75 115 159 115c39 0 71 -12 94 -35c24 -23 33 -52 26 -89zM671 285c-5 -25 11 -39 42 -39s49 13 54 39
c4 24 -12 38 -41 38c-33 0 -51 -13 -55 -38zM743 124c5 28 -12 45 -44 45c-35 0 -56 -15 -61 -45c-5 -28 11 -46 44 -46c35 0 56 15 61 46z" />
    <glyph glyph-name="fiveeighths" unicode="&#x215d;" horiz-adv-x="874" 
d="M342 411c-15 -84 -77 -125 -166 -125c-72 0 -119 30 -140 89l92 48c10 -30 30 -45 61 -45c33 0 51 14 56 41c4 25 -10 43 -41 43h-132l59 238h242l-17 -97h-151l-13 -54h32c79 0 133 -51 118 -138zM141 0l518 700h95l-518 -700h-95zM847 290c-6 -36 -26 -64 -59 -83
c33 -25 46 -59 40 -102c-12 -75 -75 -119 -172 -119c-92 0 -147 52 -134 127c7 44 33 77 77 99c-27 22 -37 51 -31 87c13 73 75 115 159 115c39 0 71 -12 94 -35c24 -23 33 -52 26 -89zM658 285c-5 -25 11 -39 42 -39s49 13 54 39c4 24 -12 38 -41 38c-33 0 -51 -13 -55 -38
zM730 124c5 28 -12 45 -44 45c-35 0 -56 -15 -61 -45c-5 -28 11 -46 44 -46c35 0 56 15 61 46z" />
    <glyph glyph-name="seveneighths" unicode="&#x215e;" horiz-adv-x="834" 
d="M344 618l-179 -318h-114l171 303h-157l17 97h276zM101 0l518 700h95l-518 -700h-95zM807 290c-6 -36 -26 -64 -59 -83c33 -25 46 -59 40 -102c-12 -75 -75 -119 -172 -119c-92 0 -147 52 -134 127c7 44 33 77 77 99c-27 22 -37 51 -31 87c13 73 75 115 159 115
c39 0 71 -12 94 -35c24 -23 33 -52 26 -89zM618 285c-5 -25 11 -39 42 -39s49 13 54 39c4 24 -12 38 -41 38c-33 0 -51 -13 -55 -38zM690 124c5 28 -12 45 -44 45c-35 0 -56 -15 -61 -45c-5 -28 11 -46 44 -46c35 0 56 15 61 46z" />
    <glyph glyph-name="arrowleft" unicode="&#x2190;" horiz-adv-x="798" 
d="M317 412h464l-22 -124h-480l196 -238h-165l-247 300l353 300h181z" />
    <glyph glyph-name="arrowup" unicode="&#x2191;" horiz-adv-x="690" 
d="M424 700l247 -300l-28 -163l-194 236l-83 -473h-129l81 456l-278 -235l31 179z" />
    <glyph glyph-name="arrowright" unicode="&#x2192;" horiz-adv-x="798" 
d="M359 650h165l247 -300l-352 -300h-181l279 238h-465l21 124h483z" />
    <glyph glyph-name="arrowdown" unicode="&#x2193;" horiz-adv-x="690" 
d="M489 700l-81 -456l277 236l-31 -180l-353 -300l-247 300l29 163l194 -235l83 472h129z" />
    <glyph glyph-name="arrowboth" unicode="&#x2194;" horiz-adv-x="1085" 
d="M926 356v-1l132 -5l-321 -272h-176l245 210h-531l173 -210h-161l-224 272l320 273h178l-248 -211h532l-173 211h162l224 -273z" />
    <glyph glyph-name="arrowupdn" unicode="&#x2195;" horiz-adv-x="635" 
d="M647 575l-28 -161l-171 208l-94 -529l245 207l-31 -175l-320 -273l-224 273l28 161l171 -208l93 531l-244 -209l31 175l320 273z" />
    <glyph glyph-name="uni2196" unicode="&#x2196;" horiz-adv-x="643" 
d="M534 613l99 -120h-342l286 -349l-96 -81l-286 348l-61 -342l-99 120l75 424h424z" />
    <glyph glyph-name="uni2197" unicode="&#x2197;" horiz-adv-x="644" 
d="M96 493l143 120h424l-75 -424l-143 -121l58 327l-399 -338l-80 95l401 341h-329z" />
    <glyph glyph-name="uni2198" unicode="&#x2198;" horiz-adv-x="643" 
d="M482 276l60 341l100 -120l-75 -424h-424l-100 120h343l-287 349l96 81z" />
    <glyph glyph-name="uni2199" unicode="&#x2199;" horiz-adv-x="644" 
d="M573 629l80 -94l-402 -342h329l-142 -120h-424l75 424l142 120l-58 -328z" />
    <glyph glyph-name="partialdiff" unicode="&#x2202;" horiz-adv-x="584" 
d="M322 714c79 0 142 -36 189 -107c48 -71 63 -159 44 -266c-40 -233 -168 -355 -333 -355c-66 0 -116 22 -151 66s-47 96 -36 157c12 68 41 122 88 163s105 62 172 62c55 0 101 -13 138 -40c8 123 -44 197 -149 198c-38 1 -78 -9 -121 -32l21 118c42 24 88 36 138 36z
M240 108c80 0 141 67 172 176c-29 24 -66 36 -112 36c-68 0 -124 -43 -136 -116c-11 -59 20 -96 76 -96z" />
    <glyph glyph-name="emptyset" unicode="&#x2205;" horiz-adv-x="805" 
d="M724 720h111l-116 -119c58 -73 79 -160 62 -260c-18 -100 -67 -184 -148 -252c-81 -67 -171 -101 -272 -101c-69 0 -129 19 -182 57l-63 -65h-111l116 120c-59 75 -80 161 -62 260c17 99 67 183 148 250c81 68 172 102 273 102c69 0 129 -19 181 -57zM148 350
c-13 -71 -1 -133 37 -184l412 423c-38 23 -81 35 -129 35c-75 0 -144 -27 -207 -80c-62 -53 -100 -117 -113 -194zM692 350c13 71 0 133 -37 184l-411 -423c37 -23 80 -35 128 -35c75 0 144 27 206 80c63 53 101 118 114 194z" />
    <glyph glyph-name="product" unicode="&#x220f;" horiz-adv-x="640" 
d="M115 -200h-129l158 900h510l-158 -900h-129l137 776h-252z" />
    <glyph glyph-name="summation" unicode="&#x2211;" horiz-adv-x="563" 
d="M446 -200h-490l21 121l276 352l-141 330l17 97h460l-21 -124h-309l135 -317l-262 -335h336z" />
    <glyph glyph-name="minus" unicode="&#x2212;" horiz-adv-x="555" 
d="M509 290h-450l22 121h450z" />
    <glyph glyph-name="radical" unicode="&#x221a;" horiz-adv-x="676" 
d="M350 0h-125l-87 199h-102l22 124h167l70 -173l333 650h140z" />
    <glyph glyph-name="infinity" unicode="&#x221e;" horiz-adv-x="808" 
d="M620 525c51 0 92 -17 121 -52c30 -35 41 -78 32 -130c-19 -104 -101 -168 -206 -168c-57 0 -110 29 -159 87c-66 -58 -127 -87 -184 -87c-52 0 -93 17 -123 52s-40 78 -31 130c19 104 101 168 208 168c57 0 110 -29 158 -87c64 58 125 87 184 87zM246 291
c29 0 62 20 100 59c-23 39 -50 59 -79 59c-33 0 -61 -26 -68 -59s14 -59 47 -59zM597 409c-29 0 -62 -20 -99 -59c23 -39 50 -59 79 -59c33 0 60 26 67 59s-12 59 -47 59z" />
    <glyph glyph-name="integral" unicode="&#x222b;" horiz-adv-x="441" 
d="M-80 -204l22 129c19 -12 41 -13 66 -3s42 30 52 59l193 561c48 141 137 195 268 160l-23 -128c-21 11 -43 12 -68 2c-24 -9 -41 -29 -51 -58l-193 -562c-49 -141 -138 -195 -266 -160z" />
    <glyph glyph-name="approxequal" unicode="&#x2248;" horiz-adv-x="569" 
d="M311 379c-94 45 -120 34 -161 -2l-78 28c49 133 143 170 248 114c79 -41 123 -39 151 24l95 -51c-24 -63 -59 -105 -106 -125s-96 -16 -149 12zM134 157l-96 51c49 127 151 169 255 113c30 -15 55 -24 75 -27c41 -5 57 4 86 29l77 -28c-49 -133 -142 -170 -247 -114
c-79 41 -123 39 -150 -24z" />
    <glyph glyph-name="notequal" unicode="&#x2260;" horiz-adv-x="525" 
d="M526 514l-21 -121h-157l-53 -86h195l-22 -121h-249l-81 -131h-82l81 131h-103l22 121h157l53 86h-195l21 121h250l81 131h82l-81 -131h102z" />
    <glyph glyph-name="lessequal" unicode="&#x2264;" horiz-adv-x="528" 
d="M87 486l467 167l-25 -141l-305 -89l273 -90l-22 -127l-408 166zM448 55h-437l21 121h438z" />
    <glyph glyph-name="greaterequal" unicode="&#x2265;" horiz-adv-x="528" 
d="M94 524l22 129l408 -167l-20 -114l-467 -166l25 139l305 90zM448 55h-437l21 121h438z" />
    <glyph glyph-name="lozenge" unicode="&#x25ca;" horiz-adv-x="555" 
d="M283 0h-98l-124 350l247 350h98l125 -350zM198 339l60 -169l135 191l-60 169z" />
    <glyph glyph-name="i.loclTRK" horiz-adv-x="247" 
d="M177 551c-43 0 -72 35 -64 78c7 41 47 77 90 77s72 -36 65 -77c-8 -43 -50 -78 -91 -78zM144 0h-129l88 500h129z" />
    <glyph glyph-name="f_f_j" horiz-adv-x="834" 
d="M543 500h276l-89 -510c-27 -153 -106 -213 -254 -204l22 124c60 -4 92 20 103 80l67 386h-147l-66 -376h-129l66 376h-148l-66 -376h-129l66 376h-71l21 124h72l1 5c25 149 116 219 272 209l-22 -124c-70 5 -110 -23 -121 -85l-1 -5h148l3 15c25 144 112 209 272 209
c36 0 74 -5 115 -14l-21 -118c-29 5 -62 8 -98 8c-83 0 -129 -28 -139 -85z" />
    <glyph glyph-name="f_j" horiz-adv-x="557" 
d="M266 500h276l-90 -510c-27 -153 -105 -213 -253 -204l22 124c59 -4 93 23 102 80l68 386h-147l-66 -376h-129l66 376h-71l21 124h72l1 5c25 144 112 209 272 209c35 0 73 -5 114 -14l-20 -118c-29 5 -62 8 -99 8c-82 0 -128 -28 -138 -85z" />
    <glyph glyph-name="uni0414.loclBGR" horiz-adv-x="730" 
d="M530 700l83 -568h79l-47 -266h-138l24 134h-420l-24 -134h-138l48 266h79l283 568h171zM421 544l-198 -412h250z" />
    <glyph glyph-name="uni041B.loclBGR" horiz-adv-x="632" 
d="M112 0h-154l352 700h171l105 -700h-146l-66 540z" />
    <glyph glyph-name="uni0424.loclBGR" horiz-adv-x="860" 
d="M592 800l-16 -93c96 -14 169 -54 218 -121c50 -67 66 -148 49 -245c-18 -101 -62 -182 -132 -243c-69 -61 -157 -97 -262 -107l-16 -91h-130l16 93c-96 14 -169 54 -219 121c-49 67 -65 149 -48 246c18 101 62 182 131 243c70 61 158 97 263 106l16 91h130zM189 350
c-23 -131 28 -211 153 -231l82 463c-133 -20 -211 -97 -235 -232zM706 350c23 135 -28 212 -152 232l-82 -463c131 19 211 100 234 231z" />
    <glyph glyph-name="uni0414.ss01" horiz-adv-x="705" 
d="M220 700h462l-100 -568h75l-24 -132h-661l22 132h68c48 52 81 131 100 237zM215 132h229l78 439h-187l-36 -204c-18 -103 -46 -181 -84 -235z" />
    <glyph glyph-name="uni0426.ss01" horiz-adv-x="690" 
d="M667 700l-100 -568h75l-23 -132h-598l123 700h138l-100 -568h247l100 568h138z" />
    <glyph glyph-name="uni0429.ss01" horiz-adv-x="980" 
d="M957 700l-100 -568h75l-23 -132h-888l123 700h138l-100 -568h200l100 568h137l-100 -568h200l100 568h138z" />
    <glyph glyph-name="uni0414.loclBGR.ss01" horiz-adv-x="730" 
d="M530 700l83 -568h79l-23 -132h-696l24 132h79l283 568h171zM421 544l-198 -412h250z" />
    <glyph glyph-name="uni0432.loclBGR" horiz-adv-x="567" 
d="M532 529c-8 -47 -37 -90 -88 -129c65 -36 99 -104 83 -195c-25 -143 -119 -219 -270 -219c-70 0 -124 23 -163 69c-38 46 -51 105 -38 178l42 239c27 155 120 242 259 242c57 0 103 -18 137 -53s47 -79 38 -132zM344 593c-57 0 -105 -48 -118 -124l-10 -60l50 10
c20 4 40 6 60 6c47 33 73 67 78 100c8 40 -16 68 -60 68zM398 214c13 79 -44 111 -153 88l-50 -10l-11 -63c-12 -73 21 -118 88 -118c69 0 115 38 126 103z" />
    <glyph glyph-name="uni0433.loclBGR" horiz-adv-x="468" 
d="M204 -14c-60 0 -108 16 -145 49s-50 76 -40 128c12 67 59 108 111 123c77 23 171 26 177 70c5 27 -18 43 -51 43c-37 0 -67 -18 -88 -53l-102 62c42 71 109 106 200 106c55 0 99 -17 134 -51s48 -76 39 -126c-12 -64 -59 -105 -112 -120c-75 -21 -170 -26 -176 -66
c-5 -31 18 -48 61 -48c49 0 85 22 109 67l101 -67c-41 -75 -119 -117 -218 -117z" />
    <glyph glyph-name="uni0434.loclBGR" horiz-adv-x="628" 
d="M474 428l13 72h126l-84 -476c-28 -163 -140 -238 -289 -238c-111 0 -193 42 -229 122l115 60c21 -45 62 -67 123 -67c84 0 141 43 154 123l8 44c-44 -44 -99 -66 -166 -66c-77 0 -134 26 -171 79s-50 115 -38 188c11 68 42 126 93 173c51 48 112 72 183 72
c77 0 131 -29 162 -86zM281 123c79 0 146 53 162 130l2 10c12 79 -40 130 -119 130c-39 0 -75 -12 -106 -37s-49 -57 -56 -97c-7 -39 1 -72 23 -98c22 -25 53 -38 94 -38z" />
    <glyph glyph-name="uni0436.loclBGR" horiz-adv-x="746" 
d="M107 0h-139l230 265l-130 235h129l118 -214l74 414h126l-75 -418l188 218h143l-220 -252l138 -248h-131l-126 229l-41 -229h-126l40 227z" />
    <glyph glyph-name="uni0438.loclBGR" 
d="M381 214l50 286h129l-88 -500h-129l10 54c-39 -45 -91 -68 -155 -68c-56 0 -99 19 -130 56s-40 88 -29 151l54 307h129l-51 -291c-12 -68 21 -103 81 -103c61 0 110 36 129 108z" />
    <glyph glyph-name="uni0439.loclBGR" 
d="M207 676h290l-19 -112h-290zM381 214l50 286h129l-88 -500h-129l10 54c-39 -45 -91 -68 -155 -68c-56 0 -99 19 -130 56s-40 88 -29 151l54 307h129l-51 -291c-12 -68 21 -103 81 -103c61 0 110 36 129 108z" />
    <glyph glyph-name="uni043A.loclBGR" horiz-adv-x="517" 
d="M397 500h153l-241 -247l159 -253h-140l-143 235l-41 -235h-129l123 700h129l-72 -411z" />
    <glyph glyph-name="uni043B.loclBGR" horiz-adv-x="500" 
d="M360 500l94 -500h-133l-50 341l-170 -341h-143l270 500h132z" />
    <glyph glyph-name="uni043F.loclBGR" 
d="M377 514c56 0 99 -19 130 -56s40 -88 29 -151l-54 -307h-129l51 291c12 68 -21 103 -81 103c-61 0 -110 -36 -129 -108l-50 -286h-129l88 500h129l-10 -54c39 45 91 68 155 68z" />
    <glyph glyph-name="uni0442.loclBGR" horiz-adv-x="850" 
d="M654 514c57 0 100 -19 129 -57c30 -38 40 -88 29 -149l-55 -308h-129l52 299c11 60 -14 95 -67 95c-56 0 -93 -32 -110 -95l-52 -299h-129l52 299c11 60 -14 95 -66 95c-59 0 -102 -38 -114 -110l-50 -284h-129l88 500h129l-9 -50c39 43 87 64 145 64
c61 0 104 -25 127 -75c41 50 94 75 159 75z" />
    <glyph glyph-name="uni0446.loclBGR" horiz-adv-x="614" 
d="M525 121h44l-46 -255h-126l25 144c-25 10 -41 26 -50 49c-46 -49 -102 -73 -169 -73c-120 0 -186 80 -165 207l54 307h129l-51 -290c-12 -69 21 -104 82 -104c65 0 118 40 131 124v-1l48 271h129l-61 -347c-3 -21 5 -32 26 -32z" />
    <glyph glyph-name="uni0448.loclBGR" horiz-adv-x="850" 
d="M656 216l50 284h129l-88 -500h-129l9 50c-39 -43 -87 -64 -145 -64c-61 0 -104 25 -127 75c-41 -50 -94 -75 -159 -75c-57 0 -100 19 -130 57c-29 38 -39 88 -28 149l55 308h129l-52 -299c-11 -60 14 -95 67 -95c56 0 93 32 110 95l52 299h129l-52 -299
c-11 -60 14 -95 66 -95c59 0 102 38 114 110z" />
    <glyph glyph-name="uni0449.loclBGR" horiz-adv-x="889" 
d="M800 121h44l-46 -255h-126l25 144c-23 9 -39 24 -48 45c-42 -46 -95 -69 -160 -69s-109 24 -132 73c-41 -49 -95 -73 -161 -73c-57 0 -100 19 -130 57c-29 38 -39 88 -28 149l54 308h129l-52 -298c-11 -60 15 -96 68 -96c57 0 99 39 112 111v-1l50 284h129l-52 -298
c-11 -61 13 -96 66 -96c56 0 97 35 112 102l52 292h129l-61 -347c-3 -21 5 -32 26 -32z" />
    <glyph glyph-name="uni044C.loclBGR" horiz-adv-x="491" 
d="M194 361h92c60 0 105 -18 136 -54s42 -82 32 -139c-19 -109 -108 -182 -232 -182c-63 0 -112 19 -147 58s-47 86 -38 143l55 313h126zM330 178c7 40 -16 69 -65 69h-91l-11 -60c-8 -48 20 -79 72 -79c49 0 88 33 95 70z" />
    <glyph glyph-name="uni044A.loclBGR" horiz-adv-x="579" 
d="M282 361h92c60 0 105 -18 136 -54s42 -83 32 -140c-19 -109 -108 -181 -232 -181c-63 0 -112 19 -147 58s-47 86 -38 143l34 192h-136l21 121h262zM418 177c7 41 -16 70 -65 70h-91l-11 -60c-8 -48 20 -79 72 -79c49 0 88 32 95 69z" />
    <glyph glyph-name="uni044E.loclBGR" horiz-adv-x="811" 
d="M557 514c77 0 136 -28 177 -84c41 -55 55 -120 42 -193c-12 -71 -46 -130 -102 -179c-56 -48 -120 -72 -192 -72c-67 0 -121 19 -162 57c-41 39 -63 88 -68 147h-75l-33 -190h-129l123 700h129l-68 -389h70c21 60 58 109 109 146c51 38 111 57 179 57zM650 251
c15 83 -35 137 -111 137s-143 -54 -159 -138c-13 -84 35 -138 110 -138c38 0 72 13 103 38s50 59 57 101z" />
    <glyph glyph-name="zero.sinf" horiz-adv-x="409" 
d="M134 -174c-53 0 -94 20 -122 61s-37 94 -26 159c24 131 104 208 215 208c53 0 93 -21 122 -62s37 -93 26 -158c-23 -131 -103 -208 -215 -208zM239 40c12 69 -6 107 -53 107c-23 0 -42 -9 -58 -28c-15 -19 -26 -45 -32 -79s-4 -60 5 -79s25 -28 48 -28c45 0 78 39 90 107
z" />
    <glyph glyph-name="one.sinf" horiz-adv-x="266" 
d="M-7 197l128 43h94l-71 -400h-107l51 285l-85 -23z" />
    <glyph glyph-name="two.sinf" horiz-adv-x="352" 
d="M254 -160h-300l12 70l178 153c29 25 44 44 46 58c4 21 -9 35 -33 35c-26 0 -49 -18 -70 -53l-84 53c35 60 95 98 168 98c85 0 142 -55 126 -139c-8 -41 -35 -72 -88 -116l-73 -62h135z" />
    <glyph glyph-name="three.sinf" horiz-adv-x="344" 
d="M25 240h275l-14 -79l-85 -88c51 -20 76 -64 67 -119c-15 -85 -77 -128 -173 -128c-75 0 -123 30 -144 89l94 50c11 -30 31 -45 62 -45c32 0 50 14 54 41c5 25 -12 40 -44 40h-19l-29 57l81 85h-142z" />
    <glyph glyph-name="four.sinf" horiz-adv-x="357" 
d="M257 2h39l-16 -98h-41l-11 -64h-102l11 64h-186l16 98l167 238h118l-162 -238h65l12 69h102z" />
    <glyph glyph-name="five.sinf" horiz-adv-x="334" 
d="M292 240l-17 -97h-151l-13 -54h32c79 0 133 -51 118 -138c-15 -84 -77 -125 -166 -125c-72 0 -119 30 -140 89l92 48c10 -30 30 -45 61 -45c33 0 51 14 56 41c4 25 -10 43 -41 43h-132l59 238h242z" />
    <glyph glyph-name="six.sinf" horiz-adv-x="342" 
d="M270 240l-106 -130c79 -9 124 -71 111 -147c-15 -84 -82 -137 -177 -137c-45 0 -79 14 -104 43s-33 64 -26 106c5 29 16 53 31 72l154 193h117zM177 -31c5 33 -12 51 -47 51s-56 -17 -63 -51c-7 -33 12 -53 45 -53c36 0 58 18 65 53z" />
    <glyph glyph-name="seven.sinf" horiz-adv-x="296" 
d="M-16 143l17 97h276l-14 -82l-179 -318h-114l171 303h-157z" />
    <glyph glyph-name="eight.sinf" horiz-adv-x="350" 
d="M294 130c-6 -36 -26 -64 -59 -83c33 -25 46 -59 40 -102c-12 -75 -75 -119 -172 -119c-92 0 -147 52 -134 127c7 44 33 77 77 99c-27 22 -37 51 -31 87c13 73 75 115 159 115c39 0 71 -12 94 -35c24 -23 33 -52 26 -89zM105 125c-5 -25 11 -39 42 -39s49 13 54 39
c4 24 -12 38 -41 38c-33 0 -51 -13 -55 -38zM177 -36c5 28 -12 45 -44 45c-35 0 -56 -15 -61 -45c-5 -28 11 -46 44 -46c35 0 56 15 61 46z" />
    <glyph glyph-name="nine.sinf" horiz-adv-x="342" 
d="M170 254c44 0 78 -14 103 -43s34 -64 27 -106c-6 -33 -19 -61 -40 -82l-145 -183h-116l105 130c-39 5 -69 21 -90 48c-21 28 -28 61 -21 99c15 84 82 137 177 137zM91 111c-5 -33 12 -51 47 -51s56 17 63 51c7 33 -12 53 -45 53c-36 0 -58 -18 -65 -53z" />
    <glyph glyph-name="zero.tf" horiz-adv-x="578" 
d="M249 -14c-86 0 -149 35 -190 104c-40 70 -50 160 -31 269c19 110 58 197 117 260s132 95 220 95c86 0 149 -35 189 -105c40 -69 50 -159 31 -268c-19 -110 -58 -197 -117 -260c-58 -63 -131 -95 -219 -95zM448 350c27 148 -8 230 -101 230s-155 -81 -182 -230
s8 -229 101 -229s155 80 182 229z" />
    <glyph glyph-name="one.tf" horiz-adv-x="578" 
d="M448 700l-100 -568h190l-23 -132h-530l23 132h203l73 417l-138 -37l-13 123l195 65h120z" />
    <glyph glyph-name="two.tf" horiz-adv-x="578" 
d="M494 0h-504l18 103l295 231c76 59 118 100 126 148c9 55 -18 98 -86 98c-55 0 -103 -31 -144 -94l-109 71c61 103 162 157 274 157c68 0 122 -23 161 -68c40 -45 54 -100 43 -165c-7 -44 -25 -83 -53 -117c-27 -34 -68 -72 -123 -115l-152 -116h277z" />
    <glyph glyph-name="three.tf" horiz-adv-x="578" 
d="M123 700h472l-19 -114l-167 -166c95 -33 149 -113 132 -217c-25 -144 -140 -217 -293 -217c-128 0 -215 56 -244 164l126 66c18 -63 61 -95 129 -95c83 0 133 36 144 99c11 61 -27 99 -110 99h-27l-41 82l170 170h-294z" />
    <glyph glyph-name="four.tf" horiz-adv-x="578" 
d="M485 247h76l-22 -128h-77l-21 -119h-139l21 119h-337l22 128l306 453h155l-307 -453h184l28 161h139z" />
    <glyph glyph-name="five.tf" horiz-adv-x="578" 
d="M595 700l-22 -129h-299l-32 -126h89c70 0 126 -22 167 -65s56 -101 43 -173s-45 -127 -98 -165c-53 -37 -116 -56 -189 -56c-133 0 -216 55 -247 164l126 66c17 -63 61 -95 133 -95c80 0 128 36 139 95c11 57 -25 95 -105 95h-226l96 389h425z" />
    <glyph glyph-name="six.tf" horiz-adv-x="578" 
d="M529 700l-196 -220c80 -3 139 -30 177 -79c39 -49 53 -108 42 -175c-12 -68 -44 -125 -97 -171s-122 -69 -207 -69c-86 0 -150 25 -191 76s-55 112 -42 183c11 54 34 101 71 141l281 314h162zM304 351c-81 0 -140 -43 -153 -118c-13 -73 32 -117 112 -117
c81 0 140 44 153 117s-33 118 -112 118z" />
    <glyph glyph-name="seven.tf" horiz-adv-x="578" 
d="M81 568l23 132h520l-20 -117l-360 -583h-153l350 568h-360z" />
    <glyph glyph-name="eight.tf" horiz-adv-x="578" 
d="M581 505c-11 -62 -47 -110 -107 -144c60 -40 88 -102 75 -171c-23 -129 -133 -204 -302 -204c-83 0 -146 20 -189 59s-59 91 -48 156c13 73 58 129 134 166c-48 37 -67 85 -56 146c11 65 43 114 95 149s114 52 185 52c70 0 126 -19 167 -56c42 -37 57 -88 46 -153z
M224 502c-8 -51 27 -83 94 -83c68 0 116 32 124 83c9 51 -27 82 -94 82c-69 0 -115 -31 -124 -82zM265 116c85 0 139 36 150 97s-30 96 -115 96s-139 -35 -150 -96s31 -97 115 -97z" />
    <glyph glyph-name="nine.tf" horiz-adv-x="578" 
d="M365 714c86 0 149 -26 190 -77s56 -111 43 -181c-9 -52 -32 -98 -69 -139l-283 -317h-162l196 220c-80 3 -139 29 -178 78c-38 49 -52 108 -41 176s43 125 96 171s123 69 208 69zM309 350c81 0 140 42 153 117c13 73 -32 117 -112 117c-81 0 -140 -44 -153 -117
s32 -117 112 -117z" />
    <glyph glyph-name="zero.dnom" horiz-adv-x="409" 
d="M162 -14c-53 0 -94 20 -122 61s-37 94 -26 159c24 131 104 208 215 208c53 0 93 -21 122 -62s37 -93 26 -158c-23 -131 -103 -208 -215 -208zM267 200c12 69 -6 107 -53 107c-23 0 -42 -9 -58 -28c-15 -19 -26 -45 -32 -79s-4 -60 5 -79s25 -28 48 -28c45 0 78 39 90 107
z" />
    <glyph glyph-name="one.dnom" horiz-adv-x="267" 
d="M21 357l128 43h94l-71 -400h-107l51 285l-85 -23z" />
    <glyph glyph-name="two.dnom" horiz-adv-x="356" 
d="M282 0h-300l12 70l178 153c29 25 44 44 46 58c4 21 -9 35 -33 35c-26 0 -49 -18 -70 -53l-84 53c35 60 95 98 168 98c85 0 142 -55 126 -139c-8 -41 -35 -72 -88 -116l-73 -62h135z" />
    <glyph glyph-name="three.dnom" horiz-adv-x="348" 
d="M53 400h275l-14 -79l-85 -88c51 -20 76 -64 67 -119c-15 -85 -77 -128 -173 -128c-75 0 -123 30 -144 89l94 50c11 -30 31 -45 62 -45c32 0 50 14 54 41c5 25 -12 40 -44 40h-19l-29 57l81 85h-142z" />
    <glyph glyph-name="four.dnom" horiz-adv-x="356" 
d="M285 162h39l-16 -98h-41l-11 -64h-102l11 64h-186l16 98l167 238h118l-162 -238h65l12 69h102z" />
    <glyph glyph-name="five.dnom" horiz-adv-x="335" 
d="M320 400l-17 -97h-151l-13 -54h32c79 0 133 -51 118 -138c-15 -84 -77 -125 -166 -125c-72 0 -119 30 -140 89l92 48c10 -30 30 -45 61 -45c33 0 51 14 56 41c4 25 -10 43 -41 43h-132l59 238h242z" />
    <glyph glyph-name="six.dnom" horiz-adv-x="341" 
d="M298 400l-106 -130c79 -9 124 -71 111 -147c-15 -84 -82 -137 -177 -137c-45 0 -79 14 -104 43s-33 64 -26 106c5 29 16 53 31 72l154 193h117zM205 129c5 33 -12 51 -47 51s-56 -17 -63 -51c-7 -33 12 -53 45 -53c36 0 58 18 65 53z" />
    <glyph glyph-name="seven.dnom" horiz-adv-x="295" 
d="M12 303l17 97h276l-14 -82l-179 -318h-114l171 303h-157z" />
    <glyph glyph-name="eight.dnom" horiz-adv-x="349" 
d="M322 290c-6 -36 -26 -64 -59 -83c33 -25 46 -59 40 -102c-12 -75 -75 -119 -172 -119c-92 0 -147 52 -134 127c7 44 33 77 77 99c-27 22 -37 51 -31 87c13 73 75 115 159 115c39 0 71 -12 94 -35c24 -23 33 -52 26 -89zM133 285c-5 -25 11 -39 42 -39s49 13 54 39
c4 24 -12 38 -41 38c-33 0 -51 -13 -55 -38zM205 124c5 28 -12 45 -44 45c-35 0 -56 -15 -61 -45c-5 -28 11 -46 44 -46c35 0 56 15 61 46z" />
    <glyph glyph-name="nine.dnom" horiz-adv-x="341" 
d="M198 414c44 0 78 -14 103 -43s34 -64 27 -106c-6 -33 -19 -61 -40 -82l-145 -183h-116l105 130c-39 5 -69 21 -90 48c-21 28 -28 61 -21 99c15 84 82 137 177 137zM119 271c-5 -33 12 -51 47 -51s56 17 63 51c7 33 -12 53 -45 53c-36 0 -58 -18 -65 -53z" />
    <glyph glyph-name="zero.numr" horiz-adv-x="409" 
d="M215 286c-53 0 -94 20 -122 61s-37 94 -26 159c24 131 104 208 215 208c53 0 93 -21 122 -62s37 -93 26 -158c-23 -131 -103 -208 -215 -208zM320 500c12 69 -6 107 -53 107c-23 0 -42 -9 -58 -28c-15 -19 -26 -45 -32 -79s-4 -60 5 -79s25 -28 48 -28c45 0 78 39 90 107
z" />
    <glyph glyph-name="one.numr" horiz-adv-x="267" 
d="M74 657l128 43h94l-71 -400h-107l51 285l-85 -23z" />
    <glyph glyph-name="two.numr" horiz-adv-x="356" 
d="M335 300h-300l12 70l178 153c29 25 44 44 46 58c4 21 -9 35 -33 35c-26 0 -49 -18 -70 -53l-84 53c35 60 95 98 168 98c85 0 142 -55 126 -139c-8 -41 -35 -72 -88 -116l-73 -62h135z" />
    <glyph glyph-name="three.numr" horiz-adv-x="348" 
d="M106 700h275l-14 -79l-85 -88c51 -20 76 -64 67 -119c-15 -85 -77 -128 -173 -128c-75 0 -123 30 -144 89l94 50c11 -30 31 -45 62 -45c32 0 50 14 54 41c5 25 -12 40 -44 40h-19l-29 57l81 85h-142z" />
    <glyph glyph-name="four.numr" horiz-adv-x="356" 
d="M338 462h39l-16 -98h-41l-11 -64h-102l11 64h-186l16 98l167 238h118l-162 -238h65l12 69h102z" />
    <glyph glyph-name="five.numr" horiz-adv-x="335" 
d="M373 700l-17 -97h-151l-13 -54h32c79 0 133 -51 118 -138c-15 -84 -77 -125 -166 -125c-72 0 -119 30 -140 89l92 48c10 -30 30 -45 61 -45c33 0 51 14 56 41c4 25 -10 43 -41 43h-132l59 238h242z" />
    <glyph glyph-name="six.numr" horiz-adv-x="341" 
d="M351 700l-106 -130c79 -9 124 -71 111 -147c-15 -84 -82 -137 -177 -137c-45 0 -79 14 -104 43s-33 64 -26 106c5 29 16 53 31 72l154 193h117zM258 429c5 33 -12 51 -47 51s-56 -17 -63 -51c-7 -33 12 -53 45 -53c36 0 58 18 65 53z" />
    <glyph glyph-name="seven.numr" horiz-adv-x="295" 
d="M65 603l17 97h276l-14 -82l-179 -318h-114l171 303h-157z" />
    <glyph glyph-name="eight.numr" horiz-adv-x="350" 
d="M375 590c-6 -36 -26 -64 -59 -83c33 -25 46 -59 40 -102c-12 -75 -75 -119 -172 -119c-92 0 -147 52 -134 127c7 44 33 77 77 99c-27 22 -37 51 -31 87c13 73 75 115 159 115c39 0 71 -12 94 -35c24 -23 33 -52 26 -89zM186 585c-5 -25 11 -39 42 -39s49 13 54 39
c4 24 -12 38 -41 38c-33 0 -51 -13 -55 -38zM258 424c5 28 -12 45 -44 45c-35 0 -56 -15 -61 -45c-5 -28 11 -46 44 -46c35 0 56 15 61 46z" />
    <glyph glyph-name="nine.numr" horiz-adv-x="341" 
d="M251 714c44 0 78 -14 103 -43s34 -64 27 -106c-6 -33 -19 -61 -40 -82l-145 -183h-116l105 130c-39 5 -69 21 -90 48c-21 28 -28 61 -21 99c15 84 82 137 177 137zM172 571c-5 -33 12 -51 47 -51s56 17 63 51c7 33 -12 53 -45 53c-36 0 -58 -18 -65 -53z" />
    <glyph glyph-name="zero.sups" horiz-adv-x="409" 
d="M243 446c-53 0 -94 20 -122 61s-37 94 -26 159c24 131 104 208 215 208c53 0 93 -21 122 -62s37 -93 26 -158c-23 -131 -103 -208 -215 -208zM348 660c12 69 -6 107 -53 107c-23 0 -42 -9 -58 -28c-15 -19 -26 -45 -32 -79s-4 -60 5 -79s25 -28 48 -28c45 0 78 39 90 107
z" />
    <glyph glyph-name="one.sups" horiz-adv-x="268" 
d="M102 817l128 43h94l-71 -400h-107l51 285l-85 -23z" />
    <glyph glyph-name="two.sups" horiz-adv-x="356" 
d="M363 460h-300l12 70l178 153c29 25 44 44 46 58c4 21 -9 35 -33 35c-26 0 -49 -18 -70 -53l-84 53c35 60 95 98 168 98c85 0 142 -55 126 -139c-8 -41 -35 -72 -88 -116l-73 -62h135z" />
    <glyph glyph-name="three.sups" horiz-adv-x="349" 
d="M135 860h275l-14 -79l-85 -88c51 -20 76 -64 67 -119c-15 -85 -77 -128 -173 -128c-75 0 -123 30 -144 89l94 50c11 -30 31 -45 62 -45c32 0 50 14 54 41c5 25 -12 40 -44 40h-19l-29 57l81 85h-142z" />
    <glyph glyph-name="four.sups" horiz-adv-x="356" 
d="M366 622h39l-16 -98h-41l-11 -64h-102l11 64h-186l16 98l167 238h118l-162 -238h65l12 69h102z" />
    <glyph glyph-name="five.sups" horiz-adv-x="334" 
d="M401 860l-17 -97h-151l-13 -54h32c79 0 133 -51 118 -138c-15 -84 -77 -125 -166 -125c-72 0 -119 30 -140 89l92 48c10 -30 30 -45 61 -45c33 0 51 14 56 41c4 25 -10 43 -41 43h-132l59 238h242z" />
    <glyph glyph-name="six.sups" horiz-adv-x="341" 
d="M379 860l-106 -130c79 -9 124 -71 111 -147c-15 -84 -82 -137 -177 -137c-45 0 -79 14 -104 43s-33 64 -26 106c5 29 16 53 31 72l154 193h117zM286 589c5 33 -12 51 -47 51s-56 -17 -63 -51c-7 -33 12 -53 45 -53c36 0 58 18 65 53z" />
    <glyph glyph-name="seven.sups" horiz-adv-x="296" 
d="M94 763l17 97h276l-14 -82l-179 -318h-114l171 303h-157z" />
    <glyph glyph-name="eight.sups" horiz-adv-x="349" 
d="M403 750c-6 -36 -26 -64 -59 -83c33 -25 46 -59 40 -102c-12 -75 -75 -119 -172 -119c-92 0 -147 52 -134 127c7 44 33 77 77 99c-27 22 -37 51 -31 87c13 73 75 115 159 115c39 0 71 -12 94 -35c24 -23 33 -52 26 -89zM214 745c-5 -25 11 -39 42 -39s49 13 54 39
c4 24 -12 38 -41 38c-33 0 -51 -13 -55 -38zM286 584c5 28 -12 45 -44 45c-35 0 -56 -15 -61 -45c-5 -28 11 -46 44 -46c35 0 56 15 61 46z" />
    <glyph glyph-name="nine.sups" horiz-adv-x="341" 
d="M279 874c44 0 78 -14 103 -43s34 -64 27 -106c-6 -33 -19 -61 -40 -82l-145 -183h-116l105 130c-39 5 -69 21 -90 48c-21 28 -28 61 -21 99c15 84 82 137 177 137zM200 731c-5 -33 12 -51 47 -51s56 17 63 51c7 33 -12 53 -45 53c-36 0 -58 -18 -65 -53z" />
    <glyph glyph-name="cent.tf" horiz-adv-x="578" 
d="M308 214c52 0 93 22 124 67l104 -67c-51 -83 -140 -128 -239 -128c-21 0 -43 3 -66 8l-46 -94h-60l56 113c-85 44 -129 139 -112 247c11 73 45 134 101 182c57 48 123 72 198 72c21 0 40 -2 58 -6l46 92h60l-54 -109c47 -23 81 -58 101 -107l-117 -62
c-9 22 -23 39 -43 50l-127 -257c3 -1 9 -1 16 -1zM198 353c-9 -54 5 -94 43 -120l125 254h-9c-39 0 -73 -13 -104 -38c-30 -25 -48 -57 -55 -96z" />
    <glyph glyph-name="dollar.tf" horiz-adv-x="578" 
d="M394 576l-29 -169c23 -9 32 -13 55 -24c29 -13 53 -29 76 -50c34 -34 56 -82 43 -156c-23 -116 -118 -183 -249 -190l-15 -87h-67l16 88c-115 11 -190 70 -217 159l125 64c17 -54 56 -85 115 -92l31 178c-60 24 -95 43 -134 78c-39 36 -53 86 -42 150
c11 62 41 109 88 140c47 32 101 48 162 49l15 86h67l-16 -92c84 -17 141 -63 171 -138l-121 -63c-17 36 -41 59 -74 69zM242 514c-5 -33 15 -60 60 -81l27 149c-48 -4 -80 -28 -87 -68zM399 192c7 32 -13 58 -58 79l-27 -151c49 10 78 34 85 72z" />
    <glyph glyph-name="Euro.tf" horiz-adv-x="578" 
d="M309 121c49 0 91 28 124 85l107 -68c-52 -96 -139 -152 -247 -152c-129 0 -205 106 -202 271h-68l14 78h60c0 5 3 19 4 24l3 15h-61l14 77h66c51 167 150 263 291 263c93 0 165 -56 196 -148l-120 -62c-14 51 -45 76 -92 76c-60 0 -105 -43 -135 -129h174l-14 -77h-180
c-3 -11 -4 -19 -5 -24l-3 -15h182l-14 -78h-176c-3 -91 24 -136 82 -136z" />
    <glyph glyph-name="florin.tf" horiz-adv-x="578" 
d="M293 414l59 131c63 141 158 194 283 160l-22 -129c-57 21 -110 3 -135 -56l-47 -106h121l-23 -124h-154l-148 -331c-63 -141 -157 -194 -284 -160l23 128c56 -21 110 -1 135 56l137 307h-119l23 124h151z" />
    <glyph glyph-name="uni20BD.tf" horiz-adv-x="578" 
d="M164 700h234c62 0 113 -24 152 -73c39 -48 53 -104 42 -168c-11 -65 -42 -117 -92 -157c-49 -39 -110 -59 -182 -59h-96l-10 -55h195l-16 -88h-194l-18 -100h-138l18 100h-75l15 88h75l10 55h-75l21 121h75zM376 571h-97l-36 -207h96c56 0 106 45 117 104
s-24 103 -80 103z" />
    <glyph glyph-name="sterling.tf" horiz-adv-x="578" 
d="M456 274h-211l-25 -141h327l-23 -133h-538l23 133h74l24 141h-60l22 121h60l17 98c27 147 119 221 248 221c97 0 172 -55 203 -146l-123 -64c-18 51 -50 76 -95 76c-48 0 -85 -31 -96 -87l-17 -98h212z" />
    <glyph glyph-name="yen.tf" horiz-adv-x="578" 
d="M492 700h163l-249 -338h133l-14 -80h-162l-8 -45h162l-14 -81h-162l-27 -156h-138l28 156h-161l14 81h161l8 45h-161l14 80h134l-132 338h149l87 -252z" />
    <glyph glyph-name="brevecy" horiz-adv-x="360" 
d="M381 564h-290l19 112h290z" />
    </font>
</defs>
</svg>
