<?xml version="1.0" standalone="no"?>
<!DOCTYPE svg PUBLIC "-//W3C//DTD SVG 1.1//EN" "http://www.w3.org/Graphics/SVG/1.1/DTD/svg11.dtd" >
<svg xmlns="http://www.w3.org/2000/svg" xmlns:xlink="http://www.w3.org/1999/xlink" version="1.1">
<metadata></metadata>
<defs>
<font id="nunitosemibold" horiz-adv-x="1228" >
<font-face units-per-em="2048" ascent="1638" descent="-410" />
<missing-glyph horiz-adv-x="540" />
<glyph horiz-adv-x="0" />
<glyph unicode="&#xd;" horiz-adv-x="540" />
<glyph horiz-adv-x="0" />
<glyph horiz-adv-x="0" />
<glyph unicode=" "  horiz-adv-x="540" />
<glyph unicode="&#x09;" horiz-adv-x="540" />
<glyph unicode="&#xa0;" horiz-adv-x="540" />
<glyph unicode="!" horiz-adv-x="487" d="M113 121q0 57 37.5 95t93.5 38q55 0 92 -38t37 -95t-37 -94t-92 -37q-56 0 -93.5 36.5t-37.5 94.5zM119 1325q-6 57 29.5 93t95.5 36q57 0 93 -36t30 -93l-62 -868q-2 -33 -18.5 -50.5t-42.5 -17.5q-25 0 -43.5 18.5t-20.5 49.5z" />
<glyph unicode="&#x22;" horiz-adv-x="890" d="M123 1339q0 53 31.5 84t83.5 31q51 0 80.5 -28.5t29.5 -82.5q0 -20 -2 -30l-39 -391q-12 -68 -69 -68q-60 0 -70 68l-43 391q-2 10 -2 26zM541 1339q0 53 31.5 84t83.5 31q51 0 80.5 -28.5t29.5 -82.5q0 -20 -2 -30l-39 -391q-12 -68 -69 -68q-60 0 -70 68l-43 391 q-2 10 -2 26z" />
<glyph unicode="#" d="M61 436q0 29 20.5 48.5t53.5 19.5h141l89 452h-189q-33 0 -53.5 21.5t-20.5 52.5q0 29 20.5 48.5t53.5 19.5h217l60 307q4 25 23.5 40t45.5 15q35 0 55.5 -20.5t20.5 -55.5q0 -12 -2 -18l-53 -268h297l59 307q4 25 23.5 40t46.5 15q33 0 54 -20.5t21 -53.5q0 -12 -2 -20 l-53 -268h105q33 0 53 -21.5t20 -52.5q0 -29 -20.5 -48.5t-52.5 -19.5h-131l-89 -452h179q33 0 53 -21.5t20 -52.5q0 -29 -20.5 -48.5t-52.5 -19.5h-207l-62 -317q-4 -25 -23.5 -40t-45.5 -15q-33 0 -54.5 20.5t-21.5 52.5q0 12 2 21l55 278h-297l-63 -317q-4 -25 -23.5 -40 t-46.5 -15q-33 0 -53 20.5t-20 52.5q0 12 2 21l55 278h-115q-33 0 -53.5 22t-20.5 52zM426 504h297l88 452h-295z" />
<glyph unicode="$" d="M80 227q0 37 19.5 62.5t47.5 25.5q29 0 70 -26q197 -133 397 -133q152 0 235 61.5t83 173.5q0 68 -44 110t-110.5 66.5t-183.5 53.5q-154 39 -250 77.5t-164.5 120.5t-68.5 217q0 166 119.5 282t316.5 138v143q0 41 23.5 66t62.5 25t62.5 -25t23.5 -66v-143 q104 -10 199.5 -50t168.5 -108q41 -33 41 -81q0 -35 -20.5 -62t-48.5 -27q-29 0 -70 27q-88 68 -168 100.5t-188 32.5q-141 0 -225 -65.5t-84 -178.5q0 -76 47 -123t116.5 -72.5t190.5 -53.5q150 -37 242 -75t157.5 -115t65.5 -208q0 -161 -116 -272t-306 -135v-146 q0 -41 -23.5 -65.5t-62.5 -24.5t-62.5 24.5t-23.5 65.5v142q-123 10 -236.5 50t-193.5 109q-39 29 -39 82z" />
<glyph unicode="%" horiz-adv-x="1918" d="M102 1022q0 217 94.5 328.5t260.5 111.5q168 0 262 -111.5t94 -328.5q0 -219 -94 -330.5t-262 -111.5q-166 0 -260.5 112.5t-94.5 329.5zM283 1022q0 -158 42 -230.5t132 -72.5t133 72.5t43 230.5q0 156 -43 227.5t-133 71.5t-132 -70.5t-42 -228.5zM489 45q0 29 17 55 l766 1325q31 53 82 54q31 0 54.5 -22.5t23.5 -57.5q0 -29 -17 -56l-768 -1325q-29 -53 -80 -53q-31 0 -54.5 22.5t-23.5 57.5zM1106 428q0 217 94 328.5t262 111.5q166 0 261.5 -111.5t95.5 -328.5t-94.5 -329.5t-262.5 -112.5t-262 111.5t-94 330.5zM1286 428 q0 -158 43 -230.5t133 -72.5t132 72.5t42 230.5q0 156 -43 228.5t-131 72.5q-90 0 -133 -71.5t-43 -229.5z" />
<glyph unicode="&#x26;" horiz-adv-x="1374" d="M94 369q0 133 80 237.5t246 198.5q-84 90 -125 167t-41 161q0 150 104.5 237.5t268.5 87.5q156 0 248 -81t92 -220q0 -113 -66.5 -200t-212.5 -175l322 -325q66 135 80 325q2 43 29.5 66.5t62.5 23.5q37 0 62.5 -25.5t21.5 -70.5q-18 -254 -131 -444l200 -203 q27 -26 27 -59q0 -35 -26.5 -60.5t-61.5 -25.5t-62 26l-180 183q-94 -100 -213 -153.5t-250 -53.5q-137 0 -245.5 47t-169 134t-60.5 202zM297 379q0 -109 77 -170.5t206 -61.5q94 0 181 41t154 121l-383 383q-127 -76 -181 -148.5t-54 -164.5zM446 1133q0 -57 31 -109.5 t101 -128.5q119 74 167 130t48 124q0 72 -45.5 116t-118.5 44q-82 0 -132.5 -48.5t-50.5 -127.5z" />
<glyph unicode="'" horiz-adv-x="473" d="M123 1339q0 53 31.5 84t83.5 31q51 0 80.5 -28.5t29.5 -82.5q0 -20 -2 -30l-39 -391q-12 -68 -69 -68q-60 0 -70 68l-43 391q-2 10 -2 26z" />
<glyph unicode="(" horiz-adv-x="679" d="M209 539q0 453 219 860q18 29 43 44t51 15q31 0 50.5 -17.5t19.5 -47.5q0 -23 -8 -41q-162 -391 -162 -813q0 -420 162 -811q8 -18 8 -41q0 -29 -20.5 -47.5t-49.5 -18.5q-27 0 -51.5 15.5t-42.5 44.5q-219 403 -219 858z" />
<glyph unicode=")" horiz-adv-x="679" d="M88 -313q0 23 8 41q162 391 162 811q0 422 -162 813q-8 18 -8 41q0 29 20.5 47t49.5 18q27 0 51 -15.5t43 -43.5q217 -403 217 -860q0 -459 -217 -858q-19 -29 -43.5 -44.5t-50.5 -15.5q-31 0 -50.5 17.5t-19.5 48.5z" />
<glyph unicode="*" horiz-adv-x="923" d="M51 1087q0 31 19.5 53.5t56.5 20.5l225 -10l-121 188q-14 20 -14 43q0 31 23.5 51.5t54.5 20.5q43 0 63 -41l105 -201l102 201q20 41 62 41q31 0 54.5 -21.5t23.5 -52.5q0 -18 -13 -41l-121 -188l226 10q37 2 57 -20.5t20 -53.5t-20 -53t-57 -20l-226 10l121 -188 q12 -20 13 -41q0 -31 -24 -52.5t-54 -21.5q-41 0 -62 41l-102 199l-105 -201q-18 -39 -61 -39q-31 0 -55.5 20.5t-24.5 51.5q0 20 14 41l121 190l-225 -10q-37 -2 -56.5 20.5t-19.5 52.5z" />
<glyph unicode="+" d="M115 584q0 33 22.5 54t55.5 21h346v347q0 33 21.5 55t53.5 22q33 0 54.5 -22.5t21.5 -54.5v-347h346q33 0 55.5 -21.5t22.5 -53.5q0 -33 -22.5 -54.5t-55.5 -21.5h-346v-346q0 -33 -21.5 -55.5t-54.5 -22.5t-54 22.5t-21 55.5v346h-346q-33 0 -55.5 22.5t-22.5 53.5z" />
<glyph unicode="," horiz-adv-x="487" d="M113 121q0 57 36.5 95t90.5 38q61 0 97 -45t36 -133q0 -174 -117 -301q-25 -25 -53 -25q-27 0 -45.5 17.5t-18.5 42.5q0 20 19 43q57 59 73 141q-51 4 -84.5 39t-33.5 88z" />
<glyph unicode="-" horiz-adv-x="878" d="M125 545q0 39 24.5 61.5t71.5 22.5h436q47 0 72 -22.5t25 -61.5t-24.5 -60.5t-72.5 -21.5h-436q-47 0 -71.5 21.5t-24.5 60.5z" />
<glyph unicode="." horiz-adv-x="487" d="M113 121q0 57 37.5 95t93.5 38q55 0 92 -38t37 -95t-37 -94t-92 -37q-56 0 -93.5 36.5t-37.5 94.5z" />
<glyph unicode="/" horiz-adv-x="606" d="M-25 -53q0 14 7 33l479 1501q10 33 32.5 48t49.5 15q35 0 61.5 -22.5t26.5 -59.5q0 -14 -6 -32l-480 -1502q-10 -32 -32.5 -47.5t-49.5 -15.5q-35 0 -61.5 22.5t-26.5 59.5z" />
<glyph unicode="0" d="M98 721q0 362 132 550.5t384 188.5t384 -187.5t132 -549.5t-132 -550.5t-384 -188.5t-384 188t-132 549zM309 723q0 -293 74 -431t231 -138q158 0 232 137t74 432t-74 431t-232 136t-231.5 -136t-73.5 -431z" />
<glyph unicode="1" d="M229 1151q0 47 41 74l316 200q47 29 90 29q45 0 73.5 -28.5t28.5 -77.5v-1174h238q49 0 73.5 -22.5t24.5 -63.5q0 -88 -98 -88h-684q-100 0 -101 88q0 41 26 63.5t75 22.5h235v1022l-211 -133q-20 -12 -41 -12q-35 0 -60.5 30.5t-25.5 69.5z" />
<glyph unicode="2" d="M119 1217q0 51 41 81q86 74 206.5 118t243.5 44q203 0 323 -103.5t120 -279.5q0 -125 -54.5 -237.5t-181.5 -251.5l-387 -414h600q49 0 74.5 -22.5t25.5 -63.5q0 -88 -100 -88h-790q-45 0 -71 25.5t-26 64.5q0 47 37 86l482 526q96 104 139 190.5t43 170.5 q0 109 -62.5 167t-177.5 58q-174 0 -346 -133q-23 -14 -38 -21.5t-32 -7.5q-29 0 -49 27t-20 64z" />
<glyph unicode="3" d="M96 229q0 37 20.5 62.5t49.5 25.5q31 0 70 -26q88 -66 173 -99.5t183 -33.5q291 0 291 248q0 121 -77 181t-233 60h-112q-39 0 -61.5 25.5t-22.5 60.5q0 33 22.5 58.5t61.5 25.5h80q150 0 228.5 62.5t78.5 183.5q0 106 -64.5 165.5t-181.5 59.5q-172 0 -344 -133 q-39 -27 -70 -27q-29 0 -49 26t-20 63q0 49 41 81q84 76 203.5 119t246.5 43q203 0 323 -100t120 -273q0 -123 -60.5 -214t-171.5 -132q131 -36 198.5 -125.5t67.5 -224.5q0 -188 -132 -296.5t-357 -108.5q-133 0 -255 43t-206 118q-41 33 -41 82z" />
<glyph unicode="4" d="M76 387q0 41 26 80l654 940q33 47 92 47q43 0 73.5 -27.5t30.5 -78.5v-881h131q101 0 101 -84t-101 -84h-131v-203q0 -51 -28.5 -78.5t-75.5 -27.5q-45 0 -74 27.5t-29 78.5v203h-575q-45 0 -69.5 24.5t-24.5 63.5zM303 467h442v639z" />
<glyph unicode="5" d="M141 229q0 37 20.5 62.5t49.5 25.5q18 0 33.5 -6t36.5 -20q84 -66 169 -99.5t179 -33.5q143 0 223 76.5t80 216.5q0 133 -81 212.5t-216 79.5q-88 0 -157.5 -29.5t-131.5 -92.5q-31 -29 -74 -29q-35 0 -58.5 21.5t-23.5 56.5v673q0 47 26 74t75 27h704q47 0 74 -22.5 t27 -61.5q0 -41 -27 -63.5t-74 -22.5h-596v-455q113 94 281 94q135 0 238.5 -57t161 -161.5t57.5 -239.5q0 -137 -63.5 -244t-177.5 -166t-261 -59q-127 0 -249 43t-204 118q-41 35 -41 82z" />
<glyph unicode="6" horiz-adv-x="1226" d="M102 690q0 240 68 413t195 265t301 92q117 0 233.5 -43t198.5 -119q41 -35 41 -81q0 -37 -20.5 -63t-49.5 -26q-18 0 -33.5 6.5t-36.5 20.5q-172 133 -327 133q-170 0 -264.5 -156.5t-94.5 -437.5v-4q45 104 146.5 164.5t228.5 60.5q129 0 231.5 -58t159 -162.5 t56.5 -239.5t-61.5 -243t-169 -168t-245.5 -60q-268 0 -412.5 183t-144.5 523zM358 451q0 -133 80 -214t211 -81q127 0 204 80.5t77 214.5q0 131 -77 211.5t-204 80.5q-129 0 -210 -80.5t-81 -211.5z" />
<glyph unicode="7" d="M106 1356q0 88 99 88h825q45 0 68.5 -24.5t23.5 -63.5q0 -37 -22 -78l-670 -1237q-33 -57 -90 -57q-39 0 -70.5 27.5t-31.5 68.5q0 25 16 57l616 1133h-665q-49 0 -74 22.5t-25 63.5z" />
<glyph unicode="8" d="M86 385q0 133 70.5 227.5t197.5 128.5q-109 41 -171 129t-62 205q0 178 131 281.5t362 103.5t362.5 -103.5t131.5 -281.5q0 -117 -62.5 -206t-168.5 -128q127 -36 196.5 -130.5t69.5 -225.5q0 -188 -138.5 -293.5t-390.5 -105.5t-390 105.5t-138 293.5zM289 399 q0 -244 325 -243q326 -1 326 243q0 246 -326 246t-325 -246zM324 1057q0 -117 73.5 -178.5t216.5 -61.5t217 61.5t74 178.5q0 113 -73.5 173t-217.5 60q-143 0 -216.5 -60.5t-73.5 -172.5z" />
<glyph unicode="9" d="M90 227q0 37 20.5 62.5t49.5 25.5q18 0 33.5 -6t35.5 -20q172 -133 328 -133q170 0 264 156.5t94 437.5v4q-45 -104 -146 -165t-228 -61q-129 0 -231.5 58.5t-159 163t-56.5 239.5t61.5 242.5t169 168t244.5 60.5q269 0 413 -183t144 -523q0 -240 -67.5 -413t-194.5 -265 t-301 -92q-117 0 -233.5 43t-198.5 118q-41 35 -41 82zM299 993q0 -131 77 -212t204 -81q129 0 209.5 81t80.5 212q0 133 -79.5 214t-210.5 81q-127 0 -204 -81t-77 -214z" />
<glyph unicode=":" horiz-adv-x="487" d="M113 121q0 57 37.5 95t93.5 38q55 0 92 -38t37 -95t-37 -94t-92 -37q-56 0 -93.5 36.5t-37.5 94.5zM113 887q0 57 37.5 95t93.5 38q55 0 92 -38t37 -95t-37 -94t-92 -37q-56 0 -93.5 36.5t-37.5 94.5z" />
<glyph unicode=";" horiz-adv-x="487" d="M113 121q0 57 36.5 95t90.5 38q61 0 97 -45t36 -133q0 -174 -117 -301q-25 -25 -53 -25q-27 0 -45.5 17.5t-18.5 42.5q0 20 19 43q57 59 73 141q-51 4 -84.5 39t-33.5 88zM113 887q0 57 37.5 95t93.5 38q55 0 92 -38t37 -95t-37 -94t-92 -37q-56 0 -93.5 36.5t-37.5 94.5 z" />
<glyph unicode="&#x3c;" d="M115 584q0 39 20.5 67.5t54.5 44.5l797 353q27 10 45 10q35 0 58.5 -21.5t23.5 -56.5q0 -43 -43 -63l-770 -334l770 -336q43 -21 43 -64q0 -33 -22.5 -54t-57.5 -21q-20 0 -47 10l-797 352q-35 14 -55 44t-20 69z" />
<glyph unicode="=" d="M127 381q0 31 22.5 52t55.5 21h843q33 0 55.5 -22.5t22.5 -54.5q0 -31 -22.5 -52.5t-55.5 -21.5h-843q-33 0 -55.5 22.5t-22.5 55.5zM127 791q0 31 22.5 52t55.5 21h843q33 0 55.5 -22.5t22.5 -54.5q0 -31 -22.5 -52.5t-55.5 -21.5h-843q-33 0 -55.5 22.5t-22.5 55.5z " />
<glyph unicode="&#x3e;" d="M115 184q0 43 43 64l770 336l-770 334q-43 20 -43 63q0 35 23.5 56.5t58.5 21.5q18 0 45 -10l796 -353q35 -16 55.5 -44.5t20.5 -67.5t-20.5 -69t-55.5 -44l-796 -352q-27 -10 -47 -10q-35 0 -57.5 21.5t-22.5 53.5z" />
<glyph unicode="?" horiz-adv-x="921" d="M-6 1214q0 49 39 82q86 76 203.5 120t234.5 44q119 0 212 -41t145.5 -115.5t52.5 -170.5q0 -76 -26 -138.5t-63.5 -110.5t-103.5 -120q-84 -90 -130 -159.5t-56 -158.5q-4 -27 -21.5 -42t-44.5 -15q-28 0 -45.5 20.5t-17.5 55.5q0 121 43 205t125 184q66 78 97.5 136.5 t31.5 127.5q0 78 -57.5 123t-153.5 45q-86 0 -161 -33.5t-167 -101.5q-41 -25 -68 -25q-31 0 -50 26t-19 62zM307 121q0 57 37 95t94 38q55 0 92 -38t37 -95t-36.5 -94t-92.5 -37q-57 0 -94 36.5t-37 94.5z" />
<glyph unicode="@" horiz-adv-x="1904" d="M94 553q0 274 115 479t315.5 314.5t450.5 109.5q264 0 452.5 -104.5t284.5 -277.5t96 -372q0 -195 -58 -322.5t-152.5 -188t-204.5 -60.5q-109 0 -172.5 47t-73.5 131h-4q-111 -178 -305 -178q-139 0 -224.5 96.5t-85.5 264.5q0 141 54.5 263t153 194.5t225.5 72.5 q94 0 163.5 -43t92.5 -113h4l12 72q4 29 25.5 45t54.5 16q35 0 54 -18t19 -51q0 -14 -2 -23l-77 -442q-8 -61 -9 -78q0 -68 30 -97.5t93 -29.5q53 0 107.5 44t91.5 143.5t37 254.5q0 164 -77 303.5t-230.5 224.5t-374.5 85q-207 0 -371 -91t-257 -264.5t-93 -406.5 q0 -219 86 -383t249 -253t384 -89q291 0 467 154q31 25 59 24q31 0 50.5 -21.5t19.5 -52.5q0 -37 -33 -63q-88 -84 -235.5 -134t-327.5 -50q-266 0 -465 108.5t-306.5 306t-107.5 453.5zM688 496q0 -113 51.5 -174.5t132.5 -61.5q97 0 166.5 58.5t105.5 152.5t36 197 q0 109 -52.5 166t-142.5 57q-92 0 -159.5 -57.5t-102.5 -148.5t-35 -189z" />
<glyph unicode="A" horiz-adv-x="1503" d="M51 82q0 16 10 41l578 1263q14 33 46 51.5t67 18.5t66.5 -18.5t45.5 -51.5l578 -1263q10 -25 10 -41q0 -39 -31.5 -65.5t-70.5 -26.5q-27 0 -50.5 15t-35.5 44l-136 307h-749l-135 -307q-12 -29 -37 -44t-51 -15q-41 0 -73 26.5t-32 65.5zM455 524h600l-301 678z" />
<glyph unicode="B" horiz-adv-x="1388" d="M168 102v1239q0 47 27.5 75t76.5 28h500q223 0 349 -99.5t126 -277.5q0 -115 -60.5 -199t-168.5 -125q125 -34 193.5 -124.5t68.5 -225.5q0 -186 -128 -289.5t-357 -103.5h-523q-49 0 -76.5 27.5t-27.5 74.5zM375 170h397q158 0 231.5 57.5t73.5 178.5q0 123 -74.5 183 t-230.5 60h-397v-479zM375 819h364q303 0 303 230q0 115 -74.5 170t-228.5 55h-364v-455z" />
<glyph unicode="C" horiz-adv-x="1386" d="M119 723q0 225 82 392t235.5 256t360.5 89q135 0 256 -42t211 -122q39 -31 39 -82q0 -37 -20.5 -62.5t-49.5 -25.5q-35 0 -68 27q-98 74 -179 103.5t-183 29.5q-225 0 -346 -145.5t-121 -417.5q0 -274 121 -419.5t346 -145.5q98 0 179 30.5t183 102.5q40 26 66 26h2 q29 0 49.5 -25.5t20.5 -62.5q0 -51 -39 -82q-90 -80 -211 -121.5t-256 -41.5q-207 0 -360.5 89t-235.5 256t-82 394z" />
<glyph unicode="D" horiz-adv-x="1527" d="M168 102v1239q0 47 27.5 75t76.5 28h402q350 0 542.5 -188.5t192.5 -532.5t-192.5 -533.5t-542.5 -189.5h-402q-49 0 -76.5 27.5t-27.5 74.5zM379 176h283q532 0 532 547q0 545 -532 545h-283v-1092z" />
<glyph unicode="E" horiz-adv-x="1198" d="M168 102v1239q0 47 27.5 75t76.5 28h754q47 0 72.5 -22.5t25.5 -63.5t-25.5 -62.5t-72.5 -21.5h-651v-455h610q47 0 72.5 -22.5t25.5 -63.5t-25.5 -63.5t-72.5 -22.5h-610v-477h651q98 0 98 -84q0 -41 -25.5 -63.5t-72.5 -22.5h-754q-49 0 -76.5 27.5t-27.5 74.5z" />
<glyph unicode="F" horiz-adv-x="1148" d="M168 96v1245q0 47 27.5 75t76.5 28h734q98 0 98 -86t-98 -86h-629v-453h588q98 0 98 -86t-98 -86h-588v-551q0 -49 -27.5 -77.5t-77.5 -28.5q-47 0 -75.5 29.5t-28.5 76.5z" />
<glyph unicode="G" horiz-adv-x="1490" d="M119 723q0 227 84 393t240.5 255t367.5 89q143 0 265 -42t208 -122q41 -33 41 -82q0 -37 -20.5 -62.5t-49.5 -25.5q-18 0 -32.5 6.5t-36.5 20.5q-100 74 -182 103.5t-189 29.5q-233 0 -356 -144.5t-123 -418.5q0 -281 126 -425t369 -144q164 0 316 49v403h-268 q-41 0 -64.5 21.5t-23.5 58.5t23.5 58.5t64.5 21.5h374q39 0 62.5 -22.5t23.5 -61.5v-479q0 -70 -19.5 -100.5t-76.5 -49.5q-82 -33 -194.5 -51t-223.5 -18q-219 0 -378.5 88t-243.5 254t-84 397z" />
<glyph unicode="H" horiz-adv-x="1560" d="M168 96v1252q0 47 28.5 76.5t75.5 29.5t76 -29.5t29 -76.5v-529h807v529q0 47 28.5 76.5t75.5 29.5t76 -29.5t29 -76.5v-1252q0 -47 -29 -76.5t-76 -29.5t-75.5 28.5t-28.5 77.5v551h-807v-551q0 -47 -29 -76.5t-76 -29.5t-75.5 28.5t-28.5 77.5z" />
<glyph unicode="I" horiz-adv-x="546" d="M168 96v1252q0 47 28.5 76.5t75.5 29.5q49 0 78 -28.5t29 -77.5v-1252q0 -49 -27.5 -77.5t-79.5 -28.5q-47 0 -75.5 28.5t-28.5 77.5z" />
<glyph unicode="J" horiz-adv-x="698" d="M-25 76q0 80 88 86l64 4q96 4 143 58.5t47 170.5v953q0 47 30 76.5t77 29.5q49 0 77.5 -29.5t28.5 -76.5v-953q0 -193 -91 -292t-273 -109l-64 -4q-9 -1 -18 -1q-48 0 -76 19q-33 23 -33 68z" />
<glyph unicode="K" horiz-adv-x="1314" d="M168 96v1252q0 47 28.5 76.5t75.5 29.5q49 0 78 -28.5t29 -77.5v-562l698 637q29 29 68 29t67.5 -28.5t28.5 -65.5q0 -39 -35 -72l-610 -545l647 -581q35 -33 35 -72t-29.5 -67.5t-68.5 -28.5t-72 33l-729 657v-586q0 -49 -27.5 -77.5t-79.5 -28.5q-47 0 -75.5 28.5 t-28.5 77.5z" />
<glyph unicode="L" horiz-adv-x="1120" d="M168 98v1250q0 47 28.5 76.5t75.5 29.5q49 0 78 -28.5t29 -77.5v-1172h622q47 0 73 -22.5t26 -65.5t-25.5 -65.5t-73.5 -22.5h-731q-47 0 -74.5 26.5t-27.5 71.5z" />
<glyph unicode="M" horiz-adv-x="1722" d="M170 90v1258q0 47 28.5 76.5t73.5 29.5q63 0 103 -74l489 -936l486 936q39 74 100 74q45 0 73.5 -29.5t28.5 -76.5v-1258q0 -47 -25.5 -73.5t-70.5 -26.5q-43 0 -67.5 26.5t-24.5 73.5v952l-401 -763q-39 -72 -101 -72q-61 0 -100 72l-404 755v-944q0 -47 -24.5 -73.5 t-69.5 -26.5q-43 0 -68.5 27.5t-25.5 72.5z" />
<glyph unicode="N" horiz-adv-x="1521" d="M168 96v1252q0 47 28.5 76.5t73.5 29.5q53 0 82 -41l803 -1061v996q0 47 26.5 76.5t71.5 29.5t73 -29.5t28 -76.5v-1252q0 -47 -29 -76.5t-74 -29.5q-53 0 -82 41l-802 1059v-994q0 -47 -28 -76.5t-73 -29.5t-71.5 28.5t-26.5 77.5z" />
<glyph unicode="O" horiz-adv-x="1579" d="M119 721q0 227 81 394t232.5 256t355.5 89q207 0 358.5 -89t232.5 -256t81 -392t-81 -392t-232.5 -257t-358.5 -90q-204 0 -354.5 90t-232.5 256t-82 391zM334 723q0 -272 119.5 -419.5t334.5 -147.5q218 0 338.5 147.5t120.5 419.5t-119.5 418.5t-339.5 146.5 q-215 0 -334.5 -146.5t-119.5 -418.5z" />
<glyph unicode="P" horiz-adv-x="1335" d="M168 96v1245q0 47 27.5 75t76.5 28h494q229 0 356 -112.5t127 -319.5q0 -205 -127 -319.5t-356 -114.5h-387v-482q0 -49 -27.5 -77.5t-79.5 -28.5q-47 0 -75.5 28.5t-28.5 77.5zM379 748h364q303 0 304 264q0 262 -304 262h-364v-526z" />
<glyph unicode="Q" horiz-adv-x="1579" d="M119 721q0 227 81 394t232.5 256t355.5 89q207 0 358.5 -89t232.5 -256t81 -392q0 -252 -102.5 -431t-288.5 -255q88 -29 154 -137l82 -136q18 -31 18 -59q0 -37 -28.5 -60.5t-67.5 -23.5q-66 0 -105 62l-118 196q-66 104 -216 105q-205 0 -355 90t-232 256t-82 391z M334 723q0 -272 119.5 -419.5t334.5 -147.5q217 0 338 147.5t121 419.5t-119.5 418.5t-339.5 146.5q-215 0 -334.5 -146.5t-119.5 -418.5z" />
<glyph unicode="R" horiz-adv-x="1413" d="M168 96v1245q0 47 27.5 75t76.5 28h510q240 0 366 -106.5t126 -311.5q0 -170 -96.5 -275.5t-274.5 -134.5q53 -14 96 -51t84 -102l211 -332q19 -26 19 -57q0 -37 -30 -62.5t-69 -25.5q-57 0 -92 51l-274 426q-47 74 -100.5 103.5t-139.5 29.5h-231v-500 q0 -49 -27.5 -77.5t-77.5 -28.5q-47 0 -75.5 28.5t-28.5 77.5zM375 766h383q160 0 236.5 62.5t76.5 193.5t-75.5 191.5t-237.5 60.5h-383v-508z" />
<glyph unicode="S" horiz-adv-x="1284" d="M86 229q0 37 20.5 62.5t49.5 25.5t69 -26q182 -135 416 -135q164 0 252 61.5t88 175.5q0 90 -82 135t-262 86q-172 37 -282.5 84t-173 128t-62.5 206t68.5 222.5t191.5 151.5t280 54q145 0 268.5 -41t209.5 -121q41 -35 41 -84q0 -35 -21.5 -61.5t-50.5 -26.5 q-27 0 -68 27q-94 72 -177 103.5t-199 31.5q-158 0 -246 -64.5t-88 -179.5q0 -98 77.5 -148t249.5 -91q180 -41 292 -85t178.5 -121t66.5 -198q0 -123 -68.5 -218t-192.5 -147t-286 -52q-156 0 -296 43t-224 118q-39 33 -39 84z" />
<glyph unicode="T" horiz-adv-x="1239" d="M4 1356q0 43 25.5 65.5t72.5 22.5h1033q47 0 72.5 -22.5t25.5 -65.5q0 -88 -98 -88h-410v-1172q0 -47 -28.5 -76.5t-78.5 -29.5q-47 0 -76.5 29.5t-29.5 76.5v1172h-410q-98 0 -98 88z" />
<glyph unicode="U" horiz-adv-x="1490" d="M158 573v775q0 49 28.5 77.5t75.5 28.5t76 -28.5t29 -77.5v-789q0 -199 95 -301t283 -102q186 0 282.5 102t96.5 301v789q0 47 29 76.5t76 29.5t75.5 -28.5t28.5 -77.5v-775q0 -289 -150.5 -439t-437.5 -150q-288 0 -437.5 149.5t-149.5 439.5z" />
<glyph unicode="V" horiz-adv-x="1435" d="M20 1362q0 41 34 67.5t75 26.5q63 0 90 -57l502 -1125l502 1125q27 57 88 57q41 0 73.5 -27.5t32.5 -66.5q0 -14 -10 -39l-578 -1266q-14 -33 -44.5 -51t-65.5 -18t-66.5 18.5t-46.5 50.5l-575 1266q-10 25 -11 39z" />
<glyph unicode="W" horiz-adv-x="2263" d="M74 1364q0 41 30.5 66.5t73.5 25.5q31 0 56.5 -16.5t37.5 -48.5l379 -1090l385 1079q12 35 40 53.5t61 18.5t59.5 -19.5t40.5 -54.5l377 -1087l385 1100q12 32 36.5 48.5t55.5 16.5q39 0 68.5 -25.5t29.5 -66.5q0 -23 -8 -41l-452 -1266q-14 -35 -45 -53t-68 -18 q-35 0 -65.5 18.5t-43.5 52.5l-372 1057l-381 -1057q-12 -35 -43 -53t-66 -18q-37 0 -66.5 18.5t-43.5 52.5l-453 1266q-8 18 -8 41z" />
<glyph unicode="X" horiz-adv-x="1339" d="M51 88q0 33 25 64l471 583l-449 557q-24 26 -24 61q0 42 29.5 71.5t68.5 29.5q43 0 74 -37l424 -534l424 534q29 37 73 37q39 0 70 -29.5t31 -68.5q0 -35 -27 -64l-448 -557l469 -583q26 -29 26 -64q0 -39 -30.5 -68.5t-69.5 -29.5q-43 0 -74 37l-444 559l-447 -559 q-31 -37 -71 -37q-39 0 -70 29.5t-31 68.5z" />
<glyph unicode="Y" horiz-adv-x="1251" d="M12 1358q0 39 29 67.5t68 28.5q41 0 71 -37l447 -561l444 561q29 37 72 37q37 0 66.5 -29.5t29.5 -68.5q0 -37 -25 -64l-483 -602v-594q0 -51 -29.5 -78.5t-76.5 -27.5t-76 27.5t-29 78.5v594l-483 602q-25 27 -25 66z" />
<glyph unicode="Z" horiz-adv-x="1218" d="M76 88q0 41 26 80l781 1104h-707q-98 0 -98 86t98 86h871q45 0 70.5 -25.5t25.5 -64.5q0 -41 -27 -76l-782 -1106h733q98 0 98 -86t-98 -86h-897q-43 0 -68.5 24.5t-25.5 63.5z" />
<glyph unicode="[" horiz-adv-x="677" d="M221 -141v1358q0 109 58.5 168t164.5 59h148q37 0 61.5 -20.5t24.5 -59.5t-24.5 -59.5t-61.5 -20.5h-80q-45 0 -66.5 -21.5t-21.5 -68.5v-1313q0 -47 21.5 -68.5t66.5 -21.5h80q37 0 61.5 -20.5t24.5 -59.5t-24.5 -59.5t-61.5 -20.5h-148q-106 0 -164.5 59.5t-58.5 168.5 z" />
<glyph unicode="\" horiz-adv-x="606" d="M-25 1462q0 35 27 58.5t61 23.5q27 0 49.5 -15.5t32.5 -47.5l480 -1501q6 -18 6 -33q0 -35 -26.5 -58.5t-61.5 -23.5q-27 0 -49.5 15.5t-32.5 47.5l-479 1502q-6 18 -7 32z" />
<glyph unicode="]" horiz-adv-x="677" d="M0 -289q0 39 24.5 59.5t59.5 20.5h82q88 0 88 90v1313q0 90 -88 90h-82q-35 0 -59.5 20.5t-24.5 59.5t23.5 59.5t60.5 20.5h147q109 0 167.5 -59.5t58.5 -167.5v-1358q0 -109 -58.5 -168.5t-167.5 -59.5h-147q-37 0 -60.5 20.5t-23.5 59.5z" />
<glyph unicode="^" d="M139 367q0 20 8 39l357 811q16 33 45 52t65 19q37 0 66 -19.5t45 -51.5l356 -811q11 -25 11 -41q0 -33 -25 -53.5t-55 -20.5q-41 0 -60 39l-338 770l-338 -770q-8 -20 -23 -30.5t-36 -10.5q-29 0 -53.5 22.5t-24.5 55.5z" />
<glyph unicode="_" horiz-adv-x="1024" d="M0 -66q0 29 22.5 47.5t59.5 18.5h860q37 0 59.5 -18.5t22.5 -47.5q0 -27 -22.5 -45t-59.5 -18h-860q-37 0 -59.5 18.5t-22.5 44.5z" />
<glyph unicode="`" horiz-adv-x="614" d="M-62 1466q0 37 26.5 62.5t65.5 25.5q55 0 95 -53l221 -289q14 -16 14 -36q0 -23 -17.5 -39.5t-39.5 -16.5q-23 0 -39 15l-277 243q-49 41 -49 88z" />
<glyph unicode="a" horiz-adv-x="1095" d="M109 297q0 109 56 171t186 89t358 27h47v59q0 115 -47 166t-152 51q-72 0 -135.5 -18.5t-138.5 -53.5q-53 -30 -77 -30h-1q-31 0 -50.5 22.5t-19.5 57.5q0 31 17.5 54t56.5 46q72 39 168 62.5t186 23.5q199 0 296 -100.5t97 -305.5v-530q0 -47 -26.5 -72.5t-73.5 -25.5 q-45 0 -71.5 26.5t-26.5 71.5v76q-39 -86 -116 -132t-179 -46q-98 0 -180 40t-128 111.5t-46 159.5zM313 307q0 -74 53.5 -121t133.5 -47q112 0 184 77t72 198v53h-37q-160 0 -246 -14.5t-123 -48t-37 -97.5z" />
<glyph unicode="b" horiz-adv-x="1210" d="M143 90v1266q0 45 30 71.5t77 26.5q45 0 72.5 -25.5t27.5 -68.5v-524q45 90 131 139t199 49q131 0 231.5 -63.5t156.5 -180t56 -272.5q0 -154 -56 -272.5t-157.5 -184t-230.5 -65.5q-113 0 -199 48t-131 138v-82q0 -45 -27.5 -72.5t-74.5 -27.5t-76 27.5t-29 72.5z M350 504q0 -170 73 -262t208 -92q133 0 207.5 94t74.5 264q0 168 -73.5 259t-208.5 91t-208 -92t-73 -262z" />
<glyph unicode="c" horiz-adv-x="989" d="M86 500q0 156 62.5 274.5t175 184t258.5 65.5q78 0 156.5 -22.5t140.5 -61.5q65 -44 65 -102q0 -37 -18.5 -60.5t-46.5 -23.5q-18 0 -37 9t-47 28q-51 33 -95.5 50t-105.5 17q-139 0 -216 -94t-77 -262t76 -259t215 -91q61 0 108.5 18t96.5 49q23 14 45 24.5t41 10.5 q29 0 47 -23.5t18 -58.5q0 -29 -15 -52.5t-52 -47.5q-61 -41 -143.5 -63.5t-166.5 -22.5q-145 0 -254.5 63.5t-170 180t-60.5 270.5z" />
<glyph unicode="d" horiz-adv-x="1210" d="M86 508q0 156 56.5 272.5t156.5 180t231 63.5q113 0 198 -48t130 -136v520q0 43 27.5 68.5t75.5 25.5q47 0 75.5 -26.5t28.5 -71.5v-1266q0 -47 -27.5 -73.5t-74.5 -26.5t-75 26.5t-28 73.5v82q-45 -90 -131 -138t-199 -48q-129 0 -230 65.5t-157.5 184t-56.5 272.5z M295 508q0 -168 75.5 -263t209.5 -95q133 0 206.5 92t73.5 262t-72.5 262t-207.5 92t-210 -91t-75 -259z" />
<glyph unicode="e" horiz-adv-x="1083" d="M86 502q0 154 60.5 272.5t170 184t248.5 65.5q201 0 317.5 -129t116.5 -348q0 -82 -73 -82h-633q20 -317 305 -318q76 0 131 20.5t117 53.5q6 4 33.5 17.5t46.5 13.5q28 0 46.5 -22.5t18.5 -57.5q0 -59 -73 -100q-72 -41 -157 -63.5t-163 -22.5q-238 0 -375 138t-137 378 zM293 584h528q-6 139 -70.5 213.5t-181.5 74.5q-118 0 -190 -75.5t-86 -212.5z" />
<glyph unicode="f" horiz-adv-x="700" d="M-6 920q0 37 23.5 58t66.5 21h123v27q0 188 96 296t272 120l54 4q12 1 22 1q49 0 73 -15q30 -19 30 -60q0 -72 -86 -82l-54 -4q-102 -8 -151 -64.5t-49 -164.5v-58h202q43 0 67 -21.5t24 -57.5q0 -37 -24 -58.5t-67 -21.5h-202v-750q0 -49 -30 -74.5t-75 -25.5 t-73.5 25.5t-28.5 74.5v750h-123q-43 0 -66.5 21.5t-23.5 58.5z" />
<glyph unicode="g" horiz-adv-x="1218" d="M86 526q0 147 57.5 260t158.5 175.5t233 62.5q115 0 201.5 -49t131.5 -139v86q0 45 28 71.5t75 26.5t74.5 -27.5t27.5 -72.5v-840q0 -229 -122 -346t-359 -117q-221 0 -369 84q-76 43 -76 102q0 35 19.5 57.5t48.5 22.5q27 0 84 -30q74 -35 137.5 -54.5t151.5 -19.5 q283 0 282 284v158q-43 -90 -131 -140t-204 -50q-131 0 -233.5 61.5t-159 174t-56.5 259.5zM295 526q0 -156 78 -243.5t211 -87.5t208.5 88t75.5 243q0 154 -74.5 243t-209.5 89t-212 -88t-77 -244z" />
<glyph unicode="h" horiz-adv-x="1179" d="M143 88v1268q0 45 30 71.5t77 26.5q45 0 72.5 -25.5t27.5 -68.5v-512q51 86 137 131t197 45q356 0 356 -403v-533q0 -45 -28.5 -71.5t-75.5 -26.5t-74.5 26.5t-27.5 71.5v530q0 123 -50.5 180.5t-156.5 57.5q-125 0 -201 -78t-76 -209v-481q0 -45 -27.5 -71.5 t-74.5 -26.5t-76 26.5t-29 71.5z" />
<glyph unicode="i" horiz-adv-x="495" d="M119 1339q0 53 34.5 85t94.5 32q57 0 93 -31.5t36 -85.5q0 -53 -35 -85.5t-94 -32.5q-60 0 -94.5 32.5t-34.5 85.5zM143 88v832q0 49 30 74.5t75 25.5t73.5 -25.5t28.5 -74.5v-832q0 -49 -28.5 -73.5t-73.5 -24.5t-75 24.5t-30 73.5z" />
<glyph unicode="j" horiz-adv-x="495" d="M-160 -293q0 33 20.5 52.5t65.5 23.5l58 4q80 4 119.5 49t39.5 144v940q0 49 30 74.5t75 25.5t73.5 -25.5t28.5 -74.5v-928q0 -172 -80 -260t-247 -101l-56 -4q-10 -1 -19 -1q-47 0 -75 18q-33 20 -33 63zM119 1339q0 53 34.5 85t94.5 32q57 0 93 -31.5t36 -85.5 q0 -53 -35 -85.5t-94 -32.5q-60 0 -94.5 32.5t-34.5 85.5z" />
<glyph unicode="k" horiz-adv-x="1058" d="M143 90v1264q0 49 30 74.5t75 25.5t73.5 -25.5t28.5 -74.5v-803l467 436q35 31 68 31q39 0 67.5 -28.5t28.5 -67.5t-35 -72l-364 -334l401 -354q37 -31 37 -76q0 -39 -26.5 -67.5t-63.5 -28.5q-39 0 -70 28l-510 451v-379q0 -49 -28.5 -74.5t-73.5 -25.5t-75 25.5 t-30 74.5z" />
<glyph unicode="l" horiz-adv-x="495" d="M143 88v1266q0 49 30 74.5t75 25.5t73.5 -25.5t28.5 -74.5v-1266q0 -49 -28.5 -73.5t-73.5 -24.5t-75 24.5t-30 73.5z" />
<glyph unicode="m" horiz-adv-x="1765" d="M143 88v834q0 45 31 71.5t74 26.5t70.5 -25.5t27.5 -70.5v-76q45 86 125 131t184 45q115 0 190 -47t111 -146q45 88 133.5 140.5t200.5 52.5q336 0 336 -403v-533q0 -47 -28.5 -72.5t-75.5 -25.5q-45 0 -74 25.5t-29 72.5v530q0 125 -45 181.5t-141 56.5 q-113 0 -178.5 -77t-65.5 -210v-481q0 -47 -28.5 -72.5t-75.5 -25.5q-45 0 -74 25.5t-29 72.5v530q0 125 -45 181.5t-141 56.5q-113 0 -179.5 -77t-66.5 -210v-481q0 -47 -28.5 -72.5t-73.5 -25.5t-75 25.5t-30 72.5z" />
<glyph unicode="n" horiz-adv-x="1179" d="M143 88v834q0 43 30 70.5t75 27.5t71.5 -26.5t26.5 -69.5v-84q49 90 137 137t199 47q358 0 358 -403v-533q0 -47 -27.5 -72.5t-76.5 -25.5q-47 0 -74.5 26.5t-27.5 71.5v522q0 127 -50.5 186.5t-156.5 59.5q-125 0 -201 -78t-76 -209v-481q0 -45 -27.5 -71.5t-74.5 -26.5 t-76 26.5t-29 71.5z" />
<glyph unicode="o" horiz-adv-x="1155" d="M86 504q0 158 60.5 275.5t172 181t259.5 63.5q147 0 258.5 -63.5t172 -181t60.5 -275.5q0 -156 -60.5 -273.5t-172 -181t-258.5 -63.5q-148 0 -259.5 63.5t-172 181t-60.5 273.5zM295 504q0 -174 72.5 -264t210.5 -90q137 0 209.5 90t72.5 264q0 172 -73.5 263t-208.5 91 t-209 -91t-74 -263z" />
<glyph unicode="p" horiz-adv-x="1210" d="M143 -281v1201q0 45 29 72.5t76 27.5q45 0 73.5 -27.5t28.5 -72.5v-84q45 90 131 139t199 49q129 0 230.5 -65.5t157.5 -184.5t56 -274q0 -154 -55 -270.5t-156.5 -180t-232.5 -63.5q-113 0 -199 48t-131 138v-457q0 -43 -27.5 -68.5t-72.5 -25.5q-47 0 -77 26.5 t-30 71.5zM350 504q0 -170 73 -262t208 -92t208.5 91t73.5 259q0 170 -74.5 264t-207.5 94q-135 0 -208 -92t-73 -262z" />
<glyph unicode="q" horiz-adv-x="1210" d="M86 500q0 156 56.5 274.5t157.5 184t230 65.5q113 0 199 -49t131 -139v84q0 45 27.5 72.5t75.5 27.5q47 0 74.5 -27.5t27.5 -72.5v-1201q0 -45 -28.5 -71.5t-75.5 -26.5t-75 25.5t-28 68.5v453q-45 -88 -130 -135t-198 -47q-131 0 -232 63.5t-156.5 180t-55.5 270.5z M295 500q0 -168 74.5 -259t210.5 -91q135 0 207.5 92t72.5 262t-72.5 262t-207.5 92q-133 0 -209 -95t-76 -263z" />
<glyph unicode="r" horiz-adv-x="749" d="M143 88v834q0 47 30 72.5t75 25.5q41 0 68.5 -25.5t27.5 -70.5v-99q41 90 119 137.5t176 55.5l29 2h12q86 0 86 -84q0 -45 -22.5 -67.5t-77.5 -26.5l-62 -6q-129 -12 -191.5 -90t-62.5 -189v-469q0 -49 -28.5 -73.5t-73.5 -24.5t-75 24.5t-30 73.5z" />
<glyph unicode="s" horiz-adv-x="987" d="M82 174q0 33 18.5 55.5t46.5 22.5q27 0 84 -33q61 -33 120 -53.5t147 -20.5q98 0 153.5 35t55.5 99q0 41 -21.5 65.5t-75 44t-157.5 41.5q-180 39 -259 105.5t-79 181.5q0 88 51 158.5t141 109.5t205 39q82 0 160 -21.5t137 -62.5q68 -45 68 -104q0 -33 -19.5 -55.5 t-46.5 -22.5q-18 0 -36.5 8t-49.5 27q-55 33 -103.5 51t-119.5 18q-86 0 -138.5 -37t-52.5 -100q0 -57 48.5 -89t181.5 -61q137 -29 215 -65.5t111.5 -90.5t33.5 -138q0 -133 -111.5 -214t-297.5 -81q-209 0 -342 86q-37 23 -52.5 47t-15.5 55z" />
<glyph unicode="t" horiz-adv-x="722" d="M-6 920q0 37 23.5 58t66.5 21h123v211q0 47 27.5 74t74.5 27t76 -27t29 -74v-211h202q43 0 67 -21.5t24 -57.5q0 -39 -24 -59.5t-67 -20.5h-202v-496q0 -96 40 -141t121 -51l58 -5q45 -4 64.5 -23.5t19.5 -53.5q0 -40 -32 -62q-27 -18 -75 -19q-9 0 -18 1l-55 4 q-166 12 -248 101t-82 263v482h-123q-90 0 -90 80z" />
<glyph unicode="u" horiz-adv-x="1165" d="M139 387v533q0 47 28 73.5t77 26.5q47 0 74.5 -26.5t27.5 -73.5v-531q0 -121 49 -178t152 -57q121 0 193.5 77.5t72.5 206.5v482q0 45 28.5 72.5t76.5 27.5q47 0 74.5 -26.5t27.5 -73.5v-834q0 -43 -28.5 -69.5t-76.5 -26.5q-43 0 -69.5 25.5t-26.5 68.5v78 q-47 -86 -130 -131t-185 -45q-365 0 -365 401z" />
<glyph unicode="v" horiz-adv-x="1064" d="M27 928q0 37 32.5 63.5t73.5 26.5q59 0 88 -57l318 -705l315 702q12 31 35.5 45.5t50.5 14.5q39 0 68.5 -26.5t29.5 -63.5q0 -20 -8 -39l-391 -830q-14 -33 -44 -50t-63 -17t-62.5 17.5t-43.5 49.5l-391 830q-8 16 -8 39z" />
<glyph unicode="w" horiz-adv-x="1736" d="M51 924q0 41 34 67.5t75 26.5q61 0 84 -60l264 -698l270 692q12 33 39 49.5t57 16.5q29 0 55.5 -16.5t39.5 -49.5l270 -688l264 692q23 62 84 62q39 0 70 -26.5t31 -65.5q0 -20 -9 -37l-340 -830q-12 -33 -40.5 -50t-63.5 -17q-33 0 -61.5 17.5t-40.5 49.5l-267 658 l-260 -658q-12 -33 -39.5 -50t-62.5 -17q-33 0 -62.5 17.5t-44.5 49.5l-338 830q-8 16 -8 35z" />
<glyph unicode="x" horiz-adv-x="1075" d="M59 86q0 39 29 70l324 356l-308 342q-30 34 -30 68q0 41 28.5 68.5t65.5 27.5q39 0 72 -35l297 -336l297 336q33 35 73 35q37 0 65.5 -27.5t28.5 -66.5t-30 -70l-307 -342l321 -356q31 -31 31 -72q0 -39 -27.5 -66.5t-66.5 -27.5t-72 35l-313 352l-312 -352 q-33 -35 -71 -35q-39 0 -67 28.5t-28 67.5z" />
<glyph unicode="y" horiz-adv-x="1064" d="M27 926q0 39 32.5 65.5t73.5 26.5q61 0 88 -57l318 -705l315 702q12 31 35.5 45.5t50.5 14.5q39 0 68.5 -26.5t29.5 -63.5q0 -20 -8 -39l-569 -1208q-12 -29 -36 -44.5t-50 -15.5q-37 0 -66.5 24.5t-29.5 61.5q0 16 10 41l141 301l-395 840q-8 16 -8 37z" />
<glyph unicode="z" horiz-adv-x="1036" d="M80 920q0 37 23.5 58t66.5 21h680q43 0 70.5 -26.5t27.5 -63.5q0 -39 -30 -75l-570 -674h535q45 0 68.5 -21.5t23.5 -58.5t-23.5 -58.5t-68.5 -21.5h-701q-45 0 -71.5 25.5t-26.5 64.5t31 76l569 674h-514q-43 0 -66.5 21.5t-23.5 58.5z" />
<glyph unicode="{" horiz-adv-x="753" d="M74 539q0 35 21.5 57t62.5 25q78 4 108.5 41.5t30.5 119.5v435q0 109 58.5 168t164.5 59h148q37 0 61.5 -20.5t24.5 -59.5t-24.5 -59.5t-61.5 -20.5h-80q-45 0 -66.5 -21.5t-21.5 -68.5v-434q0 -90 -46 -148.5t-110 -72.5q63 -14 109.5 -73.5t46.5 -150.5v-434 q0 -47 21.5 -68.5t66.5 -21.5h80q37 0 61.5 -20.5t24.5 -59.5t-24.5 -59.5t-61.5 -20.5h-148q-106 0 -164.5 59.5t-58.5 168.5v434q0 82 -30.5 120t-108.5 42q-41 2 -62.5 24.5t-21.5 59.5z" />
<glyph unicode="|" horiz-adv-x="550" d="M178 -281v1637q0 43 27.5 70.5t70.5 27.5q41 0 69 -27.5t28 -70.5v-1637q0 -43 -27 -70.5t-70 -27.5q-40 0 -69 27.5t-29 70.5z" />
<glyph unicode="}" horiz-adv-x="753" d="M0 -289q0 39 24.5 59.5t59.5 20.5h82q88 0 88 90v434q0 90 46 149.5t110 74.5q-63 14 -109.5 72.5t-46.5 148.5v434q0 90 -88 90h-82q-35 0 -59.5 20.5t-24.5 59.5t23.5 59.5t60.5 20.5h147q109 0 167.5 -59.5t58.5 -167.5v-435q0 -84 29.5 -120.5t107.5 -40.5 q41 -3 62.5 -25.5t21.5 -56.5q0 -37 -21.5 -59.5t-62.5 -24.5q-76 -4 -105.5 -41t-29.5 -121l-2 -434q0 -109 -58.5 -168.5t-167.5 -59.5h-147q-37 0 -60.5 20.5t-23.5 59.5z" />
<glyph unicode="~" d="M133 553q0 20 12 39q41 68 102.5 105.5t137.5 37.5q63 0 124.5 -23.5t141.5 -66.5q72 -37 109 -52t71 -15q76 0 130 67q29 39 65 39q16 0 37 -10q14 -8 23.5 -24.5t9.5 -33.5q0 -23 -13 -41q-43 -68 -103 -104.5t-136 -36.5q-64 0 -125.5 23.5t-140.5 66.5 q-66 35 -106 50.5t-75 15.5q-78 0 -129 -66q-29 -39 -65 -39q-20 0 -37 11q-14 8 -23.5 23.5t-9.5 33.5z" />
<glyph unicode="&#xa2;" d="M178 500q0 201 103.5 339t277.5 173v153q0 39 24.5 63.5t63.5 24.5t62.5 -24.5t23.5 -63.5v-145q135 -12 238 -80q66 -45 65 -104q0 -35 -18.5 -58.5t-46.5 -23.5q-18 0 -40 11t-44 26q-53 33 -96 50t-105 17q-139 0 -216 -94t-77 -262t77 -259t216 -91q61 0 106.5 18 t96.5 49q23 14 45 24.5t41 10.5q29 0 47 -23.5t18 -58.5q0 -29 -15 -51.5t-52 -48.5q-96 -66 -240 -82v-146q0 -41 -23.5 -65.5t-62.5 -24.5t-63.5 25.5t-24.5 64.5v152q-176 31 -278.5 166t-102.5 338z" />
<glyph unicode="&#xa3;" d="M74 88q0 41 25.5 63.5t74.5 22.5h107v479h-136q-31 0 -51 20.5t-20 49.5t20.5 49.5t50.5 20.5h136v270q0 182 111.5 289.5t303.5 107.5q123 0 238 -44t199 -120q41 -35 41 -82q0 -37 -20.5 -62.5t-49.5 -25.5q-18 0 -34.5 7.5t-35.5 19.5q-92 70 -170 102.5t-159 32.5 q-98 0 -157 -59.5t-59 -179.5v-256h308q31 0 51 -20.5t20 -49.5t-20.5 -49.5t-50.5 -20.5h-308v-479h584q49 0 75 -22.5t26 -63.5q0 -88 -101 -88h-899q-100 0 -100 88z" />
<glyph unicode="&#xa5;" d="M23 1360q0 39 29.5 67.5t66.5 28.5q43 0 74 -39l421 -536l422 536q29 37 72 37q37 0 66.5 -29.5t29.5 -68.5q0 -37 -24 -64l-394 -493h246q31 0 51.5 -19.5t20.5 -50.5t-20.5 -50.5t-51.5 -19.5h-313v-172h313q31 0 51.5 -19t20.5 -50t-20.5 -50.5t-51.5 -19.5h-313v-252 q0 -51 -28.5 -78.5t-76.5 -27.5q-47 0 -76.5 27.5t-29.5 78.5v252h-311q-31 0 -51.5 19.5t-20.5 50.5t20.5 50t51.5 19h311v172h-311q-31 0 -51.5 19.5t-20.5 50.5t20.5 50.5t51.5 19.5h247l-395 495q-27 33 -26 66z" />
<glyph unicode="&#xa8;" horiz-adv-x="614" d="M10 1339q0 49 32.5 80t84.5 31q49 0 82.5 -30.5t33.5 -80.5q0 -51 -32.5 -81.5t-83.5 -30.5q-52 0 -84.5 30.5t-32.5 81.5zM372 1339q0 49 33 80t82 31q51 0 84 -30.5t33 -80.5q0 -51 -33 -81.5t-84 -30.5q-49 0 -82 31.5t-33 80.5z" />
<glyph unicode="&#xa9;" horiz-adv-x="1669" d="M102 723q0 205 96.5 372t264.5 263t373 96t371.5 -96t263 -263t96.5 -372t-96.5 -372t-264.5 -264t-370 -97q-205 0 -373 97t-264.5 264t-96.5 372zM209 723q0 -176 82 -320.5t225 -227.5t320 -83q176 0 318 83t224 227.5t82 320.5t-82 319.5t-224 226.5t-318 83 t-319.5 -83t-225.5 -226.5t-82 -319.5zM430 723q0 203 116 321.5t306 118.5q162 0 272 -88q18 -12 25.5 -27.5t7.5 -37.5q0 -29 -16.5 -53.5t-44.5 -24.5q-18 0 -36 8t-22 10q-49 31 -88 47.5t-90 16.5q-117 0 -176 -73t-59 -218q0 -293 235 -293q51 0 90 16.5t88 47.5 q4 2 21.5 10t36.5 8q29 0 45 -24.5t16 -53.5q0 -23 -7 -38t-26 -27q-109 -88 -272 -88q-193 0 -307.5 119.5t-114.5 322.5z" />
<glyph unicode="&#xaa;" horiz-adv-x="681" d="M53 1016q0 94 77 135t269 41h39v33q0 53 -24.5 75.5t-79.5 22.5q-74 0 -152 -39q-33 -14 -49 -14q-27 0 -42 19.5t-15 43.5q0 23 10 39.5t37 30.5q43 23 103.5 37t121.5 14q129 0 194.5 -63.5t65.5 -196.5v-279q0 -43 -24.5 -64.5t-61.5 -21.5q-35 0 -58.5 21.5 t-23.5 64.5v25q-23 -51 -69.5 -81t-106.5 -30q-90 0 -150.5 56.5t-60.5 130.5zM217 1026q0 -33 25.5 -54.5t66.5 -21.5q56 0 92.5 35t36.5 96v23h-20q-121 0 -161 -18.5t-40 -59.5z" />
<glyph unicode="&#xab;" horiz-adv-x="952" d="M111 545q0 27 20 61l162 268q29 47 78 48q31 0 55.5 -21.5t24.5 -52.5q0 -16 -11 -41l-129 -264l129 -262q10 -25 11 -41q0 -31 -22.5 -51.5t-55.5 -20.5q-49 0 -78 45l-164 268q-20 37 -20 64zM506 545q0 27 20 61l162 268q29 47 78 48q31 0 55.5 -21.5t24.5 -52.5 q0 -16 -11 -41l-129 -264l129 -262q10 -25 11 -41q0 -31 -22.5 -51.5t-55.5 -20.5q-49 0 -78 45l-164 268q-20 37 -20 64z" />
<glyph unicode="&#xac;" d="M115 797q0 31 22.5 52t55.5 21h843q33 0 55.5 -22.5t22.5 -54.5v-418q0 -33 -22.5 -55.5t-55.5 -22.5q-32 0 -52.5 22.5t-20.5 55.5v344h-770q-33 0 -55.5 22.5t-22.5 55.5z" />
<glyph unicode="&#xad;" horiz-adv-x="878" d="M125 545q0 39 24.5 61.5t71.5 22.5h436q47 0 72 -22.5t25 -61.5t-24.5 -60.5t-72.5 -21.5h-436q-47 0 -71.5 21.5t-24.5 60.5z" />
<glyph unicode="&#xae;" horiz-adv-x="1669" d="M102 723q0 205 96.5 372t264.5 263t373 96q204 0 371 -96t263.5 -263t96.5 -372t-96.5 -372t-264.5 -264t-370 -97q-205 0 -373 97t-264.5 264t-96.5 372zM209 723q0 -176 82 -320.5t225 -227.5t320 -83q176 0 318 83t224 227.5t82 320.5t-82 319.5t-224 226.5t-318 83 t-319.5 -83t-225.5 -226.5t-82 -319.5zM514 375v690q0 43 23.5 66.5t64.5 23.5h289q145 0 226 -68.5t81 -193.5q0 -100 -56.5 -165.5t-158.5 -84.5q37 -8 64.5 -29.5t58.5 -62.5l96 -143q20 -27 21 -52q0 -33 -29 -55t-66 -22q-51 0 -84 45l-159 243q-20 31 -44 45.5 t-61 14.5h-80v-252q0 -45 -25.5 -69.5t-66.5 -24.5t-67.5 24.5t-26.5 69.5zM698 768h170q78 0 114 27.5t36 93.5t-36 93.5t-114 27.5h-170v-242z" />
<glyph unicode="&#xb1;" d="M115 676q0 33 22.5 53.5t55.5 20.5h346v256q0 33 22.5 55t54.5 22q31 0 52.5 -22.5t21.5 -54.5v-256h346q33 0 55.5 -22.5t22.5 -55.5q0 -31 -22.5 -52.5t-55.5 -21.5h-346v-256q0 -33 -22.5 -55.5t-55.5 -22.5q-31 0 -52 22.5t-21 55.5v256h-346q-33 0 -55.5 22.5 t-22.5 55.5zM127 78q0 31 22.5 52.5t55.5 21.5h844q32 0 54.5 -23t22.5 -55q0 -31 -22.5 -52.5t-54.5 -21.5h-844q-33 0 -55.5 22.5t-22.5 55.5z" />
<glyph unicode="&#xb4;" horiz-adv-x="614" d="M254 1176q0 20 14 36l221 289q41 55 94 55q39 0 65.5 -26.5t26.5 -63.5q0 -47 -49 -88l-276 -243q-16 -15 -39 -15t-40 16.5t-17 39.5z" />
<glyph unicode="&#xb5;" horiz-adv-x="1165" d="M139 -285v1205q0 45 29 72.5t76 27.5t74.5 -27.5t27.5 -72.5v-531q0 -125 50 -180t151 -55q117 0 191.5 76.5t74.5 207.5v482q0 45 28.5 72.5t76.5 27.5q47 0 74.5 -26.5t27.5 -73.5v-834q0 -45 -28.5 -70.5t-76.5 -25.5q-43 0 -69.5 25.5t-26.5 68.5v78 q-47 -86 -130 -131t-185 -45q-88 0 -158 34v-301q0 -45 -28.5 -71.5t-75.5 -26.5t-75 25.5t-28 68.5z" />
<glyph unicode="&#xb8;" horiz-adv-x="614" d="M119 -324q0 25 17.5 41.5t45.5 8.5q61 -16 115 -17q53 0 82 16.5t29 49.5q0 25 -15.5 38t-44.5 13q-20 0 -55 -8t-43 -8q-16 0 -29.5 11t-11.5 29l22 191h131l-16 -131q27 6 51 6q64 0 108 -37t44 -104q0 -76 -65.5 -124t-186.5 -48q-80 0 -141 22q-37 14 -37 51z" />
<glyph unicode="&#xba;" horiz-adv-x="718" d="M41 1143q0 137 83 224t234 87q152 0 236 -87t84 -224t-84 -225.5t-236 -88.5q-151 0 -234 87.5t-83 226.5zM217 1143q0 -84 36 -128t105 -44q70 0 107 44t37 128t-37 128t-107 44t-105.5 -44t-35.5 -128z" />
<glyph unicode="&#xbb;" horiz-adv-x="946" d="M109 240q0 23 10 41l129 262l-129 264q-10 18 -10 43q0 31 23.5 51.5t53.5 20.5q49 0 78 -48l156 -268q20 -29 20 -61q0 -31 -20 -64l-156 -268q-25 -45 -78 -45q-31 0 -54 20.5t-23 51.5zM504 240q0 23 10 41l129 262l-129 264q-10 18 -10 43q0 31 23.5 51.5t53.5 20.5 q49 0 78 -48l156 -268q20 -29 20 -61q0 -31 -20 -64l-156 -268q-25 -45 -78 -45q-31 0 -54 20.5t-23 51.5z" />
<glyph unicode="&#xc0;" horiz-adv-x="1503" d="M51 82q0 16 10 41l578 1263q14 33 46 51.5t67 18.5t66.5 -18.5t45.5 -51.5l578 -1263q10 -25 10 -41q0 -39 -31.5 -65.5t-70.5 -26.5q-27 0 -50.5 15t-35.5 44l-136 307h-749l-135 -307q-12 -29 -37 -44t-51 -15q-41 0 -73 26.5t-32 65.5zM428 1806q0 35 24.5 59.5 t59.5 24.5q41 0 80 -39l195 -206q18 -18 18 -39q0 -20 -15.5 -35t-37.5 -15q-16 0 -31 9l-235 157q-57 35 -58 84zM455 524h600l-301 678z" />
<glyph unicode="&#xc1;" horiz-adv-x="1503" d="M51 82q0 16 10 41l578 1263q14 33 46 51.5t67 18.5t66.5 -18.5t45.5 -51.5l578 -1263q10 -25 10 -41q0 -39 -31.5 -65.5t-70.5 -26.5q-27 0 -50.5 15t-35.5 44l-136 307h-749l-135 -307q-12 -29 -37 -44t-51 -15q-41 0 -73 26.5t-32 65.5zM455 524h600l-301 678z M699 1606q0 20 18 39l195 206q39 39 79 39q35 0 59.5 -24.5t24.5 -59.5q0 -49 -57 -84l-235 -157q-15 -9 -31 -9q-23 0 -38 14.5t-15 35.5z" />
<glyph unicode="&#xc2;" horiz-adv-x="1503" d="M51 82q0 16 10 41l578 1263q14 33 46 51.5t67 18.5t66.5 -18.5t45.5 -51.5l578 -1263q10 -25 10 -41q0 -39 -31.5 -65.5t-70.5 -26.5q-27 0 -50.5 15t-35.5 44l-136 307h-749l-135 -307q-12 -29 -37 -44t-51 -15q-41 0 -73 26.5t-32 65.5zM455 524h600l-301 678z M465 1624q0 29 27 55l176 174q37 35 84 35t84 -35l176 -174q27 -27 27 -55q0 -27 -20.5 -47.5t-49.5 -20.5t-53 25l-164 176l-164 -176q-24 -25 -55 -25q-29 0 -48.5 20.5t-19.5 47.5z" />
<glyph unicode="&#xc3;" horiz-adv-x="1503" d="M51 82q0 16 10 41l578 1263q14 33 46 51.5t67 18.5t66.5 -18.5t45.5 -51.5l578 -1263q10 -25 10 -41q0 -39 -31.5 -65.5t-70.5 -26.5q-27 0 -50.5 15t-35.5 44l-136 307h-749l-135 -307q-12 -29 -37 -44t-51 -15q-41 0 -73 26.5t-32 65.5zM420 1669q0 37 23.5 77 t65.5 66.5t95 26.5q35 0 73 -11t89 -32q88 -35 131 -35q31 0 49.5 12.5t34.5 32.5q16 18 26.5 25.5t24.5 7.5q23 0 37.5 -15.5t14.5 -39.5q0 -37 -24 -77t-65.5 -66.5t-95.5 -26.5q-35 0 -72.5 11t-89.5 32q-88 35 -131 35q-31 0 -49 -12.5t-35 -34.5q-4 -4 -13 -13.5 t-18.5 -14.5t-19.5 -5q-23 0 -37 16.5t-14 40.5zM455 524h600l-301 678z" />
<glyph unicode="&#xc4;" horiz-adv-x="1503" d="M51 82q0 16 10 41l578 1263q14 33 46 51.5t67 18.5t66.5 -18.5t45.5 -51.5l578 -1263q10 -25 10 -41q0 -39 -31.5 -65.5t-70.5 -26.5q-27 0 -50.5 15t-35.5 44l-136 307h-749l-135 -307q-12 -29 -37 -44t-51 -15q-41 0 -73 26.5t-32 65.5zM455 524h600l-301 678z M455 1724q0 51 32.5 82t84.5 31q49 0 82.5 -31.5t33.5 -81.5q0 -49 -32.5 -79.5t-83.5 -30.5q-52 0 -84.5 30.5t-32.5 79.5zM817 1724q0 49 33 81t82 32q51 0 84 -30.5t33 -82.5q0 -49 -33 -79.5t-84 -30.5q-49 0 -82 30.5t-33 79.5z" />
<glyph unicode="&#xc5;" horiz-adv-x="1503" d="M51 82q0 16 10 41l588 1282q-49 27 -78.5 74t-29.5 106q0 88 61.5 148.5t149.5 60.5q90 0 151.5 -60.5t61.5 -148.5q0 -59 -30 -106t-79 -74l586 -1282q10 -25 10 -41q0 -39 -31.5 -65.5t-70.5 -26.5q-27 0 -50.5 15t-35.5 44l-136 307h-749l-135 -307q-12 -29 -37 -44 t-51 -15q-41 0 -73 26.5t-32 65.5zM455 524h600l-301 678zM657 1585q0 -43 27 -71.5t68 -28.5t68.5 29.5t27.5 70.5t-27.5 71t-68.5 30t-68 -29t-27 -72z" />
<glyph unicode="&#xc6;" horiz-adv-x="2035" d="M18 66q0 29 21 57l790 1263q18 29 49 43.5t70 14.5h916q47 0 72.5 -22.5t25.5 -63.5t-25.5 -63.5t-72.5 -22.5h-777l99 -453h637q47 0 72.5 -22.5t25.5 -63.5t-25.5 -63.5t-72.5 -22.5h-600l102 -475h539q47 0 72.5 -22.5t25.5 -63.5t-25.5 -63.5t-72.5 -22.5h-611 q-41 0 -66.5 20.5t-33.5 55.5l-61 280h-689l-188 -307q-18 -31 -46 -46t-56 -15q-37 0 -66 22.5t-29 55.5zM506 524h551l-144 668z" />
<glyph unicode="&#xc7;" horiz-adv-x="1386" d="M119 723q0 225 82 392t235.5 256t360.5 89q135 0 256 -42t211 -122q39 -31 39 -82q0 -37 -20.5 -62.5t-49.5 -25.5q-35 0 -68 27q-98 74 -179 103.5t-183 29.5q-225 0 -346 -145.5t-121 -417.5q0 -274 121 -419.5t346 -145.5q98 0 179 30.5t183 102.5q41 27 68 26 q29 0 49.5 -25.5t20.5 -62.5q0 -51 -39 -82q-82 -74 -191.5 -114.5t-232.5 -46.5l-11 -76q29 6 52 6q63 0 107 -37t44 -104q0 -76 -65.5 -124t-186.5 -48q-80 0 -141 22q-37 14 -37 51q0 25 17.5 41.5t46.5 8.5q61 -16 114 -17q53 0 82 16.5t29 49.5q0 25 -15.5 38t-44.5 13 q-20 0 -55 -8t-43 -8q-16 0 -29.5 11t-11.5 29l17 138q-182 18 -315.5 112.5t-204 253t-70.5 369.5z" />
<glyph unicode="&#xc8;" horiz-adv-x="1198" d="M168 102v1239q0 47 27.5 75t76.5 28h754q47 0 72.5 -22.5t25.5 -63.5t-25.5 -62.5t-72.5 -21.5h-651v-455h610q47 0 72.5 -22.5t25.5 -63.5t-25.5 -63.5t-72.5 -22.5h-610v-477h651q98 0 98 -84q0 -41 -25.5 -63.5t-72.5 -22.5h-754q-49 0 -76.5 27.5t-27.5 74.5z M344 1806q0 35 24.5 59.5t59.5 24.5q41 0 80 -39l195 -206q18 -18 18 -39q0 -20 -15.5 -35t-37.5 -15q-16 0 -31 9l-235 157q-57 35 -58 84z" />
<glyph unicode="&#xc9;" horiz-adv-x="1198" d="M168 102v1239q0 47 27.5 75t76.5 28h754q47 0 72.5 -22.5t25.5 -63.5t-25.5 -62.5t-72.5 -21.5h-651v-455h610q47 0 72.5 -22.5t25.5 -63.5t-25.5 -63.5t-72.5 -22.5h-610v-477h651q98 0 98 -84q0 -41 -25.5 -63.5t-72.5 -22.5h-754q-49 0 -76.5 27.5t-27.5 74.5z M615 1606q0 20 18 39l195 206q39 39 79 39q35 0 59.5 -24.5t24.5 -59.5q0 -49 -57 -84l-235 -157q-15 -9 -31 -9q-23 0 -38 14.5t-15 35.5z" />
<glyph unicode="&#xca;" horiz-adv-x="1198" d="M168 102v1239q0 47 27.5 75t76.5 28h754q47 0 72.5 -22.5t25.5 -63.5t-25.5 -62.5t-72.5 -21.5h-651v-455h610q47 0 72.5 -22.5t25.5 -63.5t-25.5 -63.5t-72.5 -22.5h-610v-477h651q98 0 98 -84q0 -41 -25.5 -63.5t-72.5 -22.5h-754q-49 0 -76.5 27.5t-27.5 74.5z M381 1624q0 29 27 55l176 174q37 35 84 35t84 -35l176 -174q27 -27 27 -55q0 -27 -20.5 -47.5t-49.5 -20.5t-53 25l-164 176l-164 -176q-24 -25 -55 -25q-29 0 -48.5 20.5t-19.5 47.5z" />
<glyph unicode="&#xcb;" horiz-adv-x="1198" d="M168 102v1239q0 47 27.5 75t76.5 28h754q47 0 72.5 -22.5t25.5 -63.5t-25.5 -62.5t-72.5 -21.5h-651v-455h610q47 0 72.5 -22.5t25.5 -63.5t-25.5 -63.5t-72.5 -22.5h-610v-477h651q98 0 98 -84q0 -41 -25.5 -63.5t-72.5 -22.5h-754q-49 0 -76.5 27.5t-27.5 74.5z M371 1724q0 51 32.5 82t84.5 31q49 0 82.5 -31.5t33.5 -81.5q0 -49 -32.5 -79.5t-83.5 -30.5q-52 0 -84.5 30.5t-32.5 79.5zM733 1724q0 49 33 81t82 32q51 0 84 -30.5t33 -82.5q0 -49 -33 -79.5t-84 -30.5q-49 0 -82 30.5t-33 79.5z" />
<glyph unicode="&#xcc;" horiz-adv-x="546" d="M-51 1806q0 35 24.5 59.5t59.5 24.5q41 0 80 -39l195 -206q18 -18 18 -39q0 -20 -15.5 -35t-37.5 -15q-16 0 -31 9l-235 157q-57 35 -58 84zM168 96v1252q0 47 28.5 76.5t75.5 29.5q49 0 78 -28.5t29 -77.5v-1252q0 -49 -27.5 -77.5t-79.5 -28.5q-47 0 -75.5 28.5 t-28.5 77.5z" />
<glyph unicode="&#xcd;" horiz-adv-x="546" d="M168 96v1252q0 47 28.5 76.5t75.5 29.5q49 0 78 -28.5t29 -77.5v-1252q0 -49 -27.5 -77.5t-79.5 -28.5q-47 0 -75.5 28.5t-28.5 77.5zM220 1606q0 20 18 39l195 206q39 39 79 39q35 0 59.5 -24.5t24.5 -59.5q0 -49 -57 -84l-235 -157q-15 -9 -31 -9q-23 0 -38 14.5 t-15 35.5z" />
<glyph unicode="&#xce;" horiz-adv-x="546" d="M-14 1624q0 29 27 55l176 174q37 35 84 35t84 -35l176 -174q27 -27 27 -55q0 -27 -20.5 -47.5t-49.5 -20.5t-53 25l-164 176l-164 -176q-24 -25 -55 -25q-29 0 -48.5 20.5t-19.5 47.5zM168 96v1252q0 47 28.5 76.5t75.5 29.5q49 0 78 -28.5t29 -77.5v-1252 q0 -49 -27.5 -77.5t-79.5 -28.5q-47 0 -75.5 28.5t-28.5 77.5z" />
<glyph unicode="&#xcf;" horiz-adv-x="546" d="M-24 1724q0 51 32.5 82t84.5 31q49 0 82.5 -31.5t33.5 -81.5q0 -49 -32.5 -79.5t-83.5 -30.5q-52 0 -84.5 30.5t-32.5 79.5zM168 96v1252q0 47 28.5 76.5t75.5 29.5q49 0 78 -28.5t29 -77.5v-1252q0 -49 -27.5 -77.5t-79.5 -28.5q-47 0 -75.5 28.5t-28.5 77.5zM338 1724 q0 49 33 81t82 32q51 0 84 -30.5t33 -82.5q0 -49 -33 -79.5t-84 -30.5q-49 0 -82 30.5t-33 79.5z" />
<glyph unicode="&#xd0;" horiz-adv-x="1564" d="M0 731q0 39 25.5 61.5t70.5 22.5h109v526q0 47 27.5 75t76.5 28h402q350 0 542.5 -188.5t192.5 -532.5t-192.5 -533.5t-542.5 -189.5h-402q-49 0 -76.5 27.5t-27.5 74.5v547h-109q-45 0 -70.5 21.5t-25.5 60.5zM416 176h282q533 0 533 547q0 545 -533 545h-282v-453h317 q43 0 67.5 -22.5t24.5 -61.5t-24.5 -60.5t-67.5 -21.5h-317v-473z" />
<glyph unicode="&#xd1;" horiz-adv-x="1521" d="M168 96v1252q0 47 28.5 76.5t73.5 29.5q53 0 82 -41l803 -1061v996q0 47 26.5 76.5t71.5 29.5t73 -29.5t28 -76.5v-1252q0 -47 -29 -76.5t-74 -29.5q-53 0 -82 41l-802 1059v-994q0 -47 -28 -76.5t-73 -29.5t-71.5 28.5t-26.5 77.5zM428 1669q0 37 23.5 77t65.5 66.5 t95 26.5q35 0 73 -11t89 -32q88 -35 131 -35q31 0 49.5 12.5t34.5 32.5q16 18 26.5 25.5t24.5 7.5q23 0 37.5 -15.5t14.5 -39.5q0 -37 -24 -77t-65.5 -66.5t-95.5 -26.5q-35 0 -72.5 11t-89.5 32q-88 35 -131 35q-31 0 -49 -12.5t-35 -34.5q-4 -4 -13 -13.5t-18.5 -14.5 t-19.5 -5q-23 0 -37 16.5t-14 40.5z" />
<glyph unicode="&#xd2;" horiz-adv-x="1579" d="M119 721q0 227 81 394t232.5 256t355.5 89q207 0 358.5 -89t232.5 -256t81 -392t-81 -392t-232.5 -257t-358.5 -90q-204 0 -354.5 90t-232.5 256t-82 391zM334 723q0 -272 119.5 -419.5t334.5 -147.5q218 0 338.5 147.5t120.5 419.5t-119.5 418.5t-339.5 146.5 q-215 0 -334.5 -146.5t-119.5 -418.5zM465 1806q0 35 24.5 59.5t59.5 24.5q41 0 80 -39l195 -206q18 -18 18 -39q0 -20 -15.5 -35t-37.5 -15q-16 0 -31 9l-235 157q-57 35 -58 84z" />
<glyph unicode="&#xd3;" horiz-adv-x="1579" d="M119 721q0 227 81 394t232.5 256t355.5 89q207 0 358.5 -89t232.5 -256t81 -392t-81 -392t-232.5 -257t-358.5 -90q-204 0 -354.5 90t-232.5 256t-82 391zM334 723q0 -272 119.5 -419.5t334.5 -147.5q218 0 338.5 147.5t120.5 419.5t-119.5 418.5t-339.5 146.5 q-215 0 -334.5 -146.5t-119.5 -418.5zM736 1606q0 20 18 39l195 206q39 39 79 39q35 0 59.5 -24.5t24.5 -59.5q0 -49 -57 -84l-235 -157q-15 -9 -31 -9q-23 0 -38 14.5t-15 35.5z" />
<glyph unicode="&#xd4;" horiz-adv-x="1579" d="M119 721q0 227 81 394t232.5 256t355.5 89q207 0 358.5 -89t232.5 -256t81 -392t-81 -392t-232.5 -257t-358.5 -90q-204 0 -354.5 90t-232.5 256t-82 391zM334 723q0 -272 119.5 -419.5t334.5 -147.5q218 0 338.5 147.5t120.5 419.5t-119.5 418.5t-339.5 146.5 q-215 0 -334.5 -146.5t-119.5 -418.5zM502 1624q0 29 27 55l176 174q37 35 84 35t84 -35l176 -174q27 -27 27 -55q0 -27 -20.5 -47.5t-49.5 -20.5t-53 25l-164 176l-164 -176q-24 -25 -55 -25q-29 0 -48.5 20.5t-19.5 47.5z" />
<glyph unicode="&#xd5;" horiz-adv-x="1579" d="M119 721q0 227 81 394t232.5 256t355.5 89q207 0 358.5 -89t232.5 -256t81 -392t-81 -392t-232.5 -257t-358.5 -90q-204 0 -354.5 90t-232.5 256t-82 391zM334 723q0 -272 119.5 -419.5t334.5 -147.5q218 0 338.5 147.5t120.5 419.5t-119.5 418.5t-339.5 146.5 q-215 0 -334.5 -146.5t-119.5 -418.5zM457 1669q0 37 23.5 77t65.5 66.5t95 26.5q35 0 73 -11t89 -32q88 -35 131 -35q31 0 49.5 12.5t34.5 32.5q16 18 26.5 25.5t24.5 7.5q23 0 37.5 -15.5t14.5 -39.5q0 -37 -24 -77t-65.5 -66.5t-95.5 -26.5q-35 0 -72.5 11t-89.5 32 q-88 35 -131 35q-31 0 -49 -12.5t-35 -34.5q-4 -4 -13 -13.5t-18.5 -14.5t-19.5 -5q-23 0 -37 16.5t-14 40.5z" />
<glyph unicode="&#xd6;" horiz-adv-x="1579" d="M119 721q0 227 81 394t232.5 256t355.5 89q207 0 358.5 -89t232.5 -256t81 -392t-81 -392t-232.5 -257t-358.5 -90q-204 0 -354.5 90t-232.5 256t-82 391zM334 723q0 -272 119.5 -419.5t334.5 -147.5q218 0 338.5 147.5t120.5 419.5t-119.5 418.5t-339.5 146.5 q-215 0 -334.5 -146.5t-119.5 -418.5zM492 1724q0 51 32.5 82t84.5 31q49 0 82.5 -31.5t33.5 -81.5q0 -49 -32.5 -79.5t-83.5 -30.5q-52 0 -84.5 30.5t-32.5 79.5zM854 1724q0 49 33 81t82 32q51 0 84 -30.5t33 -82.5q0 -49 -33 -79.5t-84 -30.5q-49 0 -82 30.5t-33 79.5z " />
<glyph unicode="&#xd8;" horiz-adv-x="1579" d="M119 721q0 227 81 394t232.5 256t355.5 89q172 0 302 -61l49 84q29 51 78 51q33 0 56 -22.5t23 -57.5q0 -29 -16 -53l-51 -88q112 -96 171.5 -247t59.5 -343q0 -225 -81 -392t-232.5 -257t-358.5 -90q-170 0 -299 61l-47 -82q-33 -53 -82 -53q-31 0 -53 21.5t-22 56.5 q0 29 16 55l51 88q-113 96 -173 246.5t-60 343.5zM334 723q0 -273 119 -420l546 940q-90 45 -211 45q-215 0 -334.5 -146.5t-119.5 -418.5zM582 201q88 -45 206 -45q218 0 338.5 147.5t120.5 419.5q0 270 -119 418z" />
<glyph unicode="&#xd9;" horiz-adv-x="1490" d="M158 573v775q0 49 28.5 77.5t75.5 28.5t76 -28.5t29 -77.5v-789q0 -199 95 -301t283 -102q186 0 282.5 102t96.5 301v789q0 47 29 76.5t76 29.5t75.5 -28.5t28.5 -77.5v-775q0 -289 -150.5 -439t-437.5 -150q-288 0 -437.5 149.5t-149.5 439.5zM422 1806q0 35 24.5 59.5 t59.5 24.5q41 0 80 -39l195 -206q18 -18 18 -39q0 -20 -15.5 -35t-37.5 -15q-16 0 -31 9l-235 157q-57 35 -58 84z" />
<glyph unicode="&#xda;" horiz-adv-x="1490" d="M158 573v775q0 49 28.5 77.5t75.5 28.5t76 -28.5t29 -77.5v-789q0 -199 95 -301t283 -102q186 0 282.5 102t96.5 301v789q0 47 29 76.5t76 29.5t75.5 -28.5t28.5 -77.5v-775q0 -289 -150.5 -439t-437.5 -150q-288 0 -437.5 149.5t-149.5 439.5zM693 1606q0 20 18 39 l195 206q39 39 79 39q35 0 59.5 -24.5t24.5 -59.5q0 -49 -57 -84l-235 -157q-15 -9 -31 -9q-23 0 -38 14.5t-15 35.5z" />
<glyph unicode="&#xdb;" horiz-adv-x="1490" d="M158 573v775q0 49 28.5 77.5t75.5 28.5t76 -28.5t29 -77.5v-789q0 -199 95 -301t283 -102q186 0 282.5 102t96.5 301v789q0 47 29 76.5t76 29.5t75.5 -28.5t28.5 -77.5v-775q0 -289 -150.5 -439t-437.5 -150q-288 0 -437.5 149.5t-149.5 439.5zM459 1624q0 29 27 55 l176 174q37 35 84 35t84 -35l176 -174q27 -27 27 -55q0 -27 -20.5 -47.5t-49.5 -20.5t-53 25l-164 176l-164 -176q-24 -25 -55 -25q-29 0 -48.5 20.5t-19.5 47.5z" />
<glyph unicode="&#xdc;" horiz-adv-x="1490" d="M158 573v775q0 49 28.5 77.5t75.5 28.5t76 -28.5t29 -77.5v-789q0 -199 95 -301t283 -102q186 0 282.5 102t96.5 301v789q0 47 29 76.5t76 29.5t75.5 -28.5t28.5 -77.5v-775q0 -289 -150.5 -439t-437.5 -150q-288 0 -437.5 149.5t-149.5 439.5zM449 1724q0 51 32.5 82 t84.5 31q49 0 82.5 -31.5t33.5 -81.5q0 -49 -32.5 -79.5t-83.5 -30.5q-52 0 -84.5 30.5t-32.5 79.5zM811 1724q0 49 33 81t82 32q51 0 84 -30.5t33 -82.5q0 -49 -33 -79.5t-84 -30.5q-49 0 -82 30.5t-33 79.5z" />
<glyph unicode="&#xdd;" horiz-adv-x="1251" d="M12 1358q0 39 29 67.5t68 28.5q41 0 71 -37l447 -561l444 561q29 37 72 37q37 0 66.5 -29.5t29.5 -68.5q0 -37 -25 -64l-483 -602v-594q0 -51 -29.5 -78.5t-76.5 -27.5t-76 27.5t-29 78.5v594l-483 602q-25 27 -25 66zM572 1606q0 20 18 39l195 206q39 39 79 39 q35 0 59.5 -24.5t24.5 -59.5q0 -49 -57 -84l-235 -157q-15 -9 -31 -9q-23 0 -38 14.5t-15 35.5z" />
<glyph unicode="&#xde;" horiz-adv-x="1335" d="M168 96v1252q0 49 28.5 77.5t75.5 28.5t76 -28.5t29 -77.5v-213h401q223 0 347 -105.5t124 -294.5q0 -188 -125 -294.5t-346 -106.5h-401v-238q0 -49 -29 -77.5t-76 -28.5t-75.5 28.5t-28.5 77.5zM377 502h373q149 0 223 57t74 176t-73 174.5t-224 55.5h-373v-463z" />
<glyph unicode="&#xdf;" horiz-adv-x="1298" d="M143 88v868q0 238 129 369t365 131q172 0 269.5 -73.5t97.5 -204.5q0 -84 -41 -143.5t-115 -127.5q-55 -53 -81 -87t-26 -72q0 -57 48.5 -88t152.5 -70q92 -31 152.5 -62.5t103.5 -89t43 -147.5q0 -137 -106.5 -221t-280.5 -84q-84 0 -167 22.5t-146 63.5 q-37 23 -52.5 47t-15.5 55q0 33 18.5 55.5t47.5 22.5q18 0 40.5 -10.5t45.5 -24.5q57 -33 108 -52.5t125 -19.5q90 0 139.5 35t49.5 99q0 61 -51.5 95t-157.5 68q-94 33 -152.5 61.5t-99.5 82t-41 139.5q0 76 36.5 130t108.5 124q59 55 89 96t30 90q0 63 -46 98t-132 35 q-133 0 -207 -81.5t-74 -231.5v-897q0 -45 -27.5 -71.5t-74.5 -26.5t-76 26.5t-29 71.5z" />
<glyph unicode="&#xe0;" horiz-adv-x="1095" d="M109 297q0 109 56 171t186 89t358 27h47v59q0 115 -47 166t-152 51q-72 0 -135.5 -18.5t-138.5 -53.5q-55 -31 -78 -30q-31 0 -50.5 22.5t-19.5 57.5q0 31 17.5 54t56.5 46q72 39 168 62.5t186 23.5q199 0 296 -100.5t97 -305.5v-530q0 -47 -26.5 -72.5t-73.5 -25.5 q-45 0 -71.5 26.5t-26.5 71.5v76q-39 -86 -116 -132t-179 -46q-98 0 -180 40t-128 111.5t-46 159.5zM194 1466q0 37 26.5 62.5t65.5 25.5q55 0 95 -53l221 -289q14 -16 14 -36q0 -23 -17.5 -39.5t-39.5 -16.5q-23 0 -39 15l-277 243q-49 41 -49 88zM313 307q0 -74 53.5 -121 t133.5 -47q112 0 184 77t72 198v53h-37q-160 0 -246 -14.5t-123 -48t-37 -97.5z" />
<glyph unicode="&#xe1;" horiz-adv-x="1095" d="M109 297q0 109 56 171t186 89t358 27h47v59q0 115 -47 166t-152 51q-72 0 -135.5 -18.5t-138.5 -53.5q-55 -31 -78 -30q-31 0 -50.5 22.5t-19.5 57.5q0 31 17.5 54t56.5 46q72 39 168 62.5t186 23.5q199 0 296 -100.5t97 -305.5v-530q0 -47 -26.5 -72.5t-73.5 -25.5 q-45 0 -71.5 26.5t-26.5 71.5v76q-39 -86 -116 -132t-179 -46q-98 0 -180 40t-128 111.5t-46 159.5zM313 307q0 -74 53.5 -121t133.5 -47q112 0 184 77t72 198v53h-37q-160 0 -246 -14.5t-123 -48t-37 -97.5zM510 1176q0 20 14 36l221 289q41 55 94 55q39 0 65.5 -26.5 t26.5 -63.5q0 -47 -49 -88l-276 -243q-16 -15 -39 -15t-40 16.5t-17 39.5z" />
<glyph unicode="&#xe2;" horiz-adv-x="1095" d="M109 297q0 109 56 171t186 89t358 27h47v59q0 115 -47 166t-152 51q-72 0 -135.5 -18.5t-138.5 -53.5q-55 -31 -78 -30q-31 0 -50.5 22.5t-19.5 57.5q0 31 17.5 54t56.5 46q72 39 168 62.5t186 23.5q199 0 296 -100.5t97 -305.5v-530q0 -47 -26.5 -72.5t-73.5 -25.5 q-45 0 -71.5 26.5t-26.5 71.5v76q-39 -86 -116 -132t-179 -46q-98 0 -180 40t-128 111.5t-46 159.5zM272 1192q0 23 16 45l185 264q20 27 40.5 40t49.5 13t49 -12t41 -41l184 -264q16 -23 17 -45q0 -29 -21.5 -49.5t-50.5 -20.5q-39 0 -64 37l-155 246l-156 -246 q-22 -37 -63 -37q-29 0 -50.5 20.5t-21.5 49.5zM313 307q0 -74 53.5 -121t133.5 -47q112 0 184 77t72 198v53h-37q-160 0 -246 -14.5t-123 -48t-37 -97.5z" />
<glyph unicode="&#xe3;" horiz-adv-x="1095" d="M109 297q0 109 56 171t186 89t358 27h47v59q0 115 -47 166t-152 51q-72 0 -135.5 -18.5t-138.5 -53.5q-55 -31 -78 -30q-31 0 -50.5 22.5t-19.5 57.5q0 31 17.5 54t56.5 46q72 39 168 62.5t186 23.5q199 0 296 -100.5t97 -305.5v-530q0 -47 -26.5 -72.5t-73.5 -25.5 q-45 0 -71.5 26.5t-26.5 71.5v76q-39 -86 -116 -132t-179 -46q-98 0 -180 40t-128 111.5t-46 159.5zM231 1272q0 39 23.5 87t65.5 82t95 34q39 0 77 -18.5t87 -51.5q51 -31 74.5 -42t46.5 -11q35 0 54.5 17t37.5 48q14 23 25.5 35t27.5 12q23 0 36.5 -16t13.5 -43 q0 -37 -24 -85t-65.5 -82t-95.5 -34q-39 0 -75.5 17.5t-88.5 50.5q-41 27 -68.5 40t-51.5 13q-35 0 -54.5 -17.5t-38.5 -47.5q-14 -23 -25 -35.5t-28 -12.5q-23 0 -36 16.5t-13 43.5zM313 307q0 -74 53.5 -121t133.5 -47q112 0 184 77t72 198v53h-37q-160 0 -246 -14.5 t-123 -48t-37 -97.5z" />
<glyph unicode="&#xe4;" horiz-adv-x="1095" d="M109 297q0 109 56 171t186 89t358 27h47v59q0 115 -47 166t-152 51q-72 0 -135.5 -18.5t-138.5 -53.5q-55 -31 -78 -30q-31 0 -50.5 22.5t-19.5 57.5q0 31 17.5 54t56.5 46q72 39 168 62.5t186 23.5q199 0 296 -100.5t97 -305.5v-530q0 -47 -26.5 -72.5t-73.5 -25.5 q-45 0 -71.5 26.5t-26.5 71.5v76q-39 -86 -116 -132t-179 -46q-98 0 -180 40t-128 111.5t-46 159.5zM266 1339q0 49 32.5 80t84.5 31q49 0 82.5 -30.5t33.5 -80.5q0 -51 -32.5 -81.5t-83.5 -30.5q-52 0 -84.5 30.5t-32.5 81.5zM313 307q0 -74 53.5 -121t133.5 -47 q112 0 184 77t72 198v53h-37q-160 0 -246 -14.5t-123 -48t-37 -97.5zM628 1339q0 49 33 80t82 31q51 0 84 -30.5t33 -80.5q0 -51 -33 -81.5t-84 -30.5q-49 0 -82 31.5t-33 80.5z" />
<glyph unicode="&#xe5;" horiz-adv-x="1095" d="M109 297q0 109 56 171t186 89t358 27h47v59q0 115 -47 166t-152 51q-72 0 -135.5 -18.5t-138.5 -53.5q-55 -31 -78 -30q-31 0 -50.5 22.5t-19.5 57.5q0 31 17.5 54t56.5 46q72 39 168 62.5t186 23.5q199 0 296 -100.5t97 -305.5v-530q0 -47 -26.5 -72.5t-73.5 -25.5 q-45 0 -71.5 26.5t-26.5 71.5v76q-39 -86 -116 -132t-179 -46q-98 0 -180 40t-128 111.5t-46 159.5zM313 307q0 -74 53.5 -121t133.5 -47q112 0 184 77t72 198v53h-37q-160 0 -246 -14.5t-123 -48t-37 -97.5zM350 1339q0 88 62.5 148.5t150.5 60.5t150.5 -60.5t62.5 -148.5 q0 -86 -62.5 -146t-150.5 -60t-150.5 60t-62.5 146zM467 1339q0 -41 27.5 -70.5t68.5 -29.5t68.5 29.5t27.5 70.5t-27.5 71t-68.5 30t-68.5 -30t-27.5 -71z" />
<glyph unicode="&#xe6;" horiz-adv-x="1736" d="M109 297q0 109 57 171t187 89t358 27h49v55q0 117 -47 169t-154 52q-92 0 -154.5 -20.5t-128.5 -53.5q-53 -29 -75 -28q-29 0 -47.5 22.5t-18.5 57.5q0 57 74 100q154 86 352 86q246 0 332 -162q61 78 149 120t195 42q125 0 219 -59.5t146.5 -167t52.5 -250.5 q0 -82 -74 -82h-620q23 -317 301 -318q72 0 126 19.5t113 52.5q23 14 44.5 23.5t35.5 9.5q29 0 47.5 -22.5t18.5 -57.5q0 -61 -74 -100q-68 -41 -152 -63.5t-161 -22.5q-147 0 -253 60t-163 175q-41 -113 -134.5 -174t-224.5 -61q-106 0 -192 40t-135 110.5t-49 160.5z M313 307q0 -76 55.5 -122t141.5 -46q106 0 178 79t72 200v49h-39q-160 0 -247 -14.5t-124 -48t-37 -97.5zM961 584h514q-4 139 -66.5 213.5t-175.5 74.5q-117 0 -187.5 -75.5t-84.5 -212.5z" />
<glyph unicode="&#xe7;" horiz-adv-x="989" d="M86 500q0 156 62.5 274.5t175 184t258.5 65.5q78 0 156.5 -22.5t140.5 -61.5q66 -45 65 -104q0 -35 -18.5 -58.5t-46.5 -23.5q-18 0 -37 9t-47 28q-51 33 -95.5 50t-105.5 17q-139 0 -216 -94t-77 -262t76 -259t215 -91q61 0 108.5 18t96.5 49q23 14 45 24.5t41 10.5 q28 0 46.5 -23.5t18.5 -58.5q0 -29 -15 -52.5t-52 -47.5q-53 -35 -123 -57.5t-142 -26.5l-10 -78q29 6 51 6q63 0 107.5 -37t44.5 -104q0 -76 -65.5 -124t-186.5 -48q-80 0 -141 22q-37 14 -37 51q0 25 17.5 41.5t45.5 8.5q61 -16 115 -17q53 0 82 16.5t29 49.5 q0 25 -15.5 38t-44.5 13q-20 0 -55 -8t-43 -8q-16 0 -29.5 11t-11.5 29l16 142q-184 29 -291.5 164t-107.5 344z" />
<glyph unicode="&#xe8;" horiz-adv-x="1083" d="M86 502q0 154 60.5 272.5t170 184t248.5 65.5q201 0 317.5 -129t116.5 -348q0 -82 -73 -82h-633q20 -317 305 -318q76 0 131 20.5t117 53.5q6 4 33.5 17.5t46.5 13.5q28 0 46.5 -22.5t18.5 -57.5q0 -59 -73 -100q-72 -41 -157 -63.5t-163 -22.5q-238 0 -375 138t-137 378 zM196 1466q0 37 26.5 62.5t65.5 25.5q55 0 95 -53l221 -289q14 -16 14 -36q0 -23 -17.5 -39.5t-39.5 -16.5q-23 0 -39 15l-277 243q-49 41 -49 88zM293 584h528q-6 139 -70.5 213.5t-181.5 74.5q-118 0 -190 -75.5t-86 -212.5z" />
<glyph unicode="&#xe9;" horiz-adv-x="1083" d="M86 502q0 154 60.5 272.5t170 184t248.5 65.5q201 0 317.5 -129t116.5 -348q0 -82 -73 -82h-633q20 -317 305 -318q76 0 131 20.5t117 53.5q6 4 33.5 17.5t46.5 13.5q28 0 46.5 -22.5t18.5 -57.5q0 -59 -73 -100q-72 -41 -157 -63.5t-163 -22.5q-238 0 -375 138t-137 378 zM293 584h528q-6 139 -70.5 213.5t-181.5 74.5q-118 0 -190 -75.5t-86 -212.5zM512 1176q0 20 14 36l221 289q41 55 94 55q39 0 65.5 -26.5t26.5 -63.5q0 -47 -49 -88l-276 -243q-16 -15 -39 -15t-40 16.5t-17 39.5z" />
<glyph unicode="&#xea;" horiz-adv-x="1083" d="M86 502q0 154 60.5 272.5t170 184t248.5 65.5q201 0 317.5 -129t116.5 -348q0 -82 -73 -82h-633q20 -317 305 -318q76 0 131 20.5t117 53.5q6 4 33.5 17.5t46.5 13.5q28 0 46.5 -22.5t18.5 -57.5q0 -59 -73 -100q-72 -41 -157 -63.5t-163 -22.5q-238 0 -375 138t-137 378 zM274 1192q0 23 16 45l185 264q20 27 40.5 40t49.5 13t49 -12t41 -41l184 -264q16 -23 17 -45q0 -29 -21.5 -49.5t-50.5 -20.5q-39 0 -64 37l-155 246l-156 -246q-22 -37 -63 -37q-29 0 -50.5 20.5t-21.5 49.5zM293 584h528q-6 139 -70.5 213.5t-181.5 74.5 q-118 0 -190 -75.5t-86 -212.5z" />
<glyph unicode="&#xeb;" horiz-adv-x="1083" d="M86 502q0 154 60.5 272.5t170 184t248.5 65.5q201 0 317.5 -129t116.5 -348q0 -82 -73 -82h-633q20 -317 305 -318q76 0 131 20.5t117 53.5q6 4 33.5 17.5t46.5 13.5q28 0 46.5 -22.5t18.5 -57.5q0 -59 -73 -100q-72 -41 -157 -63.5t-163 -22.5q-238 0 -375 138t-137 378 zM268 1339q0 49 32.5 80t84.5 31q49 0 82.5 -30.5t33.5 -80.5q0 -51 -32.5 -81.5t-83.5 -30.5q-52 0 -84.5 30.5t-32.5 81.5zM293 584h528q-6 139 -70.5 213.5t-181.5 74.5q-118 0 -190 -75.5t-86 -212.5zM630 1339q0 49 33 80t82 31q51 0 84 -30.5t33 -80.5 q0 -51 -33 -81.5t-84 -30.5q-49 0 -82 31.5t-33 80.5z" />
<glyph unicode="&#xec;" horiz-adv-x="495" d="M-121 1466q0 37 26.5 62.5t65.5 25.5q55 0 95 -53l221 -289q14 -16 14 -36q0 -23 -17.5 -39.5t-39.5 -16.5q-23 0 -39 15l-277 243q-49 41 -49 88zM143 88v832q0 49 30 74.5t75 25.5t73.5 -25.5t28.5 -74.5v-832q0 -49 -28.5 -73.5t-73.5 -24.5t-75 24.5t-30 73.5z" />
<glyph unicode="&#xed;" horiz-adv-x="495" d="M143 88v832q0 49 30 74.5t75 25.5t73.5 -25.5t28.5 -74.5v-832q0 -49 -28.5 -73.5t-73.5 -24.5t-75 24.5t-30 73.5zM195 1176q0 20 14 36l221 289q41 55 94 55q39 0 65.5 -26.5t26.5 -63.5q0 -47 -49 -88l-276 -243q-16 -15 -39 -15t-40 16.5t-17 39.5z" />
<glyph unicode="&#xee;" horiz-adv-x="495" d="M-43 1192q0 23 16 45l185 264q20 27 40.5 40t49.5 13t49 -12t41 -41l184 -264q16 -23 17 -45q0 -29 -21.5 -49.5t-50.5 -20.5q-39 0 -64 37l-155 246l-156 -246q-22 -37 -63 -37q-29 0 -50.5 20.5t-21.5 49.5zM143 88v832q0 49 30 74.5t75 25.5t73.5 -25.5t28.5 -74.5 v-832q0 -49 -28.5 -73.5t-73.5 -24.5t-75 24.5t-30 73.5z" />
<glyph unicode="&#xef;" horiz-adv-x="495" d="M-49 1339q0 49 32.5 80t84.5 31q49 0 82.5 -30.5t33.5 -80.5q0 -51 -32.5 -81.5t-83.5 -30.5q-52 0 -84.5 30.5t-32.5 81.5zM143 88v832q0 49 30 74.5t75 25.5t73.5 -25.5t28.5 -74.5v-832q0 -49 -28.5 -73.5t-73.5 -24.5t-75 24.5t-30 73.5zM313 1339q0 49 33 80t82 31 q51 0 84 -30.5t33 -80.5q0 -51 -33 -81.5t-84 -30.5q-49 0 -82 31.5t-33 80.5z" />
<glyph unicode="&#xf0;" horiz-adv-x="1165" d="M86 459q0 139 59.5 246.5t167 167t244.5 59.5q193 0 299 -117q-49 160 -180 291l-266 -90q-16 -4 -25 -4q-27 0 -44 19.5t-17 43.5q0 20 12 35.5t37 24.5l190 63q-88 59 -176 96q-33 12 -48 35t-15 47q0 33 24.5 55.5t65.5 22.5q31 0 53 -10q168 -66 297 -180l219 73 q20 4 27 4q27 0 43 -17t16 -42q0 -20 -12.5 -36.5t-36.5 -24.5l-160 -54q103 -118 161 -266.5t58 -318.5q0 -289 -132 -442.5t-376 -153.5q-143 0 -253.5 58t-171 165.5t-60.5 249.5zM295 459q0 -150 72.5 -229.5t210.5 -79.5q133 0 207.5 81.5t74.5 229.5q0 147 -73.5 228 t-208.5 81t-209 -81t-74 -230z" />
<glyph unicode="&#xf1;" horiz-adv-x="1179" d="M143 88v834q0 43 30 70.5t75 27.5t71.5 -26.5t26.5 -69.5v-84q49 90 137 137t199 47q358 0 358 -403v-533q0 -47 -27.5 -72.5t-76.5 -25.5q-47 0 -74.5 26.5t-27.5 71.5v522q0 127 -50.5 186.5t-156.5 59.5q-125 0 -201 -78t-76 -209v-481q0 -45 -27.5 -71.5t-74.5 -26.5 t-76 26.5t-29 71.5zM260 1272q0 39 23.5 87t65.5 82t95 34q39 0 77 -18.5t87 -51.5q51 -31 74.5 -42t46.5 -11q35 0 54.5 17t37.5 48q14 23 25.5 35t27.5 12q23 0 36.5 -16t13.5 -43q0 -37 -24 -85t-65.5 -82t-95.5 -34q-39 0 -75.5 17.5t-88.5 50.5q-41 27 -68.5 40 t-51.5 13q-35 0 -54.5 -17.5t-38.5 -47.5q-14 -23 -25 -35.5t-28 -12.5q-23 0 -36 16.5t-13 43.5z" />
<glyph unicode="&#xf2;" horiz-adv-x="1155" d="M86 504q0 158 60.5 275.5t172 181t259.5 63.5q147 0 258.5 -63.5t172 -181t60.5 -275.5q0 -156 -60.5 -273.5t-172 -181t-258.5 -63.5q-148 0 -259.5 63.5t-172 181t-60.5 273.5zM209 1466q0 37 26.5 62.5t65.5 25.5q55 0 95 -53l221 -289q14 -16 14 -36 q0 -23 -17.5 -39.5t-39.5 -16.5q-23 0 -39 15l-277 243q-49 41 -49 88zM295 504q0 -174 72.5 -264t210.5 -90q137 0 209.5 90t72.5 264q0 172 -73.5 263t-208.5 91t-209 -91t-74 -263z" />
<glyph unicode="&#xf3;" horiz-adv-x="1155" d="M86 504q0 158 60.5 275.5t172 181t259.5 63.5q147 0 258.5 -63.5t172 -181t60.5 -275.5q0 -156 -60.5 -273.5t-172 -181t-258.5 -63.5q-148 0 -259.5 63.5t-172 181t-60.5 273.5zM295 504q0 -174 72.5 -264t210.5 -90q137 0 209.5 90t72.5 264q0 172 -73.5 263t-208.5 91 t-209 -91t-74 -263zM525 1176q0 20 14 36l221 289q41 55 94 55q39 0 65.5 -26.5t26.5 -63.5q0 -47 -49 -88l-276 -243q-16 -15 -39 -15t-40 16.5t-17 39.5z" />
<glyph unicode="&#xf4;" horiz-adv-x="1155" d="M86 504q0 158 60.5 275.5t172 181t259.5 63.5q147 0 258.5 -63.5t172 -181t60.5 -275.5q0 -156 -60.5 -273.5t-172 -181t-258.5 -63.5q-148 0 -259.5 63.5t-172 181t-60.5 273.5zM287 1192q0 23 16 45l185 264q20 27 40.5 40t49.5 13t49 -12t41 -41l184 -264 q16 -23 17 -45q0 -29 -21.5 -49.5t-50.5 -20.5q-39 0 -64 37l-155 246l-156 -246q-22 -37 -63 -37q-29 0 -50.5 20.5t-21.5 49.5zM295 504q0 -174 72.5 -264t210.5 -90q137 0 209.5 90t72.5 264q0 172 -73.5 263t-208.5 91t-209 -91t-74 -263z" />
<glyph unicode="&#xf5;" horiz-adv-x="1155" d="M86 504q0 158 60.5 275.5t172 181t259.5 63.5q147 0 258.5 -63.5t172 -181t60.5 -275.5q0 -156 -60.5 -273.5t-172 -181t-258.5 -63.5q-148 0 -259.5 63.5t-172 181t-60.5 273.5zM246 1272q0 39 23.5 87t65.5 82t95 34q39 0 77 -18.5t87 -51.5q51 -31 74.5 -42t46.5 -11 q35 0 54.5 17t37.5 48q14 23 25.5 35t27.5 12q23 0 36.5 -16t13.5 -43q0 -37 -24 -85t-65.5 -82t-95.5 -34q-39 0 -75.5 17.5t-88.5 50.5q-41 27 -68.5 40t-51.5 13q-35 0 -54.5 -17.5t-38.5 -47.5q-14 -23 -25 -35.5t-28 -12.5q-23 0 -36 16.5t-13 43.5zM295 504 q0 -174 72.5 -264t210.5 -90q137 0 209.5 90t72.5 264q0 172 -73.5 263t-208.5 91t-209 -91t-74 -263z" />
<glyph unicode="&#xf6;" horiz-adv-x="1155" d="M86 504q0 158 60.5 275.5t172 181t259.5 63.5q147 0 258.5 -63.5t172 -181t60.5 -275.5q0 -156 -60.5 -273.5t-172 -181t-258.5 -63.5q-148 0 -259.5 63.5t-172 181t-60.5 273.5zM281 1339q0 49 32.5 80t84.5 31q49 0 82.5 -30.5t33.5 -80.5q0 -51 -32.5 -81.5 t-83.5 -30.5q-52 0 -84.5 30.5t-32.5 81.5zM295 504q0 -174 72.5 -264t210.5 -90q137 0 209.5 90t72.5 264q0 172 -73.5 263t-208.5 91t-209 -91t-74 -263zM643 1339q0 49 33 80t82 31q51 0 84 -30.5t33 -80.5q0 -51 -33 -81.5t-84 -30.5q-49 0 -82 31.5t-33 80.5z" />
<glyph unicode="&#xf7;" d="M127 586q0 31 22.5 52t55.5 21h844q33 0 55 -22.5t22 -54.5q0 -31 -22.5 -52.5t-54.5 -21.5h-844q-33 0 -55.5 22.5t-22.5 55.5zM510 176q0 45 29.5 76t74.5 31t75 -31t30 -76t-30 -75.5t-75 -30.5t-74.5 30.5t-29.5 75.5zM510 993q0 45 29.5 76t74.5 31t75 -31t30 -76 q0 -47 -30 -77.5t-75 -30.5t-74.5 30.5t-29.5 77.5z" />
<glyph unicode="&#xf8;" horiz-adv-x="1155" d="M86 504q0 158 60.5 275.5t172 181t259.5 63.5q117 0 206 -39l41 72q20 35 60 35q27 0 46 -17.5t19 -44.5q0 -18 -10 -35l-45 -75q84 -68 129 -174.5t45 -241.5q0 -156 -60.5 -273.5t-172 -181t-258.5 -63.5q-113 0 -203 37l-43 -72q-20 -35 -60 -35q-27 0 -46 17.5 t-19 41.5q0 20 10 37l45 76q-86 68 -131 174.5t-45 241.5zM293 504q0 -160 63 -252l342 586q-55 23 -120 22q-137 0 -211 -92t-74 -264zM459 170q49 -20 119 -20q139 0 211.5 90t72.5 264q0 158 -63 250z" />
<glyph unicode="&#xf9;" horiz-adv-x="1165" d="M139 387v533q0 47 28 73.5t77 26.5q47 0 74.5 -26.5t27.5 -73.5v-531q0 -121 49 -178t152 -57q121 0 193.5 77.5t72.5 206.5v482q0 45 28.5 72.5t76.5 27.5q47 0 74.5 -26.5t27.5 -73.5v-834q0 -43 -28.5 -69.5t-76.5 -26.5q-43 0 -69.5 25.5t-26.5 68.5v78 q-47 -86 -130 -131t-185 -45q-365 0 -365 401zM213 1466q0 37 26.5 62.5t65.5 25.5q55 0 95 -53l221 -289q14 -16 14 -36q0 -23 -17.5 -39.5t-39.5 -16.5q-23 0 -39 15l-277 243q-49 41 -49 88z" />
<glyph unicode="&#xfa;" horiz-adv-x="1165" d="M139 387v533q0 47 28 73.5t77 26.5q47 0 74.5 -26.5t27.5 -73.5v-531q0 -121 49 -178t152 -57q121 0 193.5 77.5t72.5 206.5v482q0 45 28.5 72.5t76.5 27.5q47 0 74.5 -26.5t27.5 -73.5v-834q0 -43 -28.5 -69.5t-76.5 -26.5q-43 0 -69.5 25.5t-26.5 68.5v78 q-47 -86 -130 -131t-185 -45q-365 0 -365 401zM529 1176q0 20 14 36l221 289q41 55 94 55q39 0 65.5 -26.5t26.5 -63.5q0 -47 -49 -88l-276 -243q-16 -15 -39 -15t-40 16.5t-17 39.5z" />
<glyph unicode="&#xfb;" horiz-adv-x="1165" d="M139 387v533q0 47 28 73.5t77 26.5q47 0 74.5 -26.5t27.5 -73.5v-531q0 -121 49 -178t152 -57q121 0 193.5 77.5t72.5 206.5v482q0 45 28.5 72.5t76.5 27.5q47 0 74.5 -26.5t27.5 -73.5v-834q0 -43 -28.5 -69.5t-76.5 -26.5q-43 0 -69.5 25.5t-26.5 68.5v78 q-47 -86 -130 -131t-185 -45q-365 0 -365 401zM291 1192q0 23 16 45l185 264q20 27 40.5 40t49.5 13t49 -12t41 -41l184 -264q16 -23 17 -45q0 -29 -21.5 -49.5t-50.5 -20.5q-39 0 -64 37l-155 246l-156 -246q-22 -37 -63 -37q-29 0 -50.5 20.5t-21.5 49.5z" />
<glyph unicode="&#xfc;" horiz-adv-x="1165" d="M139 387v533q0 47 28 73.5t77 26.5q47 0 74.5 -26.5t27.5 -73.5v-531q0 -121 49 -178t152 -57q121 0 193.5 77.5t72.5 206.5v482q0 45 28.5 72.5t76.5 27.5q47 0 74.5 -26.5t27.5 -73.5v-834q0 -43 -28.5 -69.5t-76.5 -26.5q-43 0 -69.5 25.5t-26.5 68.5v78 q-47 -86 -130 -131t-185 -45q-365 0 -365 401zM285 1339q0 49 32.5 80t84.5 31q49 0 82.5 -30.5t33.5 -80.5q0 -51 -32.5 -81.5t-83.5 -30.5q-52 0 -84.5 30.5t-32.5 81.5zM647 1339q0 49 33 80t82 31q51 0 84 -30.5t33 -80.5q0 -51 -33 -81.5t-84 -30.5q-49 0 -82 31.5 t-33 80.5z" />
<glyph unicode="&#xfd;" horiz-adv-x="1064" d="M27 926q0 39 32.5 65.5t73.5 26.5q61 0 88 -57l318 -705l315 702q12 31 35.5 45.5t50.5 14.5q39 0 68.5 -26.5t29.5 -63.5q0 -20 -8 -39l-569 -1208q-12 -29 -36 -44.5t-50 -15.5q-37 0 -66.5 24.5t-29.5 61.5q0 16 10 41l141 301l-395 840q-8 16 -8 37zM480 1176 q0 20 14 36l221 289q41 55 94 55q39 0 65.5 -26.5t26.5 -63.5q0 -47 -49 -88l-276 -243q-16 -15 -39 -15t-40 16.5t-17 39.5z" />
<glyph unicode="&#xfe;" horiz-adv-x="1210" d="M143 -281v1637q0 45 30 71.5t77 26.5q45 0 72.5 -25.5t27.5 -68.5v-524q45 90 131 139t199 49q129 0 229.5 -65.5t157.5 -184.5t57 -274q0 -156 -57 -272.5t-157.5 -179t-229.5 -62.5q-113 0 -199 48t-131 138v-457q0 -43 -27.5 -68.5t-72.5 -25.5q-47 0 -77 26.5 t-30 71.5zM350 504q0 -170 73 -262t208 -92t208.5 92t73.5 258q0 168 -73.5 263t-208.5 95t-208 -92t-73 -262z" />
<glyph unicode="&#xff;" horiz-adv-x="1064" d="M27 926q0 39 32.5 65.5t73.5 26.5q61 0 88 -57l318 -705l315 702q12 31 35.5 45.5t50.5 14.5q39 0 68.5 -26.5t29.5 -63.5q0 -20 -8 -39l-569 -1208q-12 -29 -36 -44.5t-50 -15.5q-37 0 -66.5 24.5t-29.5 61.5q0 16 10 41l141 301l-395 840q-8 16 -8 37zM236 1339 q0 49 32.5 80t84.5 31q49 0 82.5 -30.5t33.5 -80.5q0 -51 -32.5 -81.5t-83.5 -30.5q-52 0 -84.5 30.5t-32.5 81.5zM598 1339q0 49 33 80t82 31q51 0 84 -30.5t33 -80.5q0 -51 -33 -81.5t-84 -30.5q-49 0 -82 31.5t-33 80.5z" />
<glyph unicode="&#x100;" horiz-adv-x="1503" d="M51 82q0 16 10 41l578 1263q14 33 46 51.5t67 18.5t66.5 -18.5t45.5 -51.5l578 -1263q10 -25 10 -41q0 -39 -31.5 -65.5t-70.5 -26.5q-27 0 -50.5 15t-35.5 44l-136 307h-749l-135 -307q-12 -29 -37 -44t-51 -15q-41 0 -73 26.5t-32 65.5zM422 1724q0 35 22.5 53.5 t59.5 18.5h496q37 0 59.5 -18.5t22.5 -53.5q0 -33 -23 -52t-59 -19h-496q-37 0 -59.5 19.5t-22.5 51.5zM455 524h600l-301 678z" />
<glyph unicode="&#x101;" horiz-adv-x="1095" d="M109 297q0 109 56 171t186 89t358 27h47v59q0 115 -47 166t-152 51q-72 0 -135.5 -18.5t-138.5 -53.5q-55 -31 -78 -30q-31 0 -50.5 22.5t-19.5 57.5q0 31 17.5 54t56.5 46q72 39 168 62.5t186 23.5q199 0 296 -100.5t97 -305.5v-530q0 -47 -26.5 -72.5t-73.5 -25.5 q-45 0 -71.5 26.5t-26.5 71.5v76q-39 -86 -116 -132t-179 -46q-98 0 -180 40t-128 111.5t-46 159.5zM233 1337q0 35 22.5 53.5t59.5 18.5h496q37 0 59.5 -18.5t22.5 -53.5q0 -33 -23 -52t-59 -19h-496q-37 0 -59.5 19.5t-22.5 51.5zM313 307q0 -74 53.5 -121t133.5 -47 q112 0 184 77t72 198v53h-37q-160 0 -246 -14.5t-123 -48t-37 -97.5z" />
<glyph unicode="&#x102;" horiz-adv-x="1503" d="M51 82q0 16 10 41l578 1263q14 33 46 51.5t67 18.5t66.5 -18.5t45.5 -51.5l578 -1263q10 -25 10 -41q0 -39 -31.5 -65.5t-70.5 -26.5q-27 0 -50.5 15t-35.5 44l-136 307h-749l-135 -307q-12 -29 -37 -44t-51 -15q-41 0 -73 26.5t-32 65.5zM418 1800q0 25 18.5 42.5 t42.5 17.5q39 0 68 -35q72 -98 205 -99q133 0 205 99q29 35 65 35q25 0 44.5 -17.5t19.5 -42.5q0 -18 -13 -41q-41 -80 -126 -125t-195 -45q-111 0 -195 44t-127 126q-12 23 -12 41zM455 524h600l-301 678z" />
<glyph unicode="&#x103;" horiz-adv-x="1095" d="M109 297q0 109 56 171t186 89t358 27h47v59q0 115 -47 166t-152 51q-72 0 -135.5 -18.5t-138.5 -53.5q-55 -31 -78 -30q-31 0 -50.5 22.5t-19.5 57.5q0 31 17.5 54t56.5 46q72 39 168 62.5t186 23.5q199 0 296 -100.5t97 -305.5v-530q0 -47 -26.5 -72.5t-73.5 -25.5 q-45 0 -71.5 26.5t-26.5 71.5v76q-39 -86 -116 -132t-179 -46q-98 0 -180 40t-128 111.5t-46 159.5zM229 1430q0 29 20.5 48t47.5 19q43 0 65 -43q66 -125 201 -125t201 125q23 43 67 43q27 0 46.5 -18.5t19.5 -48.5q0 -14 -7 -33q-39 -98 -128 -155.5t-199 -57.5 q-111 0 -200 57t-128 156q-6 18 -6 33zM313 307q0 -74 53.5 -121t133.5 -47q112 0 184 77t72 198v53h-37q-160 0 -246 -14.5t-123 -48t-37 -97.5z" />
<glyph unicode="&#x104;" horiz-adv-x="1503" d="M51 82q0 16 10 41l578 1263q14 33 46 51.5t67 18.5t66.5 -18.5t45.5 -51.5l578 -1263q10 -25 10 -41q0 -29 -17.5 -50.5t-41.5 -31.5q-63 -16 -100.5 -55t-37.5 -97q0 -57 35 -89.5t88 -32.5q43 0 99 22q8 4 22 4q20 0 32.5 -15.5t12.5 -35.5q0 -39 -33 -57 q-74 -41 -159 -41q-109 0 -177.5 62.5t-68.5 160.5q0 72 40 131t116 96l-134 303h-749l-135 -307q-12 -29 -37 -44t-51 -15q-41 0 -73 26.5t-32 65.5zM455 524h600l-301 678z" />
<glyph unicode="&#x105;" horiz-adv-x="1095" d="M109 297q0 109 57 170t186 89t357 28h47v59q0 115 -47 166t-152 51q-72 0 -135.5 -18.5t-138.5 -53.5q-25 -12 -44.5 -21t-33.5 -9q-31 0 -50.5 22.5t-19.5 57.5q0 31 17.5 54t56.5 46q72 39 168 62.5t186 23.5q199 0 296 -100.5t97 -305.5v-530q0 -33 -15 -56.5 t-42 -31.5q-137 -43 -137 -152q0 -57 33.5 -89.5t91.5 -32.5q31 0 98 22q9 4 21 4q20 0 33.5 -16.5t13.5 -36.5q0 -37 -33 -55q-78 -41 -162 -41q-109 0 -177.5 61.5t-68.5 159.5q0 72 40 130t112 95q-6 18 -6 39v76q-39 -86 -115 -132t-178 -46q-100 0 -181 40t-128 111.5 t-47 159.5zM313 307q0 -74 53.5 -121t133.5 -47q112 0 184 77t72 198v53h-37q-160 0 -246 -14.5t-123 -48t-37 -97.5z" />
<glyph unicode="&#x106;" horiz-adv-x="1386" d="M119 723q0 225 82 392t235.5 256t360.5 89q135 0 256 -42t211 -122q39 -31 39 -82q0 -37 -20.5 -62.5t-49.5 -25.5q-35 0 -68 27q-98 74 -179 103.5t-183 29.5q-225 0 -346 -145.5t-121 -417.5q0 -274 121 -419.5t346 -145.5q98 0 179 30.5t183 102.5q41 27 68 26 q29 0 49.5 -25.5t20.5 -62.5q0 -51 -39 -82q-90 -80 -211 -121.5t-256 -41.5q-207 0 -360.5 89t-235.5 256t-82 394zM744 1606q0 20 18 39l195 206q39 39 79 39q35 0 59.5 -24.5t24.5 -59.5q0 -49 -57 -84l-235 -157q-15 -9 -31 -9q-23 0 -38 14.5t-15 35.5z" />
<glyph unicode="&#x107;" horiz-adv-x="989" d="M86 500q0 156 62.5 274.5t175 184t258.5 65.5q78 0 156.5 -22.5t140.5 -61.5q66 -45 65 -104q0 -35 -18.5 -58.5t-46.5 -23.5q-18 0 -37 9t-47 28q-51 33 -95.5 50t-105.5 17q-139 0 -216 -94t-77 -262t76 -259t215 -91q61 0 108.5 18t96.5 49q23 14 45 24.5t41 10.5 q29 0 47 -23.5t18 -58.5q0 -29 -15 -52.5t-52 -47.5q-61 -41 -143.5 -63.5t-166.5 -22.5q-145 0 -254.5 63.5t-170 180t-60.5 270.5zM529 1176q0 20 14 36l221 289q41 55 94 55q39 0 65.5 -26.5t26.5 -63.5q0 -47 -49 -88l-276 -243q-16 -15 -39 -15t-40 16.5t-17 39.5z" />
<glyph unicode="&#x108;" horiz-adv-x="1386" d="M119 723q0 225 82 392t235.5 256t360.5 89q135 0 256 -42t211 -122q39 -31 39 -82q0 -37 -20.5 -62.5t-49.5 -25.5q-35 0 -68 27q-98 74 -179 103.5t-183 29.5q-225 0 -346 -145.5t-121 -417.5q0 -274 121 -419.5t346 -145.5q98 0 179 30.5t183 102.5q41 27 68 26 q29 0 49.5 -25.5t20.5 -62.5q0 -51 -39 -82q-90 -80 -211 -121.5t-256 -41.5q-207 0 -360.5 89t-235.5 256t-82 394zM510 1624q0 29 27 55l176 174q37 35 84 35t84 -35l176 -174q27 -27 27 -55q0 -27 -20.5 -47.5t-49.5 -20.5t-53 25l-164 176l-164 -176q-24 -25 -55 -25 q-29 0 -48.5 20.5t-19.5 47.5z" />
<glyph unicode="&#x109;" horiz-adv-x="989" d="M86 500q0 156 62.5 274.5t175 184t258.5 65.5q78 0 156.5 -22.5t140.5 -61.5q66 -45 65 -104q0 -35 -18.5 -58.5t-46.5 -23.5q-18 0 -37 9t-47 28q-51 33 -95.5 50t-105.5 17q-139 0 -216 -94t-77 -262t76 -259t215 -91q61 0 108.5 18t96.5 49q23 14 45 24.5t41 10.5 q29 0 47 -23.5t18 -58.5q0 -29 -15 -52.5t-52 -47.5q-61 -41 -143.5 -63.5t-166.5 -22.5q-145 0 -254.5 63.5t-170 180t-60.5 270.5zM291 1192q0 23 16 45l185 264q20 27 40.5 40t49.5 13t49 -12t41 -41l184 -264q16 -23 17 -45q0 -29 -21.5 -49.5t-50.5 -20.5q-39 0 -64 37 l-155 246l-156 -246q-22 -37 -63 -37q-29 0 -50.5 20.5t-21.5 49.5z" />
<glyph unicode="&#x10a;" horiz-adv-x="1386" d="M119 723q0 225 82 392t235.5 256t360.5 89q135 0 256 -42t211 -122q39 -31 39 -82q0 -37 -20.5 -62.5t-49.5 -25.5q-35 0 -68 27q-98 74 -179 103.5t-183 29.5q-225 0 -346 -145.5t-121 -417.5q0 -274 121 -419.5t346 -145.5q98 0 179 30.5t183 102.5q41 27 68 26 q29 0 49.5 -25.5t20.5 -62.5q0 -51 -39 -82q-90 -80 -211 -121.5t-256 -41.5q-207 0 -360.5 89t-235.5 256t-82 394zM668 1724q0 55 34.5 87t94.5 32q57 0 93 -31.5t36 -87.5q0 -53 -35 -85.5t-94 -32.5q-60 0 -94.5 32.5t-34.5 85.5z" />
<glyph unicode="&#x10b;" horiz-adv-x="989" d="M86 500q0 156 62.5 274.5t175 184t258.5 65.5q78 0 156.5 -22.5t140.5 -61.5q66 -45 65 -104q0 -35 -18.5 -58.5t-46.5 -23.5q-18 0 -37 9t-47 28q-51 33 -95.5 50t-105.5 17q-139 0 -216 -94t-77 -262t76 -259t215 -91q61 0 108.5 18t96.5 49q23 14 45 24.5t41 10.5 q29 0 47 -23.5t18 -58.5q0 -29 -15 -52.5t-52 -47.5q-61 -41 -143.5 -63.5t-166.5 -22.5q-145 0 -254.5 63.5t-170 180t-60.5 270.5zM453 1339q0 53 34.5 85t94.5 32q57 0 93 -31.5t36 -85.5q0 -53 -35 -85.5t-94 -32.5q-60 0 -94.5 32.5t-34.5 85.5z" />
<glyph unicode="&#x10c;" horiz-adv-x="1386" d="M119 723q0 225 82 392t235.5 256t360.5 89q135 0 256 -42t211 -122q39 -31 39 -82q0 -37 -20.5 -62.5t-49.5 -25.5q-35 0 -68 27q-98 74 -179 103.5t-183 29.5q-225 0 -346 -145.5t-121 -417.5q0 -274 121 -419.5t346 -145.5q98 0 179 30.5t183 102.5q41 27 68 26 q29 0 49.5 -25.5t20.5 -62.5q0 -51 -39 -82q-90 -80 -211 -121.5t-256 -41.5q-207 0 -360.5 89t-235.5 256t-82 394zM510 1821q0 29 19.5 48t48.5 19q31 0 55 -24l164 -176l164 176q25 25 55 24q27 0 47.5 -19.5t20.5 -47.5q0 -29 -27 -56l-176 -174q-37 -35 -84 -35t-84 35 l-176 174q-27 27 -27 56z" />
<glyph unicode="&#x10d;" horiz-adv-x="989" d="M86 500q0 156 62.5 274.5t175 184t258.5 65.5q78 0 156.5 -22.5t140.5 -61.5q66 -45 65 -104q0 -35 -18.5 -58.5t-46.5 -23.5q-18 0 -37 9t-47 28q-51 33 -95.5 50t-105.5 17q-139 0 -216 -94t-77 -262t76 -259t215 -91q61 0 108.5 18t96.5 49q23 14 45 24.5t41 10.5 q29 0 47 -23.5t18 -58.5q0 -29 -15 -52.5t-52 -47.5q-61 -41 -143.5 -63.5t-166.5 -22.5q-145 0 -254.5 63.5t-170 180t-60.5 270.5zM291 1485q0 29 22.5 49t51.5 20q37 0 63 -38l154 -246l153 246q27 39 64 38q29 0 51.5 -20.5t22.5 -48.5q0 -25 -17 -47l-184 -264 q-20 -27 -41 -40.5t-49 -13.5q-29 0 -48.5 13.5t-41.5 42.5l-185 262q-16 23 -16 47z" />
<glyph unicode="&#x10e;" horiz-adv-x="1527" d="M168 102v1239q0 47 27.5 75t76.5 28h402q350 0 542.5 -188.5t192.5 -532.5t-192.5 -533.5t-542.5 -189.5h-402q-49 0 -76.5 27.5t-27.5 74.5zM379 176h283q532 0 532 547q0 545 -532 545h-283v-1092zM475 1821q0 29 19.5 48t48.5 19q31 0 55 -24l164 -176l164 176 q25 25 55 24q27 0 47.5 -19.5t20.5 -47.5q0 -29 -27 -56l-176 -174q-37 -35 -84 -35t-84 35l-176 174q-27 27 -27 56z" />
<glyph unicode="&#x10f;" horiz-adv-x="1210" d="M86 508q0 156 56.5 272.5t156.5 180t231 63.5q113 0 198 -48t130 -136v520q0 43 27.5 68.5t75.5 25.5q47 0 75.5 -26.5t28.5 -71.5v-1266q0 -47 -27.5 -73.5t-74.5 -26.5t-75 26.5t-28 73.5v82q-45 -90 -131 -138t-199 -48q-129 0 -230 65.5t-157.5 184t-56.5 272.5z M295 508q0 -168 75.5 -263t209.5 -95q133 0 206.5 92t73.5 262t-72.5 262t-207.5 92t-210 -91t-75 -259zM1128 1081v297q0 37 20.5 57.5t49.5 20.5q31 0 51.5 -23.5t14.5 -62.5l-45 -297q-2 -20 -15.5 -31.5t-27.5 -11.5q-18 0 -33 14.5t-15 36.5z" />
<glyph unicode="&#x110;" horiz-adv-x="1564" d="M0 731q0 39 25.5 61.5t70.5 22.5h109v526q0 47 27.5 75t76.5 28h402q350 0 542.5 -188.5t192.5 -532.5t-192.5 -533.5t-542.5 -189.5h-402q-49 0 -76.5 27.5t-27.5 74.5v547h-109q-45 0 -70.5 21.5t-25.5 60.5zM416 176h282q533 0 533 547q0 545 -533 545h-282v-453h317 q43 0 67.5 -22.5t24.5 -61.5t-24.5 -60.5t-67.5 -21.5h-317v-473z" />
<glyph unicode="&#x111;" horiz-adv-x="1210" d="M86 508q0 156 56.5 272.5t156.5 180t231 63.5q113 0 198 -48t130 -136v282h-321q-43 0 -65.5 20.5t-22.5 55.5t22.5 55.5t65.5 20.5h321v86q0 43 27.5 68.5t75.5 25.5q47 0 75.5 -26.5t28.5 -71.5v-82h119q41 0 63.5 -20.5t22.5 -55.5t-22.5 -55.5t-63.5 -20.5h-119 v-1032q0 -47 -27.5 -73.5t-74.5 -26.5t-75 26.5t-28 73.5v82q-45 -90 -131 -138t-199 -48q-129 0 -230 65.5t-157.5 184t-56.5 272.5zM295 508q0 -168 75.5 -263t209.5 -95q133 0 206.5 92t73.5 262t-72.5 262t-207.5 92t-210 -91t-75 -259z" />
<glyph unicode="&#x112;" horiz-adv-x="1198" d="M168 102v1239q0 47 27.5 75t76.5 28h754q47 0 72.5 -22.5t25.5 -63.5t-25.5 -62.5t-72.5 -21.5h-651v-455h610q47 0 72.5 -22.5t25.5 -63.5t-25.5 -63.5t-72.5 -22.5h-610v-477h651q98 0 98 -84q0 -41 -25.5 -63.5t-72.5 -22.5h-754q-49 0 -76.5 27.5t-27.5 74.5z M338 1724q0 35 22.5 53.5t59.5 18.5h496q37 0 59.5 -18.5t22.5 -53.5q0 -33 -23 -52t-59 -19h-496q-37 0 -59.5 19.5t-22.5 51.5z" />
<glyph unicode="&#x113;" horiz-adv-x="1083" d="M86 502q0 154 60.5 272.5t170 184t248.5 65.5q201 0 317.5 -129t116.5 -348q0 -82 -73 -82h-633q20 -317 305 -318q76 0 131 20.5t117 53.5q6 4 33.5 17.5t46.5 13.5q28 0 46.5 -22.5t18.5 -57.5q0 -59 -73 -100q-72 -41 -157 -63.5t-163 -22.5q-238 0 -375 138t-137 378 zM235 1337q0 35 22.5 53.5t59.5 18.5h496q37 0 59.5 -18.5t22.5 -53.5q0 -33 -23 -52t-59 -19h-496q-37 0 -59.5 19.5t-22.5 51.5zM293 584h528q-6 139 -70.5 213.5t-181.5 74.5q-118 0 -190 -75.5t-86 -212.5z" />
<glyph unicode="&#x114;" horiz-adv-x="1198" d="M168 102v1239q0 47 27.5 75t76.5 28h754q47 0 72.5 -22.5t25.5 -63.5t-25.5 -62.5t-72.5 -21.5h-651v-455h610q47 0 72.5 -22.5t25.5 -63.5t-25.5 -63.5t-72.5 -22.5h-610v-477h651q98 0 98 -84q0 -41 -25.5 -63.5t-72.5 -22.5h-754q-49 0 -76.5 27.5t-27.5 74.5z M334 1800q0 25 18.5 42.5t42.5 17.5q39 0 68 -35q72 -98 205 -99q133 0 205 99q29 35 65 35q25 0 44.5 -17.5t19.5 -42.5q0 -18 -13 -41q-41 -80 -126 -125t-195 -45q-111 0 -195 44t-127 126q-12 23 -12 41z" />
<glyph unicode="&#x115;" horiz-adv-x="1083" d="M86 502q0 154 60.5 272.5t170 184t248.5 65.5q201 0 317.5 -129t116.5 -348q0 -82 -73 -82h-633q20 -317 305 -318q76 0 131 20.5t117 53.5q6 4 33.5 17.5t46.5 13.5q28 0 46.5 -22.5t18.5 -57.5q0 -59 -73 -100q-72 -41 -157 -63.5t-163 -22.5q-238 0 -375 138t-137 378 zM231 1430q0 29 20.5 48t47.5 19q43 0 65 -43q66 -125 201 -125t201 125q23 43 67 43q27 0 46.5 -18.5t19.5 -48.5q0 -14 -7 -33q-39 -98 -128 -155.5t-199 -57.5q-111 0 -200 57t-128 156q-6 18 -6 33zM293 584h528q-6 139 -70.5 213.5t-181.5 74.5q-118 0 -190 -75.5 t-86 -212.5z" />
<glyph unicode="&#x116;" horiz-adv-x="1198" d="M168 102v1239q0 47 27.5 75t76.5 28h754q47 0 72.5 -22.5t25.5 -63.5t-25.5 -62.5t-72.5 -21.5h-651v-455h610q47 0 72.5 -22.5t25.5 -63.5t-25.5 -63.5t-72.5 -22.5h-610v-477h651q98 0 98 -84q0 -41 -25.5 -63.5t-72.5 -22.5h-754q-49 0 -76.5 27.5t-27.5 74.5z M539 1724q0 55 34.5 87t94.5 32q57 0 93 -31.5t36 -87.5q0 -53 -35 -85.5t-94 -32.5q-60 0 -94.5 32.5t-34.5 85.5z" />
<glyph unicode="&#x117;" horiz-adv-x="1083" d="M86 502q0 154 60.5 272.5t170 184t248.5 65.5q201 0 317.5 -129t116.5 -348q0 -82 -73 -82h-633q20 -317 305 -318q76 0 131 20.5t117 53.5q6 4 33.5 17.5t46.5 13.5q28 0 46.5 -22.5t18.5 -57.5q0 -59 -73 -100q-72 -41 -157 -63.5t-163 -22.5q-238 0 -375 138t-137 378 zM293 584h528q-6 139 -70.5 213.5t-181.5 74.5q-118 0 -190 -75.5t-86 -212.5zM436 1339q0 53 34.5 85t94.5 32q57 0 93 -31.5t36 -85.5q0 -53 -35 -85.5t-94 -32.5q-60 0 -94.5 32.5t-34.5 85.5z" />
<glyph unicode="&#x118;" horiz-adv-x="1198" d="M168 102v1239q0 47 27.5 75t76.5 28h754q47 0 72.5 -22.5t25.5 -63.5q0 -84 -98 -84h-651v-455h610q47 0 72.5 -22.5t25.5 -63.5t-25.5 -63.5t-72.5 -22.5h-610v-477h651q98 0 98 -84q0 -72 -77 -86q-74 -8 -112 -49t-38 -103q0 -57 35 -89.5t90 -32.5q37 0 98 22 q9 4 23 4q18 0 30.5 -15.5t12.5 -35.5q0 -39 -33 -57q-68 -41 -160 -41q-109 0 -177 61.5t-68 155.5q0 109 79 180h-555q-49 0 -76.5 27.5t-27.5 74.5z" />
<glyph unicode="&#x119;" horiz-adv-x="1083" d="M86 502q0 154 60.5 272.5t170 184t248.5 65.5q201 0 317.5 -129t116.5 -348q0 -82 -73 -82h-633q20 -317 305 -318q76 0 131 20.5t117 53.5q6 4 33.5 17.5t46.5 13.5q29 0 47 -22.5t18 -57.5q0 -33 -19.5 -57.5t-64.5 -46.5q-116 -64 -160.5 -112t-44.5 -108 q0 -57 34 -89.5t89 -32.5q45 0 99 22q8 4 22 4q20 0 32.5 -15.5t12.5 -35.5q0 -39 -33 -57q-70 -41 -159 -41q-109 0 -177.5 61.5t-68.5 155.5q0 98 70 166h-23q-238 0 -376 138t-138 378zM293 584h528q-6 139 -70.5 213.5t-181.5 74.5q-118 0 -190 -75.5t-86 -212.5z" />
<glyph unicode="&#x11a;" horiz-adv-x="1198" d="M168 102v1239q0 47 27.5 75t76.5 28h754q47 0 72.5 -22.5t25.5 -63.5t-25.5 -62.5t-72.5 -21.5h-651v-455h610q47 0 72.5 -22.5t25.5 -63.5t-25.5 -63.5t-72.5 -22.5h-610v-477h651q98 0 98 -84q0 -41 -25.5 -63.5t-72.5 -22.5h-754q-49 0 -76.5 27.5t-27.5 74.5z M381 1821q0 29 19.5 48t48.5 19q31 0 55 -24l164 -176l164 176q25 25 55 24q27 0 47.5 -19.5t20.5 -47.5q0 -29 -27 -56l-176 -174q-37 -35 -84 -35t-84 35l-176 174q-27 27 -27 56z" />
<glyph unicode="&#x11b;" horiz-adv-x="1083" d="M86 502q0 154 60.5 272.5t170 184t248.5 65.5q201 0 317.5 -129t116.5 -348q0 -82 -73 -82h-633q20 -317 305 -318q76 0 131 20.5t117 53.5q6 4 33.5 17.5t46.5 13.5q28 0 46.5 -22.5t18.5 -57.5q0 -59 -73 -100q-72 -41 -157 -63.5t-163 -22.5q-238 0 -375 138t-137 378 zM274 1485q0 29 22.5 49t51.5 20q37 0 63 -38l154 -246l153 246q27 39 64 38q29 0 51.5 -20.5t22.5 -48.5q0 -25 -17 -47l-184 -264q-20 -27 -41 -40.5t-49 -13.5q-29 0 -48.5 13.5t-41.5 42.5l-185 262q-16 23 -16 47zM293 584h528q-6 139 -70.5 213.5t-181.5 74.5 q-118 0 -190 -75.5t-86 -212.5z" />
<glyph unicode="&#x11c;" horiz-adv-x="1490" d="M119 723q0 227 84 393t240.5 255t367.5 89q143 0 265 -42t208 -122q41 -33 41 -82q0 -37 -20.5 -62.5t-49.5 -25.5q-18 0 -32.5 6.5t-36.5 20.5q-100 74 -182 103.5t-189 29.5q-233 0 -356 -144.5t-123 -418.5q0 -281 126 -425t369 -144q164 0 316 49v403h-268 q-41 0 -64.5 21.5t-23.5 58.5t23.5 58.5t64.5 21.5h374q39 0 62.5 -22.5t23.5 -61.5v-479q0 -70 -19.5 -100.5t-76.5 -49.5q-82 -33 -194.5 -51t-223.5 -18q-219 0 -378.5 88t-243.5 254t-84 397zM524 1624q0 29 27 55l176 174q37 35 84 35t84 -35l176 -174q27 -27 27 -55 q0 -27 -20.5 -47.5t-49.5 -20.5t-53 25l-164 176l-164 -176q-24 -25 -55 -25q-29 0 -48.5 20.5t-19.5 47.5z" />
<glyph unicode="&#x11d;" horiz-adv-x="1218" d="M86 526q0 147 57.5 260t158.5 175.5t233 62.5q115 0 201.5 -49t131.5 -139v86q0 45 28 71.5t75 26.5t74.5 -27.5t27.5 -72.5v-840q0 -229 -122 -346t-359 -117q-221 0 -369 84q-76 43 -76 102q0 35 19.5 57.5t48.5 22.5q27 0 84 -30q74 -35 137.5 -54.5t151.5 -19.5 q283 0 282 284v158q-43 -90 -131 -140t-204 -50q-131 0 -233.5 61.5t-159 174t-56.5 259.5zM295 526q0 -156 78 -243.5t211 -87.5t208.5 88t75.5 243q0 154 -74.5 243t-209.5 89t-212 -88t-77 -244zM322 1192q0 23 16 45l185 264q20 27 40.5 40t49.5 13t49 -12t41 -41 l184 -264q16 -23 17 -45q0 -29 -21.5 -49.5t-50.5 -20.5q-39 0 -64 37l-155 246l-156 -246q-22 -37 -63 -37q-29 0 -50.5 20.5t-21.5 49.5z" />
<glyph unicode="&#x11e;" horiz-adv-x="1490" d="M119 723q0 227 84 393t240.5 255t367.5 89q143 0 265 -42t208 -122q41 -33 41 -82q0 -37 -20.5 -62.5t-49.5 -25.5q-18 0 -32.5 6.5t-36.5 20.5q-100 74 -182 103.5t-189 29.5q-233 0 -356 -144.5t-123 -418.5q0 -281 126 -425t369 -144q164 0 316 49v403h-268 q-41 0 -64.5 21.5t-23.5 58.5t23.5 58.5t64.5 21.5h374q39 0 62.5 -22.5t23.5 -61.5v-479q0 -70 -19.5 -100.5t-76.5 -49.5q-82 -33 -194.5 -51t-223.5 -18q-219 0 -378.5 88t-243.5 254t-84 397zM477 1800q0 25 18.5 42.5t42.5 17.5q39 0 68 -35q72 -98 205 -99 q133 0 205 99q29 35 65 35q25 0 44.5 -17.5t19.5 -42.5q0 -18 -13 -41q-41 -80 -126 -125t-195 -45q-111 0 -195 44t-127 126q-12 23 -12 41z" />
<glyph unicode="&#x11f;" horiz-adv-x="1218" d="M86 526q0 147 57.5 260t158.5 175.5t233 62.5q115 0 201.5 -49t131.5 -139v86q0 45 28 71.5t75 26.5t74.5 -27.5t27.5 -72.5v-840q0 -229 -122 -346t-359 -117q-221 0 -369 84q-76 43 -76 102q0 35 19.5 57.5t48.5 22.5q27 0 84 -30q74 -35 137.5 -54.5t151.5 -19.5 q283 0 282 284v158q-43 -90 -131 -140t-204 -50q-131 0 -233.5 61.5t-159 174t-56.5 259.5zM279 1430q0 29 20.5 48t47.5 19q43 0 65 -43q66 -125 201 -125t201 125q23 43 67 43q27 0 46.5 -18.5t19.5 -48.5q0 -14 -7 -33q-39 -98 -128 -155.5t-199 -57.5q-111 0 -200 57 t-128 156q-6 18 -6 33zM295 526q0 -156 78 -243.5t211 -87.5t208.5 88t75.5 243q0 154 -74.5 243t-209.5 89t-212 -88t-77 -244z" />
<glyph unicode="&#x120;" horiz-adv-x="1490" d="M119 723q0 227 84 393t240.5 255t367.5 89q143 0 265 -42t208 -122q41 -33 41 -82q0 -37 -20.5 -62.5t-49.5 -25.5q-18 0 -32.5 6.5t-36.5 20.5q-100 74 -182 103.5t-189 29.5q-233 0 -356 -144.5t-123 -418.5q0 -281 126 -425t369 -144q164 0 316 49v403h-268 q-41 0 -64.5 21.5t-23.5 58.5t23.5 58.5t64.5 21.5h374q39 0 62.5 -22.5t23.5 -61.5v-479q0 -70 -19.5 -100.5t-76.5 -49.5q-82 -33 -194.5 -51t-223.5 -18q-219 0 -378.5 88t-243.5 254t-84 397zM682 1724q0 55 34.5 87t94.5 32q57 0 93 -31.5t36 -87.5q0 -53 -35 -85.5 t-94 -32.5q-60 0 -94.5 32.5t-34.5 85.5z" />
<glyph unicode="&#x121;" horiz-adv-x="1218" d="M86 526q0 147 57.5 260t158.5 175.5t233 62.5q115 0 201.5 -49t131.5 -139v86q0 45 28 71.5t75 26.5t74.5 -27.5t27.5 -72.5v-840q0 -229 -122 -346t-359 -117q-221 0 -369 84q-76 43 -76 102q0 35 19.5 57.5t48.5 22.5q27 0 84 -30q74 -35 137.5 -54.5t151.5 -19.5 q283 0 282 284v158q-43 -90 -131 -140t-204 -50q-131 0 -233.5 61.5t-159 174t-56.5 259.5zM295 526q0 -156 78 -243.5t211 -87.5t208.5 88t75.5 243q0 154 -74.5 243t-209.5 89t-212 -88t-77 -244zM484 1339q0 53 34.5 85t94.5 32q57 0 93 -31.5t36 -85.5q0 -53 -35 -85.5 t-94 -32.5q-60 0 -94.5 32.5t-34.5 85.5z" />
<glyph unicode="&#x122;" horiz-adv-x="1490" d="M119 723q0 227 84 393t240.5 255t367.5 89q143 0 265 -42t208 -122q41 -33 41 -82q0 -37 -20.5 -62.5t-49.5 -25.5q-18 0 -32.5 6.5t-36.5 20.5q-100 74 -182 103.5t-189 29.5q-233 0 -356 -144.5t-123 -418.5q0 -281 126 -425t369 -144q164 0 316 49v403h-268 q-41 0 -64.5 21.5t-23.5 58.5t23.5 58.5t64.5 21.5h374q39 0 62.5 -22.5t23.5 -61.5v-479q0 -70 -19.5 -100.5t-76.5 -49.5q-82 -33 -194.5 -51t-223.5 -18q-219 0 -378.5 88t-243.5 254t-84 397zM711 -242q0 49 32 79t81 30q61 0 97 -38t36 -114q0 -127 -84 -221 q-27 -29 -59 -29q-23 0 -38.5 12.5t-15.5 30.5q0 16 15 37q47 57 53 113h-4q-47 0 -80 26.5t-33 73.5z" />
<glyph unicode="&#x123;" horiz-adv-x="1218" d="M86 526q0 147 57.5 260t158.5 175.5t233 62.5q115 0 201.5 -49t131.5 -139v86q0 45 28 71.5t75 26.5t74.5 -27.5t27.5 -72.5v-840q0 -229 -122 -346t-359 -117q-221 0 -369 84q-76 43 -76 102q0 35 19.5 57.5t48.5 22.5q27 0 84 -30q74 -35 137.5 -54.5t151.5 -19.5 q283 0 282 284v158q-43 -90 -131 -140t-204 -50q-131 0 -233.5 61.5t-159 174t-56.5 259.5zM295 526q0 -156 78 -243.5t211 -87.5t208.5 88t75.5 243q0 154 -74.5 243t-209.5 89t-212 -88t-77 -244zM482 1331q0 127 84 221q27 29 59 29q23 0 38 -12.5t15 -30.5 q0 -16 -14 -37q-47 -57 -53 -112h4q47 0 79.5 -27t32.5 -74q0 -49 -31.5 -78.5t-80.5 -29.5q-61 0 -97 37.5t-36 113.5z" />
<glyph unicode="&#x124;" horiz-adv-x="1560" d="M168 96v1252q0 47 28.5 76.5t75.5 29.5t76 -29.5t29 -76.5v-529h807v529q0 47 28.5 76.5t75.5 29.5t76 -29.5t29 -76.5v-1252q0 -47 -29 -76.5t-76 -29.5t-75.5 28.5t-28.5 77.5v551h-807v-551q0 -47 -29 -76.5t-76 -29.5t-75.5 28.5t-28.5 77.5zM493 1624q0 29 27 55 l176 174q37 35 84 35t84 -35l176 -174q27 -27 27 -55q0 -27 -20.5 -47.5t-49.5 -20.5t-53 25l-164 176l-164 -176q-24 -25 -55 -25q-29 0 -48.5 20.5t-19.5 47.5z" />
<glyph unicode="&#x125;" horiz-adv-x="1179" d="M-37 1624q0 29 27 55l176 174q37 35 84 35t84 -35l176 -174q27 -27 27 -55q0 -27 -20.5 -47.5t-49.5 -20.5t-53 25l-164 176l-164 -176q-24 -25 -55 -25q-29 0 -48.5 20.5t-19.5 47.5zM143 88v1268q0 45 30 71.5t77 26.5q45 0 72.5 -25.5t27.5 -68.5v-512q51 86 137 131 t197 45q356 0 356 -403v-533q0 -45 -28.5 -71.5t-75.5 -26.5t-74.5 26.5t-27.5 71.5v530q0 123 -50.5 180.5t-156.5 57.5q-125 0 -201 -78t-76 -209v-481q0 -45 -27.5 -71.5t-74.5 -26.5t-76 26.5t-29 71.5z" />
<glyph unicode="&#x126;" horiz-adv-x="1634" d="M0 1137q0 39 25.5 60.5t70.5 21.5h109v129q0 51 28.5 78.5t75.5 27.5q45 0 75 -27.5t30 -78.5v-129h807v129q0 51 28.5 78.5t75.5 27.5q45 0 75 -27.5t30 -78.5v-129h110q45 0 69.5 -21.5t24.5 -60.5q0 -37 -24.5 -58.5t-69.5 -21.5h-110v-961q0 -51 -30 -78.5t-75 -27.5 q-47 0 -75.5 27.5t-28.5 78.5v551h-807v-551q0 -51 -30 -78.5t-75 -27.5q-47 0 -75.5 27.5t-28.5 78.5v961h-109q-45 0 -70.5 21.5t-25.5 58.5zM414 819h807v238h-807v-238z" />
<glyph unicode="&#x127;" horiz-adv-x="1179" d="M-61 1198q0 35 22.5 55.5t65.5 20.5h116v82q0 45 30 71.5t77 26.5q45 0 72.5 -25.5t27.5 -68.5v-86h324q41 0 63.5 -20.5t22.5 -55.5t-22.5 -55.5t-63.5 -20.5h-324v-274q51 86 137 131t197 45q356 0 356 -403v-533q0 -45 -28.5 -71.5t-75.5 -26.5t-74.5 26.5t-27.5 71.5 v530q0 123 -50.5 180.5t-156.5 57.5q-125 0 -201 -78t-76 -209v-481q0 -45 -27.5 -71.5t-74.5 -26.5t-76 26.5t-29 71.5v1034h-116q-43 0 -65.5 20.5t-22.5 55.5z" />
<glyph unicode="&#x128;" horiz-adv-x="546" d="M-59 1669q0 37 23.5 77t65.5 66.5t95 26.5q35 0 73 -11t89 -32q88 -35 131 -35q31 0 49.5 12.5t34.5 32.5q16 18 26.5 25.5t24.5 7.5q23 0 37.5 -15.5t14.5 -39.5q0 -37 -24 -77t-65.5 -66.5t-95.5 -26.5q-35 0 -72.5 11t-89.5 32q-88 35 -131 35q-31 0 -49 -12.5 t-35 -34.5q-4 -4 -13 -13.5t-18.5 -14.5t-19.5 -5q-23 0 -37 16.5t-14 40.5zM168 96v1252q0 47 28.5 76.5t75.5 29.5q49 0 78 -28.5t29 -77.5v-1252q0 -49 -27.5 -77.5t-79.5 -28.5q-47 0 -75.5 28.5t-28.5 77.5z" />
<glyph unicode="&#x129;" horiz-adv-x="495" d="M-84 1272q0 39 23.5 87t65.5 82t95 34q39 0 77 -18.5t87 -51.5q51 -31 74.5 -42t46.5 -11q35 0 54.5 17t37.5 48q14 23 25.5 35t27.5 12q23 0 36.5 -16t13.5 -43q0 -37 -24 -85t-65.5 -82t-95.5 -34q-39 0 -75.5 17.5t-88.5 50.5q-41 27 -68.5 40t-51.5 13 q-35 0 -54.5 -17.5t-38.5 -47.5q-14 -23 -25 -35.5t-28 -12.5q-23 0 -36 16.5t-13 43.5zM143 88v832q0 49 30 74.5t75 25.5t73.5 -25.5t28.5 -74.5v-832q0 -49 -28.5 -73.5t-73.5 -24.5t-75 24.5t-30 73.5z" />
<glyph unicode="&#x12a;" horiz-adv-x="546" d="M-57 1724q0 35 22.5 53.5t59.5 18.5h496q37 0 59.5 -18.5t22.5 -53.5q0 -33 -23 -52t-59 -19h-496q-37 0 -59.5 19.5t-22.5 51.5zM168 96v1252q0 47 28.5 76.5t75.5 29.5q49 0 78 -28.5t29 -77.5v-1252q0 -49 -27.5 -77.5t-79.5 -28.5q-47 0 -75.5 28.5t-28.5 77.5z" />
<glyph unicode="&#x12b;" horiz-adv-x="495" d="M-82 1337q0 35 22.5 53.5t59.5 18.5h496q37 0 59.5 -18.5t22.5 -53.5q0 -33 -23 -52t-59 -19h-496q-37 0 -59.5 19.5t-22.5 51.5zM143 88v832q0 49 30 74.5t75 25.5t73.5 -25.5t28.5 -74.5v-832q0 -49 -28.5 -73.5t-73.5 -24.5t-75 24.5t-30 73.5z" />
<glyph unicode="&#x12c;" horiz-adv-x="546" d="M-61 1800q0 25 18.5 42.5t42.5 17.5q39 0 68 -35q72 -98 205 -99q133 0 205 99q29 35 65 35q25 0 44.5 -17.5t19.5 -42.5q0 -18 -13 -41q-41 -80 -126 -125t-195 -45q-111 0 -195 44t-127 126q-12 23 -12 41zM168 96v1252q0 47 28.5 76.5t75.5 29.5q49 0 78 -28.5 t29 -77.5v-1252q0 -49 -27.5 -77.5t-79.5 -28.5q-47 0 -75.5 28.5t-28.5 77.5z" />
<glyph unicode="&#x12d;" horiz-adv-x="495" d="M-86 1430q0 29 20.5 48t47.5 19q43 0 65 -43q66 -125 201 -125t201 125q23 43 67 43q27 0 46.5 -18.5t19.5 -48.5q0 -14 -7 -33q-39 -98 -128 -155.5t-199 -57.5q-111 0 -200 57t-128 156q-6 18 -6 33zM143 88v832q0 49 30 74.5t75 25.5t73.5 -25.5t28.5 -74.5v-832 q0 -49 -28.5 -73.5t-73.5 -24.5t-75 24.5t-30 73.5z" />
<glyph unicode="&#x12e;" horiz-adv-x="546" d="M37 -176q0 68 37 125t104 94q-10 25 -10 53v1252q0 47 28.5 76.5t75.5 29.5q49 0 78 -28.5t29 -77.5v-1252q0 -33 -15.5 -58.5t-39.5 -33.5q-137 -39 -138 -156q0 -57 34 -89.5t89 -32.5q45 0 99 22q8 4 22 4q20 0 32.5 -15.5t12.5 -35.5q0 -39 -33 -57q-70 -41 -159 -41 q-111 0 -178.5 61.5t-67.5 159.5z" />
<glyph unicode="&#x12f;" horiz-adv-x="495" d="M8 -176q0 68 37 126t109 95q-10 20 -11 45v830q0 49 30 74.5t75 25.5t73.5 -25.5t28.5 -74.5v-830q0 -68 -55 -88q-63 -18 -100 -57t-37 -97q0 -57 34.5 -89.5t88.5 -32.5q45 0 98 22q8 4 22 4q20 0 32.5 -15.5t12.5 -35.5q0 -39 -32 -57q-70 -41 -160 -41 q-109 0 -177.5 61.5t-68.5 159.5zM119 1339q0 53 34.5 85t94.5 32q57 0 93 -31.5t36 -85.5q0 -53 -35 -85.5t-94 -32.5q-60 0 -94.5 32.5t-34.5 85.5z" />
<glyph unicode="&#x130;" horiz-adv-x="546" d="M144 1724q0 55 34.5 87t94.5 32q57 0 93 -31.5t36 -87.5q0 -53 -35 -85.5t-94 -32.5q-60 0 -94.5 32.5t-34.5 85.5zM168 96v1252q0 47 28.5 76.5t75.5 29.5q49 0 78 -28.5t29 -77.5v-1252q0 -49 -27.5 -77.5t-79.5 -28.5q-47 0 -75.5 28.5t-28.5 77.5z" />
<glyph unicode="&#x131;" horiz-adv-x="495" d="M143 88v832q0 49 30 74.5t75 25.5t73.5 -25.5t28.5 -74.5v-832q0 -49 -28.5 -73.5t-73.5 -24.5t-75 24.5t-30 73.5z" />
<glyph unicode="&#x134;" horiz-adv-x="698" d="M-25 76q0 80 88 86l64 4q96 4 143 58.5t47 170.5v953q0 47 30 76.5t77 29.5q49 0 77.5 -29.5t28.5 -76.5v-953q0 -193 -91 -292t-273 -109l-64 -4q-61 -4 -94 18.5t-33 67.5zM137 1624q0 29 27 55l176 174q37 35 84 35t84 -35l176 -174q27 -27 27 -55q0 -27 -20.5 -47.5 t-49.5 -20.5t-53 25l-164 176l-164 -176q-24 -25 -55 -25q-29 0 -48.5 20.5t-19.5 47.5z" />
<glyph unicode="&#x135;" horiz-adv-x="495" d="M-160 -293q0 33 20.5 52.5t65.5 23.5l58 4q80 4 119.5 49t39.5 144v940q0 49 30 74.5t75 25.5t73.5 -25.5t28.5 -74.5v-928q0 -172 -80 -260t-247 -101l-56 -4q-61 -4 -94 16.5t-33 63.5zM-43 1192q0 23 16 45l185 264q20 27 40.5 40t49.5 13t49 -12t41 -41l184 -264 q16 -23 17 -45q0 -29 -21.5 -49.5t-50.5 -20.5q-39 0 -64 37l-155 246l-156 -246q-22 -37 -63 -37q-29 0 -50.5 20.5t-21.5 49.5z" />
<glyph unicode="&#x136;" horiz-adv-x="1314" d="M168 96v1252q0 47 28.5 76.5t75.5 29.5q49 0 78 -28.5t29 -77.5v-562l698 637q29 29 68 29t67.5 -28.5t28.5 -65.5q0 -39 -35 -72l-610 -545l647 -581q35 -33 35 -72t-29.5 -67.5t-68.5 -28.5t-72 33l-729 657v-586q0 -49 -27.5 -77.5t-79.5 -28.5q-47 0 -75.5 28.5 t-28.5 77.5zM547 -242q0 49 32 79t81 30q61 0 97 -38t36 -114q0 -127 -84 -221q-27 -29 -59 -29q-23 0 -38.5 12.5t-15.5 30.5q0 16 15 37q47 57 53 113h-4q-47 0 -80 26.5t-33 73.5z" />
<glyph unicode="&#x137;" horiz-adv-x="1058" d="M143 90v1264q0 49 30 74.5t75 25.5t73.5 -25.5t28.5 -74.5v-803l467 436q35 31 68 31q39 0 67.5 -28.5t28.5 -67.5t-35 -72l-364 -334l401 -354q37 -31 37 -76q0 -39 -26.5 -67.5t-63.5 -28.5q-39 0 -70 28l-510 451v-379q0 -49 -28.5 -74.5t-73.5 -25.5t-75 25.5 t-30 74.5zM414 -242q0 49 32 79t81 30q61 0 97 -38t36 -114q0 -127 -84 -221q-27 -29 -59 -29q-23 0 -38.5 12.5t-15.5 30.5q0 16 15 37q47 57 53 113h-4q-47 0 -80 26.5t-33 73.5z" />
<glyph unicode="&#x138;" horiz-adv-x="1058" d="M143 90v830q0 49 30 74.5t75 25.5t73.5 -25.5t28.5 -74.5v-369l467 436q35 31 68 31q39 0 67.5 -28.5t28.5 -67.5t-35 -72l-364 -334l401 -354q37 -31 37 -76q0 -39 -26.5 -67.5t-63.5 -28.5q-39 0 -70 28l-510 451v-379q0 -49 -28.5 -74.5t-73.5 -25.5t-75 25.5 t-30 74.5z" />
<glyph unicode="&#x139;" horiz-adv-x="1120" d="M168 98v1250q0 47 28.5 76.5t75.5 29.5q49 0 78 -28.5t29 -77.5v-1172h622q47 0 73 -22.5t26 -65.5t-25.5 -65.5t-73.5 -22.5h-731q-47 0 -74.5 26.5t-27.5 71.5zM220 1606q0 20 18 39l195 206q39 39 79 39q35 0 59.5 -24.5t24.5 -59.5q0 -49 -57 -84l-235 -157 q-15 -9 -31 -9q-23 0 -38 14.5t-15 35.5z" />
<glyph unicode="&#x13a;" horiz-adv-x="495" d="M143 88v1266q0 49 30 74.5t75 25.5t73.5 -25.5t28.5 -74.5v-1266q0 -49 -28.5 -73.5t-73.5 -24.5t-75 24.5t-30 73.5zM195 1606q0 20 18 39l195 206q39 39 79 39q35 0 59.5 -24.5t24.5 -59.5q0 -49 -57 -84l-235 -157q-15 -9 -31 -9q-23 0 -38 14.5t-15 35.5z" />
<glyph unicode="&#x13b;" horiz-adv-x="1120" d="M168 98v1250q0 47 28.5 76.5t75.5 29.5q49 0 78 -28.5t29 -77.5v-1172h622q47 0 73 -22.5t26 -65.5t-25.5 -65.5t-73.5 -22.5h-731q-47 0 -74.5 26.5t-27.5 71.5zM520 -242q0 49 32 79t81 30q61 0 97 -38t36 -114q0 -127 -84 -221q-27 -29 -59 -29q-23 0 -38.5 12.5 t-15.5 30.5q0 16 15 37q47 57 53 113h-4q-47 0 -80 26.5t-33 73.5z" />
<glyph unicode="&#x13c;" horiz-adv-x="495" d="M133 -242q0 49 32 79t81 30q61 0 97 -38t36 -114q0 -127 -84 -221q-27 -29 -59 -29q-23 0 -38.5 12.5t-15.5 30.5q0 16 15 37q47 57 53 113h-4q-47 0 -80 26.5t-33 73.5zM143 88v1266q0 49 30 74.5t75 25.5t73.5 -25.5t28.5 -74.5v-1266q0 -49 -28.5 -73.5t-73.5 -24.5 t-75 24.5t-30 73.5z" />
<glyph unicode="&#x13d;" horiz-adv-x="1120" d="M168 98v1250q0 47 28.5 76.5t75.5 29.5q49 0 78 -28.5t29 -77.5v-1172h622q47 0 73 -22.5t26 -65.5t-25.5 -65.5t-73.5 -22.5h-731q-47 0 -74.5 26.5t-27.5 71.5zM553 1083v287q0 41 24.5 63.5t57.5 22.5q35 0 59.5 -20.5t24.5 -57.5q0 -16 -2 -24l-58 -281 q-4 -20 -18 -30.5t-35 -10.5q-20 0 -36.5 14.5t-16.5 36.5z" />
<glyph unicode="&#x13e;" horiz-adv-x="495" d="M143 88v1266q0 49 30 74.5t75 25.5t73.5 -25.5t28.5 -74.5v-1266q0 -49 -28.5 -73.5t-73.5 -24.5t-75 24.5t-30 73.5zM418 1081v297q0 37 20.5 57.5t48.5 20.5q31 0 51.5 -23.5t14.5 -62.5l-45 -297q-2 -20 -15.5 -31.5t-29.5 -11.5q-18 0 -31.5 14.5t-13.5 36.5z" />
<glyph unicode="&#x13f;" horiz-adv-x="1120" d="M168 98v1250q0 47 28.5 76.5t75.5 29.5q49 0 78 -28.5t29 -77.5v-1172h622q47 0 73 -22.5t26 -65.5t-25.5 -65.5t-73.5 -22.5h-731q-47 0 -74.5 26.5t-27.5 71.5zM612 723q0 55 35 87t94 32q57 0 93 -31.5t36 -87.5q0 -53 -34.5 -86t-94.5 -33q-59 0 -94 33t-35 86z" />
<glyph unicode="&#x140;" horiz-adv-x="602" d="M143 88v1266q0 49 30 74.5t75 25.5t73.5 -25.5t28.5 -74.5v-1266q0 -49 -28.5 -73.5t-73.5 -24.5t-75 24.5t-30 73.5zM418 723q0 55 35 87t94 32q57 0 93 -31.5t36 -87.5q0 -53 -34.5 -86t-94.5 -33q-59 0 -94 33t-35 86z" />
<glyph unicode="&#x141;" horiz-adv-x="1157" d="M0 598q0 47 49 76l156 90v584q0 47 28.5 76.5t75.5 29.5q49 0 78 -28.5t29 -77.5v-463l270 155q23 14 47 15q35 0 58.5 -24.5t23.5 -57.5q0 -45 -47 -72l-352 -205v-520h622q47 0 73 -22.5t26 -65.5t-26 -65.5t-73 -22.5h-731q-47 0 -74.5 26.5t-27.5 71.5v477l-74 -43 q-27 -14 -51 -14q-35 0 -57.5 23.5t-22.5 56.5z" />
<glyph unicode="&#x142;" horiz-adv-x="618" d="M2 596q0 49 47 78l158 92v588q0 49 28.5 74.5t73.5 25.5t75 -25.5t30 -74.5v-469l73 43q27 14 52 14q33 0 56 -24.5t23 -57.5q0 -47 -49 -76l-155 -90v-606q0 -47 -30 -72.5t-75 -25.5t-73.5 24.5t-28.5 73.5v487l-76 -43q-29 -16 -51 -16q-35 0 -56.5 23.5t-21.5 56.5z " />
<glyph unicode="&#x143;" horiz-adv-x="1521" d="M168 96v1252q0 47 28.5 76.5t73.5 29.5q53 0 82 -41l803 -1061v996q0 47 26.5 76.5t71.5 29.5t73 -29.5t28 -76.5v-1252q0 -47 -29 -76.5t-74 -29.5q-53 0 -82 41l-802 1059v-994q0 -47 -28 -76.5t-73 -29.5t-71.5 28.5t-26.5 77.5zM707 1606q0 20 18 39l195 206 q39 39 79 39q35 0 59.5 -24.5t24.5 -59.5q0 -49 -57 -84l-235 -157q-15 -9 -31 -9q-23 0 -38 14.5t-15 35.5z" />
<glyph unicode="&#x144;" horiz-adv-x="1179" d="M143 88v834q0 43 30 70.5t75 27.5t71.5 -26.5t26.5 -69.5v-84q49 90 137 137t199 47q358 0 358 -403v-533q0 -47 -27.5 -72.5t-76.5 -25.5q-47 0 -74.5 26.5t-27.5 71.5v522q0 127 -50.5 186.5t-156.5 59.5q-125 0 -201 -78t-76 -209v-481q0 -45 -27.5 -71.5t-74.5 -26.5 t-76 26.5t-29 71.5zM539 1176q0 20 14 36l221 289q41 55 94 55q39 0 65.5 -26.5t26.5 -63.5q0 -47 -49 -88l-276 -243q-16 -15 -39 -15t-40 16.5t-17 39.5z" />
<glyph unicode="&#x145;" horiz-adv-x="1521" d="M168 96v1252q0 47 28.5 76.5t73.5 29.5q53 0 82 -41l803 -1061v996q0 47 26.5 76.5t71.5 29.5t73 -29.5t28 -76.5v-1252q0 -47 -29 -76.5t-74 -29.5q-53 0 -82 41l-802 1059v-994q0 -47 -28 -76.5t-73 -29.5t-71.5 28.5t-26.5 77.5zM647 -242q0 49 32 79t81 30 q61 0 97 -38t36 -114q0 -127 -84 -221q-27 -29 -59 -29q-23 0 -38.5 12.5t-15.5 30.5q0 16 15 37q47 57 53 113h-4q-47 0 -80 26.5t-33 73.5z" />
<glyph unicode="&#x146;" horiz-adv-x="1179" d="M143 88v834q0 43 30 70.5t75 27.5t71.5 -26.5t26.5 -69.5v-84q49 90 137 137t199 47q358 0 358 -403v-533q0 -47 -27.5 -72.5t-76.5 -25.5q-47 0 -74.5 26.5t-27.5 71.5v522q0 127 -50.5 186.5t-156.5 59.5q-125 0 -201 -78t-76 -209v-481q0 -45 -27.5 -71.5t-74.5 -26.5 t-76 26.5t-29 71.5zM477 -242q0 49 32 79t81 30q61 0 97 -38t36 -114q0 -127 -84 -221q-27 -29 -59 -29q-23 0 -38.5 12.5t-15.5 30.5q0 16 15 37q47 57 53 113h-4q-47 0 -80 26.5t-33 73.5z" />
<glyph unicode="&#x147;" horiz-adv-x="1521" d="M168 96v1252q0 47 28.5 76.5t73.5 29.5q53 0 82 -41l803 -1061v996q0 47 26.5 76.5t71.5 29.5t73 -29.5t28 -76.5v-1252q0 -47 -29 -76.5t-74 -29.5q-53 0 -82 41l-802 1059v-994q0 -47 -28 -76.5t-73 -29.5t-71.5 28.5t-26.5 77.5zM473 1821q0 29 19.5 48t48.5 19 q31 0 55 -24l164 -176l164 176q25 25 55 24q27 0 47.5 -19.5t20.5 -47.5q0 -29 -27 -56l-176 -174q-37 -35 -84 -35t-84 35l-176 174q-27 27 -27 56z" />
<glyph unicode="&#x148;" horiz-adv-x="1179" d="M143 88v834q0 43 30 70.5t75 27.5t71.5 -26.5t26.5 -69.5v-84q49 90 137 137t199 47q358 0 358 -403v-533q0 -47 -27.5 -72.5t-76.5 -25.5q-47 0 -74.5 26.5t-27.5 71.5v522q0 127 -50.5 186.5t-156.5 59.5q-125 0 -201 -78t-76 -209v-481q0 -45 -27.5 -71.5t-74.5 -26.5 t-76 26.5t-29 71.5zM301 1485q0 29 22.5 49t51.5 20q37 0 63 -38l154 -246l153 246q27 39 64 38q29 0 51.5 -20.5t22.5 -48.5q0 -25 -17 -47l-184 -264q-20 -27 -41 -40.5t-49 -13.5q-29 0 -48.5 13.5t-41.5 42.5l-185 262q-16 23 -16 47z" />
<glyph unicode="&#x149;" horiz-adv-x="1179" d="M143 88v834q0 43 30 70.5t75 27.5t71.5 -26.5t26.5 -69.5v-84q49 90 137 137t199 47q358 0 358 -403v-533q0 -47 -27.5 -72.5t-76.5 -25.5q-47 0 -74.5 26.5t-27.5 71.5v522q0 127 -50.5 186.5t-156.5 59.5q-125 0 -201 -78t-76 -209v-481q0 -45 -27.5 -71.5t-74.5 -26.5 t-76 26.5t-29 71.5zM176 1448q0 49 33 77.5t82 28.5q61 0 96 -36.5t35 -112.5q0 -63 -21.5 -120.5t-60.5 -102.5q-27 -29 -59 -29q-23 0 -38.5 12.5t-15.5 32.5q0 16 15 37q47 57 53 113h-4q-49 0 -82 25.5t-33 74.5z" />
<glyph unicode="&#x14a;" horiz-adv-x="1521" d="M168 96v1252q0 47 28.5 76.5t73.5 29.5q53 0 82 -41l803 -1061v996q0 47 26.5 76.5t71.5 29.5t73 -29.5t28 -76.5v-1319q0 -193 -91.5 -292t-273.5 -112l-61 -4q-61 -2 -95 19.5t-34 64.5q0 76 90 82l61 4q203 12 203 229v29l-786 1041v-994q0 -47 -28 -76.5t-73 -29.5 t-71.5 28.5t-26.5 77.5z" />
<glyph unicode="&#x14b;" horiz-adv-x="1179" d="M143 88v834q0 43 30 70.5t75 27.5t71.5 -26.5t26.5 -69.5v-82q51 88 138 135t198 47q358 0 358 -403v-629q0 -172 -79.5 -260t-247.5 -101l-58 -4q-59 -4 -92 16.5t-33 63.5q0 70 86 76l56 4q84 4 123 50t39 143v638q0 123 -50.5 180.5t-156.5 57.5q-125 0 -201 -78 t-76 -209v-481q0 -45 -27.5 -71.5t-74.5 -26.5t-76 26.5t-29 71.5z" />
<glyph unicode="&#x14c;" horiz-adv-x="1579" d="M119 721q0 227 81 394t232.5 256t355.5 89q207 0 358.5 -89t232.5 -256t81 -392t-81 -392t-232.5 -257t-358.5 -90q-204 0 -354.5 90t-232.5 256t-82 391zM334 723q0 -272 119.5 -419.5t334.5 -147.5q218 0 338.5 147.5t120.5 419.5t-119.5 418.5t-339.5 146.5 q-215 0 -334.5 -146.5t-119.5 -418.5zM459 1724q0 35 22.5 53.5t59.5 18.5h496q37 0 59.5 -18.5t22.5 -53.5q0 -33 -23 -52t-59 -19h-496q-37 0 -59.5 19.5t-22.5 51.5z" />
<glyph unicode="&#x14d;" horiz-adv-x="1155" d="M86 504q0 158 60.5 275.5t172 181t259.5 63.5q147 0 258.5 -63.5t172 -181t60.5 -275.5q0 -156 -60.5 -273.5t-172 -181t-258.5 -63.5q-148 0 -259.5 63.5t-172 181t-60.5 273.5zM248 1337q0 35 22.5 53.5t59.5 18.5h496q37 0 59.5 -18.5t22.5 -53.5q0 -33 -23 -52 t-59 -19h-496q-37 0 -59.5 19.5t-22.5 51.5zM295 504q0 -174 72.5 -264t210.5 -90q137 0 209.5 90t72.5 264q0 172 -73.5 263t-208.5 91t-209 -91t-74 -263z" />
<glyph unicode="&#x14e;" horiz-adv-x="1579" d="M119 721q0 227 81 394t232.5 256t355.5 89q207 0 358.5 -89t232.5 -256t81 -392t-81 -392t-232.5 -257t-358.5 -90q-204 0 -354.5 90t-232.5 256t-82 391zM334 723q0 -272 119.5 -419.5t334.5 -147.5q218 0 338.5 147.5t120.5 419.5t-119.5 418.5t-339.5 146.5 q-215 0 -334.5 -146.5t-119.5 -418.5zM455 1800q0 25 18.5 42.5t42.5 17.5q39 0 68 -35q72 -98 205 -99q133 0 205 99q29 35 65 35q25 0 44.5 -17.5t19.5 -42.5q0 -18 -13 -41q-41 -80 -126 -125t-195 -45q-111 0 -195 44t-127 126q-12 23 -12 41z" />
<glyph unicode="&#x14f;" horiz-adv-x="1155" d="M86 504q0 158 60.5 275.5t172 181t259.5 63.5q147 0 258.5 -63.5t172 -181t60.5 -275.5q0 -156 -60.5 -273.5t-172 -181t-258.5 -63.5q-148 0 -259.5 63.5t-172 181t-60.5 273.5zM244 1430q0 29 20.5 48t47.5 19q43 0 65 -43q66 -125 201 -125t201 125q23 43 67 43 q27 0 46.5 -18.5t19.5 -48.5q0 -14 -7 -33q-39 -98 -128 -155.5t-199 -57.5q-111 0 -200 57t-128 156q-6 18 -6 33zM295 504q0 -174 72.5 -264t210.5 -90q137 0 209.5 90t72.5 264q0 172 -73.5 263t-208.5 91t-209 -91t-74 -263z" />
<glyph unicode="&#x150;" horiz-adv-x="1579" d="M119 721q0 227 81 394t232.5 256t355.5 89q207 0 358.5 -89t232.5 -256t81 -392t-81 -392t-232.5 -257t-358.5 -90q-204 0 -354.5 90t-232.5 256t-82 391zM334 723q0 -272 119.5 -419.5t334.5 -147.5q218 0 338.5 147.5t120.5 419.5t-119.5 418.5t-339.5 146.5 q-215 0 -334.5 -146.5t-119.5 -418.5zM613 1604q0 12 6 24l100 207q27 55 74 55q31 0 55.5 -23.5t24.5 -54.5q0 -33 -27 -61l-145 -174q-18 -21 -43 -21q-18 0 -31.5 13.5t-13.5 34.5zM871 1604q0 12 6 24l100 207q27 55 74 55q31 0 55.5 -23.5t24.5 -54.5q0 -33 -27 -61 l-147 -174q-18 -21 -41 -21q-18 0 -31.5 13.5t-13.5 34.5z" />
<glyph unicode="&#x151;" horiz-adv-x="1155" d="M86 504q0 158 60.5 275.5t172 181t259.5 63.5q147 0 258.5 -63.5t172 -181t60.5 -275.5q0 -156 -60.5 -273.5t-172 -181t-258.5 -63.5q-148 0 -259.5 63.5t-172 181t-60.5 273.5zM295 504q0 -174 72.5 -264t210.5 -90q137 0 209.5 90t72.5 264q0 172 -73.5 263t-208.5 91 t-209 -91t-74 -263zM404 1180l80 297q10 41 34.5 61.5t55.5 20.5q33 0 55.5 -20.5t22.5 -55.5q0 -27 -15 -56l-143 -280q-14 -29 -45 -29q-23 0 -37 17.5t-8 44.5zM662 1180l80 297q10 41 34.5 61.5t55.5 20.5q33 0 55.5 -20.5t22.5 -55.5q0 -27 -15 -56l-143 -280 q-14 -29 -45 -29q-23 0 -37 17.5t-8 44.5z" />
<glyph unicode="&#x152;" horiz-adv-x="2140" d="M119 723q0 344 191.5 532.5t541.5 188.5h1116q47 0 72.5 -22.5t25.5 -63.5q0 -84 -98 -84h-653v-455h612q47 0 72.5 -22.5t25.5 -63.5t-25.5 -63.5t-72.5 -22.5h-612v-477h653q98 0 98 -84q0 -41 -25.5 -63.5t-72.5 -22.5h-1116q-348 0 -540.5 188.5t-192.5 534.5z M334 723q0 -270 132 -411.5t398 -141.5h244v1104h-244q-266 0 -398 -140.5t-132 -410.5z" />
<glyph unicode="&#x153;" horiz-adv-x="1847" d="M86 504q0 158 60.5 275.5t171 181t255.5 63.5q131 0 231.5 -55.5t160.5 -157.5q59 100 157.5 156.5t223.5 56.5t220 -59.5t147 -167t52 -250.5q0 -82 -75 -82h-623q20 -317 303 -318q74 0 128 19.5t114 52.5q23 14 44 23.5t36 9.5q28 0 46.5 -22.5t18.5 -57.5 q0 -59 -74 -100q-72 -41 -155.5 -63.5t-159.5 -22.5q-139 0 -241.5 54t-161.5 157q-59 -100 -159.5 -155.5t-232.5 -55.5q-145 0 -255.5 63.5t-171 181t-60.5 273.5zM295 504q0 -172 72.5 -263t207.5 -91q138 0 209.5 90t71.5 264q0 172 -72.5 263t-208.5 91 q-135 0 -207.5 -91t-72.5 -263zM1067 584h518q-4 139 -67.5 213.5t-176.5 74.5q-116 0 -188 -75.5t-86 -212.5z" />
<glyph unicode="&#x154;" horiz-adv-x="1413" d="M168 96v1245q0 47 27.5 75t76.5 28h510q240 0 366 -106.5t126 -311.5q0 -170 -96.5 -275.5t-274.5 -134.5q53 -14 96 -51t84 -102l211 -332q19 -26 19 -57q0 -37 -30 -62.5t-69 -25.5q-57 0 -92 51l-274 426q-47 74 -100.5 103.5t-139.5 29.5h-231v-500 q0 -49 -27.5 -77.5t-77.5 -28.5q-47 0 -75.5 28.5t-28.5 77.5zM375 766h383q160 0 236.5 62.5t76.5 193.5t-75.5 191.5t-237.5 60.5h-383v-508zM652 1606q0 20 18 39l195 206q39 39 79 39q35 0 59.5 -24.5t24.5 -59.5q0 -49 -57 -84l-235 -157q-15 -9 -31 -9q-23 0 -38 14.5 t-15 35.5z" />
<glyph unicode="&#x155;" horiz-adv-x="749" d="M143 88v834q0 47 30 72.5t75 25.5q41 0 68.5 -25.5t27.5 -70.5v-99q41 90 119 137.5t176 55.5l29 2q98 6 98 -84q0 -45 -22.5 -67.5t-77.5 -26.5l-62 -6q-129 -12 -191.5 -90t-62.5 -189v-469q0 -49 -28.5 -73.5t-73.5 -24.5t-75 24.5t-30 73.5zM398 1176q0 20 14 36 l221 289q41 55 94 55q39 0 65.5 -26.5t26.5 -63.5q0 -47 -49 -88l-276 -243q-16 -15 -39 -15t-40 16.5t-17 39.5z" />
<glyph unicode="&#x156;" horiz-adv-x="1413" d="M168 96v1245q0 47 27.5 75t76.5 28h510q240 0 366 -106.5t126 -311.5q0 -170 -96.5 -275.5t-274.5 -134.5q53 -14 96 -51t84 -102l211 -332q19 -26 19 -57q0 -37 -30 -62.5t-69 -25.5q-57 0 -92 51l-274 426q-47 74 -100.5 103.5t-139.5 29.5h-231v-500 q0 -49 -27.5 -77.5t-77.5 -28.5q-47 0 -75.5 28.5t-28.5 77.5zM375 766h383q160 0 236.5 62.5t76.5 193.5t-75.5 191.5t-237.5 60.5h-383v-508zM590 -242q0 49 32 79t81 30q61 0 97 -38t36 -114q0 -127 -84 -221q-27 -29 -59 -29q-23 0 -38.5 12.5t-15.5 30.5q0 16 15 37 q47 57 53 113h-4q-47 0 -80 26.5t-33 73.5z" />
<glyph unicode="&#x157;" horiz-adv-x="749" d="M133 -242q0 49 32 79t81 30q61 0 97 -38t36 -114q0 -127 -84 -221q-27 -29 -59 -29q-23 0 -38.5 12.5t-15.5 30.5q0 16 15 37q47 57 53 113h-4q-47 0 -80 26.5t-33 73.5zM143 88v834q0 47 30 72.5t75 25.5q41 0 68.5 -25.5t27.5 -70.5v-99q41 90 119 137.5t176 55.5l29 2 q98 6 98 -84q0 -45 -22.5 -67.5t-77.5 -26.5l-62 -6q-129 -12 -191.5 -90t-62.5 -189v-469q0 -49 -28.5 -73.5t-73.5 -24.5t-75 24.5t-30 73.5z" />
<glyph unicode="&#x158;" horiz-adv-x="1413" d="M168 96v1245q0 47 27.5 75t76.5 28h510q240 0 366 -106.5t126 -311.5q0 -170 -96.5 -275.5t-274.5 -134.5q53 -14 96 -51t84 -102l211 -332q19 -26 19 -57q0 -37 -30 -62.5t-69 -25.5q-57 0 -92 51l-274 426q-47 74 -100.5 103.5t-139.5 29.5h-231v-500 q0 -49 -27.5 -77.5t-77.5 -28.5q-47 0 -75.5 28.5t-28.5 77.5zM375 766h383q160 0 236.5 62.5t76.5 193.5t-75.5 191.5t-237.5 60.5h-383v-508zM418 1821q0 29 19.5 48t48.5 19q31 0 55 -24l164 -176l164 176q25 25 55 24q27 0 47.5 -19.5t20.5 -47.5q0 -29 -27 -56 l-176 -174q-37 -35 -84 -35t-84 35l-176 174q-27 27 -27 56z" />
<glyph unicode="&#x159;" horiz-adv-x="749" d="M143 88v834q0 47 30 72.5t75 25.5q41 0 68.5 -25.5t27.5 -70.5v-99q41 90 119 137.5t176 55.5l29 2q98 6 98 -84q0 -45 -22.5 -67.5t-77.5 -26.5l-62 -6q-129 -12 -191.5 -90t-62.5 -189v-469q0 -49 -28.5 -73.5t-73.5 -24.5t-75 24.5t-30 73.5zM160 1485q0 29 22.5 49 t51.5 20q37 0 63 -38l154 -246l153 246q27 39 64 38q29 0 51.5 -20.5t22.5 -48.5q0 -25 -17 -47l-184 -264q-20 -27 -41 -40.5t-49 -13.5q-29 0 -48.5 13.5t-41.5 42.5l-185 262q-16 23 -16 47z" />
<glyph unicode="&#x15a;" horiz-adv-x="1284" d="M86 229q0 37 20.5 62.5t49.5 25.5t69 -26q182 -135 416 -135q164 0 252 61.5t88 175.5q0 90 -82 135t-262 86q-172 37 -282.5 84t-173 128t-62.5 206t68.5 222.5t191.5 151.5t280 54q145 0 268.5 -41t209.5 -121q41 -35 41 -84q0 -35 -21.5 -61.5t-50.5 -26.5 q-27 0 -68 27q-94 72 -177 103.5t-199 31.5q-158 0 -246 -64.5t-88 -179.5q0 -98 77.5 -148t249.5 -91q180 -41 292 -85t178.5 -121t66.5 -198q0 -123 -68.5 -218t-192.5 -147t-286 -52q-156 0 -296 43t-224 118q-39 33 -39 84zM592 1606q0 20 18 39l195 206q39 39 79 39 q35 0 59.5 -24.5t24.5 -59.5q0 -49 -57 -84l-235 -157q-15 -9 -31 -9q-23 0 -38 14.5t-15 35.5z" />
<glyph unicode="&#x15b;" horiz-adv-x="987" d="M82 174q0 33 18.5 55.5t46.5 22.5q27 0 84 -33q61 -33 120 -53.5t147 -20.5q98 0 153.5 35t55.5 99q0 41 -21.5 65.5t-75 44t-157.5 41.5q-180 39 -259 105.5t-79 181.5q0 88 51 158.5t141 109.5t205 39q82 0 160 -21.5t137 -62.5q68 -45 68 -104q0 -33 -19.5 -55.5 t-46.5 -22.5q-18 0 -36.5 8t-49.5 27q-55 33 -103.5 51t-119.5 18q-86 0 -138.5 -37t-52.5 -100q0 -57 48.5 -89t181.5 -61q137 -29 215 -65.5t111.5 -90.5t33.5 -138q0 -133 -111.5 -214t-297.5 -81q-209 0 -342 86q-37 23 -52.5 47t-15.5 55zM459 1176q0 20 14 36l221 289 q41 55 94 55q39 0 65.5 -26.5t26.5 -63.5q0 -47 -49 -88l-276 -243q-16 -15 -39 -15t-40 16.5t-17 39.5z" />
<glyph unicode="&#x15c;" horiz-adv-x="1284" d="M86 229q0 37 20.5 62.5t49.5 25.5t69 -26q182 -135 416 -135q164 0 252 61.5t88 175.5q0 90 -82 135t-262 86q-172 37 -282.5 84t-173 128t-62.5 206t68.5 222.5t191.5 151.5t280 54q145 0 268.5 -41t209.5 -121q41 -35 41 -84q0 -35 -21.5 -61.5t-50.5 -26.5 q-27 0 -68 27q-94 72 -177 103.5t-199 31.5q-158 0 -246 -64.5t-88 -179.5q0 -98 77.5 -148t249.5 -91q180 -41 292 -85t178.5 -121t66.5 -198q0 -123 -68.5 -218t-192.5 -147t-286 -52q-156 0 -296 43t-224 118q-39 33 -39 84zM358 1624q0 29 27 55l176 174q37 35 84 35 t84 -35l176 -174q27 -27 27 -55q0 -27 -20.5 -47.5t-49.5 -20.5t-53 25l-164 176l-164 -176q-24 -25 -55 -25q-29 0 -48.5 20.5t-19.5 47.5z" />
<glyph unicode="&#x15d;" horiz-adv-x="987" d="M82 174q0 33 18.5 55.5t46.5 22.5q27 0 84 -33q61 -33 120 -53.5t147 -20.5q98 0 153.5 35t55.5 99q0 41 -21.5 65.5t-75 44t-157.5 41.5q-180 39 -259 105.5t-79 181.5q0 88 51 158.5t141 109.5t205 39q82 0 160 -21.5t137 -62.5q68 -45 68 -104q0 -33 -19.5 -55.5 t-46.5 -22.5q-18 0 -36.5 8t-49.5 27q-55 33 -103.5 51t-119.5 18q-86 0 -138.5 -37t-52.5 -100q0 -57 48.5 -89t181.5 -61q137 -29 215 -65.5t111.5 -90.5t33.5 -138q0 -133 -111.5 -214t-297.5 -81q-209 0 -342 86q-37 23 -52.5 47t-15.5 55zM221 1192q0 23 16 45l185 264 q20 27 40.5 40t49.5 13t49 -12t41 -41l184 -264q16 -23 17 -45q0 -29 -21.5 -49.5t-50.5 -20.5q-39 0 -64 37l-155 246l-156 -246q-22 -37 -63 -37q-29 0 -50.5 20.5t-21.5 49.5z" />
<glyph unicode="&#x15e;" horiz-adv-x="1284" d="M86 229q0 37 20.5 62.5t49.5 25.5t69 -26q182 -135 416 -135q164 0 252 61.5t88 175.5q0 90 -82 135t-262 86q-172 37 -282.5 84t-173 128t-62.5 206t68.5 222.5t191.5 151.5t280 54q145 0 268.5 -41t209.5 -121q41 -35 41 -84q0 -35 -21.5 -61.5t-50.5 -26.5 q-27 0 -68 27q-94 72 -177 103.5t-199 31.5q-158 0 -246 -64.5t-88 -179.5q0 -98 77.5 -148t249.5 -91q180 -41 292 -85t178.5 -121t66.5 -198q0 -116 -62.5 -208.5t-176 -146.5t-263.5 -60l-10 -76q29 6 51 6q63 0 107.5 -37t44.5 -104q0 -76 -65.5 -124t-186.5 -48 q-80 0 -142 22q-37 14 -36 51q0 25 17 41.5t46 8.5q61 -16 115 -17q53 0 81.5 16.5t28.5 49.5q0 25 -15 38t-44 13q-20 0 -55 -8t-43 -8q-16 0 -29.5 11t-11.5 29l16 138q-133 10 -247.5 52t-186.5 105q-39 33 -39 84z" />
<glyph unicode="&#x15f;" horiz-adv-x="987" d="M82 174q0 33 18.5 55.5t46.5 22.5q27 0 84 -33q61 -33 120 -53.5t147 -20.5q98 0 153.5 35t55.5 99q0 41 -21.5 65.5t-75 44t-157.5 41.5q-180 39 -259 105.5t-79 181.5q0 88 51 158.5t141 109.5t205 39q82 0 160 -21.5t137 -62.5q68 -45 68 -104q0 -33 -19.5 -55.5 t-46.5 -22.5q-18 0 -36.5 8t-49.5 27q-55 33 -103.5 51t-119.5 18q-86 0 -138.5 -37t-52.5 -100q0 -57 48.5 -89t181.5 -61q137 -29 215 -65.5t111.5 -90.5t33.5 -138q0 -125 -99.5 -204t-264.5 -89l-11 -78q29 6 52 6q63 0 107 -37t44 -104q0 -76 -65.5 -124t-186.5 -48 q-80 0 -141 22q-37 14 -37 51q0 25 17.5 41.5t45.5 8.5q61 -16 115 -17q53 0 82 16.5t29 49.5q0 25 -15.5 38t-44.5 13q-20 0 -55 -8t-43 -8q-16 0 -29.5 11t-11.5 29l17 140q-154 16 -256 82q-37 23 -52.5 47t-15.5 55z" />
<glyph unicode="&#x160;" horiz-adv-x="1284" d="M86 229q0 37 20.5 62.5t49.5 25.5t69 -26q182 -135 416 -135q164 0 252 61.5t88 175.5q0 90 -82 135t-262 86q-172 37 -282.5 84t-173 128t-62.5 206t68.5 222.5t191.5 151.5t280 54q145 0 268.5 -41t209.5 -121q41 -35 41 -84q0 -35 -21.5 -61.5t-50.5 -26.5 q-27 0 -68 27q-94 72 -177 103.5t-199 31.5q-158 0 -246 -64.5t-88 -179.5q0 -98 77.5 -148t249.5 -91q180 -41 292 -85t178.5 -121t66.5 -198q0 -123 -68.5 -218t-192.5 -147t-286 -52q-156 0 -296 43t-224 118q-39 33 -39 84zM358 1821q0 29 19.5 48t48.5 19q31 0 55 -24 l164 -176l164 176q25 25 55 24q27 0 47.5 -19.5t20.5 -47.5q0 -29 -27 -56l-176 -174q-37 -35 -84 -35t-84 35l-176 174q-27 27 -27 56z" />
<glyph unicode="&#x161;" horiz-adv-x="987" d="M82 174q0 33 18.5 55.5t46.5 22.5q27 0 84 -33q61 -33 120 -53.5t147 -20.5q98 0 153.5 35t55.5 99q0 41 -21.5 65.5t-75 44t-157.5 41.5q-180 39 -259 105.5t-79 181.5q0 88 51 158.5t141 109.5t205 39q82 0 160 -21.5t137 -62.5q68 -45 68 -104q0 -33 -19.5 -55.5 t-46.5 -22.5q-18 0 -36.5 8t-49.5 27q-55 33 -103.5 51t-119.5 18q-86 0 -138.5 -37t-52.5 -100q0 -57 48.5 -89t181.5 -61q137 -29 215 -65.5t111.5 -90.5t33.5 -138q0 -133 -111.5 -214t-297.5 -81q-209 0 -342 86q-37 23 -52.5 47t-15.5 55zM221 1485q0 29 22.5 49 t51.5 20q37 0 63 -38l154 -246l153 246q27 39 64 38q29 0 51.5 -20.5t22.5 -48.5q0 -25 -17 -47l-184 -264q-20 -27 -41 -40.5t-49 -13.5q-29 0 -48.5 13.5t-41.5 42.5l-185 262q-16 23 -16 47z" />
<glyph unicode="&#x162;" horiz-adv-x="1239" d="M4 1356q0 43 25.5 65.5t72.5 22.5h1033q47 0 72.5 -22.5t25.5 -65.5q0 -88 -98 -88h-410v-1172q0 -72 -61 -98l-11 -88q29 6 52 6q63 0 107 -37t44 -104q0 -76 -65.5 -124t-186.5 -48q-80 0 -141 22q-37 14 -37 51q0 25 17.5 41.5t45.5 8.5q61 -16 115 -17q53 0 82 16.5 t29 49.5q0 25 -15.5 38t-44.5 13q-20 0 -55 -8t-43 -8q-16 0 -29.5 11t-11.5 29l21 175q-25 29 -25 71v1172h-410q-98 0 -98 88z" />
<glyph unicode="&#x163;" horiz-adv-x="722" d="M-6 920q0 37 23.5 58t66.5 21h123v211q0 47 27.5 74t74.5 27t76 -27t29 -74v-211h202q43 0 67 -21.5t24 -57.5q0 -39 -24 -59.5t-67 -20.5h-202v-496q0 -96 40 -141t121 -51l58 -5q45 -4 64.5 -23.5t19.5 -53.5q0 -41 -32 -62.5t-93 -17.5l-55 4l-29 2l-10 -86q29 6 51 6 q63 0 107 -37t44 -104q0 -76 -65.5 -124t-185.5 -48q-80 0 -142 22q-37 14 -37 51q0 25 17.5 41.5t46.5 8.5q61 -16 115 -17q53 0 81.5 16.5t28.5 49.5q0 25 -15.5 38t-43.5 13q-20 0 -55 -8t-44 -8q-16 0 -29.5 11t-11.5 29l21 179q-174 80 -174 329v482h-123q-90 0 -90 80 z" />
<glyph unicode="&#x164;" horiz-adv-x="1239" d="M4 1356q0 43 25.5 65.5t72.5 22.5h1033q47 0 72.5 -22.5t25.5 -65.5q0 -88 -98 -88h-410v-1172q0 -47 -28.5 -76.5t-78.5 -29.5q-47 0 -76.5 29.5t-29.5 76.5v1172h-410q-98 0 -98 88zM332 1821q0 29 19.5 48t48.5 19q31 0 55 -24l164 -176l164 176q25 25 55 24 q27 0 47.5 -19.5t20.5 -47.5q0 -29 -27 -56l-176 -174q-37 -35 -84 -35t-84 35l-176 174q-27 27 -27 56z" />
<glyph unicode="&#x165;" horiz-adv-x="722" d="M-6 920q0 37 23.5 58t66.5 21h123v211q0 47 27.5 74t74.5 27t76 -27t29 -74v-211h202q43 0 67 -21.5t24 -57.5q0 -39 -24 -59.5t-67 -20.5h-202v-496q0 -96 40 -141t121 -51l58 -5q45 -4 64.5 -23.5t19.5 -53.5q0 -41 -32 -62.5t-93 -17.5l-55 4q-166 12 -248 101 t-82 263v482h-123q-90 0 -90 80zM514 1120v258q0 37 26.5 57.5t63.5 20.5t63.5 -19.5t26.5 -52.5q0 -14 -2 -20l-61 -252q-13 -37 -60 -37q-23 0 -40 12.5t-17 32.5z" />
<glyph unicode="&#x166;" horiz-adv-x="1239" d="M4 1356q0 43 25.5 65.5t72.5 22.5h1033q47 0 72.5 -22.5t25.5 -65.5q0 -88 -98 -88h-410v-453h215q43 0 67.5 -22.5t24.5 -61.5t-24.5 -60.5t-67.5 -21.5h-215v-553q0 -47 -28.5 -76.5t-78.5 -29.5q-47 0 -76.5 29.5t-29.5 76.5v553h-211q-45 0 -70.5 21.5t-25.5 60.5 t25.5 61.5t70.5 22.5h211v453h-410q-98 0 -98 88z" />
<glyph unicode="&#x167;" horiz-adv-x="743" d="M4 920q0 37 23.5 58t66.5 21h123v211q0 47 27.5 74t74.5 27t76 -27t29 -74v-211h203q43 0 66.5 -21.5t23.5 -57.5q0 -39 -23.5 -59.5t-66.5 -20.5h-203v-191h166q41 0 63.5 -20.5t22.5 -55.5t-22.5 -55t-63.5 -20h-166v-154q0 -96 40 -141t122 -51l57 -5 q45 -4 64.5 -23.5t19.5 -53.5q0 -41 -31.5 -62.5t-93.5 -17.5l-55 4q-166 12 -248 101t-82 263v140h-86q-41 0 -63.5 20.5t-22.5 54.5q0 35 22.5 55.5t63.5 20.5h86v191h-123q-90 0 -90 80z" />
<glyph unicode="&#x168;" horiz-adv-x="1490" d="M158 573v775q0 49 28.5 77.5t75.5 28.5t76 -28.5t29 -77.5v-789q0 -199 95 -301t283 -102q186 0 282.5 102t96.5 301v789q0 47 29 76.5t76 29.5t75.5 -28.5t28.5 -77.5v-775q0 -289 -150.5 -439t-437.5 -150q-288 0 -437.5 149.5t-149.5 439.5zM414 1669q0 37 23.5 77 t65.5 66.5t95 26.5q35 0 73 -11t89 -32q88 -35 131 -35q31 0 49.5 12.5t34.5 32.5q16 18 26.5 25.5t24.5 7.5q23 0 37.5 -15.5t14.5 -39.5q0 -37 -24 -77t-65.5 -66.5t-95.5 -26.5q-35 0 -72.5 11t-89.5 32q-88 35 -131 35q-31 0 -49 -12.5t-35 -34.5q-4 -4 -13 -13.5 t-18.5 -14.5t-19.5 -5q-23 0 -37 16.5t-14 40.5z" />
<glyph unicode="&#x169;" horiz-adv-x="1165" d="M139 387v533q0 47 28 73.5t77 26.5q47 0 74.5 -26.5t27.5 -73.5v-531q0 -121 49 -178t152 -57q121 0 193.5 77.5t72.5 206.5v482q0 45 28.5 72.5t76.5 27.5q47 0 74.5 -26.5t27.5 -73.5v-834q0 -43 -28.5 -69.5t-76.5 -26.5q-43 0 -69.5 25.5t-26.5 68.5v78 q-47 -86 -130 -131t-185 -45q-365 0 -365 401zM250 1272q0 39 23.5 87t65.5 82t95 34q39 0 77 -18.5t87 -51.5q51 -31 74.5 -42t46.5 -11q35 0 54.5 17t37.5 48q14 23 25.5 35t27.5 12q23 0 36.5 -16t13.5 -43q0 -37 -24 -85t-65.5 -82t-95.5 -34q-39 0 -75.5 17.5 t-88.5 50.5q-41 27 -68.5 40t-51.5 13q-35 0 -54.5 -17.5t-38.5 -47.5q-14 -23 -25 -35.5t-28 -12.5q-23 0 -36 16.5t-13 43.5z" />
<glyph unicode="&#x16a;" horiz-adv-x="1490" d="M158 573v775q0 49 28.5 77.5t75.5 28.5t76 -28.5t29 -77.5v-789q0 -199 95 -301t283 -102q186 0 282.5 102t96.5 301v789q0 47 29 76.5t76 29.5t75.5 -28.5t28.5 -77.5v-775q0 -289 -150.5 -439t-437.5 -150q-288 0 -437.5 149.5t-149.5 439.5zM416 1724q0 35 22.5 53.5 t59.5 18.5h496q37 0 59.5 -18.5t22.5 -53.5q0 -33 -23 -52t-59 -19h-496q-37 0 -59.5 19.5t-22.5 51.5z" />
<glyph unicode="&#x16b;" horiz-adv-x="1165" d="M139 387v533q0 47 28 73.5t77 26.5q47 0 74.5 -26.5t27.5 -73.5v-531q0 -121 49 -178t152 -57q121 0 193.5 77.5t72.5 206.5v482q0 45 28.5 72.5t76.5 27.5q47 0 74.5 -26.5t27.5 -73.5v-834q0 -43 -28.5 -69.5t-76.5 -26.5q-43 0 -69.5 25.5t-26.5 68.5v78 q-47 -86 -130 -131t-185 -45q-365 0 -365 401zM252 1337q0 35 22.5 53.5t59.5 18.5h496q37 0 59.5 -18.5t22.5 -53.5q0 -33 -23 -52t-59 -19h-496q-37 0 -59.5 19.5t-22.5 51.5z" />
<glyph unicode="&#x16c;" horiz-adv-x="1490" d="M158 573v775q0 49 28.5 77.5t75.5 28.5t76 -28.5t29 -77.5v-789q0 -199 95 -301t283 -102q186 0 282.5 102t96.5 301v789q0 47 29 76.5t76 29.5t75.5 -28.5t28.5 -77.5v-775q0 -289 -150.5 -439t-437.5 -150q-288 0 -437.5 149.5t-149.5 439.5zM412 1800q0 25 18.5 42.5 t42.5 17.5q39 0 68 -35q72 -98 205 -99q133 0 205 99q29 35 65 35q25 0 44.5 -17.5t19.5 -42.5q0 -18 -13 -41q-41 -80 -126 -125t-195 -45q-111 0 -195 44t-127 126q-12 23 -12 41z" />
<glyph unicode="&#x16d;" horiz-adv-x="1165" d="M139 387v533q0 47 28 73.5t77 26.5q47 0 74.5 -26.5t27.5 -73.5v-531q0 -121 49 -178t152 -57q121 0 193.5 77.5t72.5 206.5v482q0 45 28.5 72.5t76.5 27.5q47 0 74.5 -26.5t27.5 -73.5v-834q0 -43 -28.5 -69.5t-76.5 -26.5q-43 0 -69.5 25.5t-26.5 68.5v78 q-47 -86 -130 -131t-185 -45q-365 0 -365 401zM248 1430q0 29 20.5 48t47.5 19q43 0 65 -43q66 -125 201 -125t201 125q23 43 67 43q27 0 46.5 -18.5t19.5 -48.5q0 -14 -7 -33q-39 -98 -128 -155.5t-199 -57.5q-111 0 -200 57t-128 156q-6 18 -6 33z" />
<glyph unicode="&#x16e;" horiz-adv-x="1490" d="M158 573v775q0 49 28.5 77.5t75.5 28.5t76 -28.5t29 -77.5v-789q0 -199 95 -301t283 -102q186 0 282.5 102t96.5 301v789q0 47 29 76.5t76 29.5t75.5 -28.5t28.5 -77.5v-775q0 -289 -150.5 -439t-437.5 -150q-288 0 -437.5 149.5t-149.5 439.5zM533 1765q0 86 62.5 146.5 t150.5 60.5t150.5 -60.5t62.5 -146.5q0 -88 -62.5 -148.5t-150.5 -60.5t-150.5 60.5t-62.5 148.5zM650 1765q0 -43 27.5 -71.5t68.5 -28.5t68.5 28.5t27.5 71.5q0 41 -27.5 70t-68.5 29t-68.5 -29t-27.5 -70z" />
<glyph unicode="&#x16f;" horiz-adv-x="1165" d="M139 387v533q0 47 28 73.5t77 26.5q47 0 74.5 -26.5t27.5 -73.5v-531q0 -121 49 -178t152 -57q121 0 193.5 77.5t72.5 206.5v482q0 45 28.5 72.5t76.5 27.5q47 0 74.5 -26.5t27.5 -73.5v-834q0 -43 -28.5 -69.5t-76.5 -26.5q-43 0 -69.5 25.5t-26.5 68.5v78 q-47 -86 -130 -131t-185 -45q-365 0 -365 401zM369 1339q0 88 62.5 148.5t150.5 60.5t150.5 -60.5t62.5 -148.5q0 -86 -62.5 -146t-150.5 -60t-150.5 60t-62.5 146zM486 1339q0 -41 27.5 -70.5t68.5 -29.5t68.5 29.5t27.5 70.5t-27.5 71t-68.5 30t-68.5 -30t-27.5 -71z" />
<glyph unicode="&#x170;" horiz-adv-x="1490" d="M158 573v775q0 49 28.5 77.5t75.5 28.5t76 -28.5t29 -77.5v-789q0 -199 95 -301t283 -102q186 0 282.5 102t96.5 301v789q0 47 29 76.5t76 29.5t75.5 -28.5t28.5 -77.5v-775q0 -289 -150.5 -439t-437.5 -150q-288 0 -437.5 149.5t-149.5 439.5zM570 1604q0 12 6 24 l100 207q27 55 74 55q31 0 55.5 -23.5t24.5 -54.5q0 -33 -27 -61l-145 -174q-18 -21 -43 -21q-18 0 -31.5 13.5t-13.5 34.5zM828 1604q0 12 6 24l100 207q27 55 74 55q31 0 55.5 -23.5t24.5 -54.5q0 -33 -27 -61l-147 -174q-18 -21 -41 -21q-18 0 -31.5 13.5t-13.5 34.5z " />
<glyph unicode="&#x171;" horiz-adv-x="1165" d="M139 387v533q0 47 28 73.5t77 26.5q47 0 74.5 -26.5t27.5 -73.5v-531q0 -121 49 -178t152 -57q121 0 193.5 77.5t72.5 206.5v482q0 45 28.5 72.5t76.5 27.5q47 0 74.5 -26.5t27.5 -73.5v-834q0 -43 -28.5 -69.5t-76.5 -26.5q-43 0 -69.5 25.5t-26.5 68.5v78 q-47 -86 -130 -131t-185 -45q-365 0 -365 401zM408 1180l80 297q10 41 34.5 61.5t55.5 20.5q33 0 55.5 -20.5t22.5 -55.5q0 -27 -15 -56l-143 -280q-14 -29 -45 -29q-23 0 -37 17.5t-8 44.5zM666 1180l80 297q10 41 34.5 61.5t55.5 20.5q33 0 55.5 -20.5t22.5 -55.5 q0 -27 -15 -56l-143 -280q-14 -29 -45 -29q-23 0 -37 17.5t-8 44.5z" />
<glyph unicode="&#x172;" horiz-adv-x="1490" d="M158 573v775q0 49 28.5 77.5t75.5 28.5t76 -28.5t29 -77.5v-789q0 -199 95 -301t283 -102q186 0 282.5 102t96.5 301v789q0 47 29 76.5t76 29.5t75.5 -28.5t28.5 -77.5v-775q0 -225 -91 -366t-267 -193q-158 -49 -158 -166q0 -57 34 -89.5t91 -32.5q43 0 98 22q8 4 23 4 q20 0 32.5 -15.5t12.5 -37.5q0 -37 -33 -55q-76 -41 -160 -41q-109 0 -177 60.5t-68 156.5q0 98 71 164q-287 2 -435 151.5t-148 437.5z" />
<glyph unicode="&#x173;" horiz-adv-x="1165" d="M139 387v533q0 47 28 73.5t77 26.5q47 0 74.5 -26.5t27.5 -73.5v-531q0 -121 49 -178t152 -57q121 0 193.5 77.5t72.5 206.5v482q0 45 28.5 72.5t76.5 27.5q47 0 74.5 -26.5t27.5 -73.5v-834q0 -33 -15.5 -56.5t-41.5 -31.5q-135 -37 -136 -150q0 -57 33 -89.5t90 -32.5 q43 0 99 22q8 4 22 4q20 0 32.5 -15.5t12.5 -37.5q0 -37 -33 -55q-72 -41 -159 -41q-109 0 -177.5 61.5t-68.5 159.5q0 72 38 128t109 91q-6 18 -6 39v80q-47 -86 -130 -131t-185 -45q-365 0 -365 401z" />
<glyph unicode="&#x174;" horiz-adv-x="2263" d="M74 1364q0 41 30.5 66.5t73.5 25.5q31 0 56.5 -16.5t37.5 -48.5l379 -1090l385 1079q12 35 40 53.5t61 18.5t59.5 -19.5t40.5 -54.5l377 -1087l385 1100q12 32 36.5 48.5t55.5 16.5q39 0 68.5 -25.5t29.5 -66.5q0 -23 -8 -41l-452 -1266q-14 -35 -45 -53t-68 -18 q-35 0 -65.5 18.5t-43.5 52.5l-372 1057l-381 -1057q-12 -35 -43 -53t-66 -18q-37 0 -66.5 18.5t-43.5 52.5l-453 1266q-8 18 -8 41zM844 1624q0 29 27 55l176 174q37 35 84 35t84 -35l176 -174q27 -27 27 -55q0 -27 -20.5 -47.5t-49.5 -20.5t-53 25l-164 176l-164 -176 q-24 -25 -55 -25q-29 0 -48.5 20.5t-19.5 47.5z" />
<glyph unicode="&#x175;" horiz-adv-x="1736" d="M51 924q0 41 34 67.5t75 26.5q61 0 84 -60l264 -698l270 692q12 33 39 49.5t57 16.5q29 0 55.5 -16.5t39.5 -49.5l270 -688l264 692q23 62 84 62q39 0 70 -26.5t31 -65.5q0 -20 -9 -37l-340 -830q-12 -33 -40.5 -50t-63.5 -17q-33 0 -61.5 17.5t-40.5 49.5l-267 658 l-260 -658q-12 -33 -39.5 -50t-62.5 -17q-33 0 -62.5 17.5t-44.5 49.5l-338 830q-8 16 -8 35zM578 1192q0 23 16 45l185 264q20 27 40.5 40t49.5 13t49 -12t41 -41l184 -264q16 -23 17 -45q0 -29 -21.5 -49.5t-50.5 -20.5q-39 0 -64 37l-155 246l-156 -246q-22 -37 -63 -37 q-29 0 -50.5 20.5t-21.5 49.5z" />
<glyph unicode="&#x176;" horiz-adv-x="1251" d="M12 1358q0 39 29 67.5t68 28.5q41 0 71 -37l447 -561l444 561q29 37 72 37q37 0 66.5 -29.5t29.5 -68.5q0 -37 -25 -64l-483 -602v-594q0 -51 -29.5 -78.5t-76.5 -27.5t-76 27.5t-29 78.5v594l-483 602q-25 27 -25 66zM338 1624q0 29 27 55l176 174q37 35 84 35t84 -35 l176 -174q27 -27 27 -55q0 -27 -20.5 -47.5t-49.5 -20.5t-53 25l-164 176l-164 -176q-24 -25 -55 -25q-29 0 -48.5 20.5t-19.5 47.5z" />
<glyph unicode="&#x177;" horiz-adv-x="1064" d="M27 926q0 39 32.5 65.5t73.5 26.5q61 0 88 -57l318 -705l315 702q12 31 35.5 45.5t50.5 14.5q39 0 68.5 -26.5t29.5 -63.5q0 -20 -8 -39l-569 -1208q-12 -29 -36 -44.5t-50 -15.5q-37 0 -66.5 24.5t-29.5 61.5q0 16 10 41l141 301l-395 840q-8 16 -8 37zM242 1192 q0 23 16 45l185 264q20 27 40.5 40t49.5 13t49 -12t41 -41l184 -264q16 -23 17 -45q0 -29 -21.5 -49.5t-50.5 -20.5q-39 0 -64 37l-155 246l-156 -246q-22 -37 -63 -37q-29 0 -50.5 20.5t-21.5 49.5z" />
<glyph unicode="&#x178;" horiz-adv-x="1251" d="M12 1358q0 39 29 67.5t68 28.5q41 0 71 -37l447 -561l444 561q29 37 72 37q37 0 66.5 -29.5t29.5 -68.5q0 -37 -25 -64l-483 -602v-594q0 -51 -29.5 -78.5t-76.5 -27.5t-76 27.5t-29 78.5v594l-483 602q-25 27 -25 66zM328 1724q0 51 32.5 82t84.5 31q49 0 82.5 -31.5 t33.5 -81.5q0 -49 -32.5 -79.5t-83.5 -30.5q-52 0 -84.5 30.5t-32.5 79.5zM690 1724q0 49 33 81t82 32q51 0 84 -30.5t33 -82.5q0 -49 -33 -79.5t-84 -30.5q-49 0 -82 30.5t-33 79.5z" />
<glyph unicode="&#x179;" horiz-adv-x="1218" d="M76 88q0 41 26 80l781 1104h-707q-98 0 -98 86t98 86h871q45 0 70.5 -25.5t25.5 -64.5q0 -41 -27 -76l-782 -1106h733q98 0 98 -86t-98 -86h-897q-43 0 -68.5 24.5t-25.5 63.5zM558 1606q0 20 18 39l195 206q39 39 79 39q35 0 59.5 -24.5t24.5 -59.5q0 -49 -57 -84 l-235 -157q-15 -9 -31 -9q-23 0 -38 14.5t-15 35.5z" />
<glyph unicode="&#x17a;" horiz-adv-x="1036" d="M80 920q0 37 23.5 58t66.5 21h680q43 0 70.5 -26.5t27.5 -63.5q0 -39 -30 -75l-570 -674h535q45 0 68.5 -21.5t23.5 -58.5t-23.5 -58.5t-68.5 -21.5h-701q-45 0 -71.5 25.5t-26.5 64.5t31 76l569 674h-514q-43 0 -66.5 21.5t-23.5 58.5zM476 1176q0 20 14 36l221 289 q41 55 94 55q39 0 65.5 -26.5t26.5 -63.5q0 -47 -49 -88l-276 -243q-16 -15 -39 -15t-40 16.5t-17 39.5z" />
<glyph unicode="&#x17b;" horiz-adv-x="1218" d="M76 88q0 41 26 80l781 1104h-707q-98 0 -98 86t98 86h871q45 0 70.5 -25.5t25.5 -64.5q0 -41 -27 -76l-782 -1106h733q98 0 98 -86t-98 -86h-897q-43 0 -68.5 24.5t-25.5 63.5zM482 1724q0 55 34.5 87t94.5 32q57 0 93 -31.5t36 -87.5q0 -53 -35 -85.5t-94 -32.5 q-60 0 -94.5 32.5t-34.5 85.5z" />
<glyph unicode="&#x17c;" horiz-adv-x="1036" d="M80 920q0 37 23.5 58t66.5 21h680q43 0 70.5 -26.5t27.5 -63.5q0 -39 -30 -75l-570 -674h535q45 0 68.5 -21.5t23.5 -58.5t-23.5 -58.5t-68.5 -21.5h-701q-45 0 -71.5 25.5t-26.5 64.5t31 76l569 674h-514q-43 0 -66.5 21.5t-23.5 58.5zM400 1339q0 53 34.5 85t94.5 32 q57 0 93 -31.5t36 -85.5q0 -53 -35 -85.5t-94 -32.5q-60 0 -94.5 32.5t-34.5 85.5z" />
<glyph unicode="&#x17d;" horiz-adv-x="1218" d="M76 88q0 41 26 80l781 1104h-707q-98 0 -98 86t98 86h871q45 0 70.5 -25.5t25.5 -64.5q0 -41 -27 -76l-782 -1106h733q98 0 98 -86t-98 -86h-897q-43 0 -68.5 24.5t-25.5 63.5zM324 1821q0 29 19.5 48t48.5 19q31 0 55 -24l164 -176l164 176q25 25 55 24q27 0 47.5 -19.5 t20.5 -47.5q0 -29 -27 -56l-176 -174q-37 -35 -84 -35t-84 35l-176 174q-27 27 -27 56z" />
<glyph unicode="&#x17e;" horiz-adv-x="1036" d="M80 920q0 37 23.5 58t66.5 21h680q43 0 70.5 -26.5t27.5 -63.5q0 -39 -30 -75l-570 -674h535q45 0 68.5 -21.5t23.5 -58.5t-23.5 -58.5t-68.5 -21.5h-701q-45 0 -71.5 25.5t-26.5 64.5t31 76l569 674h-514q-43 0 -66.5 21.5t-23.5 58.5zM238 1485q0 29 22.5 49t51.5 20 q37 0 63 -38l154 -246l153 246q27 39 64 38q29 0 51.5 -20.5t22.5 -48.5q0 -25 -17 -47l-184 -264q-20 -27 -41 -40.5t-49 -13.5q-29 0 -48.5 13.5t-41.5 42.5l-185 262q-16 23 -16 47z" />
<glyph unicode="&#x192;" d="M57 -299q0 33 28 59.5t75 26.5h30q82 0 132.5 46t70.5 147l189 888h-189q-31 0 -51 18.5t-20 49.5q0 29 20 48.5t51 19.5h217l21 98q37 178 143.5 264t259.5 86h41q47 0 71.5 -22.5t24.5 -55.5q0 -35 -28.5 -61.5t-75.5 -26.5h-31q-82 0 -131 -46t-69 -146l-19 -90h191 q31 0 51 -19.5t20 -48.5q0 -31 -20.5 -49.5t-50.5 -18.5h-220l-192 -897q-37 -178 -143.5 -264t-257.5 -86h-41q-47 0 -72 23.5t-25 56.5z" />
<glyph unicode="&#x2c6;" horiz-adv-x="614" d="M16 1192q0 23 16 45l185 264q20 27 40.5 40t49.5 13t49 -12t41 -41l184 -264q16 -23 17 -45q0 -29 -21.5 -49.5t-50.5 -20.5q-39 0 -64 37l-155 246l-156 -246q-22 -37 -63 -37q-29 0 -50.5 20.5t-21.5 49.5z" />
<glyph unicode="&#x2da;" horiz-adv-x="614" d="M94 1339q0 88 62.5 148.5t150.5 60.5t150.5 -60.5t62.5 -148.5q0 -86 -62.5 -146t-150.5 -60t-150.5 60t-62.5 146zM211 1339q0 -41 27.5 -70.5t68.5 -29.5t68.5 29.5t27.5 70.5t-27.5 71t-68.5 30t-68.5 -30t-27.5 -71z" />
<glyph unicode="&#x2dc;" horiz-adv-x="614" d="M-25 1272q0 39 23.5 87t65.5 82t95 34q39 0 77 -18.5t87 -51.5q51 -31 74.5 -42t46.5 -11q35 0 54.5 17t37.5 48q14 23 25.5 35t27.5 12q23 0 36.5 -16t13.5 -43q0 -37 -24 -85t-65.5 -82t-95.5 -34q-39 0 -75.5 17.5t-88.5 50.5q-41 27 -68.5 40t-51.5 13 q-35 0 -54.5 -17.5t-38.5 -47.5q-14 -23 -25 -35.5t-28 -12.5q-23 0 -36 16.5t-13 43.5z" />
<glyph unicode="&#x3a9;" horiz-adv-x="1613" d="M109 88q0 39 26.5 62.5t73.5 23.5h274q-158 217 -235.5 344t-108 217t-30.5 187q0 164 85 286.5t242.5 188t370.5 65.5q211 0 368.5 -66.5t243.5 -189.5t86 -284q0 -98 -31.5 -192.5t-110.5 -223.5t-230 -332h274q45 0 71.5 -22.5t26.5 -63.5t-25.5 -64.5t-72.5 -23.5 h-403q-43 0 -69 24.5t-26 63.5t27 80q205 317 279.5 475t74.5 275q0 174 -128 272t-355 98t-355 -98t-128 -272q0 -119 75.5 -278t278.5 -472q27 -41 27 -80t-26 -63.5t-69 -24.5h-401q-47 0 -73.5 23.5t-26.5 64.5z" />
<glyph unicode="&#x3c0;" horiz-adv-x="1208" d="M-6 920q0 37 23.5 58t66.5 21h977q43 0 66.5 -21.5t23.5 -57.5q0 -37 -23.5 -58.5t-66.5 -21.5h-162v-496q0 -96 40 -141t122 -51l57 -5q45 -4 64.5 -23.5t19.5 -53.5q0 -43 -31.5 -63.5t-93.5 -16.5l-55 4q-168 12 -249 101t-81 263v482h-268q-10 -473 -121 -783 q-12 -37 -42 -55t-64 -18q-41 0 -72 24.5t-31 67.5q0 18 6 39q51 156 82 343t35 382h-133q-43 0 -66.5 21.5t-23.5 58.5z" />
<glyph unicode="&#x2000;" horiz-adv-x="986" />
<glyph unicode="&#x2001;" horiz-adv-x="1972" />
<glyph unicode="&#x2002;" horiz-adv-x="986" />
<glyph unicode="&#x2003;" horiz-adv-x="1972" />
<glyph unicode="&#x2004;" horiz-adv-x="657" />
<glyph unicode="&#x2005;" horiz-adv-x="493" />
<glyph unicode="&#x2006;" horiz-adv-x="328" />
<glyph unicode="&#x2007;" horiz-adv-x="328" />
<glyph unicode="&#x2008;" horiz-adv-x="246" />
<glyph unicode="&#x2009;" horiz-adv-x="394" />
<glyph unicode="&#x200a;" horiz-adv-x="109" />
<glyph unicode="&#x2010;" horiz-adv-x="878" d="M125 545q0 39 24.5 61.5t71.5 22.5h436q47 0 72 -22.5t25 -61.5t-24.5 -60.5t-72.5 -21.5h-436q-47 0 -71.5 21.5t-24.5 60.5z" />
<glyph unicode="&#x2011;" horiz-adv-x="878" d="M125 545q0 39 24.5 61.5t71.5 22.5h436q47 0 72 -22.5t25 -61.5t-24.5 -60.5t-72.5 -21.5h-436q-47 0 -71.5 21.5t-24.5 60.5z" />
<glyph unicode="&#x2012;" horiz-adv-x="878" d="M125 545q0 39 24.5 61.5t71.5 22.5h436q47 0 72 -22.5t25 -61.5t-24.5 -60.5t-72.5 -21.5h-436q-47 0 -71.5 21.5t-24.5 60.5z" />
<glyph unicode="&#x2013;" horiz-adv-x="1024" d="M0 545q0 29 22.5 47t59.5 18h860q37 0 59.5 -18.5t22.5 -46.5q0 -27 -22.5 -45.5t-59.5 -18.5h-860q-37 0 -59.5 18.5t-22.5 45.5z" />
<glyph unicode="&#x2014;" horiz-adv-x="2048" d="M0 545q0 29 22.5 47t59.5 18h1884q37 0 59.5 -18.5t22.5 -46.5q0 -27 -22.5 -45.5t-59.5 -18.5h-1884q-37 0 -59.5 18.5t-22.5 45.5z" />
<glyph unicode="&#x2018;" horiz-adv-x="487" d="M113 1130q0 176 118 302q25 25 52 24q27 0 46 -17.5t19 -43.5q0 -20 -18 -43q-57 -59 -74 -142q51 -4 84 -38.5t33 -88.5q0 -57 -36 -95t-89 -38q-61 0 -98 46t-37 134z" />
<glyph unicode="&#x2019;" horiz-adv-x="487" d="M113 1321q0 57 36.5 95t90.5 38q61 0 97 -45t36 -133q0 -174 -117 -301q-25 -25 -53 -25q-27 0 -45.5 17.5t-18.5 42.5q0 23 19 43q57 59 73 141q-51 4 -84.5 39t-33.5 88z" />
<glyph unicode="&#x201a;" horiz-adv-x="487" d="M113 121q0 57 36.5 95t90.5 38q61 0 97 -45t36 -133q0 -174 -117 -301q-25 -25 -53 -25q-27 0 -45.5 17.5t-18.5 42.5q0 20 19 43q57 59 73 141q-51 4 -84.5 39t-33.5 88z" />
<glyph unicode="&#x201c;" horiz-adv-x="849" d="M113 1130q0 176 118 302q25 25 52 24q27 0 46 -17.5t19 -43.5q0 -20 -18 -43q-57 -59 -74 -142q51 -4 84 -38.5t33 -88.5q0 -57 -36 -95t-89 -38q-61 0 -98 46t-37 134zM478 1130q0 176 118 302q25 25 52 24q27 0 46 -17.5t19 -43.5q0 -20 -18 -43q-57 -59 -74 -142 q51 -4 84 -38.5t33 -88.5q0 -57 -36 -95t-89 -38q-61 0 -98 46t-37 134z" />
<glyph unicode="&#x201d;" horiz-adv-x="849" d="M113 1321q0 57 36.5 95t90.5 38q61 0 97 -45t36 -133q0 -174 -117 -301q-25 -25 -53 -25q-27 0 -45.5 17.5t-18.5 42.5q0 23 19 43q57 59 73 141q-51 4 -84.5 39t-33.5 88zM478 1321q0 57 36.5 95t90.5 38q61 0 97 -45t36 -133q0 -174 -117 -301q-25 -25 -53 -25 q-27 0 -45.5 17.5t-18.5 42.5q0 23 19 43q57 59 73 141q-51 4 -84.5 39t-33.5 88z" />
<glyph unicode="&#x201e;" horiz-adv-x="849" d="M113 121q0 57 36.5 95t90.5 38q61 0 97 -45t36 -133q0 -174 -117 -301q-25 -25 -53 -25q-27 0 -45.5 17.5t-18.5 42.5q0 20 19 43q57 59 73 141q-51 4 -84.5 39t-33.5 88zM478 121q0 57 36.5 95t90.5 38q61 0 97 -45t36 -133q0 -174 -117 -301q-25 -25 -53 -25 q-27 0 -45.5 17.5t-18.5 42.5q0 20 19 43q57 59 73 141q-51 4 -84.5 39t-33.5 88z" />
<glyph unicode="&#x2026;" horiz-adv-x="1460" d="M113 121q0 57 37.5 95t93.5 38q55 0 92 -38t37 -95t-37 -94t-92 -37q-56 0 -93.5 36.5t-37.5 94.5zM600 121q0 57 37 95t94 38q55 0 92 -38t37 -95t-37 -94t-92 -37q-57 0 -94 36.5t-37 94.5zM1087 121q0 57 37 95t95 38q55 0 92 -38t37 -95t-37 -94t-92 -37 q-58 0 -95 36.5t-37 94.5z" />
<glyph unicode="&#x202f;" horiz-adv-x="394" />
<glyph unicode="&#x2030;" horiz-adv-x="2732" d="M102 1022q0 217 94.5 328.5t260.5 111.5q168 0 262 -111.5t94 -328.5q0 -219 -94 -330.5t-262 -111.5q-166 0 -260.5 112.5t-94.5 329.5zM283 1022q0 -158 42 -230.5t132 -72.5t133 72.5t43 230.5q0 156 -43 227.5t-133 71.5t-132 -70.5t-42 -228.5zM489 45q0 29 17 55 l766 1325q31 53 82 54q31 0 54.5 -22.5t23.5 -57.5q0 -29 -17 -56l-768 -1325q-29 -53 -80 -53q-31 0 -54.5 22.5t-23.5 57.5zM1106 428q0 217 94 328.5t262 111.5q166 0 261.5 -111.5t95.5 -328.5t-94.5 -329.5t-262.5 -112.5t-262 111.5t-94 330.5zM1286 428 q0 -158 43 -230.5t133 -72.5t132 72.5t42 230.5q0 156 -43 228.5t-131 72.5q-90 0 -133 -71.5t-43 -229.5zM1919 428q0 217 95 328.5t261 111.5q168 0 262.5 -111.5t94.5 -328.5q0 -219 -94.5 -330.5t-262.5 -111.5t-262 112.5t-94 329.5zM2099 428q0 -158 43 -230.5 t133 -72.5t133 72.5t43 230.5t-43 229.5t-133 71.5t-133 -71.5t-43 -229.5z" />
<glyph unicode="&#x2039;" horiz-adv-x="557" d="M111 545q0 27 20 61l162 268q29 47 78 48q31 0 55.5 -21.5t24.5 -52.5q0 -16 -11 -41l-129 -264l129 -262q10 -25 11 -41q0 -31 -22.5 -51.5t-55.5 -20.5q-49 0 -78 45l-164 268q-20 37 -20 64z" />
<glyph unicode="&#x203a;" horiz-adv-x="550" d="M109 240q0 23 10 41l129 262l-129 264q-10 18 -10 43q0 31 23.5 51.5t53.5 20.5q49 0 78 -48l156 -268q20 -29 20 -61q0 -31 -20 -64l-156 -268q-25 -45 -78 -45q-31 0 -54 20.5t-23 51.5z" />
<glyph unicode="&#x2044;" horiz-adv-x="370" d="M-285 43q0 31 17 57l766 1325q31 53 82 54q31 0 53 -22.5t22 -55.5q0 -31 -16 -58l-766 -1325q-31 -53 -82 -53q-31 0 -53.5 22.5t-22.5 55.5z" />
<glyph unicode="&#x205f;" horiz-adv-x="493" />
<glyph unicode="&#x20ac;" d="M16 567q0 31 20.5 50.5t51.5 19.5h137q-2 29 -2 86t2 86h-137q-31 0 -51.5 19.5t-20.5 50.5t20.5 50t51.5 19h154q41 246 177 379t345 133q104 0 213.5 -41t196.5 -121q39 -31 38 -81q0 -37 -19 -63t-48 -26q-35 0 -70 27q-82 72 -153.5 101.5t-149.5 29.5 q-264 0 -321 -338h288q31 0 51.5 -19.5t20.5 -49.5q0 -31 -20.5 -50.5t-51.5 -19.5h-303q-2 -27 -2 -86t2 -86h303q31 0 51.5 -19.5t20.5 -50.5q0 -29 -20.5 -49t-51.5 -20h-288q57 -340 321 -340q70 0 139.5 31.5t163.5 99.5q23 14 37 20t33 6q29 0 48 -25.5t19 -62.5 q0 -51 -38 -82q-90 -78 -198 -119.5t-212 -41.5q-209 0 -345 134t-177 380h-154q-31 0 -51.5 20.5t-20.5 48.5z" />
<glyph unicode="&#x2122;" horiz-adv-x="1892" d="M0 1364q0 80 90 80h590q90 0 90 -80q0 -76 -90 -76h-201v-624q0 -43 -26.5 -68t-67.5 -25t-68.5 25t-27.5 68v624h-199q-90 0 -90 76zM879 666v694q0 43 26.5 67.5t63.5 24.5q53 0 88 -63l252 -480l252 480q35 63 86 63q36 0 62 -24.5t26 -67.5v-694q0 -45 -24.5 -70 t-59.5 -25q-33 0 -58.5 25t-25.5 70v434l-174 -334q-16 -33 -37 -47t-49 -14q-27 0 -46.5 14t-35.5 47l-176 328v-428q0 -45 -26 -70t-60 -25q-33 0 -58.5 25t-25.5 70z" />
<glyph unicode="&#x2202;" d="M94 512q0 170 64.5 294t174 187.5t238.5 63.5q211 0 320 -156q-31 260 -162 381t-330 121h-39q-35 0 -59.5 22.5t-24.5 55.5q0 68 86 84q14 2 39 4t45 2q179 0 328.5 -86t244.5 -288t95 -529q0 -346 -135 -523.5t-381 -177.5q-145 2 -259 65.5t-179.5 186.5t-65.5 293z M301 506q0 -172 84 -270.5t213 -98.5q133 0 216 104.5t83 290.5q0 168 -85 261.5t-212 93.5q-131 0 -215 -100.5t-84 -280.5z" />
<glyph unicode="&#x2206;" horiz-adv-x="1613" d="M109 88q0 39 26.5 62.5t73.5 23.5h274q-158 217 -235.5 344t-108 217t-30.5 187q0 164 85 286.5t242.5 188t370.5 65.5q211 0 368.5 -66.5t243.5 -189.5t86 -284q0 -98 -31.5 -192.5t-110.5 -223.5t-230 -332h274q45 0 71.5 -22.5t26.5 -63.5t-25.5 -64.5t-72.5 -23.5 h-403q-43 0 -69 24.5t-26 63.5t27 80q205 317 279.5 475t74.5 275q0 174 -128 272t-355 98t-355 -98t-128 -272q0 -119 75.5 -278t278.5 -472q27 -41 27 -80t-26 -63.5t-69 -24.5h-401q-47 0 -73.5 23.5t-26.5 64.5z" />
<glyph unicode="&#x220f;" d="M115 -283v1631q0 41 27.5 68.5t68.5 27.5h807q41 0 68.5 -27.5t27.5 -68.5v-1631q0 -41 -27.5 -68.5t-70.5 -27.5q-41 0 -67.5 27.5t-26.5 68.5v1553h-615v-1553q0 -41 -26.5 -68.5t-69.5 -27.5q-41 0 -68.5 27.5t-27.5 68.5z" />
<glyph unicode="&#x2211;" horiz-adv-x="1206" d="M68 -279q0 41 26 76l520 742l-520 739q-27 35 -26 76q0 39 25.5 64.5t70.5 25.5h870q49 0 74 -22.5t25 -65.5t-25 -65.5t-74 -22.5h-700l446 -633q39 -51 39 -96q0 -43 -39 -97l-446 -635h700q49 0 74 -22.5t25 -65.5t-25 -65.5t-74 -22.5h-870q-45 0 -70.5 26t-25.5 64z " />
<glyph unicode="&#x221a;" d="M12 586q0 31 22.5 52t55.5 21h184q25 0 44.5 -14t25.5 -37l234 -747l411 1554q8 27 27.5 41t44.5 14q84 0 84 -67q0 -16 -6 -39l-449 -1651q-16 -61 -40.5 -86.5t-67.5 -25.5t-69 25.5t-42 82.5l-258 799h-123q-33 0 -55.5 22.5t-22.5 55.5z" />
<glyph unicode="&#x221e;" d="M82 582q0 135 74.5 220t203.5 85q72 0 140.5 -38t113.5 -122q45 84 114 122t140 38q129 0 204 -85t75 -220q0 -137 -75 -221.5t-204 -84.5q-72 0 -140.5 38t-113.5 122q-45 -84 -113.5 -122t-140.5 -38q-129 0 -203.5 84t-74.5 222zM221 582q0 -76 39 -126t107 -50 q126 0 194 178q-66 174 -194 174q-68 0 -107 -50.5t-39 -125.5zM668 584q68 -178 194 -178q68 0 107 50t39 126t-39 126t-107 50q-127 0 -194 -174z" />
<glyph unicode="&#x222b;" d="M229 -293q0 35 22.5 58.5t57.5 23.5h31q84 0 127 46t43 145v1122q0 178 99.5 265t269.5 87l43 -2q33 0 55 -24.5t22 -59.5q0 -37 -23.5 -60.5t-57.5 -23.5h-31q-86 0 -128 -45t-42 -145v-1123q0 -178 -98.5 -264t-270.5 -86h-41q-33 0 -55.5 25.5t-22.5 60.5z" />
<glyph unicode="&#x2248;" d="M145 348q0 20 12 39q41 68 102.5 105.5t137.5 37.5q63 0 124.5 -23.5t141.5 -66.5q72 -37 109 -52t71 -15q76 0 130 67q29 39 65 39q16 0 37 -10q14 -8 23.5 -24.5t9.5 -33.5q0 -23 -13 -41q-43 -68 -103 -104.5t-136 -36.5q-64 0 -125.5 23.5t-140.5 66.5 q-66 35 -106 50.5t-75 15.5q-78 0 -129 -66q-29 -39 -65 -39q-20 0 -37 11q-14 8 -23.5 23.5t-9.5 33.5zM145 758q0 20 12 39q41 68 102.5 105.5t137.5 37.5q63 0 124.5 -23.5t141.5 -66.5q72 -37 109 -52t71 -15q76 0 130 67q29 39 65 39q16 0 37 -10q14 -8 23.5 -24.5 t9.5 -33.5q0 -23 -13 -41q-43 -68 -103 -104.5t-136 -36.5q-64 0 -125.5 23.5t-140.5 66.5q-66 35 -106 50.5t-75 15.5q-78 0 -129 -66q-29 -39 -65 -39q-20 0 -37 11q-14 8 -23.5 23.5t-9.5 33.5z" />
<glyph unicode="&#x2260;" d="M127 381q0 31 22.5 52.5t55.5 21.5h274l107 258h-381q-33 0 -55.5 22.5t-22.5 55.5q0 31 22.5 52t55.5 21h442l84 201q23 49 70 49q35 0 55.5 -20.5t20.5 -51.5q0 -16 -7 -34l-59 -144h238q33 0 55 -22.5t22 -55.5q0 -31 -22.5 -52t-54.5 -21h-301l-107 -258h408 q32 0 54.5 -22.5t22.5 -55.5q0 -31 -22.5 -52.5t-54.5 -21.5h-469l-84 -201q-23 -49 -70 -49q-35 0 -55.5 20.5t-20.5 51.5q0 16 6 35l60 143h-211q-33 0 -55.5 22.5t-22.5 55.5z" />
<glyph unicode="&#x2264;" d="M115 674q0 39 20.5 67.5t54.5 40.5l797 275q23 8 45 8q37 0 59.5 -20.5t22.5 -53.5q0 -23 -11 -40t-32 -23l-749 -252l749 -252q20 -6 31.5 -23.5t11.5 -40.5q0 -33 -22.5 -53t-59.5 -20q-23 0 -45 8l-797 272q-75 21 -75 107zM127 78q0 31 22.5 52.5t55.5 21.5h844 q32 0 54.5 -23t22.5 -55q0 -31 -22.5 -52.5t-54.5 -21.5h-844q-33 0 -55.5 22.5t-22.5 55.5z" />
<glyph unicode="&#x2265;" d="M115 360q0 23 11 40.5t32 23.5l749 252l-749 252q-20 6 -31.5 23.5t-11.5 39.5q0 33 22.5 53.5t59.5 20.5q23 0 45 -8l796 -275q35 -12 55.5 -40.5t20.5 -67.5q0 -86 -76 -107l-796 -272q-23 -8 -45 -8q-37 0 -59.5 20.5t-22.5 52.5zM127 78q0 31 22.5 52.5t55.5 21.5 h844q32 0 54.5 -23t22.5 -55q0 -31 -22.5 -52.5t-54.5 -21.5h-844q-33 0 -55.5 22.5t-22.5 55.5z" />
<glyph unicode="&#x25fc;" horiz-adv-x="1013" d="M0 0v1014h1014v-1014h-1014z" />
</font>
</defs>
</svg>
