<?xml version="1.0" standalone="no"?>
<!DOCTYPE svg PUBLIC "-//W3C//DTD SVG 1.1//EN" "http://www.w3.org/Graphics/SVG/1.1/DTD/svg11.dtd" >
<svg xmlns="http://www.w3.org/2000/svg" xmlns:xlink="http://www.w3.org/1999/xlink" version="1.1">
<metadata></metadata>
<defs>
<font id="nunitoregular" horiz-adv-x="1228" >
<font-face units-per-em="2048" ascent="1638" descent="-410" />
<missing-glyph horiz-adv-x="528" />
<glyph horiz-adv-x="0" />
<glyph unicode="&#xd;" horiz-adv-x="528" />
<glyph horiz-adv-x="0" />
<glyph horiz-adv-x="0" />
<glyph unicode=" "  horiz-adv-x="528" />
<glyph unicode="&#x09;" horiz-adv-x="528" />
<glyph unicode="&#xa0;" horiz-adv-x="528" />
<glyph unicode="!" horiz-adv-x="468" d="M121 104q0 51 32.5 84t82.5 33q47 0 78.5 -32.5t31.5 -84.5q0 -51 -31.5 -82.5t-78.5 -31.5q-50 0 -82.5 31.5t-32.5 82.5zM133 1352q-4 47 24.5 74.5t75.5 27.5t76 -27.5t25 -74.5l-49 -928q-2 -29 -16.5 -43t-35.5 -14q-20 0 -34.5 15t-16.5 42z" />
<glyph unicode="&#x22;" horiz-adv-x="862" d="M133 1360q0 45 26.5 69.5t67.5 24.5t66.5 -24.5t25.5 -67.5q0 -14 -2 -23l-34 -417q-6 -55 -56 -56q-22 0 -36.5 14.5t-18.5 41.5l-37 417zM543 1360q0 45 26.5 69.5t67.5 24.5t66.5 -24.5t25.5 -67.5q0 -14 -2 -23l-34 -417q-6 -55 -56 -56q-22 0 -36.5 14.5t-18.5 41.5 l-37 417z" />
<glyph unicode="#" d="M55 436q0 25 18.5 41.5t47.5 16.5h160l92 473h-211q-27 0 -46.5 18.5t-19.5 44.5q0 25 18.5 41t47.5 16h233l64 324q4 23 21.5 36t39.5 13q29 0 46.5 -17.5t17.5 -45.5q0 -12 -2 -19l-58 -291h328l63 324q2 20 20.5 34.5t41.5 14.5q29 0 46 -17.5t17 -45.5q0 -12 -2 -19 l-57 -291h127q29 0 47.5 -18t18.5 -45q0 -25 -18.5 -41t-47.5 -16h-150l-92 -473h201q27 0 46.5 -18.5t19.5 -45.5q0 -25 -18.5 -41t-47.5 -16h-223l-66 -334q-4 -23 -21.5 -36t-39.5 -13q-29 0 -47.5 18.5t-18.5 44.5q0 12 2 19l60 301h-328l-66 -334q-2 -20 -19 -34.5 t-40 -14.5q-27 0 -45 18.5t-18 44.5q0 12 2 19l59 301h-137q-29 0 -47.5 18.5t-18.5 44.5zM408 494h327l94 473h-327z" />
<glyph unicode="$" d="M90 221q0 29 16.5 50.5t38.5 21.5q25 0 60 -23q205 -143 411 -143q162 0 252 67.5t90 192.5q0 74 -46 120t-116.5 71.5t-191.5 54.5q-156 39 -251 78t-162.5 118.5t-67.5 214.5q0 111 55 200t154.5 144.5t228.5 67.5v158q0 33 20.5 54.5t51.5 21.5q33 0 52.5 -20.5 t19.5 -55.5v-158q109 -10 209 -51t169 -113q35 -29 35 -69q0 -29 -17.5 -50.5t-39.5 -21.5q-27 0 -57 23q-90 74 -175.5 108.5t-197.5 34.5q-156 0 -247 -71.5t-91 -194.5q0 -86 50 -137.5t124 -79t203 -60.5q150 -37 240.5 -73.5t154 -111.5t63.5 -200 q0 -160 -115.5 -269.5t-305.5 -131.5v-158q0 -35 -19.5 -55.5t-52.5 -20.5t-52.5 20.5t-19.5 55.5v156q-125 8 -241.5 49t-198.5 117q-33 27 -33 69z" />
<glyph unicode="%" horiz-adv-x="1904" d="M113 1020q0 217 92 328.5t256 111.5t256 -111.5t92 -328.5q0 -219 -92 -330.5t-256 -111.5t-256 111.5t-92 330.5zM262 1020q0 -168 49 -246t150 -78q100 0 148 78t48 246q0 166 -48 243.5t-148 77.5t-149.5 -77.5t-49.5 -243.5zM487 33q0 25 15 47l782 1354q27 45 68 45 q27 0 46 -19.5t19 -48.5q0 -23 -12 -47l-784 -1354q-27 -45 -68 -45q-27 0 -46.5 18.5t-19.5 49.5zM1096 428q0 217 92 328.5t256 111.5q166 0 257 -110.5t91 -329.5t-91 -330.5t-257 -111.5q-164 0 -256 111.5t-92 330.5zM1247 428q0 -168 48 -246t149 -78q102 0 150 77 t48 247q0 166 -49 244t-149 78t-148.5 -78t-48.5 -244z" />
<glyph unicode="&#x26;" horiz-adv-x="1359" d="M106 362q0 135 84 241t256 206q-90 94 -132 170t-42 164q0 147 100.5 231t254.5 84q147 0 235 -77.5t88 -213.5q0 -111 -68.5 -196.5t-215.5 -179.5l346 -365q70 150 82 356q2 37 24.5 56.5t50.5 19.5q31 0 51.5 -21.5t18.5 -58.5q-18 -266 -127 -459l209 -217 q20 -22 20 -49t-21.5 -48t-49.5 -21q-29 0 -51 22l-189 197q-92 -106 -211 -161.5t-250 -55.5q-135 0 -239.5 46t-164 132t-59.5 198zM270 367q0 -115 83 -180.5t222 -65.5q103 0 195 45t164 135l-397 412q-150 -90 -208.5 -169t-58.5 -177zM430 1143q0 -63 34 -120.5 t109 -135.5q127 82 179.5 141t52.5 131q0 78 -48 125t-128 47q-88 0 -143.5 -51t-55.5 -137z" />
<glyph unicode="'" horiz-adv-x="452" d="M133 1360q0 45 26.5 69.5t67.5 24.5t66.5 -24.5t25.5 -67.5q0 -14 -2 -23l-34 -417q-6 -55 -56 -56q-22 0 -36.5 14.5t-18.5 41.5l-37 417z" />
<glyph unicode="(" horiz-adv-x="643" d="M211 539q0 459 217 874q27 47 72 47q25 0 42 -16.5t17 -40.5q0 -14 -6 -31q-172 -406 -172 -833q0 -428 172 -834q6 -18 6 -31q0 -27 -17.5 -42t-41.5 -15q-45 0 -72 47q-217 416 -217 875z" />
<glyph unicode=")" horiz-adv-x="643" d="M84 -328q0 8 8 33q170 408 170 834t-170 833q-8 25 -8 33q0 25 17.5 40t41.5 15q47 0 74 -47q215 -418 215 -874q0 -457 -215 -875q-27 -47 -74 -47q-25 0 -42 15.5t-17 39.5z" />
<glyph unicode="*" horiz-adv-x="921" d="M55 1094q0 27 17.5 45t50.5 16l248 -8l-133 207q-12 18 -13 39q0 25 20.5 43t45.5 18q35 0 55 -37l115 -219l114 217q20 39 58 39q25 0 43 -17.5t18 -41.5q0 -18 -12 -41l-129 -207l244 8q32 2 51.5 -16.5t19.5 -44.5q0 -25 -19.5 -44.5t-51.5 -17.5l-244 8l129 -206 q12 -20 12 -39q0 -25 -19.5 -42.5t-43.5 -17.5q-35 0 -56 37l-114 217l-115 -219q-20 -37 -55 -37q-25 0 -45.5 18.5t-20.5 43.5q0 18 13 36l133 209l-248 -8q-31 -2 -49.5 17.5t-18.5 44.5z" />
<glyph unicode="+" d="M115 584q0 27 19.5 45t45.5 18h371v369q0 29 18.5 48t44.5 19q27 0 45.5 -19.5t18.5 -47.5v-369h371q26 0 45.5 -18.5t19.5 -44.5q0 -27 -18.5 -46.5t-46.5 -19.5h-371v-368q0 -29 -18.5 -47.5t-45.5 -18.5t-45 19.5t-18 46.5v368h-371q-27 0 -46 19.5t-19 46.5z" />
<glyph unicode="," horiz-adv-x="468" d="M121 104q0 51 31.5 84t78.5 33q52 0 83.5 -40t31.5 -120q0 -162 -104 -272q-20 -23 -47 -22q-20 0 -37 15t-17 36q0 23 17 39q53 55 67 137q-45 4 -74.5 33.5t-29.5 76.5z" />
<glyph unicode="-" horiz-adv-x="870" d="M133 545q0 31 19.5 50t56.5 19h450q39 0 58.5 -19.5t19.5 -49.5q0 -31 -19.5 -49.5t-58.5 -18.5h-450q-37 0 -56.5 18.5t-19.5 49.5z" />
<glyph unicode="." horiz-adv-x="468" d="M121 104q0 51 32.5 84t82.5 33q47 0 78.5 -32.5t31.5 -84.5q0 -51 -31.5 -82.5t-78.5 -31.5q-50 0 -82.5 31.5t-32.5 82.5z" />
<glyph unicode="/" horiz-adv-x="579" d="M-27 -57q0 12 7 28l483 1512q8 27 26.5 41t40.5 14q29 0 51.5 -20.5t22.5 -53.5q0 -6 -4 -26l-485 -1512q-9 -26 -27 -40.5t-41 -14.5q-29 0 -51.5 20.5t-22.5 51.5z" />
<glyph unicode="0" d="M109 721q0 362 129 550.5t376 188.5q248 0 377 -187.5t129 -549.5t-129 -550.5t-377 -188.5q-247 0 -376 188t-129 549zM279 723q0 -307 81.5 -452.5t253.5 -145.5t254 145.5t82 452.5q0 309 -81 452.5t-255 143.5q-172 0 -253.5 -144.5t-81.5 -451.5z" />
<glyph unicode="1" d="M252 72q0 33 20.5 51t57.5 18h254v1098l-224 -145q-16 -10 -32 -11q-29 0 -50.5 27t-21.5 57q0 43 33 62l311 203q35 23 72 22q35 0 57.5 -22.5t22.5 -63.5v-1227h256q36 0 56.5 -18.5t20.5 -50.5q0 -35 -19 -53.5t-58 -18.5h-678q-39 0 -58.5 18.5t-19.5 53.5z" />
<glyph unicode="2" d="M131 1223q0 43 33 69q84 78 204.5 123t247.5 45q195 0 310.5 -102.5t115.5 -276.5q0 -125 -56 -239.5t-185 -255.5l-410 -445h649q37 0 57.5 -18.5t20.5 -50.5q0 -72 -78 -72h-802q-35 0 -57.5 21.5t-22.5 52.5q0 39 28 67l494 543q102 115 148 206t46 183 q0 119 -68.5 182.5t-193.5 63.5q-98 0 -188 -36t-180 -109q-31 -25 -58 -25q-23 0 -39 21.5t-16 52.5z" />
<glyph unicode="3" d="M109 223q0 31 16 51.5t39 20.5q29 0 57 -23q94 -76 184.5 -110.5t194.5 -34.5q152 0 230.5 69.5t78.5 200.5q0 264 -331 265h-109q-33 0 -52.5 21.5t-19.5 49.5q0 29 19.5 49.5t52.5 20.5h76q160 0 246 70.5t86 203.5q0 117 -70 179.5t-197 62.5q-96 0 -186 -36 t-180 -109q-29 -23 -58 -23q-23 0 -39 20.5t-16 51.5q0 39 33 69q84 78 203.5 123t246.5 45q197 0 312.5 -99t115.5 -267q0 -125 -62 -218.5t-173 -134.5q131 -36 199.5 -126.5t68.5 -223.5q0 -188 -127 -296.5t-346 -108.5q-133 0 -255 45t-206 123q-33 31 -32 69z" />
<glyph unicode="4" d="M88 385q0 29 23 64l669 968q29 37 74 37q35 0 59.5 -22.5t24.5 -63.5v-915h154q36 0 56.5 -19.5t20.5 -50.5q0 -70 -77 -70h-154v-237q0 -41 -23.5 -63.5t-60.5 -22.5t-59.5 22.5t-22.5 63.5v237h-606q-37 0 -57.5 20.5t-20.5 51.5zM279 453h493v710z" />
<glyph unicode="5" d="M156 223q0 31 16 51.5t39 20.5q29 0 57 -23q90 -74 180.5 -109.5t188.5 -35.5q152 0 238 86t86 233q0 143 -86.5 231.5t-231.5 88.5q-186 0 -303 -143q-29 -31 -70 -31q-29 0 -48 17.5t-19 47.5v707q0 35 21.5 57.5t60.5 22.5h721q37 0 58 -18.5t21 -51.5t-21.5 -51 t-57.5 -18h-637v-514q57 55 134 84.5t167 29.5q137 0 240.5 -57t159.5 -160.5t56 -238.5t-61 -241t-171 -164t-253 -58q-127 0 -248 45t-205 123q-33 31 -32 69z" />
<glyph unicode="6" horiz-adv-x="1226" d="M113 686q0 242 65.5 416t190.5 266t297 92q117 0 232.5 -45t197.5 -123q35 -33 34 -69q0 -31 -16 -51.5t-39 -20.5q-29 0 -59 23q-178 145 -346 145q-182 0 -284.5 -166t-102.5 -465v-26q47 115 152.5 180t238.5 65q131 0 233.5 -57t159.5 -161.5t57 -239.5 q0 -133 -59 -240t-165.5 -166t-240.5 -59q-262 0 -404 182t-142 520zM330 446q0 -143 89 -232t232 -89q140 0 223.5 88t83.5 233t-85 232.5t-224 87.5q-141 0 -230 -89t-89 -231z" />
<glyph unicode="7" d="M123 1372q0 35 19.5 53.5t56.5 18.5h831q37 0 56.5 -19.5t19.5 -50.5q0 -29 -19 -63l-679 -1280q-25 -45 -72 -45q-33 0 -58.5 22.5t-25.5 54.5q0 23 14 46l639 1194h-706q-37 0 -56.5 18t-19.5 51z" />
<glyph unicode="8" d="M96 383q0 133 72 227.5t199 130.5q-109 41 -172.5 129t-63.5 207q0 176 128 279.5t355 103.5t355.5 -103.5t128.5 -279.5q0 -119 -63.5 -208t-170.5 -128q127 -39 198 -133t71 -225q0 -186 -135.5 -291.5t-383.5 -105.5t-383 105.5t-135 291.5zM262 393q0 -268 352 -268 q353 0 353 268t-353 269q-352 0 -352 -269zM297 1065q0 -127 81 -194.5t236 -67.5q156 0 237 67.5t81 194.5q0 121 -81 188.5t-237 67.5t-236.5 -67.5t-80.5 -188.5z" />
<glyph unicode="9" d="M98 221q0 31 16.5 51.5t39.5 20.5q29 0 59 -23q178 -145 346 -145q182 0 284.5 166t102.5 465v26q-47 -115 -152.5 -180t-238.5 -65q-131 0 -233.5 57t-160 161.5t-57.5 239.5q0 133 59.5 239.5t166 166t239.5 59.5q262 0 404.5 -182t142.5 -520q0 -242 -65.5 -416 t-190.5 -266t-297 -92q-117 0 -232.5 45t-197.5 123q-35 33 -35 69zM270 997q0 -145 85 -232t225 -87q141 0 230 89t89 230q0 143 -89 232.5t-232 89.5q-139 0 -223.5 -88t-84.5 -234z" />
<glyph unicode=":" horiz-adv-x="468" d="M121 104q0 51 32.5 84t82.5 33q47 0 78.5 -32.5t31.5 -84.5q0 -51 -31.5 -82.5t-78.5 -31.5q-50 0 -82.5 31.5t-32.5 82.5zM121 903q0 51 32.5 83t82.5 32q47 0 78.5 -32t31.5 -83t-31.5 -83t-78.5 -32q-50 0 -82.5 32t-32.5 83z" />
<glyph unicode=";" horiz-adv-x="468" d="M121 104q0 51 31.5 84t78.5 33q52 0 83.5 -40t31.5 -120q0 -162 -104 -272q-20 -23 -47 -22q-20 0 -37 15t-17 36q0 23 17 39q53 55 67 137q-45 4 -74.5 33.5t-29.5 76.5zM121 903q0 51 32.5 83t82.5 32q47 0 78.5 -32t31.5 -83t-31.5 -83t-78.5 -32q-50 0 -82.5 32 t-32.5 83z" />
<glyph unicode="&#x3c;" d="M115 584q0 31 16 55.5t45 36.5l828 375q25 10 40 10q31 0 50.5 -17.5t19.5 -46.5q0 -35 -35 -53l-807 -362l807 -361q35 -20 35 -55q0 -27 -19.5 -44.5t-50.5 -17.5q-23 0 -40 9l-828 374q-29 12 -45 38t-16 59z" />
<glyph unicode="=" d="M127 381q0 25 19.5 43t45.5 18h869q29 0 47 -19.5t18 -47.5q0 -25 -19.5 -43.5t-45.5 -18.5h-869q-28 0 -46.5 19.5t-18.5 48.5zM127 791q0 25 19.5 43t45.5 18h869q29 0 47 -19.5t18 -47.5q0 -25 -19.5 -43.5t-45.5 -18.5h-869q-28 0 -46.5 19.5t-18.5 48.5z" />
<glyph unicode="&#x3e;" d="M115 166q0 35 37 55l804 361l-804 362q-37 16 -37 53q0 29 19.5 46.5t49.5 17.5q16 0 41 -10l828 -375q28 -12 44.5 -37t16.5 -55q0 -33 -16.5 -58.5t-44.5 -38.5l-828 -374q-18 -8 -41 -9q-29 0 -49 17.5t-20 44.5z" />
<glyph unicode="?" horiz-adv-x="907" d="M-6 1219q0 41 33 71q82 78 199.5 124t234.5 46q178 0 287.5 -88t109.5 -231q0 -109 -46 -188t-140 -185q-88 -100 -136.5 -177t-58.5 -177q-2 -23 -16.5 -35t-36.5 -12q-23 0 -37 16t-14 45q0 127 46 217t132 197q70 88 103.5 149.5t33.5 136.5q0 88 -63.5 138.5 t-171.5 50.5q-92 0 -170 -36t-177 -110q-35 -25 -57 -24q-25 0 -40 21.5t-15 50.5zM313 104q0 49 32 83t81 34t81 -33.5t32 -83.5q0 -49 -32 -81.5t-81 -32.5t-81 32.5t-32 81.5z" />
<glyph unicode="@" horiz-adv-x="1896" d="M100 559q0 270 114 473t311.5 313.5t443.5 110.5q262 0 449.5 -107.5t282.5 -279.5t95 -364q0 -201 -60.5 -329t-153.5 -186.5t-198 -58.5q-109 0 -171 48t-70 134h-4q-51 -84 -128 -133t-180 -49q-135 0 -219 95.5t-84 262.5q0 139 54.5 262t153 197t225.5 74 q96 0 167.5 -46t94.5 -120h2l16 90q4 25 22.5 39t45.5 14q29 0 46 -16t17 -45q0 -10 -2 -16l-84 -480q-8 -57 -8 -73q0 -70 32.5 -98.5t98.5 -28.5q57 0 116.5 46t100.5 149.5t41 267.5q0 162 -78 305t-235.5 232t-384.5 89q-209 0 -376 -93t-263.5 -268t-96.5 -411 q0 -225 88.5 -394t254 -260t393.5 -91q311 0 485 168q29 27 59 26q25 0 41.5 -18.5t16.5 -44.5q0 -33 -25 -56q-92 -92 -242.5 -146t-334.5 -54q-264 0 -461 108.5t-302.5 306t-105.5 455.5zM659 496q0 -121 57.5 -187.5t141.5 -66.5q103 0 177.5 62.5t113.5 160.5t39 207 q0 115 -56.5 175t-152.5 60q-98 0 -171 -59.5t-111 -154.5t-38 -197z" />
<glyph unicode="A" horiz-adv-x="1488" d="M59 63q0 16 9 33l585 1303q12 29 37 43t53 14q31 0 55.5 -15.5t37.5 -41.5l585 -1303q9 -17 9 -35q0 -31 -24 -51t-56 -20q-51 0 -72 49l-145 332h-773l-147 -332q-20 -49 -72 -49q-33 0 -57.5 21.5t-24.5 51.5zM422 510h649l-326 735z" />
<glyph unicode="B" horiz-adv-x="1380" d="M178 82v1280q0 37 23.5 59.5t62.5 22.5h494q223 0 346 -98.5t123 -278.5q0 -117 -60.5 -201t-169.5 -125q125 -32 194 -122.5t69 -225.5q0 -190 -125 -291.5t-355 -101.5h-516q-39 0 -62.5 22.5t-23.5 59.5zM344 139h420q170 0 251 62.5t81 195.5q0 266 -332 267h-420 v-525zM344 803h389q162 0 245 65.5t83 190.5q0 246 -328 246h-389v-502z" />
<glyph unicode="C" horiz-adv-x="1386" d="M125 723q0 225 81 392t230.5 256t354.5 89q137 0 258.5 -44t212.5 -126q32 -30 32 -69q0 -31 -16 -52.5t-39 -21.5q-25 0 -59 22q-104 82 -189.5 115t-195.5 33q-238 0 -366 -154.5t-128 -439.5q0 -287 128 -441.5t366 -154.5q109 0 194.5 33t190.5 114q35 23 59 23 q23 0 39 -20.5t16 -51.5q0 -41 -32 -71q-90 -82 -212 -126t-259 -44q-205 0 -354.5 89t-230.5 256t-81 394z" />
<glyph unicode="D" horiz-adv-x="1513" d="M178 82v1280q0 37 23.5 59.5t62.5 22.5h400q346 0 535.5 -187.5t189.5 -533.5t-190.5 -534.5t-534.5 -188.5h-400q-39 0 -62.5 22.5t-23.5 59.5zM346 143h307q561 0 561 580q0 577 -559 577h-2h-307v-1157z" />
<glyph unicode="E" horiz-adv-x="1191" d="M178 82v1280q0 37 23.5 59.5t62.5 22.5h766q37 0 57.5 -18.5t20.5 -51.5t-20.5 -51t-57.5 -18h-686v-502h645q37 0 57.5 -18.5t20.5 -51.5t-20.5 -51t-57.5 -18h-645v-525h686q37 0 57.5 -17.5t20.5 -51.5q0 -33 -20.5 -51.5t-57.5 -18.5h-766q-39 0 -62.5 22.5 t-23.5 59.5z" />
<glyph unicode="F" horiz-adv-x="1140" d="M178 76v1286q0 37 23.5 59.5t62.5 22.5h746q37 0 57 -18.5t20 -53.5q0 -33 -20 -51t-57 -18h-666v-498h625q37 0 57.5 -18.5t20.5 -53.5q0 -33 -20.5 -51t-57.5 -18h-625v-588q0 -39 -21.5 -62.5t-60.5 -23.5t-61.5 23.5t-22.5 62.5z" />
<glyph unicode="G" horiz-adv-x="1482" d="M125 723q0 227 82 393t235.5 255t360.5 89q143 0 266 -44t207 -126q35 -35 35 -71q0 -29 -16.5 -50.5t-41.5 -21.5t-57 24q-106 82 -192 114t-199 32q-244 0 -374 -153.5t-130 -440.5q0 -293 132 -445.5t388 -152.5q190 0 346 57v439h-299q-35 0 -55 18t-20 47 q0 31 20.5 48.5t54.5 17.5h383q31 0 50.5 -18.5t19.5 -51.5v-510q0 -49 -15.5 -73.5t-56.5 -39.5q-82 -35 -198.5 -55t-233.5 -20q-215 0 -370.5 88t-238.5 254t-83 397z" />
<glyph unicode="H" horiz-adv-x="1552" d="M178 76v1292q0 39 21.5 62.5t60.5 23.5t61.5 -23.5t22.5 -62.5v-563h864v563q0 39 22.5 62.5t61.5 23.5t60.5 -23.5t21.5 -62.5v-1292q0 -39 -21.5 -62.5t-60.5 -23.5t-61.5 23.5t-22.5 62.5v586h-864v-586q0 -39 -22.5 -62.5t-61.5 -23.5t-60.5 23.5t-21.5 62.5z" />
<glyph unicode="I" horiz-adv-x="524" d="M178 76v1292q0 39 22.5 62.5t61.5 23.5t61.5 -23.5t22.5 -62.5v-1292q0 -39 -22.5 -62.5t-61.5 -23.5t-61.5 23.5t-22.5 62.5z" />
<glyph unicode="J" horiz-adv-x="667" d="M-23 59q0 68 76 70l62 4q104 6 155.5 64.5t51.5 187.5v983q0 39 24.5 62.5t59.5 23.5q39 0 61 -23.5t22 -62.5v-985q0 -188 -86 -283.5t-260 -105.5l-61 -4q-9 -1 -17 -1q-39 0 -61 15q-27 19 -27 55z" />
<glyph unicode="K" horiz-adv-x="1286" d="M178 76v1292q0 39 22.5 62.5t61.5 23.5t61.5 -23.5t22.5 -62.5v-588l731 650q23 23 53 22q31 0 53.5 -23.5t22.5 -52.5q0 -31 -26 -57l-662 -582l699 -610q28 -26 28 -59q0 -29 -23.5 -52.5t-54.5 -23.5q-27 0 -55 24l-766 670v-610q0 -39 -22.5 -62.5t-61.5 -23.5 t-61.5 23.5t-22.5 62.5z" />
<glyph unicode="L" horiz-adv-x="1105" d="M178 78v1290q0 39 22.5 62.5t61.5 23.5t61.5 -23.5t22.5 -62.5v-1225h662q37 0 57 -18.5t20 -52.5q0 -35 -20.5 -53.5t-56.5 -18.5h-748q-35 0 -58.5 21.5t-23.5 56.5z" />
<glyph unicode="M" horiz-adv-x="1722" d="M178 72v1296q0 39 22.5 62.5t61.5 23.5q51 0 82 -59l520 -998l514 998q16 33 36 46t46 13q39 0 60.5 -23.5t21.5 -62.5v-1296q0 -37 -20.5 -59.5t-57.5 -22.5t-55 22.5t-18 59.5v1046l-445 -852q-29 -59 -84 -59q-53 0 -84 59l-446 842v-1036q0 -37 -19.5 -59.5 t-56.5 -22.5t-57.5 22.5t-20.5 59.5z" />
<glyph unicode="N" horiz-adv-x="1513" d="M178 76v1292q0 39 21.5 62.5t60.5 23.5q41 0 70 -35l848 -1136v1085q0 39 21.5 62.5t57.5 23.5q37 0 57.5 -23.5t20.5 -62.5v-1292q0 -39 -21.5 -62.5t-60.5 -23.5t-67 35l-850 1136v-1085q0 -39 -21.5 -62.5t-58.5 -23.5t-57.5 23.5t-20.5 62.5z" />
<glyph unicode="O" horiz-adv-x="1564" d="M125 721q0 227 79 394t227.5 256t350.5 89q203 0 351.5 -89t227.5 -256t79 -392t-80 -392t-228.5 -257t-349.5 -90q-200 0 -348.5 90t-228.5 256t-80 391zM297 723q0 -285 128 -440.5t357 -155.5q230 0 358 154.5t128 441.5t-127 440.5t-359 153.5q-229 0 -357 -154.5 t-128 -439.5z" />
<glyph unicode="P" horiz-adv-x="1320" d="M178 76v1286q0 37 23.5 59.5t62.5 22.5h486q227 0 353 -110.5t126 -313.5t-127 -315.5t-352 -112.5h-404v-516q0 -39 -22.5 -62.5t-61.5 -23.5t-61.5 23.5t-22.5 62.5zM346 731h387q330 0 330 289q0 285 -330 285h-387v-574z" />
<glyph unicode="Q" horiz-adv-x="1564" d="M125 721q0 227 79 394t227.5 256t350.5 89q201 0 349.5 -89t228.5 -256t80 -392q0 -262 -105.5 -443.5t-300.5 -252.5q45 -14 80 -48t72 -94l92 -151q14 -23 14 -47q0 -29 -22.5 -47.5t-52.5 -18.5q-53 0 -87 53l-118 195q-74 115 -230 115q-201 0 -349 90t-228 256 t-80 391zM297 723q0 -285 128 -440.5t357 -155.5t357.5 154.5t128.5 441.5t-127 440.5t-359 153.5q-229 0 -357 -154.5t-128 -439.5z" />
<glyph unicode="R" horiz-adv-x="1404" d="M178 76v1286q0 37 23.5 59.5t62.5 22.5h508q236 0 359.5 -104.5t123.5 -307.5q0 -172 -99 -276.5t-284 -126.5q51 -16 92.5 -53t82.5 -103l233 -369q14 -22 14 -47q0 -31 -23.5 -50t-53.5 -19q-47 0 -74 41l-275 434q-53 84 -110.5 115.5t-155.5 31.5h-258v-534 q0 -39 -22.5 -62.5t-59.5 -23.5q-39 0 -61.5 23.5t-22.5 62.5zM344 750h414q168 0 251 69.5t83 210.5q0 139 -82 207t-252 68h-414v-555z" />
<glyph unicode="S" horiz-adv-x="1263" d="M90 225q0 29 16.5 50.5t38.5 21.5q27 0 58 -23q190 -147 434 -147q176 0 270 67.5t94 192.5q0 72 -45 116t-118.5 70.5t-198.5 55.5q-168 39 -275.5 82t-174 122.5t-66.5 208.5q0 123 66.5 218.5t186.5 147.5t273 52q143 0 267 -44t208 -126q33 -33 33 -71 q0 -29 -16.5 -50.5t-38.5 -21.5q-23 0 -60 22q-100 82 -186 115t-207 33q-170 0 -264 -70.5t-94 -197.5q0 -109 83 -163.5t255 -94.5q186 -45 292.5 -83t177 -114t70.5 -203q0 -121 -66.5 -213t-187 -143t-276.5 -51q-154 0 -294 46t-224 124q-31 29 -31 71z" />
<glyph unicode="T" horiz-adv-x="1224" d="M8 1372q0 35 20.5 53.5t57.5 18.5h1051q37 0 57 -18.5t20 -53.5t-20 -53.5t-57 -18.5h-441v-1224q0 -39 -22.5 -62.5t-61.5 -23.5t-62.5 23.5t-23.5 62.5v1224h-440q-37 0 -57.5 18.5t-20.5 53.5z" />
<glyph unicode="U" horiz-adv-x="1482" d="M168 565v803q0 39 22.5 62.5t61.5 23.5q37 0 59.5 -23.5t22.5 -62.5v-817q0 -211 103.5 -317.5t303.5 -106.5q201 0 303.5 106.5t102.5 317.5v817q0 39 23.5 62.5t60.5 23.5q39 0 61.5 -23.5t22.5 -62.5v-803q0 -285 -146.5 -433t-427.5 -148q-282 0 -427.5 147.5 t-145.5 433.5z" />
<glyph unicode="V" horiz-adv-x="1415" d="M25 1382q0 33 26.5 54.5t59.5 21.5q49 0 71 -47l529 -1194l526 1194q10 23 29.5 35t42.5 12q33 0 58.5 -21.5t25.5 -52.5q0 -16 -9 -32l-587 -1307q-12 -27 -37 -41t-53 -14q-29 0 -53.5 14t-37.5 41l-585 1307q-6 16 -6 30z" />
<glyph unicode="W" horiz-adv-x="2254" d="M76 1382q0 33 25.5 53.5t58.5 20.5q25 0 46 -13t30 -40l403 -1163l410 1151q10 31 32.5 46t48.5 15q27 0 49.5 -16.5t32.5 -46.5l404 -1153l407 1167q9 27 29.5 40t44.5 13q33 0 56.5 -19.5t23.5 -52.5q0 -14 -6 -32l-463 -1305q-10 -29 -34.5 -44t-55.5 -15 q-29 0 -53.5 15t-34.5 44l-402 1135l-405 -1135q-10 -29 -34.5 -44t-53.5 -15t-53.5 15t-34.5 44l-465 1305q-6 16 -6 30z" />
<glyph unicode="X" horiz-adv-x="1323" d="M53 70q0 31 19 51l491 616l-465 586q-20 23 -20 53q0 31 23.5 53.5t54.5 22.5q35 0 59 -31l447 -565l444 565q25 31 59 31q31 0 55.5 -23.5t24.5 -56.5q0 -29 -18 -49l-467 -586l489 -616q21 -22 21 -51q0 -33 -24.5 -55.5t-57.5 -22.5t-60 28l-466 596l-469 -596 q-22 -28 -58 -28h-2q-31 0 -55.5 23.5t-24.5 54.5z" />
<glyph unicode="Y" horiz-adv-x="1230" d="M12 1374q0 33 23.5 55.5t54.5 22.5q35 0 60 -31l466 -596l465 596q25 31 60 31q29 0 51 -22.5t22 -55.5q0 -31 -18 -51l-498 -629v-618q0 -41 -23.5 -63.5t-60.5 -22.5t-60.5 22.5t-23.5 63.5v620l-497 627q-20 23 -21 51z" />
<glyph unicode="Z" horiz-adv-x="1208" d="M76 72q0 31 22 63l820 1168h-762q-37 0 -57.5 18t-20.5 51q0 35 20.5 53.5t57.5 18.5h893q37 0 58 -20.5t21 -51.5q0 -29 -22 -61l-821 -1170h786q37 0 57.5 -18.5t20.5 -50.5q0 -35 -20.5 -53.5t-57.5 -18.5h-915q-37 0 -58.5 20.5t-21.5 51.5z" />
<glyph unicode="[" horiz-adv-x="643" d="M223 -160v1395q0 100 53.5 154.5t153.5 54.5h141q33 0 52.5 -16.5t19.5 -49.5q0 -31 -19.5 -48t-52.5 -17h-96q-88 0 -88 -92v-1366q0 -92 88 -93h96q33 0 52.5 -17t19.5 -48q0 -33 -19.5 -49.5t-52.5 -16.5h-141q-100 0 -153.5 54.5t-53.5 154.5z" />
<glyph unicode="\" horiz-adv-x="577" d="M-25 1466q0 31 21.5 51.5t50.5 20.5q49 0 68 -55l485 -1512q4 -20 4 -28q0 -31 -21.5 -51.5t-50.5 -20.5q-23 0 -42 13.5t-27 41.5l-483 1512q-4 10 -5 28z" />
<glyph unicode="]" horiz-adv-x="643" d="M0 -303q0 31 19.5 48t52.5 17h94q90 0 90 93v1366q0 92 -90 92h-94q-33 0 -52.5 17.5t-19.5 47.5q0 33 19.5 49.5t52.5 16.5h141q100 0 153.5 -54.5t53.5 -154.5v-1395q0 -100 -53.5 -154.5t-153.5 -54.5h-141q-33 0 -52.5 16.5t-19.5 49.5z" />
<glyph unicode="^" d="M135 352q0 18 8 35l381 842q12 27 36 43t54 16q29 0 53.5 -16.5t37.5 -42.5l380 -842q9 -17 9 -35q0 -29 -19.5 -46t-46.5 -17q-35 0 -49 33l-365 808l-364 -808q-12 -33 -49 -33q-25 0 -45.5 17.5t-20.5 45.5z" />
<glyph unicode="_" horiz-adv-x="1024" d="M0 -55q0 23 18.5 39t49.5 16h888q31 0 49.5 -16.5t18.5 -38.5q0 -23 -18.5 -38.5t-49.5 -15.5h-888q-31 0 -49.5 15.5t-18.5 38.5z" />
<glyph unicode="`" horiz-adv-x="614" d="M-60 1477q0 33 22.5 54t55.5 21q47 0 84 -47l238 -311q12 -14 12 -31q0 -18 -14.5 -31.5t-32.5 -13.5t-33 12l-291 269q-41 39 -41 78z" />
<glyph unicode="a" horiz-adv-x="1085" d="M119 287q0 113 57 175t188.5 90t364.5 28h45v67q0 123 -50 180.5t-163 57.5q-139 0 -282 -76q-55 -35 -78 -35q-25 0 -41.5 18.5t-16.5 47.5t17.5 50t56.5 44q72 41 163 64.5t181 23.5q375 0 375 -393v-557q0 -37 -21.5 -59.5t-58.5 -22.5t-59.5 22.5t-22.5 59.5v98 q-39 -88 -119 -136t-184 -48q-96 0 -177 38.5t-128 108.5t-47 154zM289 301q0 -80 58.5 -132t146.5 -52q122 0 201 83t79 214v59h-37q-180 0 -274 -15.5t-134 -51t-40 -105.5z" />
<glyph unicode="b" horiz-adv-x="1191" d="M154 72v1302q0 35 22.5 57.5t61.5 22.5t60 -21.5t21 -58.5v-549q45 94 132.5 145.5t203.5 51.5q131 0 231.5 -63.5t156 -180t55.5 -270.5q0 -156 -55.5 -273.5t-156 -183t-231.5 -65.5q-117 0 -203.5 51t-132.5 145v-110q0 -37 -21.5 -59.5t-59.5 -22.5q-39 0 -61.5 22.5 t-22.5 59.5zM319 504q0 -182 79 -281.5t225 -99.5q145 0 225 101.5t80 283.5q0 178 -80 276.5t-225 98.5t-224.5 -98.5t-79.5 -280.5z" />
<glyph unicode="c" horiz-adv-x="980" d="M94 500q0 154 60.5 272.5t169 184t249.5 65.5q78 0 155 -21.5t134 -62.5q37 -25 52.5 -48.5t15.5 -51.5q0 -29 -15.5 -47.5t-40.5 -18.5q-14 0 -30.5 8t-27.5 16.5t-15 10.5q-53 35 -101.5 55.5t-117.5 20.5q-150 0 -233 -101.5t-83 -281.5t83 -278.5t233 -98.5 q70 0 120 20.5t101 55.5q23 14 43 24t35 10q23 0 38 -18t15 -47q0 -27 -14.5 -48.5t-53.5 -47.5q-57 -39 -138 -62.5t-163 -23.5q-139 0 -246.5 63.5t-166 180t-58.5 270.5z" />
<glyph unicode="d" horiz-adv-x="1191" d="M94 508q0 154 55.5 270.5t156 180t231.5 63.5q117 0 203.5 -51t131.5 -146v549q0 37 21.5 58.5t60.5 21.5t61.5 -22.5t22.5 -57.5v-1302q0 -37 -22.5 -59.5t-61.5 -22.5t-60.5 22.5t-21.5 59.5v110q-45 -94 -132 -145t-203 -51q-131 0 -231.5 65.5t-156 183t-55.5 273.5z M262 508q0 -182 81 -283.5t226 -101.5q146 0 224.5 99.5t78.5 281.5t-78.5 280.5t-224.5 98.5q-145 0 -226 -98.5t-81 -276.5z" />
<glyph unicode="e" horiz-adv-x="1079" d="M94 502q0 154 59.5 271.5t167 183t244.5 65.5q195 0 309.5 -127t114.5 -344q0 -41 -16.5 -59.5t-52.5 -18.5h-660q18 -352 334 -352q80 0 137 21.5t123 58.5q51 30 71 30h1q22 0 38.5 -18t16.5 -47q0 -51 -72 -94q-74 -43 -155.5 -64.5t-159.5 -21.5q-231 0 -365.5 137 t-134.5 379zM264 580h580q-4 152 -76 232.5t-201 80.5q-131 0 -209.5 -82t-93.5 -231z" />
<glyph unicode="f" horiz-adv-x="671" d="M-2 930q0 31 19.5 49t54.5 18h137v37q0 184 92 290t264 118l53 4q11 1 22 1q36 0 55 -11q24 -15 24 -52q0 -59 -72 -67l-53 -4q-109 -8 -164 -68.5t-55 -181.5v-66h227q35 0 53.5 -18t18.5 -49t-18.5 -47.5t-53.5 -16.5h-227v-794q0 -39 -23.5 -60.5t-58.5 -21.5 q-37 0 -60.5 21.5t-23.5 60.5v794h-137q-35 0 -54.5 17.5t-19.5 46.5z" />
<glyph unicode="g" horiz-adv-x="1200" d="M94 526q0 147 56.5 260t158 174.5t232.5 61.5q119 0 207 -51t133 -146v111q0 37 21.5 59.5t60.5 22.5q38 0 61 -22.5t23 -59.5v-868q0 -223 -115 -337t-340 -114q-219 0 -365 86q-73 40 -73 93q0 30 15 48.5t40 18.5q20 0 74 -29q72 -37 141.5 -59.5t165.5 -22.5 q145 0 219 77t74 224v176q-43 -96 -132 -147t-210 -51q-131 0 -232.5 61.5t-158 174t-56.5 259.5zM262 526q0 -168 83 -263t228 -95q144 0 226 95t82 263q0 166 -81 261.5t-227 95.5q-145 0 -228 -95.5t-83 -261.5z" />
<glyph unicode="h" horiz-adv-x="1163" d="M154 72v1302q0 35 23.5 57.5t60.5 22.5q39 0 60 -21.5t21 -58.5v-536q49 90 137.5 137t200.5 47q177 0 267 -99.5t90 -295.5v-555q0 -39 -22.5 -60.5t-59.5 -21.5q-39 0 -61.5 21.5t-22.5 60.5v551q0 133 -54.5 196.5t-172.5 63.5q-137 0 -219.5 -84t-82.5 -228v-499 q0 -39 -21.5 -60.5t-59.5 -21.5q-39 0 -61.5 21.5t-22.5 60.5z" />
<glyph unicode="i" horiz-adv-x="475" d="M127 1337q0 45 31 74t80 29t79.5 -29t30.5 -74q0 -47 -30.5 -75.5t-79.5 -28.5t-80 28.5t-31 75.5zM154 72v864q0 39 23.5 60.5t60.5 21.5t59 -21.5t22 -60.5v-864q0 -41 -22.5 -61.5t-58.5 -20.5q-37 0 -60.5 21.5t-23.5 60.5z" />
<glyph unicode="j" horiz-adv-x="475" d="M-156 -307q0 55 72 63l57 4q92 6 136.5 55.5t44.5 161.5v959q0 39 23.5 60.5t60.5 21.5t59 -21.5t22 -60.5v-948q0 -172 -76.5 -258t-238.5 -99l-57 -4q-9 -1 -18 -1q-38 0 -59 14q-26 18 -26 53zM127 1337q0 45 31 74t80 29t79.5 -29t30.5 -74q0 -47 -30.5 -75.5 t-79.5 -28.5t-80 28.5t-31 75.5z" />
<glyph unicode="k" horiz-adv-x="1024" d="M154 72v1300q0 39 23.5 60.5t60.5 21.5q35 0 58 -21.5t23 -60.5v-831l490 448q25 25 55 25q31 0 53.5 -22.5t22.5 -53.5q0 -35 -29 -61l-403 -361l442 -385q33 -30 33 -65q0 -31 -21.5 -53.5t-52.5 -22.5q-27 0 -55 24l-535 461v-403q0 -39 -23.5 -60.5t-57.5 -21.5 q-37 0 -60.5 21.5t-23.5 60.5z" />
<glyph unicode="l" horiz-adv-x="475" d="M154 72v1300q0 39 23.5 60.5t60.5 21.5q35 0 58 -21.5t23 -60.5v-1300q0 -39 -23.5 -60.5t-57.5 -21.5q-37 0 -60.5 21.5t-23.5 60.5z" />
<glyph unicode="m" horiz-adv-x="1744" d="M154 72v864q0 37 23.5 59.5t60.5 22.5q35 0 57 -21.5t22 -58.5v-98q45 88 125 135t185 47q233 0 305 -197q43 90 131 143.5t201 53.5q331 0 331 -395v-555q0 -39 -22.5 -60.5t-59.5 -21.5t-60 21.5t-23 60.5v551q0 137 -49.5 198.5t-153.5 61.5q-125 0 -197 -84t-72 -228 v-499q0 -39 -23.5 -60.5t-60.5 -21.5t-59 21.5t-22 60.5v551q0 137 -49.5 198.5t-155.5 61.5q-123 0 -196 -84t-73 -228v-499q0 -39 -22.5 -60.5t-58.5 -21.5q-37 0 -60.5 21.5t-23.5 60.5z" />
<glyph unicode="n" horiz-adv-x="1163" d="M154 72v864q0 37 22.5 59.5t61.5 22.5q37 0 58 -22.5t21 -57.5v-104q49 92 137.5 140t200.5 48q359 0 359 -395v-555q0 -39 -21.5 -60.5t-60.5 -21.5t-61.5 21.5t-22.5 60.5v544q0 139 -54.5 203t-172.5 64q-137 0 -219.5 -84t-82.5 -228v-499q0 -39 -21.5 -60.5 t-59.5 -21.5q-39 0 -61.5 21.5t-22.5 60.5z" />
<glyph unicode="o" horiz-adv-x="1136" d="M94 504q0 156 58.5 273.5t166 181t248.5 63.5t250 -63.5t167 -181.5t58 -273q0 -156 -58 -273.5t-166.5 -181t-250.5 -63.5q-141 0 -248.5 63.5t-166 181t-58.5 273.5zM262 504q0 -184 79 -282.5t226 -98.5q148 0 226.5 97t78.5 284q0 182 -79.5 281.5t-225.5 99.5 q-145 0 -225 -99.5t-80 -281.5z" />
<glyph unicode="p" horiz-adv-x="1191" d="M154 -299v1235q0 37 22.5 59.5t61.5 22.5t60 -22.5t21 -59.5v-111q45 94 132.5 145.5t203.5 51.5q131 0 231.5 -65.5t156 -183.5t55.5 -273q0 -156 -55.5 -271.5t-155 -179t-232.5 -63.5q-117 0 -203.5 51t-132.5 145v-481q0 -37 -21.5 -58.5t-59.5 -21.5 q-39 0 -61.5 22.5t-22.5 57.5zM319 504q0 -182 79 -281.5t225 -99.5q145 0 225 98t80 279q0 180 -80 281.5t-225 101.5t-224.5 -98.5t-79.5 -280.5z" />
<glyph unicode="q" horiz-adv-x="1191" d="M94 500q0 156 55.5 273.5t156 183t231.5 65.5q117 0 203.5 -51t131.5 -146v111q0 37 21.5 59.5t60.5 22.5t61.5 -22.5t22.5 -59.5v-1235q0 -35 -22.5 -57.5t-61.5 -22.5t-60.5 21.5t-21.5 58.5v481q-45 -94 -132 -145t-203 -51q-133 0 -232.5 63.5t-155 179t-55.5 271.5z M262 500q0 -180 81 -278.5t226 -98.5q146 0 224.5 99.5t78.5 281.5t-78.5 280.5t-224.5 98.5q-145 0 -226 -101.5t-81 -281.5z" />
<glyph unicode="r" horiz-adv-x="722" d="M154 72v864q0 39 24.5 60.5t59.5 21.5q33 0 55 -21.5t22 -58.5v-115q43 90 122 137.5t181 55.5l29 2h12q74 0 74 -70q0 -33 -18.5 -52t-63.5 -24l-61 -6q-137 -12 -204 -97t-67 -200v-497q0 -41 -22.5 -61.5t-58.5 -20.5q-37 0 -60.5 21.5t-23.5 60.5z" />
<glyph unicode="s" horiz-adv-x="983" d="M92 170q0 27 15.5 44t39.5 17q25 0 72 -30q61 -37 121.5 -58.5t151.5 -21.5q111 0 172 39t61 112q0 45 -22.5 73t-78 49.5t-161.5 43.5q-180 39 -258 104.5t-78 178.5q0 88 49 155.5t136 106.5t198 39q80 0 154.5 -21.5t132.5 -60.5q69 -48 69 -101q0 -28 -16 -46.5 t-39 -18.5q-25 0 -74 35q-57 37 -108 57.5t-127 20.5q-96 0 -154.5 -43t-58.5 -115q0 -45 21.5 -72.5t71.5 -49t144 -42.5q139 -31 216 -67.5t110 -90t33 -135.5q0 -129 -108.5 -207.5t-287.5 -78.5q-94 0 -179 22.5t-150 63.5q-37 25 -52.5 46t-15.5 52z" />
<glyph unicode="t" horiz-adv-x="696" d="M-2 930q0 31 19.5 49t54.5 18h137v232q0 39 22.5 60.5t61.5 21.5q37 0 59.5 -21.5t22.5 -60.5v-232h227q33 0 52.5 -18t19.5 -49q0 -29 -19.5 -46.5t-52.5 -17.5h-227v-522q0 -113 46 -163t138 -56l55 -4q72 -7 72 -66q0 -35 -26 -52q-21 -14 -57 -14q-9 0 -19 1l-56 4 q-164 12 -241.5 98t-77.5 260v514h-137q-35 0 -54.5 17.5t-19.5 46.5z" />
<glyph unicode="u" horiz-adv-x="1148" d="M150 379v557q0 37 22.5 59.5t60.5 22.5q39 0 60.5 -22.5t21.5 -59.5v-553q0 -133 53.5 -195.5t168.5 -62.5q131 0 210.5 85t79.5 224v502q0 37 22.5 59.5t61.5 22.5t60.5 -22.5t21.5 -59.5v-866q0 -35 -21.5 -57.5t-60.5 -22.5q-37 0 -58.5 21.5t-21.5 56.5v102 q-47 -90 -132 -137t-191 -47q-178 0 -268 99t-90 294z" />
<glyph unicode="v" horiz-adv-x="1052" d="M31 942q0 31 27.5 53.5t60.5 22.5q20 0 39.5 -12.5t29.5 -34.5l342 -768l342 764q23 49 72 49q31 0 55.5 -20.5t24.5 -51.5q0 -18 -8 -33l-400 -860q-12 -27 -36.5 -42t-53.5 -15q-27 0 -51 15.5t-39 41.5l-397 860q-8 14 -8 31z" />
<glyph unicode="w" horiz-adv-x="1724" d="M59 938q0 33 28 55.5t60 22.5q49 0 70 -49l281 -756l288 750q12 27 34 41t46 14q27 0 48.5 -14.5t31.5 -40.5l289 -748l283 752q20 49 67 49q31 0 55.5 -20.5t24.5 -51.5q0 -14 -6 -31l-340 -860q-12 -27 -35.5 -42t-52.5 -15q-27 0 -50.5 15.5t-35.5 41.5l-283 719 l-280 -719q-10 -27 -35 -42t-53 -15q-27 0 -51.5 15.5t-36.5 41.5l-340 858q-6 16 -7 29z" />
<glyph unicode="x" horiz-adv-x="1060" d="M63 70q0 31 25 57l340 383l-326 371q-25 29 -24 57q0 33 23.5 55.5t52.5 22.5q33 0 59 -29l317 -364l318 364q27 29 59 29q31 0 53.5 -22.5t22.5 -53.5q0 -35 -25 -59l-325 -371l340 -383q24 -24 24 -59q0 -31 -22.5 -53.5t-52.5 -22.5q-33 0 -60 28l-332 379l-329 -379 q-26 -28 -58 -28h-2q-31 0 -54.5 22.5t-23.5 55.5z" />
<glyph unicode="y" horiz-adv-x="1052" d="M31 942q0 31 27.5 53.5t60.5 22.5q20 0 39.5 -12.5t29.5 -34.5l342 -768l342 764q23 49 72 49q31 0 55.5 -20.5t24.5 -51.5q0 -18 -8 -33l-576 -1241q-10 -23 -29.5 -35t-39.5 -12q-31 0 -54.5 19.5t-23.5 50.5q0 16 8 33l143 309l-405 876q-8 14 -8 31z" />
<glyph unicode="z" horiz-adv-x="1030" d="M86 930q0 31 19.5 49t54.5 18h694q37 0 59.5 -21.5t22.5 -51.5q0 -33 -25 -64l-608 -729h584q35 0 53 -17.5t18 -47.5q0 -31 -18 -48.5t-53 -17.5h-717q-35 0 -57.5 21.5t-22.5 52.5q0 33 25 63l606 729h-561q-35 0 -54.5 17.5t-19.5 46.5z" />
<glyph unicode="{" horiz-adv-x="718" d="M84 539q0 29 18.5 47t53.5 20q80 4 111.5 42t31.5 122v465q0 100 53.5 154.5t153.5 54.5h141q33 0 52.5 -16.5t19.5 -49.5q0 -31 -19.5 -48t-52.5 -17h-96q-88 0 -88 -92v-467q0 -90 -44 -145.5t-106 -69.5q61 -14 105.5 -69.5t44.5 -145.5v-469q0 -92 88 -93h96 q33 0 52.5 -17t19.5 -48q0 -33 -19.5 -49.5t-52.5 -16.5h-141q-100 0 -153.5 54.5t-53.5 154.5v465q0 84 -31.5 123t-111.5 43q-35 2 -53.5 20.5t-18.5 47.5z" />
<glyph unicode="|" horiz-adv-x="534" d="M188 -297v1669q0 35 22.5 58.5t57.5 23.5q33 0 55.5 -23.5t22.5 -58.5v-1669q0 -35 -22.5 -58.5t-55.5 -23.5q-35 0 -57.5 23.5t-22.5 58.5z" />
<glyph unicode="}" horiz-adv-x="718" d="M0 -303q0 31 19.5 48t52.5 17h94q90 0 90 93v469q0 90 44 145t106 70q-61 14 -105.5 69.5t-44.5 145.5v467q0 92 -90 92h-94q-33 0 -52.5 17.5t-19.5 47.5q0 33 19.5 49.5t52.5 16.5h141q100 0 153.5 -54.5t53.5 -154.5v-465q0 -84 31.5 -122t111.5 -42q35 -2 53.5 -20.5 t18.5 -46.5q0 -29 -18.5 -47.5t-53.5 -20.5q-80 -4 -110.5 -42t-30.5 -124l-2 -465q0 -100 -53.5 -154.5t-153.5 -54.5h-141q-33 0 -52.5 16.5t-19.5 49.5z" />
<glyph unicode="~" d="M131 547q0 14 10 35q41 70 101.5 106.5t136.5 36.5q66 0 125 -23.5t149 -68.5q63 -35 106.5 -52.5t80.5 -17.5q88 0 141 78q29 35 57 35q16 0 31 -8q27 -12 27 -47q0 -20 -11 -37q-84 -143 -235 -144q-66 0 -127 24.5t-148 70.5q-63 35 -106 52t-80 17q-86 0 -141 -80 q-29 -35 -60 -35q-14 0 -28 9q-29 18 -29 49z" />
<glyph unicode="&#xa2;" d="M186 500q0 207 105.5 345t283.5 169v162q0 35 19.5 55t52.5 20t52.5 -20.5t19.5 -54.5v-156q143 -14 237 -82q37 -25 52.5 -48.5t15.5 -51.5q0 -29 -15.5 -47.5t-39.5 -18.5q-14 0 -30.5 8t-28 16.5t-15.5 10.5q-53 35 -101.5 55.5t-117.5 20.5q-150 0 -233 -101.5 t-83 -281.5t83 -278.5t233 -98.5q70 0 120 20.5t101 55.5q23 14 43.5 24t34.5 10q22 0 37.5 -18t15.5 -47q0 -27 -14.5 -47.5t-52.5 -48.5q-47 -33 -111 -54.5t-131 -27.5v-160q0 -35 -19.5 -55.5t-52.5 -20.5t-52.5 20.5t-19.5 55.5v162q-178 29 -283.5 165t-105.5 343z " />
<glyph unicode="&#xa3;" d="M82 72q0 33 20.5 51t57.5 18h139v523h-156q-27 0 -44 16t-17 43t17.5 43t43.5 16h156v285q0 180 105.5 286.5t291.5 106.5q123 0 235.5 -45t198.5 -125q33 -31 33 -71q0 -29 -16.5 -50.5t-38.5 -21.5q-25 0 -57 22q-100 82 -181.5 116t-169.5 34q-106 0 -169.5 -64.5 t-63.5 -199.5v-273h324q27 0 44 -16t17 -43t-17.5 -43t-43.5 -16h-324v-523h618q37 0 57.5 -18.5t20.5 -50.5q0 -35 -20.5 -53.5t-57.5 -18.5h-925q-37 0 -57.5 18.5t-20.5 53.5z" />
<glyph unicode="&#xa5;" d="M27 1378q0 31 23.5 53.5t53.5 22.5q35 0 58 -31l452 -579l453 577q24 31 59 31q31 0 53.5 -22.5t22.5 -55.5q0 -29 -20 -51l-422 -535h274q27 0 44.5 -16t17.5 -43t-16.5 -44t-45.5 -17h-336v-189h336q29 0 45.5 -16.5t16.5 -44.5q0 -27 -17.5 -43.5t-44.5 -16.5h-336 v-282q0 -41 -23.5 -63.5t-60.5 -22.5t-60.5 22.5t-23.5 63.5v282h-335q-27 0 -44.5 16.5t-17.5 43.5q0 29 17.5 45t44.5 16h335v189h-335q-27 0 -44.5 17t-17.5 44t17.5 43t44.5 16h274l-422 537q-20 23 -20 53z" />
<glyph unicode="&#xa8;" horiz-adv-x="614" d="M30 1337q0 43 29 70t72 27t72.5 -27t29.5 -70q0 -45 -28.5 -71.5t-73.5 -26.5q-43 0 -72 27.5t-29 70.5zM381 1337q0 43 29.5 70t72.5 27t71.5 -27t28.5 -70t-28.5 -70.5t-71.5 -27.5t-72.5 27.5t-29.5 70.5z" />
<glyph unicode="&#xa9;" horiz-adv-x="1669" d="M102 723q0 205 96.5 372t264.5 263t373 96t371.5 -96t263 -263t96.5 -372t-96.5 -372t-264.5 -264t-370 -97q-205 0 -373 97t-264.5 264t-96.5 372zM199 723q0 -178 83 -325.5t228 -231.5t326 -84q178 0 323.5 84t228 231.5t82.5 325.5t-82.5 324.5t-228 230.5t-323.5 84 q-180 0 -325.5 -84t-228.5 -230.5t-83 -324.5zM436 723q0 203 113 321.5t301 118.5q156 0 274 -92q29 -20 29 -57q0 -25 -13.5 -44.5t-37.5 -19.5q-18 0 -47 17q-59 37 -100.5 54t-98.5 17q-127 0 -193.5 -80.5t-66.5 -234.5q0 -156 66.5 -236.5t193.5 -80.5q57 0 98 17 t101 54q29 16 47 17q25 0 38 -19.5t13 -44.5q0 -35 -29 -57q-104 -92 -274 -92q-188 0 -301 118.5t-113 323.5z" />
<glyph unicode="&#xaa;" horiz-adv-x="675" d="M61 1016q0 66 34 103.5t110 55t211 17.5h33v35q0 63 -28 89.5t-85 26.5q-74 0 -160 -40q-33 -18 -47 -19q-23 0 -36 17.5t-13 37.5q0 39 47 64q41 23 100.5 37t116.5 14q121 0 183.5 -59.5t62.5 -190.5v-299q0 -35 -19.5 -53t-50.5 -18q-29 0 -49 18t-20 53v33 q-25 -49 -72 -76.5t-107 -27.5q-92 0 -151.5 54t-59.5 128zM201 1026q0 -37 28.5 -62.5t75.5 -25.5q62 0 103 40t41 107v29h-21q-94 0 -143 -9t-66.5 -27.5t-17.5 -51.5z" />
<glyph unicode="&#xab;" horiz-adv-x="903" d="M115 545q0 27 14 49l164 276q23 39 65 39q27 0 45.5 -16t18.5 -41q0 -16 -8 -33l-135 -276l135 -275q8 -16 8 -35q0 -25 -18.5 -41t-43.5 -16q-18 0 -35.5 10.5t-29.5 28.5l-166 279q-14 27 -14 51zM486 545q0 27 14 49l164 276q23 39 65 39q27 0 45.5 -16t18.5 -41 q0 -16 -8 -33l-135 -276l135 -275q8 -16 8 -35q0 -25 -18.5 -41t-43.5 -16q-18 0 -35.5 10.5t-29.5 28.5l-166 279q-14 27 -14 51z" />
<glyph unicode="&#xac;" d="M115 799q0 27 18.5 43t46.5 16h869q29 0 47 -18.5t18 -46.5v-420q0 -29 -19.5 -48.5t-47.5 -19.5q-25 0 -41.5 19.5t-16.5 48.5v360h-809q-27 0 -46 19.5t-19 46.5z" />
<glyph unicode="&#xad;" horiz-adv-x="870" d="M133 545q0 31 19.5 50t56.5 19h450q39 0 58.5 -19.5t19.5 -49.5q0 -31 -19.5 -49.5t-58.5 -18.5h-450q-37 0 -56.5 18.5t-19.5 49.5z" />
<glyph unicode="&#xae;" horiz-adv-x="1669" d="M102 723q0 205 96.5 372t264.5 263t373 96q204 0 371 -96t263.5 -263t96.5 -372t-96.5 -372t-264.5 -264t-370 -97q-205 0 -373 97t-264.5 264t-96.5 372zM199 723q0 -178 83 -325.5t228 -231.5t326 -84q178 0 323.5 84t228 231.5t82.5 325.5t-82.5 324.5t-228 230.5 t-323.5 84q-180 0 -325.5 -84t-228.5 -230.5t-83 -324.5zM528 356v723q0 35 19.5 55.5t54.5 20.5h289q141 0 220 -66.5t79 -189.5q0 -102 -58.5 -166.5t-162.5 -81.5q35 -8 61.5 -30.5t54.5 -61.5l113 -178q16 -23 16 -41q0 -27 -22.5 -44t-50.5 -17q-45 0 -72 40l-162 248 q-25 39 -52.5 54.5t-74.5 15.5h-100v-281q0 -37 -20.5 -56t-55.5 -19t-55.5 19t-20.5 56zM680 756h192q84 0 126 32.5t42 106.5q0 76 -41 107.5t-127 31.5h-192v-278z" />
<glyph unicode="&#xb1;" d="M115 670q0 27 18.5 44t46.5 17h371v285q0 29 18.5 48t46.5 19q27 0 44.5 -19.5t17.5 -47.5v-285h371q29 0 47 -18.5t18 -46.5q0 -27 -18.5 -44.5t-46.5 -17.5h-371v-282q0 -29 -19.5 -49.5t-46.5 -20.5t-44 19.5t-17 47.5v285h-371q-26 0 -45.5 19.5t-19.5 46.5zM127 68 q0 25 19.5 43t46.5 18h868q29 0 47 -19.5t18 -48.5q0 -25 -19.5 -43t-45.5 -18h-868q-29 0 -47.5 19.5t-18.5 48.5z" />
<glyph unicode="&#xb4;" horiz-adv-x="614" d="M262 1163q0 16 12 31l238 311q37 47 84 47q33 0 55 -21.5t22 -53.5q0 -43 -41 -78l-288 -269q-17 -12 -33 -12q-20 0 -34.5 13.5t-14.5 31.5z" />
<glyph unicode="&#xb5;" horiz-adv-x="1148" d="M150 -299v1235q0 39 22.5 60.5t60.5 21.5q37 0 59.5 -21.5t22.5 -60.5v-553q0 -137 56.5 -197.5t165.5 -60.5q127 0 208.5 82t81.5 227v502q0 37 23.5 59.5t60.5 22.5t59.5 -21.5t22.5 -60.5v-866q0 -37 -22.5 -58.5t-59.5 -21.5t-58.5 20.5t-21.5 57.5v102 q-47 -90 -132 -137t-191 -47q-115 0 -193 51v-336q0 -37 -22.5 -58.5t-61.5 -21.5q-37 0 -59 21.5t-22 58.5z" />
<glyph unicode="&#xb8;" horiz-adv-x="614" d="M131 -324q0 18 12.5 31.5t32.5 13.5q10 0 17 -2q55 -16 114 -16q57 0 87 18.5t30 53.5q0 27 -16.5 41t-47.5 14q-23 0 -57.5 -9t-42.5 -9q-16 0 -29.5 11t-11.5 27l23 191h114l-14 -131q25 6 53 6q64 0 108 -36t44 -105q0 -76 -63.5 -123t-178.5 -47q-74 0 -139 24 q-16 6 -25.5 19.5t-9.5 27.5z" />
<glyph unicode="&#xba;" horiz-adv-x="700" d="M45 1145q0 137 81 223t222 86q143 0 225 -86t82 -223q0 -139 -81.5 -225t-225.5 -86q-141 0 -222 86t-81 225zM193 1145q0 -94 39.5 -144.5t115.5 -50.5q80 0 120 50.5t40 144.5q0 92 -41 142t-119 50q-76 0 -115.5 -50t-39.5 -142z" />
<glyph unicode="&#xbb;" horiz-adv-x="899" d="M109 854q0 25 18 40t45 15q43 0 66 -39l161 -276q16 -27 17 -49q0 -23 -17 -51l-161 -279q-25 -39 -64 -39q-27 0 -45 16.5t-18 40.5q0 18 8 35l137 275l-137 276q-10 20 -10 35zM480 854q0 25 18 40t45 15q43 0 66 -39l161 -276q16 -27 17 -49q0 -23 -17 -51l-161 -279 q-25 -39 -64 -39q-27 0 -45 16.5t-18 40.5q0 18 8 35l137 275l-137 276q-10 20 -10 35z" />
<glyph unicode="&#xc0;" horiz-adv-x="1488" d="M59 63q0 16 9 33l585 1303q12 29 37 43t53 14q31 0 55.5 -15.5t37.5 -41.5l585 -1303q9 -17 9 -35q0 -31 -24 -51t-56 -20q-51 0 -72 49l-145 332h-773l-147 -332q-20 -49 -72 -49q-33 0 -57.5 21.5t-24.5 51.5zM422 510h649l-326 735zM428 1817q0 29 21.5 49t50.5 20 q37 0 72 -35l202 -221q14 -14 15 -33q0 -16 -13.5 -28.5t-31.5 -12.5q-12 0 -27 9l-239 176q-49 33 -50 76z" />
<glyph unicode="&#xc1;" horiz-adv-x="1488" d="M59 63q0 16 9 33l585 1303q12 29 37 43t53 14q31 0 55.5 -15.5t37.5 -41.5l585 -1303q9 -17 9 -35q0 -31 -24 -51t-56 -20q-51 0 -72 49l-145 332h-773l-147 -332q-20 -49 -72 -49q-33 0 -57.5 21.5t-24.5 51.5zM422 510h649l-326 735zM703 1597q0 18 14 33l203 221 q33 35 72 35q29 0 50 -20.5t21 -48.5q0 -43 -49 -76l-240 -176q-14 -9 -26 -9q-18 0 -31.5 12.5t-13.5 28.5z" />
<glyph unicode="&#xc2;" horiz-adv-x="1488" d="M59 63q0 16 9 33l585 1303q12 29 37 43t53 14q31 0 55.5 -15.5t37.5 -41.5l585 -1303q9 -17 9 -35q0 -31 -24 -51t-56 -20q-51 0 -72 49l-145 332h-773l-147 -332q-20 -49 -72 -49q-33 0 -57.5 21.5t-24.5 51.5zM422 510h649l-326 735zM465 1618q0 27 23 47l182 188 q33 33 76 33q41 0 76 -33l182 -188q23 -23 22 -49q0 -23 -18 -41.5t-41 -18.5q-27 0 -49 23l-172 193l-172 -193q-20 -23 -47 -23q-25 0 -43.5 18.5t-18.5 43.5z" />
<glyph unicode="&#xc3;" horiz-adv-x="1488" d="M59 63q0 16 9 33l585 1303q12 29 37 43t53 14q31 0 55.5 -15.5t37.5 -41.5l585 -1303q9 -17 9 -35q0 -31 -24 -51t-56 -20q-51 0 -72 49l-145 332h-773l-147 -332q-20 -49 -72 -49q-33 0 -57.5 21.5t-24.5 51.5zM422 510h649l-326 735zM422 1669q0 35 22.5 73t63.5 63.5 t92 25.5q35 0 70 -11.5t92 -33.5q45 -20 74 -29.5t53 -9.5q33 0 52.5 13.5t39.5 37.5q23 31 43 31t32.5 -13.5t12.5 -35.5q0 -35 -22.5 -73t-63.5 -63.5t-92 -25.5q-35 0 -72.5 12t-89.5 35q-45 20 -73.5 29.5t-53.5 9.5q-35 0 -54 -14.5t-38 -38.5q-23 -31 -43 -31 t-32.5 13.5t-12.5 35.5z" />
<glyph unicode="&#xc4;" horiz-adv-x="1488" d="M59 63q0 16 9 33l585 1303q12 29 37 43t53 14q31 0 55.5 -15.5t37.5 -41.5l585 -1303q9 -17 9 -35q0 -31 -24 -51t-56 -20q-51 0 -72 49l-145 332h-773l-147 -332q-20 -49 -72 -49q-33 0 -57.5 21.5t-24.5 51.5zM422 510h649l-326 735zM469 1724q0 43 29 71t72 28 t72.5 -28t29.5 -71q0 -45 -28.5 -71.5t-73.5 -26.5q-43 0 -72 27.5t-29 70.5zM820 1724q0 43 29.5 71t72.5 28t71.5 -28t28.5 -71t-28.5 -70.5t-71.5 -27.5t-72.5 27.5t-29.5 70.5z" />
<glyph unicode="&#xc5;" horiz-adv-x="1488" d="M59 63q0 16 9 33l587 1303q-53 25 -84.5 74t-31.5 110q0 86 60 144.5t146 58.5t146.5 -58.5t60.5 -144.5q0 -61 -31.5 -110.5t-84.5 -73.5l585 -1303q9 -17 9 -35q0 -31 -24 -51t-56 -20q-51 0 -72 49l-145 332h-773l-147 -332q-20 -49 -72 -49q-33 0 -57.5 21.5 t-24.5 51.5zM422 510h649l-326 735zM647 1583q0 -43 27.5 -72.5t70.5 -29.5t71 29.5t28 72.5t-28 73t-71 30t-70.5 -30t-27.5 -73z" />
<glyph unicode="&#xc6;" horiz-adv-x="2029" d="M25 51q0 23 14 45l805 1303q31 45 98 45h926q37 0 57.5 -18.5t20.5 -51.5q0 -35 -20.5 -53t-57.5 -18h-817l108 -500h668q37 0 57.5 -18.5t20.5 -51.5t-20.5 -51t-57.5 -18h-639l112 -523h568q37 0 57.5 -18.5t20.5 -52.5q0 -33 -20.5 -51.5t-57.5 -18.5h-625 q-33 0 -54.5 19.5t-29.5 50.5l-63 301h-713l-201 -332q-33 -51 -86 -51q-31 0 -51 17.5t-20 45.5zM469 510h596l-154 729z" />
<glyph unicode="&#xc7;" horiz-adv-x="1386" d="M125 723q0 225 81 392t230.5 256t354.5 89q137 0 258.5 -44t212.5 -126q33 -31 32 -71q0 -29 -16 -50.5t-39 -21.5q-25 0 -59 22q-104 82 -189.5 115t-195.5 33q-238 0 -366 -154.5t-128 -439.5q0 -287 128 -441.5t366 -154.5q109 0 194.5 33t190.5 114q35 23 59 23 q23 0 39 -20.5t16 -51.5q0 -41 -32 -71q-82 -76 -196 -120t-241 -50l-8 -74q25 6 53 6q63 0 107.5 -36t44.5 -105q0 -76 -63.5 -123t-178.5 -47q-74 0 -139 24q-16 6 -25.5 19.5t-9.5 27.5q0 18 12.5 31.5t32.5 13.5q10 0 17 -2q55 -16 114 -16q57 0 87 18.5t30 53.5 q0 27 -16.5 41t-46.5 14q-23 0 -58 -9t-43 -9q-16 0 -29.5 11t-11.5 27l17 138q-182 16 -313.5 110.5t-202 254t-70.5 370.5z" />
<glyph unicode="&#xc8;" horiz-adv-x="1191" d="M178 82v1280q0 37 23.5 59.5t62.5 22.5h766q37 0 57.5 -18.5t20.5 -51.5t-20.5 -51t-57.5 -18h-686v-502h645q37 0 57.5 -18.5t20.5 -51.5t-20.5 -51t-57.5 -18h-645v-525h686q37 0 57.5 -17.5t20.5 -51.5q0 -33 -20.5 -51.5t-57.5 -18.5h-766q-39 0 -62.5 22.5 t-23.5 59.5zM346 1817q0 29 21.5 49t50.5 20q37 0 72 -35l202 -221q14 -14 15 -33q0 -16 -13.5 -28.5t-31.5 -12.5q-12 0 -27 9l-239 176q-49 33 -50 76z" />
<glyph unicode="&#xc9;" horiz-adv-x="1191" d="M178 82v1280q0 37 23.5 59.5t62.5 22.5h766q37 0 57.5 -18.5t20.5 -51.5t-20.5 -51t-57.5 -18h-686v-502h645q37 0 57.5 -18.5t20.5 -51.5t-20.5 -51t-57.5 -18h-645v-525h686q37 0 57.5 -17.5t20.5 -51.5q0 -33 -20.5 -51.5t-57.5 -18.5h-766q-39 0 -62.5 22.5 t-23.5 59.5zM621 1597q0 18 14 33l203 221q33 35 72 35q29 0 50 -20.5t21 -48.5q0 -43 -49 -76l-240 -176q-14 -9 -26 -9q-18 0 -31.5 12.5t-13.5 28.5z" />
<glyph unicode="&#xca;" horiz-adv-x="1191" d="M178 82v1280q0 37 23.5 59.5t62.5 22.5h766q37 0 57.5 -18.5t20.5 -51.5t-20.5 -51t-57.5 -18h-686v-502h645q37 0 57.5 -18.5t20.5 -51.5t-20.5 -51t-57.5 -18h-645v-525h686q37 0 57.5 -17.5t20.5 -51.5q0 -33 -20.5 -51.5t-57.5 -18.5h-766q-39 0 -62.5 22.5 t-23.5 59.5zM383 1618q0 27 23 47l182 188q33 33 76 33q41 0 76 -33l182 -188q23 -23 22 -49q0 -23 -18 -41.5t-41 -18.5q-27 0 -49 23l-172 193l-172 -193q-20 -23 -47 -23q-25 0 -43.5 18.5t-18.5 43.5z" />
<glyph unicode="&#xcb;" horiz-adv-x="1191" d="M178 82v1280q0 37 23.5 59.5t62.5 22.5h766q37 0 57.5 -18.5t20.5 -51.5t-20.5 -51t-57.5 -18h-686v-502h645q37 0 57.5 -18.5t20.5 -51.5t-20.5 -51t-57.5 -18h-645v-525h686q37 0 57.5 -17.5t20.5 -51.5q0 -33 -20.5 -51.5t-57.5 -18.5h-766q-39 0 -62.5 22.5 t-23.5 59.5zM387 1724q0 43 29 71t72 28t72.5 -28t29.5 -71q0 -45 -28.5 -71.5t-73.5 -26.5q-43 0 -72 27.5t-29 70.5zM738 1724q0 43 29.5 71t72.5 28t71.5 -28t28.5 -71t-28.5 -70.5t-71.5 -27.5t-72.5 27.5t-29.5 70.5z" />
<glyph unicode="&#xcc;" horiz-adv-x="524" d="M-56 1817q0 29 21.5 49t50.5 20q37 0 72 -35l202 -221q14 -14 15 -33q0 -16 -13.5 -28.5t-31.5 -12.5q-12 0 -27 9l-239 176q-49 33 -50 76zM178 76v1292q0 39 22.5 62.5t61.5 23.5t61.5 -23.5t22.5 -62.5v-1292q0 -39 -22.5 -62.5t-61.5 -23.5t-61.5 23.5t-22.5 62.5z " />
<glyph unicode="&#xcd;" horiz-adv-x="524" d="M178 76v1292q0 39 22.5 62.5t61.5 23.5t61.5 -23.5t22.5 -62.5v-1292q0 -39 -22.5 -62.5t-61.5 -23.5t-61.5 23.5t-22.5 62.5zM219 1597q0 18 14 33l203 221q33 35 72 35q29 0 50 -20.5t21 -48.5q0 -43 -49 -76l-240 -176q-14 -9 -26 -9q-18 0 -31.5 12.5t-13.5 28.5z " />
<glyph unicode="&#xce;" horiz-adv-x="524" d="M-19 1618q0 27 23 47l182 188q33 33 76 33q41 0 76 -33l182 -188q23 -23 22 -49q0 -23 -18 -41.5t-41 -18.5q-27 0 -49 23l-172 193l-172 -193q-20 -23 -47 -23q-25 0 -43.5 18.5t-18.5 43.5zM178 76v1292q0 39 22.5 62.5t61.5 23.5t61.5 -23.5t22.5 -62.5v-1292 q0 -39 -22.5 -62.5t-61.5 -23.5t-61.5 23.5t-22.5 62.5z" />
<glyph unicode="&#xcf;" horiz-adv-x="524" d="M-15 1724q0 43 29 71t72 28t72.5 -28t29.5 -71q0 -45 -28.5 -71.5t-73.5 -26.5q-43 0 -72 27.5t-29 70.5zM178 76v1292q0 39 22.5 62.5t61.5 23.5t61.5 -23.5t22.5 -62.5v-1292q0 -39 -22.5 -62.5t-61.5 -23.5t-61.5 23.5t-22.5 62.5zM336 1724q0 43 29.5 71t72.5 28 t71.5 -28t28.5 -71t-28.5 -70.5t-71.5 -27.5t-72.5 27.5t-29.5 70.5z" />
<glyph unicode="&#xd0;" horiz-adv-x="1540" d="M0 731q0 33 20.5 51.5t55.5 18.5h129v561q0 37 23.5 59.5t62.5 22.5h399q346 0 535.5 -187.5t189.5 -533.5t-190.5 -534.5t-534.5 -188.5h-399q-39 0 -62.5 23.5t-23.5 58.5v582h-129q-35 0 -55.5 17t-20.5 50zM373 143h309q561 0 561 580q0 578 -561 577h-309v-499h336 q35 0 54 -18.5t19 -51.5t-19.5 -50t-53.5 -17h-336v-521z" />
<glyph unicode="&#xd1;" horiz-adv-x="1513" d="M178 76v1292q0 39 21.5 62.5t60.5 23.5q41 0 70 -35l848 -1136v1085q0 39 21.5 62.5t57.5 23.5q37 0 57.5 -23.5t20.5 -62.5v-1292q0 -39 -21.5 -62.5t-60.5 -23.5t-67 35l-850 1136v-1085q0 -39 -21.5 -62.5t-58.5 -23.5t-57.5 23.5t-20.5 62.5zM432 1669q0 35 22.5 73 t63.5 63.5t92 25.5q35 0 70 -11.5t92 -33.5q45 -20 74 -29.5t53 -9.5q33 0 52.5 13.5t39.5 37.5q23 31 43 31t32.5 -13.5t12.5 -35.5q0 -35 -22.5 -73t-63.5 -63.5t-92 -25.5q-35 0 -72.5 12t-89.5 35q-45 20 -73.5 29.5t-53.5 9.5q-35 0 -54 -14.5t-38 -38.5 q-23 -31 -43 -31t-32.5 13.5t-12.5 35.5z" />
<glyph unicode="&#xd2;" horiz-adv-x="1564" d="M125 721q0 227 79 394t227.5 256t350.5 89q203 0 351.5 -89t227.5 -256t79 -392t-80 -392t-228.5 -257t-349.5 -90q-200 0 -348.5 90t-228.5 256t-80 391zM297 723q0 -285 128 -440.5t357 -155.5q230 0 358 154.5t128 441.5t-127 440.5t-359 153.5q-229 0 -357 -154.5 t-128 -439.5zM465 1817q0 29 21.5 49t50.5 20q37 0 72 -35l202 -221q14 -14 15 -33q0 -16 -13.5 -28.5t-31.5 -12.5q-12 0 -27 9l-239 176q-49 33 -50 76z" />
<glyph unicode="&#xd3;" horiz-adv-x="1564" d="M125 721q0 227 79 394t227.5 256t350.5 89q203 0 351.5 -89t227.5 -256t79 -392t-80 -392t-228.5 -257t-349.5 -90q-200 0 -348.5 90t-228.5 256t-80 391zM297 723q0 -285 128 -440.5t357 -155.5q230 0 358 154.5t128 441.5t-127 440.5t-359 153.5q-229 0 -357 -154.5 t-128 -439.5zM740 1597q0 18 14 33l203 221q33 35 72 35q29 0 50 -20.5t21 -48.5q0 -43 -49 -76l-240 -176q-14 -9 -26 -9q-18 0 -31.5 12.5t-13.5 28.5z" />
<glyph unicode="&#xd4;" horiz-adv-x="1564" d="M125 721q0 227 79 394t227.5 256t350.5 89q203 0 351.5 -89t227.5 -256t79 -392t-80 -392t-228.5 -257t-349.5 -90q-200 0 -348.5 90t-228.5 256t-80 391zM297 723q0 -285 128 -440.5t357 -155.5q230 0 358 154.5t128 441.5t-127 440.5t-359 153.5q-229 0 -357 -154.5 t-128 -439.5zM502 1618q0 27 23 47l182 188q33 33 76 33q41 0 76 -33l182 -188q23 -23 22 -49q0 -23 -18 -41.5t-41 -18.5q-27 0 -49 23l-172 193l-172 -193q-20 -23 -47 -23q-25 0 -43.5 18.5t-18.5 43.5z" />
<glyph unicode="&#xd5;" horiz-adv-x="1564" d="M125 721q0 227 79 394t227.5 256t350.5 89q203 0 351.5 -89t227.5 -256t79 -392t-80 -392t-228.5 -257t-349.5 -90q-200 0 -348.5 90t-228.5 256t-80 391zM297 723q0 -285 128 -440.5t357 -155.5q230 0 358 154.5t128 441.5t-127 440.5t-359 153.5q-229 0 -357 -154.5 t-128 -439.5zM459 1669q0 35 22.5 73t63.5 63.5t92 25.5q35 0 70 -11.5t92 -33.5q45 -20 74 -29.5t53 -9.5q33 0 52.5 13.5t39.5 37.5q23 31 43 31t32.5 -13.5t12.5 -35.5q0 -35 -22.5 -73t-63.5 -63.5t-92 -25.5q-35 0 -72.5 12t-89.5 35q-45 20 -73.5 29.5t-53.5 9.5 q-35 0 -54 -14.5t-38 -38.5q-23 -31 -43 -31t-32.5 13.5t-12.5 35.5z" />
<glyph unicode="&#xd6;" horiz-adv-x="1564" d="M125 721q0 227 79 394t227.5 256t350.5 89q203 0 351.5 -89t227.5 -256t79 -392t-80 -392t-228.5 -257t-349.5 -90q-200 0 -348.5 90t-228.5 256t-80 391zM297 723q0 -285 128 -440.5t357 -155.5q230 0 358 154.5t128 441.5t-127 440.5t-359 153.5q-229 0 -357 -154.5 t-128 -439.5zM506 1724q0 43 29 71t72 28t72.5 -28t29.5 -71q0 -45 -28.5 -71.5t-73.5 -26.5q-43 0 -72 27.5t-29 70.5zM857 1724q0 43 29.5 71t72.5 28t71.5 -28t28.5 -71t-28.5 -70.5t-71.5 -27.5t-72.5 27.5t-29.5 70.5z" />
<glyph unicode="&#xd8;" horiz-adv-x="1564" d="M125 721q0 227 79 394t227.5 256t350.5 89q172 0 314 -67l53 92q23 39 63 39q27 0 46.5 -18.5t19.5 -45.5q0 -20 -12 -43l-58 -100q113 -96 172.5 -247.5t59.5 -346.5q0 -225 -80 -392t-228.5 -257t-349.5 -90q-174 0 -313 69l-53 -92q-25 -43 -64 -43q-27 0 -46 18.5 t-19 47.5q0 23 14 45l57 98q-113 96 -173 247.5t-60 346.5zM297 723q0 -303 141 -457l582 998q-102 53 -238 53q-229 0 -357 -154.5t-128 -439.5zM545 182q102 -55 237 -55q230 0 358 154.5t128 441.5q0 303 -142 457z" />
<glyph unicode="&#xd9;" horiz-adv-x="1482" d="M168 565v803q0 39 22.5 62.5t61.5 23.5q37 0 59.5 -23.5t22.5 -62.5v-817q0 -211 103.5 -317.5t303.5 -106.5q201 0 303.5 106.5t102.5 317.5v817q0 39 23.5 62.5t60.5 23.5q39 0 61.5 -23.5t22.5 -62.5v-803q0 -285 -146.5 -433t-427.5 -148q-282 0 -427.5 147.5 t-145.5 433.5zM424 1817q0 29 21.5 49t50.5 20q37 0 72 -35l202 -221q14 -14 15 -33q0 -16 -13.5 -28.5t-31.5 -12.5q-12 0 -27 9l-239 176q-49 33 -50 76z" />
<glyph unicode="&#xda;" horiz-adv-x="1482" d="M168 565v803q0 39 22.5 62.5t61.5 23.5q37 0 59.5 -23.5t22.5 -62.5v-817q0 -211 103.5 -317.5t303.5 -106.5q201 0 303.5 106.5t102.5 317.5v817q0 39 23.5 62.5t60.5 23.5q39 0 61.5 -23.5t22.5 -62.5v-803q0 -285 -146.5 -433t-427.5 -148q-282 0 -427.5 147.5 t-145.5 433.5zM699 1597q0 18 14 33l203 221q33 35 72 35q29 0 50 -20.5t21 -48.5q0 -43 -49 -76l-240 -176q-14 -9 -26 -9q-18 0 -31.5 12.5t-13.5 28.5z" />
<glyph unicode="&#xdb;" horiz-adv-x="1482" d="M168 565v803q0 39 22.5 62.5t61.5 23.5q37 0 59.5 -23.5t22.5 -62.5v-817q0 -211 103.5 -317.5t303.5 -106.5q201 0 303.5 106.5t102.5 317.5v817q0 39 23.5 62.5t60.5 23.5q39 0 61.5 -23.5t22.5 -62.5v-803q0 -285 -146.5 -433t-427.5 -148q-282 0 -427.5 147.5 t-145.5 433.5zM461 1618q0 27 23 47l182 188q33 33 76 33q41 0 76 -33l182 -188q23 -23 22 -49q0 -23 -18 -41.5t-41 -18.5q-27 0 -49 23l-172 193l-172 -193q-20 -23 -47 -23q-25 0 -43.5 18.5t-18.5 43.5z" />
<glyph unicode="&#xdc;" horiz-adv-x="1482" d="M168 565v803q0 39 22.5 62.5t61.5 23.5q37 0 59.5 -23.5t22.5 -62.5v-817q0 -211 103.5 -317.5t303.5 -106.5q201 0 303.5 106.5t102.5 317.5v817q0 39 23.5 62.5t60.5 23.5q39 0 61.5 -23.5t22.5 -62.5v-803q0 -285 -146.5 -433t-427.5 -148q-282 0 -427.5 147.5 t-145.5 433.5zM465 1724q0 43 29 71t72 28t72.5 -28t29.5 -71q0 -45 -28.5 -71.5t-73.5 -26.5q-43 0 -72 27.5t-29 70.5zM816 1724q0 43 29.5 71t72.5 28t71.5 -28t28.5 -71t-28.5 -70.5t-71.5 -27.5t-72.5 27.5t-29.5 70.5z" />
<glyph unicode="&#xdd;" horiz-adv-x="1230" d="M12 1374q0 33 23.5 55.5t54.5 22.5q35 0 60 -31l466 -596l465 596q25 31 60 31q29 0 51 -22.5t22 -55.5q0 -31 -18 -51l-498 -629v-618q0 -41 -23.5 -63.5t-60.5 -22.5t-60.5 22.5t-23.5 63.5v620l-497 627q-20 23 -21 51zM572 1597q0 18 14 33l203 221q33 35 72 35 q29 0 50 -20.5t21 -48.5q0 -43 -49 -76l-240 -176q-14 -9 -26 -9q-18 0 -31.5 12.5t-13.5 28.5z" />
<glyph unicode="&#xde;" horiz-adv-x="1320" d="M178 76v1292q0 39 22.5 62.5t59.5 23.5q39 0 61.5 -23.5t22.5 -62.5v-242h420q223 0 344 -102t121 -289q0 -186 -123 -289.5t-342 -103.5h-420v-266q0 -39 -22.5 -62.5t-61.5 -23.5q-37 0 -59.5 23.5t-22.5 62.5zM344 481h401q162 0 240 62.5t78 191.5t-78 190.5 t-240 61.5h-401v-506z" />
<glyph unicode="&#xdf;" horiz-adv-x="1261" d="M154 72v905q0 225 121.5 351t340.5 126q162 0 254.5 -70.5t92.5 -197.5q0 -84 -42 -143.5t-120 -129.5q-57 -49 -86 -85.5t-29 -79.5q0 -66 52.5 -101t160.5 -72q94 -33 154.5 -63.5t103.5 -87.5t43 -145q0 -131 -104.5 -212t-272.5 -81q-78 0 -159.5 23.5t-143.5 62.5 q-37 27 -52 48t-15 50q0 27 15 44t40 17q23 0 74 -32q57 -35 112.5 -56.5t132.5 -21.5q98 0 154.5 40t56.5 111q0 68 -54 104t-167 75q-94 31 -152.5 60.5t-99.5 82.5t-41 137q0 74 37 126t113 124q66 59 97.5 101t31.5 98q0 68 -49 104.5t-140 36.5q-141 0 -218 -85 t-77 -241v-923q0 -39 -21.5 -60.5t-59.5 -21.5q-39 0 -61.5 21.5t-22.5 60.5z" />
<glyph unicode="&#xe0;" horiz-adv-x="1085" d="M119 287q0 113 57 175t188.5 90t364.5 28h45v67q0 123 -50 180.5t-163 57.5q-139 0 -282 -76q-55 -35 -78 -35q-25 0 -41.5 18.5t-16.5 47.5t17.5 50t56.5 44q72 41 163 64.5t181 23.5q375 0 375 -393v-557q0 -37 -21.5 -59.5t-58.5 -22.5t-59.5 22.5t-22.5 59.5v98 q-39 -88 -119 -136t-184 -48q-96 0 -177 38.5t-128 108.5t-47 154zM194 1477q0 33 22.5 54t55.5 21q47 0 84 -47l238 -311q12 -14 12 -31q0 -18 -14.5 -31.5t-32.5 -13.5t-33 12l-291 269q-41 39 -41 78zM289 301q0 -80 58.5 -132t146.5 -52q122 0 201 83t79 214v59h-37 q-180 0 -274 -15.5t-134 -51t-40 -105.5z" />
<glyph unicode="&#xe1;" horiz-adv-x="1085" d="M119 287q0 113 57 175t188.5 90t364.5 28h45v67q0 123 -50 180.5t-163 57.5q-139 0 -282 -76q-55 -35 -78 -35q-25 0 -41.5 18.5t-16.5 47.5t17.5 50t56.5 44q72 41 163 64.5t181 23.5q375 0 375 -393v-557q0 -37 -21.5 -59.5t-58.5 -22.5t-59.5 22.5t-22.5 59.5v98 q-39 -88 -119 -136t-184 -48q-96 0 -177 38.5t-128 108.5t-47 154zM289 301q0 -80 58.5 -132t146.5 -52q122 0 201 83t79 214v59h-37q-180 0 -274 -15.5t-134 -51t-40 -105.5zM516 1163q0 16 12 31l238 311q37 47 84 47q33 0 55 -21.5t22 -53.5q0 -43 -41 -78l-288 -269 q-17 -12 -33 -12q-20 0 -34.5 13.5t-14.5 31.5z" />
<glyph unicode="&#xe2;" horiz-adv-x="1085" d="M119 287q0 113 57 175t188.5 90t364.5 28h45v67q0 123 -50 180.5t-163 57.5q-139 0 -282 -76q-55 -35 -78 -35q-25 0 -41.5 18.5t-16.5 47.5t17.5 50t56.5 44q72 41 163 64.5t181 23.5q375 0 375 -393v-557q0 -37 -21.5 -59.5t-58.5 -22.5t-59.5 22.5t-22.5 59.5v98 q-39 -88 -119 -136t-184 -48q-96 0 -177 38.5t-128 108.5t-47 154zM280 1180q0 23 15 43l188 278q33 49 78 49t78 -49l190 -278q14 -20 14 -41q0 -25 -19 -43.5t-44 -18.5q-37 0 -55 33l-164 266l-164 -266q-18 -33 -55 -33q-25 0 -43.5 17.5t-18.5 42.5zM289 301 q0 -80 58.5 -132t146.5 -52q122 0 201 83t79 214v59h-37q-180 0 -274 -15.5t-134 -51t-40 -105.5z" />
<glyph unicode="&#xe3;" horiz-adv-x="1085" d="M119 287q0 113 57 175t188.5 90t364.5 28h45v67q0 123 -50 180.5t-163 57.5q-139 0 -282 -76q-55 -35 -78 -35q-25 0 -41.5 18.5t-16.5 47.5t17.5 50t56.5 44q72 41 163 64.5t181 23.5q375 0 375 -393v-557q0 -37 -21.5 -59.5t-58.5 -22.5t-59.5 22.5t-22.5 59.5v98 q-39 -88 -119 -136t-184 -48q-96 0 -177 38.5t-128 108.5t-47 154zM237 1272q0 37 22.5 82t63.5 77.5t92 32.5q39 0 76 -18.5t88 -52.5q45 -29 72 -42.5t49 -13.5q33 0 52.5 18.5t39.5 51.5q14 25 24.5 36t24.5 11q18 0 30.5 -15.5t12.5 -37.5q0 -35 -22.5 -81t-63.5 -79 t-92 -33q-39 0 -75.5 18.5t-88.5 53.5q-45 29 -71.5 42t-48.5 13q-35 0 -54.5 -18.5t-38.5 -50.5q-14 -23 -24 -34t-25 -11q-18 0 -30.5 14t-12.5 37zM289 301q0 -80 58.5 -132t146.5 -52q122 0 201 83t79 214v59h-37q-180 0 -274 -15.5t-134 -51t-40 -105.5z" />
<glyph unicode="&#xe4;" horiz-adv-x="1085" d="M119 287q0 113 57 175t188.5 90t364.5 28h45v67q0 123 -50 180.5t-163 57.5q-139 0 -282 -76q-55 -35 -78 -35q-25 0 -41.5 18.5t-16.5 47.5t17.5 50t56.5 44q72 41 163 64.5t181 23.5q375 0 375 -393v-557q0 -37 -21.5 -59.5t-58.5 -22.5t-59.5 22.5t-22.5 59.5v98 q-39 -88 -119 -136t-184 -48q-96 0 -177 38.5t-128 108.5t-47 154zM284 1337q0 43 29 70t72 27t72.5 -27t29.5 -70q0 -45 -28.5 -71.5t-73.5 -26.5q-43 0 -72 27.5t-29 70.5zM289 301q0 -80 58.5 -132t146.5 -52q122 0 201 83t79 214v59h-37q-180 0 -274 -15.5t-134 -51 t-40 -105.5zM635 1337q0 43 29.5 70t72.5 27t71.5 -27t28.5 -70t-28.5 -70.5t-71.5 -27.5t-72.5 27.5t-29.5 70.5z" />
<glyph unicode="&#xe5;" horiz-adv-x="1085" d="M119 287q0 113 57 175t188.5 90t364.5 28h45v67q0 123 -50 180.5t-163 57.5q-139 0 -282 -76q-55 -35 -78 -35q-25 0 -41.5 18.5t-16.5 47.5t17.5 50t56.5 44q72 41 163 64.5t181 23.5q375 0 375 -393v-557q0 -37 -21.5 -59.5t-58.5 -22.5t-59.5 22.5t-22.5 59.5v98 q-39 -88 -119 -136t-184 -48q-96 0 -177 38.5t-128 108.5t-47 154zM289 301q0 -80 58.5 -132t146.5 -52q122 0 201 83t79 214v59h-37q-180 0 -274 -15.5t-134 -51t-40 -105.5zM354 1337q0 86 60.5 144.5t146.5 58.5t146.5 -58.5t60.5 -144.5t-60.5 -144t-146.5 -58 t-146.5 58t-60.5 144zM462 1337q0 -43 28 -72.5t71 -29.5t70.5 29.5t27.5 72.5t-27.5 73t-70.5 30t-71 -30t-28 -73z" />
<glyph unicode="&#xe6;" horiz-adv-x="1746" d="M119 287q0 113 57 175t189.5 90t367.5 28h47v61q0 127 -51 185.5t-164 58.5q-100 0 -165.5 -22.5t-133.5 -59.5q-20 -12 -37.5 -20.5t-29.5 -8.5q-25 0 -40.5 18.5t-15.5 47.5q0 53 74 94q152 88 344 88q252 0 332 -178q59 86 150.5 132t201.5 46q123 0 216 -58.5 t144.5 -165t51.5 -247.5q0 -41 -17.5 -59.5t-54.5 -18.5h-643q8 -174 92 -263t236 -89q78 0 132 20.5t120 57.5q20 12 39.5 22t33.5 10q23 0 38.5 -18t15.5 -47q0 -53 -72 -94q-70 -41 -150.5 -63.5t-156.5 -22.5q-152 0 -258.5 65.5t-161.5 188.5q-39 -121 -133 -187.5 t-230 -66.5q-102 0 -186 38.5t-133 107.5t-49 155zM289 301q0 -82 60.5 -133t154.5 -51q121 0 198.5 86t77.5 217v53h-39q-180 0 -276 -15.5t-136 -51t-40 -105.5zM946 580h565q-4 152 -74.5 232.5t-193.5 80.5q-127 0 -204.5 -82t-92.5 -231z" />
<glyph unicode="&#xe7;" horiz-adv-x="980" d="M94 500q0 154 60.5 272.5t169 184t249.5 65.5q78 0 155 -21.5t134 -62.5q37 -25 52.5 -48.5t15.5 -51.5q0 -29 -15.5 -47.5t-40.5 -18.5q-14 0 -30.5 8t-27.5 16.5t-15 10.5q-53 35 -101.5 55.5t-117.5 20.5q-150 0 -233 -101.5t-83 -281.5t83 -278.5t233 -98.5 q70 0 120 20.5t101 55.5q23 14 43 24t35 10q22 0 37.5 -18t15.5 -47q0 -27 -14.5 -48.5t-53.5 -47.5q-51 -35 -121.5 -57.5t-142.5 -26.5l-8 -78q25 6 53 6q63 0 107.5 -36t44.5 -105q0 -76 -63.5 -123t-178.5 -47q-74 0 -139 24q-16 6 -25.5 19.5t-9.5 27.5q0 18 12.5 31.5 t32.5 13.5q10 0 16 -2q55 -16 115 -16q57 0 87 18.5t30 53.5q0 27 -16.5 41t-47.5 14q-23 0 -57.5 -9t-42.5 -9q-16 0 -29.5 11t-11.5 27l16 142q-180 25 -286.5 161t-106.5 347z" />
<glyph unicode="&#xe8;" horiz-adv-x="1079" d="M94 502q0 154 59.5 271.5t167 183t244.5 65.5q195 0 309.5 -127t114.5 -344q0 -41 -16.5 -59.5t-52.5 -18.5h-660q18 -352 334 -352q80 0 137 21.5t123 58.5q53 31 72 30q22 0 38.5 -18t16.5 -47q0 -51 -72 -94q-74 -43 -155.5 -64.5t-159.5 -21.5q-231 0 -365.5 137 t-134.5 379zM198 1477q0 33 22.5 54t55.5 21q47 0 84 -47l238 -311q12 -14 12 -31q0 -18 -14.5 -31.5t-32.5 -13.5t-33 12l-291 269q-41 39 -41 78zM264 580h580q-4 152 -76 232.5t-201 80.5q-131 0 -209.5 -82t-93.5 -231z" />
<glyph unicode="&#xe9;" horiz-adv-x="1079" d="M94 502q0 154 59.5 271.5t167 183t244.5 65.5q195 0 309.5 -127t114.5 -344q0 -41 -16.5 -59.5t-52.5 -18.5h-660q18 -352 334 -352q80 0 137 21.5t123 58.5q53 31 72 30q22 0 38.5 -18t16.5 -47q0 -51 -72 -94q-74 -43 -155.5 -64.5t-159.5 -21.5q-231 0 -365.5 137 t-134.5 379zM264 580h580q-4 152 -76 232.5t-201 80.5q-131 0 -209.5 -82t-93.5 -231zM520 1163q0 16 12 31l238 311q37 47 84 47q33 0 55 -21.5t22 -53.5q0 -43 -41 -78l-288 -269q-17 -12 -33 -12q-20 0 -34.5 13.5t-14.5 31.5z" />
<glyph unicode="&#xea;" horiz-adv-x="1079" d="M94 502q0 154 59.5 271.5t167 183t244.5 65.5q195 0 309.5 -127t114.5 -344q0 -41 -16.5 -59.5t-52.5 -18.5h-660q18 -352 334 -352q80 0 137 21.5t123 58.5q53 31 72 30q22 0 38.5 -18t16.5 -47q0 -51 -72 -94q-74 -43 -155.5 -64.5t-159.5 -21.5q-231 0 -365.5 137 t-134.5 379zM264 580h580q-4 152 -76 232.5t-201 80.5q-131 0 -209.5 -82t-93.5 -231zM284 1180q0 23 15 43l188 278q33 49 78 49t78 -49l190 -278q14 -20 14 -41q0 -25 -19 -43.5t-44 -18.5q-37 0 -55 33l-164 266l-164 -266q-18 -33 -55 -33q-25 0 -43.5 17.5t-18.5 42.5z " />
<glyph unicode="&#xeb;" horiz-adv-x="1079" d="M94 502q0 154 59.5 271.5t167 183t244.5 65.5q195 0 309.5 -127t114.5 -344q0 -41 -16.5 -59.5t-52.5 -18.5h-660q18 -352 334 -352q80 0 137 21.5t123 58.5q53 31 72 30q22 0 38.5 -18t16.5 -47q0 -51 -72 -94q-74 -43 -155.5 -64.5t-159.5 -21.5q-231 0 -365.5 137 t-134.5 379zM264 580h580q-4 152 -76 232.5t-201 80.5q-131 0 -209.5 -82t-93.5 -231zM288 1337q0 43 29 70t72 27t72.5 -27t29.5 -70q0 -45 -28.5 -71.5t-73.5 -26.5q-43 0 -72 27.5t-29 70.5zM639 1337q0 43 29.5 70t72.5 27t71.5 -27t28.5 -70t-28.5 -70.5t-71.5 -27.5 t-72.5 27.5t-29.5 70.5z" />
<glyph unicode="&#xec;" horiz-adv-x="475" d="M-129 1477q0 33 22.5 54t55.5 21q47 0 84 -47l238 -311q12 -14 12 -31q0 -18 -14.5 -31.5t-32.5 -13.5t-33 12l-291 269q-41 39 -41 78zM154 72v864q0 39 23.5 60.5t60.5 21.5t59 -21.5t22 -60.5v-864q0 -41 -22.5 -61.5t-58.5 -20.5q-37 0 -60.5 21.5t-23.5 60.5z" />
<glyph unicode="&#xed;" horiz-adv-x="475" d="M154 72v864q0 39 23.5 60.5t60.5 21.5t59 -21.5t22 -60.5v-864q0 -41 -22.5 -61.5t-58.5 -20.5q-37 0 -60.5 21.5t-23.5 60.5zM193 1163q0 16 12 31l238 311q37 47 84 47q33 0 55 -21.5t22 -53.5q0 -43 -41 -78l-288 -269q-17 -12 -33 -12q-20 0 -34.5 13.5t-14.5 31.5z " />
<glyph unicode="&#xee;" horiz-adv-x="475" d="M-43 1180q0 23 15 43l188 278q33 49 78 49t78 -49l190 -278q14 -20 14 -41q0 -25 -19 -43.5t-44 -18.5q-37 0 -55 33l-164 266l-164 -266q-18 -33 -55 -33q-25 0 -43.5 17.5t-18.5 42.5zM154 72v864q0 39 23.5 60.5t60.5 21.5t59 -21.5t22 -60.5v-864q0 -41 -22.5 -61.5 t-58.5 -20.5q-37 0 -60.5 21.5t-23.5 60.5z" />
<glyph unicode="&#xef;" horiz-adv-x="475" d="M-39 1337q0 43 29 70t72 27t72.5 -27t29.5 -70q0 -45 -28.5 -71.5t-73.5 -26.5q-43 0 -72 27.5t-29 70.5zM154 72v864q0 39 23.5 60.5t60.5 21.5t59 -21.5t22 -60.5v-864q0 -41 -22.5 -61.5t-58.5 -20.5q-37 0 -60.5 21.5t-23.5 60.5zM312 1337q0 43 29.5 70t72.5 27 t71.5 -27t28.5 -70t-28.5 -70.5t-71.5 -27.5t-72.5 27.5t-29.5 70.5z" />
<glyph unicode="&#xf0;" horiz-adv-x="1144" d="M94 459q0 141 58.5 247.5t163 166t241.5 59.5q209 0 313 -137q-45 186 -192 333l-270 -98q-16 -4 -21 -4q-23 0 -38 17.5t-15 39.5q0 37 39 52l209 73q-92 68 -193 109q-57 27 -57 72q0 27 20.5 46t53.5 19q20 0 47 -10q162 -63 290 -176l224 80q16 4 22 4q23 0 38 -16.5 t15 -37.5q0 -16 -10 -30.5t-31 -22.5l-174 -63q224 -250 224 -604q0 -289 -125 -440.5t-363 -151.5q-139 0 -245.5 58t-165 165.5t-58.5 249.5zM262 459q0 -162 80 -249t225 -87q144 0 224.5 89t80.5 249q0 158 -78.5 247t-226.5 89q-145 0 -225 -88t-80 -250z" />
<glyph unicode="&#xf1;" horiz-adv-x="1163" d="M154 72v864q0 37 22.5 59.5t61.5 22.5q37 0 58 -22.5t21 -57.5v-104q49 92 137.5 140t200.5 48q359 0 359 -395v-555q0 -39 -21.5 -60.5t-60.5 -21.5t-61.5 21.5t-22.5 60.5v544q0 139 -54.5 203t-172.5 64q-137 0 -219.5 -84t-82.5 -228v-499q0 -39 -21.5 -60.5 t-59.5 -21.5q-39 0 -61.5 21.5t-22.5 60.5zM260 1272q0 37 22.5 82t63.5 77.5t92 32.5q39 0 76 -18.5t88 -52.5q45 -29 72 -42.5t49 -13.5q33 0 52.5 18.5t39.5 51.5q14 25 24.5 36t24.5 11q18 0 30.5 -15.5t12.5 -37.5q0 -35 -22.5 -81t-63.5 -79t-92 -33q-39 0 -75.5 18.5 t-88.5 53.5q-45 29 -71.5 42t-48.5 13q-35 0 -54.5 -18.5t-38.5 -50.5q-14 -23 -24 -34t-25 -11q-18 0 -30.5 14t-12.5 37z" />
<glyph unicode="&#xf2;" horiz-adv-x="1136" d="M94 504q0 156 58.5 273.5t166 181t248.5 63.5t250 -63.5t167 -181.5t58 -273q0 -156 -58 -273.5t-166.5 -181t-250.5 -63.5q-141 0 -248.5 63.5t-166 181t-58.5 273.5zM200 1477q0 33 22.5 54t55.5 21q47 0 84 -47l238 -311q12 -14 12 -31q0 -18 -14.5 -31.5t-32.5 -13.5 t-33 12l-291 269q-41 39 -41 78zM262 504q0 -184 79 -282.5t226 -98.5q148 0 226.5 97t78.5 284q0 182 -79.5 281.5t-225.5 99.5q-145 0 -225 -99.5t-80 -281.5z" />
<glyph unicode="&#xf3;" horiz-adv-x="1136" d="M94 504q0 156 58.5 273.5t166 181t248.5 63.5t250 -63.5t167 -181.5t58 -273q0 -156 -58 -273.5t-166.5 -181t-250.5 -63.5q-141 0 -248.5 63.5t-166 181t-58.5 273.5zM262 504q0 -184 79 -282.5t226 -98.5q148 0 226.5 97t78.5 284q0 182 -79.5 281.5t-225.5 99.5 q-145 0 -225 -99.5t-80 -281.5zM522 1163q0 16 12 31l238 311q37 47 84 47q33 0 55 -21.5t22 -53.5q0 -43 -41 -78l-288 -269q-17 -12 -33 -12q-20 0 -34.5 13.5t-14.5 31.5z" />
<glyph unicode="&#xf4;" horiz-adv-x="1136" d="M94 504q0 156 58.5 273.5t166 181t248.5 63.5t250 -63.5t167 -181.5t58 -273q0 -156 -58 -273.5t-166.5 -181t-250.5 -63.5q-141 0 -248.5 63.5t-166 181t-58.5 273.5zM262 504q0 -184 79 -282.5t226 -98.5q148 0 226.5 97t78.5 284q0 182 -79.5 281.5t-225.5 99.5 q-145 0 -225 -99.5t-80 -281.5zM286 1180q0 23 15 43l188 278q33 49 78 49t78 -49l190 -278q14 -20 14 -41q0 -25 -19 -43.5t-44 -18.5q-37 0 -55 33l-164 266l-164 -266q-18 -33 -55 -33q-25 0 -43.5 17.5t-18.5 42.5z" />
<glyph unicode="&#xf5;" horiz-adv-x="1136" d="M94 504q0 156 58.5 273.5t166 181t248.5 63.5t250 -63.5t167 -181.5t58 -273q0 -156 -58 -273.5t-166.5 -181t-250.5 -63.5q-141 0 -248.5 63.5t-166 181t-58.5 273.5zM243 1272q0 37 22.5 82t63.5 77.5t92 32.5q39 0 76 -18.5t88 -52.5q45 -29 72 -42.5t49 -13.5 q33 0 52.5 18.5t39.5 51.5q14 25 24.5 36t24.5 11q18 0 30.5 -15.5t12.5 -37.5q0 -35 -22.5 -81t-63.5 -79t-92 -33q-39 0 -75.5 18.5t-88.5 53.5q-45 29 -71.5 42t-48.5 13q-35 0 -54.5 -18.5t-38.5 -50.5q-14 -23 -24 -34t-25 -11q-18 0 -30.5 14t-12.5 37zM262 504 q0 -184 79 -282.5t226 -98.5q148 0 226.5 97t78.5 284q0 182 -79.5 281.5t-225.5 99.5q-145 0 -225 -99.5t-80 -281.5z" />
<glyph unicode="&#xf6;" horiz-adv-x="1136" d="M94 504q0 156 58.5 273.5t166 181t248.5 63.5t250 -63.5t167 -181.5t58 -273q0 -156 -58 -273.5t-166.5 -181t-250.5 -63.5q-141 0 -248.5 63.5t-166 181t-58.5 273.5zM262 504q0 -184 79 -282.5t226 -98.5q148 0 226.5 97t78.5 284q0 182 -79.5 281.5t-225.5 99.5 q-145 0 -225 -99.5t-80 -281.5zM290 1337q0 43 29 70t72 27t72.5 -27t29.5 -70q0 -45 -28.5 -71.5t-73.5 -26.5q-43 0 -72 27.5t-29 70.5zM641 1337q0 43 29.5 70t72.5 27t71.5 -27t28.5 -70t-28.5 -70.5t-71.5 -27.5t-72.5 27.5t-29.5 70.5z" />
<glyph unicode="&#xf7;" d="M127 586q0 25 19.5 43t46.5 18h868q29 0 47 -19.5t18 -47.5q0 -25 -19.5 -43.5t-45.5 -18.5h-868q-29 0 -47.5 19.5t-18.5 48.5zM516 172q0 45 28.5 72.5t69.5 27.5q43 0 71 -27.5t28 -72.5q0 -43 -28 -71.5t-71 -28.5q-41 0 -69.5 28.5t-28.5 71.5zM516 995 q0 45 28.5 73t69.5 28q43 0 71 -28t28 -73t-29 -73.5t-70 -28.5t-69.5 28.5t-28.5 73.5z" />
<glyph unicode="&#xf8;" horiz-adv-x="1136" d="M94 504q0 156 58.5 273.5t166 181t248.5 63.5q121 0 213 -45l43 76q16 31 51 30q23 0 41.5 -16t18.5 -39q0 -14 -10 -31l-47 -82q79 -69 122 -173.5t43 -237.5q0 -156 -58 -273.5t-166.5 -181t-250.5 -63.5q-117 0 -209 43l-43 -76q-18 -31 -51 -31q-23 0 -41 16.5 t-18 38.5q0 14 10 31l47 80q-80 68 -124 175.5t-44 240.5zM262 504q0 -187 78 -283l369 633q-61 31 -142 31q-145 0 -225 -99.5t-80 -281.5zM430 150q55 -27 137 -27q150 0 228.5 97t78.5 284q0 180 -77 276z" />
<glyph unicode="&#xf9;" horiz-adv-x="1148" d="M150 379v557q0 37 22.5 59.5t60.5 22.5q39 0 60.5 -22.5t21.5 -59.5v-553q0 -133 53.5 -195.5t168.5 -62.5q131 0 210.5 85t79.5 224v502q0 37 22.5 59.5t61.5 22.5t60.5 -22.5t21.5 -59.5v-866q0 -35 -21.5 -57.5t-60.5 -22.5q-37 0 -58.5 21.5t-21.5 56.5v102 q-47 -90 -132 -137t-191 -47q-178 0 -268 99t-90 294zM207 1477q0 33 22.5 54t55.5 21q47 0 84 -47l238 -311q12 -14 12 -31q0 -18 -14.5 -31.5t-32.5 -13.5t-33 12l-291 269q-41 39 -41 78z" />
<glyph unicode="&#xfa;" horiz-adv-x="1148" d="M150 379v557q0 37 22.5 59.5t60.5 22.5q39 0 60.5 -22.5t21.5 -59.5v-553q0 -133 53.5 -195.5t168.5 -62.5q131 0 210.5 85t79.5 224v502q0 37 22.5 59.5t61.5 22.5t60.5 -22.5t21.5 -59.5v-866q0 -35 -21.5 -57.5t-60.5 -22.5q-37 0 -58.5 21.5t-21.5 56.5v102 q-47 -90 -132 -137t-191 -47q-178 0 -268 99t-90 294zM529 1163q0 16 12 31l238 311q37 47 84 47q33 0 55 -21.5t22 -53.5q0 -43 -41 -78l-288 -269q-17 -12 -33 -12q-20 0 -34.5 13.5t-14.5 31.5z" />
<glyph unicode="&#xfb;" horiz-adv-x="1148" d="M150 379v557q0 37 22.5 59.5t60.5 22.5q39 0 60.5 -22.5t21.5 -59.5v-553q0 -133 53.5 -195.5t168.5 -62.5q131 0 210.5 85t79.5 224v502q0 37 22.5 59.5t61.5 22.5t60.5 -22.5t21.5 -59.5v-866q0 -35 -21.5 -57.5t-60.5 -22.5q-37 0 -58.5 21.5t-21.5 56.5v102 q-47 -90 -132 -137t-191 -47q-178 0 -268 99t-90 294zM293 1180q0 23 15 43l188 278q33 49 78 49t78 -49l190 -278q14 -20 14 -41q0 -25 -19 -43.5t-44 -18.5q-37 0 -55 33l-164 266l-164 -266q-18 -33 -55 -33q-25 0 -43.5 17.5t-18.5 42.5z" />
<glyph unicode="&#xfc;" horiz-adv-x="1148" d="M150 379v557q0 37 22.5 59.5t60.5 22.5q39 0 60.5 -22.5t21.5 -59.5v-553q0 -133 53.5 -195.5t168.5 -62.5q131 0 210.5 85t79.5 224v502q0 37 22.5 59.5t61.5 22.5t60.5 -22.5t21.5 -59.5v-866q0 -35 -21.5 -57.5t-60.5 -22.5q-37 0 -58.5 21.5t-21.5 56.5v102 q-47 -90 -132 -137t-191 -47q-178 0 -268 99t-90 294zM297 1337q0 43 29 70t72 27t72.5 -27t29.5 -70q0 -45 -28.5 -71.5t-73.5 -26.5q-43 0 -72 27.5t-29 70.5zM648 1337q0 43 29.5 70t72.5 27t71.5 -27t28.5 -70t-28.5 -70.5t-71.5 -27.5t-72.5 27.5t-29.5 70.5z" />
<glyph unicode="&#xfd;" horiz-adv-x="1052" d="M31 942q0 31 27.5 53.5t60.5 22.5q20 0 39.5 -12.5t29.5 -34.5l342 -768l342 764q23 49 72 49q31 0 55.5 -20.5t24.5 -51.5q0 -18 -8 -33l-576 -1241q-10 -23 -29.5 -35t-39.5 -12q-31 0 -54.5 19.5t-23.5 50.5q0 16 8 33l143 309l-405 876q-8 14 -8 31zM484 1163 q0 16 12 31l238 311q37 47 84 47q33 0 55 -21.5t22 -53.5q0 -43 -41 -78l-288 -269q-17 -12 -33 -12q-20 0 -34.5 13.5t-14.5 31.5z" />
<glyph unicode="&#xfe;" horiz-adv-x="1191" d="M154 -299v1673q0 37 23.5 58.5t60.5 21.5t59 -21.5t22 -58.5v-549q45 94 132.5 145.5t203.5 51.5q127 0 228.5 -64.5t158 -182.5t56.5 -275q0 -158 -56.5 -274.5t-157 -178t-229.5 -61.5q-117 0 -203.5 51t-132.5 145v-481q0 -37 -22.5 -58.5t-58.5 -21.5 q-37 0 -60.5 21.5t-23.5 58.5zM319 504q0 -182 79 -281.5t225 -99.5q147 0 226 99.5t79 277.5t-80 280.5t-225 102.5t-224.5 -98.5t-79.5 -280.5z" />
<glyph unicode="&#xff;" horiz-adv-x="1052" d="M31 942q0 31 27.5 53.5t60.5 22.5q20 0 39.5 -12.5t29.5 -34.5l342 -768l342 764q23 49 72 49q31 0 55.5 -20.5t24.5 -51.5q0 -18 -8 -33l-576 -1241q-10 -23 -29.5 -35t-39.5 -12q-31 0 -54.5 19.5t-23.5 50.5q0 16 8 33l143 309l-405 876q-8 14 -8 31zM252 1337 q0 43 29 70t72 27t72.5 -27t29.5 -70q0 -45 -28.5 -71.5t-73.5 -26.5q-43 0 -72 27.5t-29 70.5zM603 1337q0 43 29.5 70t72.5 27t71.5 -27t28.5 -70t-28.5 -70.5t-71.5 -27.5t-72.5 27.5t-29.5 70.5z" />
<glyph unicode="&#x100;" horiz-adv-x="1488" d="M59 63q0 16 9 33l585 1303q12 29 37 43t53 14q31 0 55.5 -15.5t37.5 -41.5l585 -1303q9 -17 9 -35q0 -31 -24 -51t-56 -20q-51 0 -72 49l-145 332h-773l-147 -332q-20 -49 -72 -49q-33 0 -57.5 21.5t-24.5 51.5zM422 510h649l-326 735zM424 1724q0 31 19.5 46.5 t54.5 15.5h496q35 0 54 -15.5t19 -46.5t-19.5 -47t-53.5 -16h-496q-35 0 -54.5 16.5t-19.5 46.5z" />
<glyph unicode="&#x101;" horiz-adv-x="1085" d="M119 287q0 113 57 175t188.5 90t364.5 28h45v67q0 123 -50 180.5t-163 57.5q-139 0 -282 -76q-55 -35 -78 -35q-25 0 -41.5 18.5t-16.5 47.5t17.5 50t56.5 44q72 41 163 64.5t181 23.5q375 0 375 -393v-557q0 -37 -21.5 -59.5t-58.5 -22.5t-59.5 22.5t-22.5 59.5v98 q-39 -88 -119 -136t-184 -48q-96 0 -177 38.5t-128 108.5t-47 154zM239 1335q0 31 19.5 47.5t54.5 16.5h496q35 0 54 -16.5t19 -47.5q0 -29 -19.5 -45t-53.5 -16h-496q-35 0 -54.5 16.5t-19.5 44.5zM289 301q0 -80 58.5 -132t146.5 -52q122 0 201 83t79 214v59h-37 q-180 0 -274 -15.5t-134 -51t-40 -105.5z" />
<glyph unicode="&#x102;" horiz-adv-x="1488" d="M59 63q0 16 9 33l585 1303q12 29 37 43t53 14q31 0 55.5 -15.5t37.5 -41.5l585 -1303q9 -17 9 -35q0 -31 -24 -51t-56 -20q-51 0 -72 49l-145 332h-773l-147 -332q-20 -49 -72 -49q-33 0 -57.5 21.5t-24.5 51.5zM420 1802q0 25 16.5 39t38.5 14q37 0 64 -34 q37 -57 88 -83t119 -26t119 25.5t88 83.5q27 35 61 34q25 0 40 -14t15 -39q0 -20 -8 -37q-43 -84 -126 -129t-189 -45q-107 0 -189 44t-127 130q-10 20 -10 37zM422 510h649l-326 735z" />
<glyph unicode="&#x103;" horiz-adv-x="1085" d="M119 287q0 113 57 175t188.5 90t364.5 28h45v67q0 123 -50 180.5t-163 57.5q-139 0 -282 -76q-55 -35 -78 -35q-25 0 -41.5 18.5t-16.5 47.5t17.5 50t56.5 44q72 41 163 64.5t181 23.5q375 0 375 -393v-557q0 -37 -21.5 -59.5t-58.5 -22.5t-59.5 22.5t-22.5 59.5v98 q-39 -88 -119 -136t-184 -48q-96 0 -177 38.5t-128 108.5t-47 154zM237 1427q0 27 17.5 43.5t42.5 16.5q41 0 61 -43q68 -133 203 -133t203 133q10 20 26.5 31.5t34.5 11.5q25 0 42 -17.5t17 -44.5q0 -14 -6 -30q-39 -98 -125 -152.5t-192 -54.5q-107 0 -192 54t-126 153 q-6 18 -6 32zM289 301q0 -80 58.5 -132t146.5 -52q122 0 201 83t79 214v59h-37q-180 0 -274 -15.5t-134 -51t-40 -105.5z" />
<glyph unicode="&#x104;" horiz-adv-x="1488" d="M59 63q0 16 9 33l585 1303q12 29 37 43t53 14q31 0 55.5 -15.5t37.5 -41.5l585 -1303q8 -16 9 -35q0 -23 -14.5 -40t-35.5 -23q-68 -14 -106.5 -54t-38.5 -102q0 -61 36 -95t95 -34q47 0 98 25q13 6 25 6q18 0 28.5 -14.5t10.5 -32.5q0 -35 -31 -53q-70 -39 -151 -39 q-106 0 -173 61.5t-67 159.5q0 74 43 134t121 95l-137 316h-773l-147 -332q-20 -49 -72 -49q-33 0 -57.5 21.5t-24.5 51.5zM422 510h649l-326 735z" />
<glyph unicode="&#x105;" horiz-adv-x="1085" d="M119 287q0 111 57 174t188.5 91t364.5 28h45v67q0 123 -50 180.5t-163 57.5q-139 0 -282 -76q-25 -14 -44.5 -24.5t-33.5 -10.5q-25 0 -41.5 18.5t-16.5 47.5t17.5 50t56.5 44q72 41 163 64.5t181 23.5q375 0 375 -393v-557q0 -29 -13.5 -48.5t-35.5 -25.5 q-145 -37 -146 -156q0 -59 35 -94t96 -35q41 0 99 25q8 4 22 4q18 0 29.5 -14.5t11.5 -32.5q0 -35 -30 -51q-78 -39 -152 -39q-106 0 -173 60.5t-67 156.5q0 76 43 135t121 94q-2 6 -2 21v98q-39 -88 -119 -136t-184 -48q-96 0 -177 38.5t-128 108.5t-47 154zM289 301 q0 -80 58.5 -132t146.5 -52q122 0 201 83t79 214v59h-37q-178 0 -273 -15.5t-135 -52t-40 -104.5z" />
<glyph unicode="&#x106;" horiz-adv-x="1386" d="M125 723q0 225 81 392t230.5 256t354.5 89q137 0 258.5 -44t212.5 -126q33 -31 32 -71q0 -29 -16 -50.5t-39 -21.5q-25 0 -59 22q-104 82 -189.5 115t-195.5 33q-238 0 -366 -154.5t-128 -439.5q0 -287 128 -441.5t366 -154.5q109 0 194.5 33t190.5 114q35 23 59 23 q23 0 39 -20.5t16 -51.5q0 -41 -32 -71q-90 -82 -212 -126t-259 -44q-205 0 -354.5 89t-230.5 256t-81 394zM748 1597q0 18 14 33l203 221q33 35 72 35q29 0 50 -20.5t21 -48.5q0 -43 -49 -76l-240 -176q-14 -9 -26 -9q-18 0 -31.5 12.5t-13.5 28.5z" />
<glyph unicode="&#x107;" horiz-adv-x="980" d="M94 500q0 154 60.5 272.5t169 184t249.5 65.5q78 0 155 -21.5t134 -62.5q37 -25 52.5 -48.5t15.5 -51.5q0 -29 -15.5 -47.5t-40.5 -18.5q-14 0 -30.5 8t-27.5 16.5t-15 10.5q-53 35 -101.5 55.5t-117.5 20.5q-150 0 -233 -101.5t-83 -281.5t83 -278.5t233 -98.5 q70 0 120 20.5t101 55.5q23 14 43 24t35 10q23 0 38 -18t15 -47q0 -27 -14.5 -48.5t-53.5 -47.5q-57 -39 -138 -62.5t-163 -23.5q-139 0 -246.5 63.5t-166 180t-58.5 270.5zM529 1163q0 16 12 31l238 311q37 47 84 47q33 0 55 -21.5t22 -53.5q0 -43 -41 -78l-288 -269 q-17 -12 -33 -12q-20 0 -34.5 13.5t-14.5 31.5z" />
<glyph unicode="&#x108;" horiz-adv-x="1386" d="M125 723q0 225 81 392t230.5 256t354.5 89q137 0 258.5 -44t212.5 -126q33 -31 32 -71q0 -29 -16 -50.5t-39 -21.5q-25 0 -59 22q-104 82 -189.5 115t-195.5 33q-238 0 -366 -154.5t-128 -439.5q0 -287 128 -441.5t366 -154.5q109 0 194.5 33t190.5 114q35 23 59 23 q23 0 39 -20.5t16 -51.5q0 -41 -32 -71q-90 -82 -212 -126t-259 -44q-205 0 -354.5 89t-230.5 256t-81 394zM510 1618q0 27 23 47l182 188q33 33 76 33q41 0 76 -33l182 -188q23 -23 22 -49q0 -23 -18 -41.5t-41 -18.5q-27 0 -49 23l-172 193l-172 -193q-20 -23 -47 -23 q-25 0 -43.5 18.5t-18.5 43.5z" />
<glyph unicode="&#x109;" horiz-adv-x="980" d="M94 500q0 154 60.5 272.5t169 184t249.5 65.5q78 0 155 -21.5t134 -62.5q37 -25 52.5 -48.5t15.5 -51.5q0 -29 -15.5 -47.5t-40.5 -18.5q-14 0 -30.5 8t-27.5 16.5t-15 10.5q-53 35 -101.5 55.5t-117.5 20.5q-150 0 -233 -101.5t-83 -281.5t83 -278.5t233 -98.5 q70 0 120 20.5t101 55.5q23 14 43 24t35 10q23 0 38 -18t15 -47q0 -27 -14.5 -48.5t-53.5 -47.5q-57 -39 -138 -62.5t-163 -23.5q-139 0 -246.5 63.5t-166 180t-58.5 270.5zM293 1180q0 23 15 43l188 278q33 49 78 49t78 -49l190 -278q14 -20 14 -41q0 -25 -19 -43.5 t-44 -18.5q-37 0 -55 33l-164 266l-164 -266q-18 -33 -55 -33q-25 0 -43.5 17.5t-18.5 42.5z" />
<glyph unicode="&#x10a;" horiz-adv-x="1386" d="M125 723q0 225 81 392t230.5 256t354.5 89q137 0 258.5 -44t212.5 -126q33 -31 32 -71q0 -29 -16 -50.5t-39 -21.5q-25 0 -59 22q-104 82 -189.5 115t-195.5 33q-238 0 -366 -154.5t-128 -439.5q0 -287 128 -441.5t366 -154.5q109 0 194.5 33t190.5 114q35 23 59 23 q23 0 39 -20.5t16 -51.5q0 -41 -32 -71q-90 -82 -212 -126t-259 -44q-205 0 -354.5 89t-230.5 256t-81 394zM680 1724q0 47 31 75t80 28t79.5 -27.5t30.5 -75.5q0 -47 -30.5 -75.5t-79.5 -28.5t-80 28.5t-31 75.5z" />
<glyph unicode="&#x10b;" horiz-adv-x="980" d="M94 500q0 154 60.5 272.5t169 184t249.5 65.5q78 0 155 -21.5t134 -62.5q37 -25 52.5 -48.5t15.5 -51.5q0 -29 -15.5 -47.5t-40.5 -18.5q-14 0 -30.5 8t-27.5 16.5t-15 10.5q-53 35 -101.5 55.5t-117.5 20.5q-150 0 -233 -101.5t-83 -281.5t83 -278.5t233 -98.5 q70 0 120 20.5t101 55.5q23 14 43 24t35 10q23 0 38 -18t15 -47q0 -27 -14.5 -48.5t-53.5 -47.5q-57 -39 -138 -62.5t-163 -23.5q-139 0 -246.5 63.5t-166 180t-58.5 270.5zM463 1337q0 45 31 74t80 29t79.5 -29t30.5 -74q0 -47 -30.5 -75.5t-79.5 -28.5t-80 28.5t-31 75.5z " />
<glyph unicode="&#x10c;" horiz-adv-x="1386" d="M125 723q0 225 81 392t230.5 256t354.5 89q137 0 258.5 -44t212.5 -126q33 -31 32 -71q0 -29 -16 -50.5t-39 -21.5q-25 0 -59 22q-104 82 -189.5 115t-195.5 33q-238 0 -366 -154.5t-128 -439.5q0 -287 128 -441.5t366 -154.5q109 0 194.5 33t190.5 114q35 23 59 23 q23 0 39 -20.5t16 -51.5q0 -41 -32 -71q-90 -82 -212 -126t-259 -44q-205 0 -354.5 89t-230.5 256t-81 394zM510 1827q0 25 17.5 42t42.5 17q27 0 49 -22l172 -191l172 191q20 23 49 22q23 0 41 -18.5t18 -40.5q0 -27 -22 -49l-182 -189q-35 -33 -76 -33t-76 33l-182 189 q-23 23 -23 49z" />
<glyph unicode="&#x10d;" horiz-adv-x="980" d="M94 500q0 154 60.5 272.5t169 184t249.5 65.5q78 0 155 -21.5t134 -62.5q37 -25 52.5 -48.5t15.5 -51.5q0 -29 -15.5 -47.5t-40.5 -18.5q-14 0 -30.5 8t-27.5 16.5t-15 10.5q-53 35 -101.5 55.5t-117.5 20.5q-150 0 -233 -101.5t-83 -281.5t83 -278.5t233 -98.5 q70 0 120 20.5t101 55.5q23 14 43 24t35 10q23 0 38 -18t15 -47q0 -27 -14.5 -48.5t-53.5 -47.5q-57 -39 -138 -62.5t-163 -23.5q-139 0 -246.5 63.5t-166 180t-58.5 270.5zM293 1489q0 25 19.5 43t44.5 18q35 0 55 -34l162 -265l162 265q18 33 55 32q25 0 44 -18.5 t19 -42.5q0 -16 -12 -39l-190 -281q-33 -49 -78 -49t-78 49l-188 281q-14 20 -15 41z" />
<glyph unicode="&#x10e;" horiz-adv-x="1513" d="M178 82v1280q0 37 23.5 59.5t62.5 22.5h400q346 0 535.5 -187.5t189.5 -533.5t-190.5 -534.5t-534.5 -188.5h-400q-39 0 -62.5 22.5t-23.5 59.5zM346 143h307q561 0 561 580q0 578 -561 577h-307v-1157zM475 1827q0 25 17.5 42t42.5 17q27 0 49 -22l172 -191l172 191 q20 23 49 22q23 0 41 -18.5t18 -40.5q0 -27 -22 -49l-182 -189q-35 -33 -76 -33t-76 33l-182 189q-23 23 -23 49z" />
<glyph unicode="&#x10f;" horiz-adv-x="1191" d="M94 508q0 154 55.5 270.5t156 180t231.5 63.5q117 0 203.5 -51t131.5 -146v549q0 37 21.5 58.5t60.5 21.5t61.5 -22.5t22.5 -57.5v-1302q0 -37 -22.5 -59.5t-61.5 -22.5t-60.5 22.5t-21.5 59.5v110q-45 -94 -132 -145t-203 -51q-131 0 -231.5 65.5t-156 183t-55.5 273.5z M262 508q0 -182 81 -283.5t226 -101.5q146 0 224.5 99.5t78.5 281.5t-78.5 280.5t-224.5 98.5q-145 0 -226 -98.5t-81 -276.5zM1106 1083v299q0 35 19.5 54.5t43.5 19.5q31 0 50.5 -22.5t13.5 -59.5l-45 -299q-2 -18 -14.5 -27.5t-26.5 -9.5q-16 0 -28.5 12.5t-12.5 32.5z " />
<glyph unicode="&#x110;" horiz-adv-x="1540" d="M0 731q0 33 20.5 51.5t55.5 18.5h129v561q0 37 23.5 59.5t62.5 22.5h399q346 0 535.5 -187.5t189.5 -533.5t-190.5 -534.5t-534.5 -188.5h-399q-39 0 -62.5 23.5t-23.5 58.5v582h-129q-35 0 -55.5 17t-20.5 50zM373 143h309q561 0 561 580q0 578 -561 577h-309v-499h336 q35 0 54 -18.5t19 -51.5t-19.5 -50t-53.5 -17h-336v-521z" />
<glyph unicode="&#x111;" horiz-adv-x="1191" d="M94 508q0 154 55.5 270.5t156 180t231.5 63.5q117 0 203.5 -51t131.5 -146v312h-340q-33 0 -51 16t-18 45t18.5 46.5t50.5 17.5h340v112q0 37 21.5 58.5t60.5 21.5t61.5 -22.5t22.5 -57.5v-112h133q33 0 52.5 -17.5t19.5 -46.5t-19.5 -45t-52.5 -16h-133v-1065 q0 -37 -22.5 -59.5t-61.5 -22.5t-60.5 22.5t-21.5 59.5v110q-45 -94 -132 -145t-203 -51q-131 0 -231.5 65.5t-156 183t-55.5 273.5zM262 508q0 -182 81 -283.5t226 -101.5q146 0 224.5 99.5t78.5 281.5t-78.5 280.5t-224.5 98.5q-145 0 -226 -98.5t-81 -276.5z" />
<glyph unicode="&#x112;" horiz-adv-x="1191" d="M178 82v1280q0 37 23.5 59.5t62.5 22.5h766q37 0 57.5 -18.5t20.5 -51.5t-20.5 -51t-57.5 -18h-686v-502h645q37 0 57.5 -18.5t20.5 -51.5t-20.5 -51t-57.5 -18h-645v-525h686q37 0 57.5 -17.5t20.5 -51.5q0 -33 -20.5 -51.5t-57.5 -18.5h-766q-39 0 -62.5 22.5 t-23.5 59.5zM342 1724q0 31 19.5 46.5t54.5 15.5h496q35 0 54 -15.5t19 -46.5t-19.5 -47t-53.5 -16h-496q-35 0 -54.5 16.5t-19.5 46.5z" />
<glyph unicode="&#x113;" horiz-adv-x="1079" d="M94 502q0 154 59.5 271.5t167 183t244.5 65.5q195 0 309.5 -127t114.5 -344q0 -41 -16.5 -59.5t-52.5 -18.5h-660q18 -352 334 -352q80 0 137 21.5t123 58.5q53 31 72 30q22 0 38.5 -18t16.5 -47q0 -51 -72 -94q-74 -43 -155.5 -64.5t-159.5 -21.5q-231 0 -365.5 137 t-134.5 379zM243 1335q0 31 19.5 47.5t54.5 16.5h496q35 0 54 -16.5t19 -47.5q0 -29 -19.5 -45t-53.5 -16h-496q-35 0 -54.5 16.5t-19.5 44.5zM264 580h580q-4 152 -76 232.5t-201 80.5q-131 0 -209.5 -82t-93.5 -231z" />
<glyph unicode="&#x114;" horiz-adv-x="1191" d="M178 82v1280q0 37 23.5 59.5t62.5 22.5h766q37 0 57.5 -18.5t20.5 -51.5t-20.5 -51t-57.5 -18h-686v-502h645q37 0 57.5 -18.5t20.5 -51.5t-20.5 -51t-57.5 -18h-645v-525h686q37 0 57.5 -17.5t20.5 -51.5q0 -33 -20.5 -51.5t-57.5 -18.5h-766q-39 0 -62.5 22.5 t-23.5 59.5zM338 1802q0 25 16.5 39t38.5 14q37 0 64 -34q37 -57 88 -83t119 -26t119 25.5t88 83.5q27 35 61 34q25 0 40 -14t15 -39q0 -20 -8 -37q-43 -84 -126 -129t-189 -45q-107 0 -189 44t-127 130q-10 20 -10 37z" />
<glyph unicode="&#x115;" horiz-adv-x="1079" d="M94 502q0 154 59.5 271.5t167 183t244.5 65.5q195 0 309.5 -127t114.5 -344q0 -41 -16.5 -59.5t-52.5 -18.5h-660q18 -352 334 -352q80 0 137 21.5t123 58.5q53 31 72 30q22 0 38.5 -18t16.5 -47q0 -51 -72 -94q-74 -43 -155.5 -64.5t-159.5 -21.5q-231 0 -365.5 137 t-134.5 379zM241 1427q0 27 17.5 43.5t42.5 16.5q41 0 61 -43q68 -133 203 -133t203 133q10 20 26.5 31.5t34.5 11.5q25 0 42 -17.5t17 -44.5q0 -14 -6 -30q-39 -98 -125 -152.5t-192 -54.5q-107 0 -192 54t-126 153q-6 18 -6 32zM264 580h580q-4 152 -76 232.5t-201 80.5 q-131 0 -209.5 -82t-93.5 -231z" />
<glyph unicode="&#x116;" horiz-adv-x="1191" d="M178 82v1280q0 37 23.5 59.5t62.5 22.5h766q37 0 57.5 -18.5t20.5 -51.5t-20.5 -51t-57.5 -18h-686v-502h645q37 0 57.5 -18.5t20.5 -51.5t-20.5 -51t-57.5 -18h-645v-525h686q37 0 57.5 -17.5t20.5 -51.5q0 -33 -20.5 -51.5t-57.5 -18.5h-766q-39 0 -62.5 22.5 t-23.5 59.5zM553 1724q0 47 31 75t80 28t79.5 -27.5t30.5 -75.5q0 -47 -30.5 -75.5t-79.5 -28.5t-80 28.5t-31 75.5z" />
<glyph unicode="&#x117;" horiz-adv-x="1079" d="M94 502q0 154 59.5 271.5t167 183t244.5 65.5q195 0 309.5 -127t114.5 -344q0 -41 -16.5 -59.5t-52.5 -18.5h-660q18 -352 334 -352q80 0 137 21.5t123 58.5q53 31 72 30q22 0 38.5 -18t16.5 -47q0 -51 -72 -94q-74 -43 -155.5 -64.5t-159.5 -21.5q-231 0 -365.5 137 t-134.5 379zM264 580h580q-4 152 -76 232.5t-201 80.5q-131 0 -209.5 -82t-93.5 -231zM454 1337q0 45 31 74t80 29t79.5 -29t30.5 -74q0 -47 -30.5 -75.5t-79.5 -28.5t-80 28.5t-31 75.5z" />
<glyph unicode="&#x118;" horiz-adv-x="1191" d="M178 82v1280q0 37 23.5 59.5t62.5 22.5h766q37 0 57.5 -18.5t20.5 -51.5q0 -35 -20.5 -52t-57.5 -17h-686v-502h645q37 0 57.5 -18.5t20.5 -51.5t-20.5 -51t-57.5 -18h-645v-525h686q37 0 57.5 -17.5t20.5 -51.5q0 -59 -68 -70q-82 -8 -124 -50t-42 -108q0 -61 36 -95 t96 -34q37 0 98 25q12 6 24 6q18 0 28.5 -14.5t10.5 -32.5q0 -37 -28 -53q-70 -39 -154 -39q-106 0 -173 60.5t-67 154.5q0 111 82 180h-563q-39 0 -62.5 22.5t-23.5 59.5z" />
<glyph unicode="&#x119;" horiz-adv-x="1079" d="M94 502q0 154 59.5 271.5t167 183t244.5 65.5q195 0 309.5 -127t114.5 -344q0 -41 -16.5 -59.5t-52.5 -18.5h-660q18 -352 334 -352q80 0 137 21.5t123 58.5q53 31 72 30q23 0 39 -18t16 -47q0 -27 -19.5 -50.5t-60.5 -45.5q-121 -68 -167 -117t-46 -111q0 -59 36 -94 t93 -35q43 0 98 25q16 6 25 6q18 0 29.5 -13.5t11.5 -33.5q0 -35 -31 -53q-70 -39 -151 -39q-106 0 -173 60.5t-67 154.5q0 100 72 166h-37q-231 0 -365.5 137t-134.5 379zM264 580h580q-4 152 -76 232.5t-201 80.5q-131 0 -209.5 -82t-93.5 -231z" />
<glyph unicode="&#x11a;" horiz-adv-x="1191" d="M178 82v1280q0 37 23.5 59.5t62.5 22.5h766q37 0 57.5 -18.5t20.5 -51.5t-20.5 -51t-57.5 -18h-686v-502h645q37 0 57.5 -18.5t20.5 -51.5t-20.5 -51t-57.5 -18h-645v-525h686q37 0 57.5 -17.5t20.5 -51.5q0 -33 -20.5 -51.5t-57.5 -18.5h-766q-39 0 -62.5 22.5 t-23.5 59.5zM383 1827q0 25 17.5 42t42.5 17q27 0 49 -22l172 -191l172 191q20 23 49 22q23 0 41 -18.5t18 -40.5q0 -27 -22 -49l-182 -189q-35 -33 -76 -33t-76 33l-182 189q-23 23 -23 49z" />
<glyph unicode="&#x11b;" horiz-adv-x="1079" d="M94 502q0 154 59.5 271.5t167 183t244.5 65.5q195 0 309.5 -127t114.5 -344q0 -41 -16.5 -59.5t-52.5 -18.5h-660q18 -352 334 -352q80 0 137 21.5t123 58.5q53 31 72 30q22 0 38.5 -18t16.5 -47q0 -51 -72 -94q-74 -43 -155.5 -64.5t-159.5 -21.5q-231 0 -365.5 137 t-134.5 379zM264 580h580q-4 152 -76 232.5t-201 80.5q-131 0 -209.5 -82t-93.5 -231zM284 1489q0 25 19.5 43t44.5 18q35 0 55 -34l162 -265l162 265q18 33 55 32q25 0 44 -18.5t19 -42.5q0 -16 -12 -39l-190 -281q-33 -49 -78 -49t-78 49l-188 281q-14 20 -15 41z" />
<glyph unicode="&#x11c;" horiz-adv-x="1482" d="M125 723q0 227 82 393t235.5 255t360.5 89q143 0 266 -44t207 -126q35 -35 35 -71q0 -29 -16.5 -50.5t-41.5 -21.5t-57 24q-106 82 -192 114t-199 32q-244 0 -374 -153.5t-130 -440.5q0 -293 132 -445.5t388 -152.5q190 0 346 57v439h-299q-35 0 -55 18t-20 47 q0 31 20.5 48.5t54.5 17.5h383q31 0 50.5 -18.5t19.5 -51.5v-510q0 -49 -15.5 -73.5t-56.5 -39.5q-82 -35 -198.5 -55t-233.5 -20q-215 0 -370.5 88t-238.5 254t-83 397zM522 1618q0 27 23 47l182 188q33 33 76 33q41 0 76 -33l182 -188q23 -23 22 -49q0 -23 -18 -41.5 t-41 -18.5q-27 0 -49 23l-172 193l-172 -193q-20 -23 -47 -23q-25 0 -43.5 18.5t-18.5 43.5z" />
<glyph unicode="&#x11d;" horiz-adv-x="1200" d="M94 526q0 147 56.5 260t158 174.5t232.5 61.5q119 0 207 -51t133 -146v111q0 37 21.5 59.5t60.5 22.5q38 0 61 -22.5t23 -59.5v-868q0 -223 -115 -337t-340 -114q-219 0 -365 86q-74 41 -73 94q0 29 15 47.5t40 18.5q20 0 74 -29q72 -37 141.5 -59.5t165.5 -22.5 q145 0 219 77t74 224v176q-43 -96 -132 -147t-210 -51q-131 0 -232.5 61.5t-158 174t-56.5 259.5zM262 526q0 -168 83 -263t228 -95q144 0 226 95t82 263q0 166 -81 261.5t-227 95.5q-145 0 -228 -95.5t-83 -261.5zM323 1180q0 23 15 43l188 278q33 49 78 49t78 -49 l190 -278q14 -20 14 -41q0 -25 -19 -43.5t-44 -18.5q-37 0 -55 33l-164 266l-164 -266q-18 -33 -55 -33q-25 0 -43.5 17.5t-18.5 42.5z" />
<glyph unicode="&#x11e;" horiz-adv-x="1482" d="M125 723q0 227 82 393t235.5 255t360.5 89q143 0 266 -44t207 -126q35 -35 35 -71q0 -29 -16.5 -50.5t-41.5 -21.5t-57 24q-106 82 -192 114t-199 32q-244 0 -374 -153.5t-130 -440.5q0 -293 132 -445.5t388 -152.5q190 0 346 57v439h-299q-35 0 -55 18t-20 47 q0 31 20.5 48.5t54.5 17.5h383q31 0 50.5 -18.5t19.5 -51.5v-510q0 -49 -15.5 -73.5t-56.5 -39.5q-82 -35 -198.5 -55t-233.5 -20q-215 0 -370.5 88t-238.5 254t-83 397zM477 1802q0 25 16.5 39t38.5 14q37 0 64 -34q37 -57 88 -83t119 -26t119 25.5t88 83.5q27 35 61 34 q25 0 40 -14t15 -39q0 -20 -8 -37q-43 -84 -126 -129t-189 -45q-107 0 -189 44t-127 130q-10 20 -10 37z" />
<glyph unicode="&#x11f;" horiz-adv-x="1200" d="M94 526q0 147 56.5 260t158 174.5t232.5 61.5q119 0 207 -51t133 -146v111q0 37 21.5 59.5t60.5 22.5q38 0 61 -22.5t23 -59.5v-868q0 -223 -115 -337t-340 -114q-219 0 -365 86q-74 41 -73 94q0 29 15 47.5t40 18.5q20 0 74 -29q72 -37 141.5 -59.5t165.5 -22.5 q145 0 219 77t74 224v176q-43 -96 -132 -147t-210 -51q-131 0 -232.5 61.5t-158 174t-56.5 259.5zM262 526q0 -168 83 -263t228 -95q144 0 226 95t82 263q0 166 -81 261.5t-227 95.5q-145 0 -228 -95.5t-83 -261.5zM280 1427q0 27 17.5 43.5t42.5 16.5q41 0 61 -43 q68 -133 203 -133t203 133q10 20 26.5 31.5t34.5 11.5q25 0 42 -17.5t17 -44.5q0 -14 -6 -30q-39 -98 -125 -152.5t-192 -54.5q-107 0 -192 54t-126 153q-6 18 -6 32z" />
<glyph unicode="&#x120;" horiz-adv-x="1482" d="M125 723q0 227 82 393t235.5 255t360.5 89q143 0 266 -44t207 -126q35 -35 35 -71q0 -29 -16.5 -50.5t-41.5 -21.5t-57 24q-106 82 -192 114t-199 32q-244 0 -374 -153.5t-130 -440.5q0 -293 132 -445.5t388 -152.5q190 0 346 57v439h-299q-35 0 -55 18t-20 47 q0 31 20.5 48.5t54.5 17.5h383q31 0 50.5 -18.5t19.5 -51.5v-510q0 -49 -15.5 -73.5t-56.5 -39.5q-82 -35 -198.5 -55t-233.5 -20q-215 0 -370.5 88t-238.5 254t-83 397zM692 1724q0 47 31 75t80 28t79.5 -27.5t30.5 -75.5q0 -47 -30.5 -75.5t-79.5 -28.5t-80 28.5t-31 75.5 z" />
<glyph unicode="&#x121;" horiz-adv-x="1200" d="M94 526q0 147 56.5 260t158 174.5t232.5 61.5q119 0 207 -51t133 -146v111q0 37 21.5 59.5t60.5 22.5q38 0 61 -22.5t23 -59.5v-868q0 -223 -115 -337t-340 -114q-219 0 -365 86q-74 41 -73 94q0 29 15 47.5t40 18.5q20 0 74 -29q72 -37 141.5 -59.5t165.5 -22.5 q145 0 219 77t74 224v176q-43 -96 -132 -147t-210 -51q-131 0 -232.5 61.5t-158 174t-56.5 259.5zM262 526q0 -168 83 -263t228 -95q144 0 226 95t82 263q0 166 -81 261.5t-227 95.5q-145 0 -228 -95.5t-83 -261.5zM493 1337q0 45 31 74t80 29t79.5 -29t30.5 -74 q0 -47 -30.5 -75.5t-79.5 -28.5t-80 28.5t-31 75.5z" />
<glyph unicode="&#x122;" horiz-adv-x="1482" d="M125 723q0 227 82 393t235.5 255t360.5 89q143 0 266 -44t207 -126q35 -35 35 -71q0 -29 -16.5 -50.5t-41.5 -21.5t-57 24q-106 82 -192 114t-199 32q-244 0 -374 -153.5t-130 -440.5q0 -293 132 -445.5t388 -152.5q190 0 346 57v439h-299q-35 0 -55 18t-20 47 q0 31 20.5 48.5t54.5 17.5h383q31 0 50.5 -18.5t19.5 -51.5v-510q0 -49 -15.5 -73.5t-56.5 -39.5q-82 -35 -198.5 -55t-233.5 -20q-215 0 -370.5 88t-238.5 254t-83 397zM716 -233q0 43 28 69.5t71 26.5q55 0 87 -34t32 -105q0 -127 -86 -226q-23 -25 -54 -24 q-18 0 -31.5 11t-13.5 28q0 20 15 36q47 57 57 123h-2q-43 0 -73 24.5t-30 70.5z" />
<glyph unicode="&#x123;" horiz-adv-x="1200" d="M94 526q0 147 56.5 260t158 174.5t232.5 61.5q119 0 207 -51t133 -146v111q0 37 21.5 59.5t60.5 22.5q38 0 61 -22.5t23 -59.5v-868q0 -223 -115 -337t-340 -114q-219 0 -365 86q-74 41 -73 94q0 29 15 47.5t40 18.5q20 0 74 -29q72 -37 141.5 -59.5t165.5 -22.5 q145 0 219 77t74 224v176q-43 -96 -132 -147t-210 -51q-131 0 -232.5 61.5t-158 174t-56.5 259.5zM262 526q0 -168 83 -263t228 -95q144 0 226 95t82 263q0 166 -81 261.5t-227 95.5q-145 0 -228 -95.5t-83 -261.5zM487 1317q0 127 86 225q23 25 53 25q18 0 31.5 -11.5 t13.5 -27.5q0 -20 -14 -37q-47 -57 -57 -123h2q43 0 72.5 -24.5t29.5 -69.5q0 -43 -27.5 -69.5t-70.5 -26.5q-55 0 -87 33.5t-32 105.5z" />
<glyph unicode="&#x124;" horiz-adv-x="1552" d="M178 76v1292q0 39 21.5 62.5t60.5 23.5t61.5 -23.5t22.5 -62.5v-563h864v563q0 39 22.5 62.5t61.5 23.5t60.5 -23.5t21.5 -62.5v-1292q0 -39 -21.5 -62.5t-60.5 -23.5t-61.5 23.5t-22.5 62.5v586h-864v-586q0 -39 -22.5 -62.5t-61.5 -23.5t-60.5 23.5t-21.5 62.5z M495 1618q0 27 23 47l182 188q33 33 76 33q41 0 76 -33l182 -188q23 -23 22 -49q0 -23 -18 -41.5t-41 -18.5q-27 0 -49 23l-172 193l-172 -193q-20 -23 -47 -23q-25 0 -43.5 18.5t-18.5 43.5z" />
<glyph unicode="&#x125;" horiz-adv-x="1163" d="M-43 1618q0 27 23 47l182 188q33 33 76 33q41 0 76 -33l182 -188q23 -23 22 -49q0 -23 -18 -41.5t-41 -18.5q-27 0 -49 23l-172 193l-172 -193q-20 -23 -47 -23q-25 0 -43.5 18.5t-18.5 43.5zM154 72v1302q0 35 23.5 57.5t60.5 22.5q39 0 60 -21.5t21 -58.5v-536 q49 90 137.5 137t200.5 47q177 0 267 -99.5t90 -295.5v-555q0 -39 -22.5 -60.5t-59.5 -21.5q-39 0 -61.5 21.5t-22.5 60.5v551q0 133 -54.5 196.5t-172.5 63.5q-137 0 -219.5 -84t-82.5 -228v-499q0 -39 -21.5 -60.5t-59.5 -21.5q-39 0 -61.5 21.5t-22.5 60.5z" />
<glyph unicode="&#x126;" horiz-adv-x="1607" d="M0 1130q0 33 20.5 50.5t55.5 17.5h129v170q0 39 23.5 62.5t60.5 23.5t60.5 -23.5t23.5 -62.5v-170h862v170q0 39 23.5 62.5t60.5 23.5t60.5 -23.5t23.5 -62.5v-170h131q35 0 54.5 -17.5t19.5 -50.5q0 -31 -19.5 -48t-54.5 -17h-131v-989q0 -41 -23.5 -63.5t-60.5 -22.5 t-60.5 22.5t-23.5 63.5v586h-862v-586q0 -41 -23.5 -63.5t-60.5 -22.5t-60.5 22.5t-23.5 63.5v989h-129q-35 0 -55.5 17.5t-20.5 47.5zM373 805h862v260h-862v-260z" />
<glyph unicode="&#x127;" horiz-adv-x="1163" d="M-51 1198q0 29 19.5 46.5t51.5 17.5h134v112q0 35 23.5 57.5t60.5 22.5q39 0 60 -21.5t21 -58.5v-112h340q33 0 51.5 -17.5t18.5 -46.5t-18.5 -45t-51.5 -16h-340v-299q49 90 137.5 137t200.5 47q177 0 267 -99.5t90 -295.5v-555q0 -39 -22.5 -60.5t-59.5 -21.5 q-39 0 -61.5 21.5t-22.5 60.5v551q0 133 -54.5 196.5t-172.5 63.5q-137 0 -219.5 -84t-82.5 -228v-499q0 -39 -21.5 -60.5t-59.5 -21.5q-39 0 -61.5 21.5t-22.5 60.5v1065h-134q-33 0 -52 16t-19 45z" />
<glyph unicode="&#x128;" horiz-adv-x="524" d="M-62 1669q0 35 22.5 73t63.5 63.5t92 25.5q35 0 70 -11.5t92 -33.5q45 -20 74 -29.5t53 -9.5q33 0 52.5 13.5t39.5 37.5q23 31 43 31t32.5 -13.5t12.5 -35.5q0 -35 -22.5 -73t-63.5 -63.5t-92 -25.5q-35 0 -72.5 12t-89.5 35q-45 20 -73.5 29.5t-53.5 9.5 q-35 0 -54 -14.5t-38 -38.5q-23 -31 -43 -31t-32.5 13.5t-12.5 35.5zM178 76v1292q0 39 22.5 62.5t61.5 23.5t61.5 -23.5t22.5 -62.5v-1292q0 -39 -22.5 -62.5t-61.5 -23.5t-61.5 23.5t-22.5 62.5z" />
<glyph unicode="&#x129;" horiz-adv-x="475" d="M-86 1272q0 37 22.5 82t63.5 77.5t92 32.5q39 0 76 -18.5t88 -52.5q45 -29 72 -42.5t49 -13.5q33 0 52.5 18.5t39.5 51.5q14 25 24.5 36t24.5 11q18 0 30.5 -15.5t12.5 -37.5q0 -35 -22.5 -81t-63.5 -79t-92 -33q-39 0 -75.5 18.5t-88.5 53.5q-45 29 -71.5 42t-48.5 13 q-35 0 -54.5 -18.5t-38.5 -50.5q-14 -23 -24 -34t-25 -11q-18 0 -30.5 14t-12.5 37zM154 72v864q0 39 23.5 60.5t60.5 21.5t59 -21.5t22 -60.5v-864q0 -41 -22.5 -61.5t-58.5 -20.5q-37 0 -60.5 21.5t-23.5 60.5z" />
<glyph unicode="&#x12a;" horiz-adv-x="524" d="M-60 1724q0 31 19.5 46.5t54.5 15.5h496q35 0 54 -15.5t19 -46.5t-19.5 -47t-53.5 -16h-496q-35 0 -54.5 16.5t-19.5 46.5zM178 76v1292q0 39 22.5 62.5t61.5 23.5t61.5 -23.5t22.5 -62.5v-1292q0 -39 -22.5 -62.5t-61.5 -23.5t-61.5 23.5t-22.5 62.5z" />
<glyph unicode="&#x12b;" horiz-adv-x="475" d="M-84 1335q0 31 19.5 47.5t54.5 16.5h496q35 0 54 -16.5t19 -47.5q0 -29 -19.5 -45t-53.5 -16h-496q-35 0 -54.5 16.5t-19.5 44.5zM154 72v864q0 39 23.5 60.5t60.5 21.5t59 -21.5t22 -60.5v-864q0 -41 -22.5 -61.5t-58.5 -20.5q-37 0 -60.5 21.5t-23.5 60.5z" />
<glyph unicode="&#x12c;" horiz-adv-x="524" d="M-64 1802q0 25 16.5 39t38.5 14q37 0 64 -34q37 -57 88 -83t119 -26t119 25.5t88 83.5q27 35 61 34q25 0 40 -14t15 -39q0 -20 -8 -37q-43 -84 -126 -129t-189 -45q-107 0 -189 44t-127 130q-10 20 -10 37zM178 76v1292q0 39 22.5 62.5t61.5 23.5t61.5 -23.5t22.5 -62.5 v-1292q0 -39 -22.5 -62.5t-61.5 -23.5t-61.5 23.5t-22.5 62.5z" />
<glyph unicode="&#x12d;" horiz-adv-x="475" d="M-86 1427q0 27 17.5 43.5t42.5 16.5q41 0 61 -43q68 -133 203 -133t203 133q10 20 26.5 31.5t34.5 11.5q25 0 42 -17.5t17 -44.5q0 -14 -6 -30q-39 -98 -125 -152.5t-192 -54.5q-107 0 -192 54t-126 153q-6 18 -6 32zM154 72v864q0 39 23.5 60.5t60.5 21.5t59 -21.5 t22 -60.5v-864q0 -41 -22.5 -61.5t-58.5 -20.5q-37 0 -60.5 21.5t-23.5 60.5z" />
<glyph unicode="&#x12e;" horiz-adv-x="524" d="M23 -178q0 74 40.5 133t118.5 94q-4 16 -4 27v1292q0 39 22.5 62.5t61.5 23.5t61.5 -23.5t22.5 -62.5v-1292q0 -29 -13.5 -49.5t-35.5 -26.5q-72 -16 -108.5 -57t-36.5 -101q0 -61 35.5 -95t95.5 -34q41 0 98 25q13 6 25 6q18 0 28 -14.5t10 -32.5q0 -14 -8 -29.5 t-22 -23.5q-70 -39 -152 -39q-106 0 -172.5 60.5t-66.5 156.5z" />
<glyph unicode="&#x12f;" horiz-adv-x="475" d="M-4 -178q0 74 41 133t119 96q-2 6 -2 21v864q0 39 23.5 60.5t60.5 21.5t59 -21.5t22 -60.5v-864q0 -25 -12 -44.5t-37 -27.5q-68 -16 -106.5 -56t-38.5 -102q0 -61 36 -95t95 -34q47 0 98 25q13 6 25 6q18 0 28.5 -14.5t10.5 -32.5q0 -35 -31 -53q-70 -39 -151 -39 q-106 0 -173 60.5t-67 156.5zM127 1337q0 45 30.5 74t80.5 29q49 0 79.5 -29t30.5 -74q0 -47 -30.5 -75.5t-79.5 -28.5q-50 0 -80.5 28.5t-30.5 75.5z" />
<glyph unicode="&#x130;" horiz-adv-x="524" d="M151 1724q0 47 31 75t80 28t79.5 -27.5t30.5 -75.5q0 -47 -30.5 -75.5t-79.5 -28.5t-80 28.5t-31 75.5zM178 76v1292q0 39 22.5 62.5t61.5 23.5t61.5 -23.5t22.5 -62.5v-1292q0 -39 -22.5 -62.5t-61.5 -23.5t-61.5 23.5t-22.5 62.5z" />
<glyph unicode="&#x131;" horiz-adv-x="475" d="M154 72v864q0 39 23.5 60.5t60.5 21.5t59 -21.5t22 -60.5v-864q0 -41 -22.5 -61.5t-58.5 -20.5q-37 0 -60.5 21.5t-23.5 60.5z" />
<glyph unicode="&#x134;" horiz-adv-x="667" d="M-23 59q0 68 76 70l62 4q104 6 155.5 64.5t51.5 187.5v983q0 39 24.5 62.5t59.5 23.5q39 0 61 -23.5t22 -62.5v-985q0 -188 -86 -283.5t-260 -105.5l-61 -4q-51 -4 -78 14.5t-27 54.5zM125 1618q0 27 23 47l182 188q33 33 76 33q41 0 76 -33l182 -188q23 -23 22 -49 q0 -23 -18 -41.5t-41 -18.5q-27 0 -49 23l-172 193l-172 -193q-20 -23 -47 -23q-25 0 -43.5 18.5t-18.5 43.5z" />
<glyph unicode="&#x135;" horiz-adv-x="475" d="M-156 -307q0 55 72 63l57 4q92 6 136.5 55.5t44.5 161.5v959q0 39 23.5 60.5t60.5 21.5t59 -21.5t22 -60.5v-948q0 -172 -76.5 -258t-238.5 -99l-57 -4q-51 -4 -77 13.5t-26 52.5zM-43 1180q0 23 15 43l188 278q33 49 78 49t78 -49l190 -278q14 -20 14 -41 q0 -25 -19 -43.5t-44 -18.5q-37 0 -55 33l-164 266l-164 -266q-18 -33 -55 -33q-25 0 -43.5 17.5t-18.5 42.5z" />
<glyph unicode="&#x136;" horiz-adv-x="1286" d="M178 76v1292q0 39 22.5 62.5t61.5 23.5t61.5 -23.5t22.5 -62.5v-588l731 650q23 23 53 22q31 0 53.5 -23.5t22.5 -52.5q0 -31 -26 -57l-662 -582l699 -610q28 -26 28 -59q0 -29 -23.5 -52.5t-54.5 -23.5q-27 0 -55 24l-766 670v-610q0 -39 -22.5 -62.5t-61.5 -23.5 t-61.5 23.5t-22.5 62.5zM546 -233q0 43 28 69.5t71 26.5q55 0 87 -34t32 -105q0 -127 -86 -226q-23 -25 -54 -24q-18 0 -31.5 11t-13.5 28q0 20 15 36q47 57 57 123h-2q-43 0 -73 24.5t-30 70.5z" />
<glyph unicode="&#x137;" horiz-adv-x="1024" d="M154 72v1300q0 39 23.5 60.5t60.5 21.5q35 0 58 -21.5t23 -60.5v-831l490 448q25 25 55 25q31 0 53.5 -22.5t22.5 -53.5q0 -35 -29 -61l-403 -361l442 -385q33 -30 33 -65q0 -31 -21.5 -53.5t-52.5 -22.5q-27 0 -55 24l-535 461v-403q0 -39 -23.5 -60.5t-57.5 -21.5 q-37 0 -60.5 21.5t-23.5 60.5zM411 -233q0 43 28 69.5t71 26.5q55 0 87 -34t32 -105q0 -127 -86 -226q-23 -25 -54 -24q-18 0 -31.5 11t-13.5 28q0 20 15 36q47 57 57 123h-2q-43 0 -73 24.5t-30 70.5z" />
<glyph unicode="&#x138;" horiz-adv-x="1024" d="M154 72v864q0 39 23.5 60.5t60.5 21.5q35 0 58 -21.5t23 -60.5v-395l490 448q25 25 55 25q31 0 53.5 -22.5t22.5 -53.5q0 -35 -29 -61l-403 -361l442 -385q33 -30 33 -65q0 -31 -21.5 -53.5t-52.5 -22.5q-27 0 -55 24l-535 461v-403q0 -39 -23.5 -60.5t-57.5 -21.5 q-37 0 -60.5 21.5t-23.5 60.5z" />
<glyph unicode="&#x139;" horiz-adv-x="1105" d="M178 78v1290q0 39 22.5 62.5t61.5 23.5t61.5 -23.5t22.5 -62.5v-1225h662q37 0 57 -18.5t20 -52.5q0 -35 -20.5 -53.5t-56.5 -18.5h-748q-35 0 -58.5 21.5t-23.5 56.5zM219 1597q0 18 14 33l203 221q33 35 72 35q29 0 50 -20.5t21 -48.5q0 -43 -49 -76l-240 -176 q-14 -9 -26 -9q-18 0 -31.5 12.5t-13.5 28.5z" />
<glyph unicode="&#x13a;" horiz-adv-x="475" d="M154 72v1300q0 39 23.5 60.5t60.5 21.5q35 0 58 -21.5t23 -60.5v-1300q0 -39 -23.5 -60.5t-57.5 -21.5q-37 0 -60.5 21.5t-23.5 60.5zM195 1597q0 18 14 33l203 221q33 35 72 35q29 0 50 -20.5t21 -48.5q0 -43 -49 -76l-240 -176q-14 -9 -26 -9q-18 0 -31.5 12.5 t-13.5 28.5z" />
<glyph unicode="&#x13b;" horiz-adv-x="1105" d="M178 78v1290q0 39 22.5 62.5t61.5 23.5t61.5 -23.5t22.5 -62.5v-1225h662q37 0 57 -18.5t20 -52.5q0 -35 -20.5 -53.5t-56.5 -18.5h-748q-35 0 -58.5 21.5t-23.5 56.5zM532 -233q0 43 28 69.5t71 26.5q55 0 87 -34t32 -105q0 -127 -86 -226q-23 -25 -54 -24 q-18 0 -31.5 11t-13.5 28q0 20 15 36q47 57 57 123h-2q-43 0 -73 24.5t-30 70.5z" />
<glyph unicode="&#x13c;" horiz-adv-x="475" d="M137 -233q0 43 28 69.5t71 26.5q55 0 87 -34t32 -105q0 -127 -86 -226q-23 -25 -54 -24q-18 0 -31.5 11t-13.5 28q0 20 15 36q47 57 57 123h-2q-43 0 -73 24.5t-30 70.5zM154 72v1300q0 39 23.5 60.5t60.5 21.5q35 0 58 -21.5t23 -60.5v-1300q0 -39 -23.5 -60.5 t-57.5 -21.5q-37 0 -60.5 21.5t-23.5 60.5z" />
<glyph unicode="&#x13d;" horiz-adv-x="1105" d="M178 78v1290q0 39 22.5 62.5t61.5 23.5t61.5 -23.5t22.5 -62.5v-1225h662q37 0 57 -18.5t20 -52.5q0 -35 -20.5 -53.5t-56.5 -18.5h-748q-35 0 -58.5 21.5t-23.5 56.5zM518 1083v295q0 37 21.5 57.5t52.5 20.5q29 0 50 -19.5t21 -52.5q0 -12 -2 -20l-51 -289 q-2 -18 -15.5 -27.5t-29.5 -9.5q-18 0 -32.5 12.5t-14.5 32.5z" />
<glyph unicode="&#x13e;" horiz-adv-x="475" d="M154 72v1300q0 39 23.5 60.5t60.5 21.5q35 0 58 -21.5t23 -60.5v-1300q0 -39 -23.5 -60.5t-57.5 -21.5q-37 0 -60.5 21.5t-23.5 60.5zM393 1083v299q0 35 19.5 54.5t46.5 19.5q29 0 48 -22.5t13 -59.5l-45 -299q-2 -18 -14 -27.5t-27 -9.5q-16 0 -28.5 12.5t-12.5 32.5z " />
<glyph unicode="&#x13f;" horiz-adv-x="1105" d="M178 78v1290q0 39 22.5 62.5t61.5 23.5t61.5 -23.5t22.5 -62.5v-1225h662q37 0 57 -18.5t20 -52.5q0 -35 -20.5 -53.5t-56.5 -18.5h-748q-35 0 -58.5 21.5t-23.5 56.5zM607 723q0 47 30.5 76t79.5 29t80 -29t31 -76t-31 -75.5t-80 -28.5t-79.5 28.5t-30.5 75.5z" />
<glyph unicode="&#x140;" horiz-adv-x="534" d="M154 72v1300q0 39 23.5 60.5t60.5 21.5q35 0 58 -21.5t23 -60.5v-1300q0 -39 -23.5 -60.5t-57.5 -21.5q-37 0 -60.5 21.5t-23.5 60.5zM392 723q0 47 30.5 76t79.5 29t80 -29t31 -76t-31 -75.5t-80 -28.5t-79.5 28.5t-30.5 75.5z" />
<glyph unicode="&#x141;" horiz-adv-x="1132" d="M0 602q0 39 39 64l166 94v608q0 39 22.5 62.5t61.5 23.5q41 0 62.5 -23.5t21.5 -62.5v-512l295 170q23 12 39 12q27 0 46 -20.5t19 -46.5q0 -37 -37 -60l-362 -211v-557h661q37 0 57.5 -18.5t20.5 -52.5q0 -35 -20.5 -53.5t-57.5 -18.5h-747q-35 0 -58.5 21.5t-23.5 56.5 v526l-99 -57q-20 -12 -40 -12q-29 0 -47.5 20t-18.5 47z" />
<glyph unicode="&#x142;" horiz-adv-x="577" d="M2 602q0 39 39 64l166 96v610q0 39 23.5 60.5t58.5 21.5q37 0 60.5 -21.5t23.5 -60.5v-514l96 55q23 13 41 13q29 0 48.5 -20.5t19.5 -47.5q0 -37 -39 -61l-166 -97v-628q0 -39 -23.5 -60.5t-60.5 -21.5q-35 0 -58.5 21.5t-23.5 60.5v532l-98 -57q-23 -12 -41 -12 q-29 0 -47.5 20t-18.5 47z" />
<glyph unicode="&#x143;" horiz-adv-x="1513" d="M178 76v1292q0 39 21.5 62.5t60.5 23.5q41 0 70 -35l848 -1136v1085q0 39 21.5 62.5t57.5 23.5q37 0 57.5 -23.5t20.5 -62.5v-1292q0 -39 -21.5 -62.5t-60.5 -23.5t-67 35l-850 1136v-1085q0 -39 -21.5 -62.5t-58.5 -23.5t-57.5 23.5t-20.5 62.5zM713 1597q0 18 14 33 l203 221q33 35 72 35q29 0 50 -20.5t21 -48.5q0 -43 -49 -76l-240 -176q-14 -9 -26 -9q-18 0 -31.5 12.5t-13.5 28.5z" />
<glyph unicode="&#x144;" horiz-adv-x="1163" d="M154 72v864q0 37 22.5 59.5t61.5 22.5q37 0 58 -22.5t21 -57.5v-104q49 92 137.5 140t200.5 48q359 0 359 -395v-555q0 -39 -21.5 -60.5t-60.5 -21.5t-61.5 21.5t-22.5 60.5v544q0 139 -54.5 203t-172.5 64q-137 0 -219.5 -84t-82.5 -228v-499q0 -39 -21.5 -60.5 t-59.5 -21.5q-39 0 -61.5 21.5t-22.5 60.5zM539 1163q0 16 12 31l238 311q37 47 84 47q33 0 55 -21.5t22 -53.5q0 -43 -41 -78l-288 -269q-17 -12 -33 -12q-20 0 -34.5 13.5t-14.5 31.5z" />
<glyph unicode="&#x145;" horiz-adv-x="1513" d="M178 76v1292q0 39 21.5 62.5t60.5 23.5q41 0 70 -35l848 -1136v1085q0 39 21.5 62.5t57.5 23.5q37 0 57.5 -23.5t20.5 -62.5v-1292q0 -39 -21.5 -62.5t-60.5 -23.5t-67 35l-850 1136v-1085q0 -39 -21.5 -62.5t-58.5 -23.5t-57.5 23.5t-20.5 62.5zM657 -233q0 43 28 69.5 t71 26.5q55 0 87 -34t32 -105q0 -127 -86 -226q-23 -25 -54 -24q-18 0 -31.5 11t-13.5 28q0 20 15 36q47 57 57 123h-2q-43 0 -73 24.5t-30 70.5z" />
<glyph unicode="&#x146;" horiz-adv-x="1163" d="M154 72v864q0 37 22.5 59.5t61.5 22.5q37 0 58 -22.5t21 -57.5v-104q49 92 137.5 140t200.5 48q359 0 359 -395v-555q0 -39 -21.5 -60.5t-60.5 -21.5t-61.5 21.5t-22.5 60.5v544q0 139 -54.5 203t-172.5 64q-137 0 -219.5 -84t-82.5 -228v-499q0 -39 -21.5 -60.5 t-59.5 -21.5q-39 0 -61.5 21.5t-22.5 60.5zM483 -233q0 43 28 69.5t71 26.5q55 0 87 -34t32 -105q0 -127 -86 -226q-23 -25 -54 -24q-18 0 -31.5 11t-13.5 28q0 20 15 36q47 57 57 123h-2q-43 0 -73 24.5t-30 70.5z" />
<glyph unicode="&#x147;" horiz-adv-x="1513" d="M178 76v1292q0 39 21.5 62.5t60.5 23.5q41 0 70 -35l848 -1136v1085q0 39 21.5 62.5t57.5 23.5q37 0 57.5 -23.5t20.5 -62.5v-1292q0 -39 -21.5 -62.5t-60.5 -23.5t-67 35l-850 1136v-1085q0 -39 -21.5 -62.5t-58.5 -23.5t-57.5 23.5t-20.5 62.5zM475 1827q0 25 17.5 42 t42.5 17q27 0 49 -22l172 -191l172 191q20 23 49 22q23 0 41 -18.5t18 -40.5q0 -27 -22 -49l-182 -189q-35 -33 -76 -33t-76 33l-182 189q-23 23 -23 49z" />
<glyph unicode="&#x148;" horiz-adv-x="1163" d="M154 72v864q0 37 22.5 59.5t61.5 22.5q37 0 58 -22.5t21 -57.5v-104q49 92 137.5 140t200.5 48q359 0 359 -395v-555q0 -39 -21.5 -60.5t-60.5 -21.5t-61.5 21.5t-22.5 60.5v544q0 139 -54.5 203t-172.5 64q-137 0 -219.5 -84t-82.5 -228v-499q0 -39 -21.5 -60.5 t-59.5 -21.5q-39 0 -61.5 21.5t-22.5 60.5zM303 1489q0 25 19.5 43t44.5 18q35 0 55 -34l162 -265l162 265q18 33 55 32q25 0 44 -18.5t19 -42.5q0 -16 -12 -39l-190 -281q-33 -49 -78 -49t-78 49l-188 281q-14 20 -15 41z" />
<glyph unicode="&#x149;" horiz-adv-x="1163" d="M154 72v864q0 37 22.5 59.5t61.5 22.5q37 0 58 -22.5t21 -57.5v-104q49 92 137.5 140t200.5 48q359 0 359 -395v-555q0 -39 -21.5 -60.5t-60.5 -21.5t-61.5 21.5t-22.5 60.5v544q0 139 -54.5 203t-172.5 64q-137 0 -219.5 -84t-82.5 -228v-499q0 -39 -21.5 -60.5 t-59.5 -21.5q-39 0 -61.5 21.5t-22.5 60.5zM190 1458q0 43 29 68.5t72 25.5q117 0 117 -137q0 -127 -86 -225q-23 -25 -52 -25q-18 0 -32.5 11.5t-14.5 27.5q0 18 15 35q51 63 59 125h-2q-45 0 -75 24.5t-30 69.5z" />
<glyph unicode="&#x14a;" horiz-adv-x="1513" d="M178 76v1292q0 39 21.5 62.5t60.5 23.5q45 0 70 -35l848 -1136v1085q0 39 21.5 62.5t57.5 23.5q37 0 57.5 -23.5t20.5 -62.5v-1352q0 -188 -85 -283t-261 -108l-61 -4q-49 -2 -77 16.5t-28 51.5q0 31 19.5 49t56.5 20l62 4q109 6 163 65.5t54 186.5v21l-842 1126v-1085 q0 -39 -21.5 -62.5t-58.5 -23.5t-57.5 23.5t-20.5 62.5z" />
<glyph unicode="&#x14b;" horiz-adv-x="1163" d="M154 72v864q0 37 22.5 59.5t61.5 22.5q37 0 58 -22.5t21 -57.5v-104q49 92 137.5 140t200.5 48q359 0 359 -395v-639q0 -174 -76 -259t-240 -98l-57 -4q-49 -4 -75.5 12.5t-26.5 53.5q0 57 71 63l56 4q96 6 139 57.5t43 159.5v646q0 133 -54.5 196.5t-172.5 63.5 q-137 0 -219.5 -84t-82.5 -228v-499q0 -39 -21.5 -60.5t-59.5 -21.5q-39 0 -61.5 21.5t-22.5 60.5z" />
<glyph unicode="&#x14c;" horiz-adv-x="1564" d="M125 721q0 227 79 394t227.5 256t350.5 89q203 0 351.5 -89t227.5 -256t79 -392t-80 -392t-228.5 -257t-349.5 -90q-200 0 -348.5 90t-228.5 256t-80 391zM297 723q0 -285 128 -440.5t357 -155.5q230 0 358 154.5t128 441.5t-127 440.5t-359 153.5q-229 0 -357 -154.5 t-128 -439.5zM461 1724q0 31 19.5 46.5t54.5 15.5h496q35 0 54 -15.5t19 -46.5t-19.5 -47t-53.5 -16h-496q-35 0 -54.5 16.5t-19.5 46.5z" />
<glyph unicode="&#x14d;" horiz-adv-x="1136" d="M94 504q0 156 58.5 273.5t166 181t248.5 63.5t250 -63.5t167 -181.5t58 -273q0 -156 -58 -273.5t-166.5 -181t-250.5 -63.5q-141 0 -248.5 63.5t-166 181t-58.5 273.5zM245 1335q0 31 19.5 47.5t54.5 16.5h496q35 0 54 -16.5t19 -47.5q0 -29 -19.5 -45t-53.5 -16h-496 q-35 0 -54.5 16.5t-19.5 44.5zM262 504q0 -184 79 -282.5t226 -98.5q148 0 226.5 97t78.5 284q0 182 -79.5 281.5t-225.5 99.5q-145 0 -225 -99.5t-80 -281.5z" />
<glyph unicode="&#x14e;" horiz-adv-x="1564" d="M125 721q0 227 79 394t227.5 256t350.5 89q203 0 351.5 -89t227.5 -256t79 -392t-80 -392t-228.5 -257t-349.5 -90q-200 0 -348.5 90t-228.5 256t-80 391zM297 723q0 -285 128 -440.5t357 -155.5q230 0 358 154.5t128 441.5t-127 440.5t-359 153.5q-229 0 -357 -154.5 t-128 -439.5zM457 1802q0 25 16.5 39t38.5 14q37 0 64 -34q37 -57 88 -83t119 -26t119 25.5t88 83.5q27 35 61 34q25 0 40 -14t15 -39q0 -20 -8 -37q-43 -84 -126 -129t-189 -45q-107 0 -189 44t-127 130q-10 20 -10 37z" />
<glyph unicode="&#x14f;" horiz-adv-x="1136" d="M94 504q0 156 58.5 273.5t166 181t248.5 63.5t250 -63.5t167 -181.5t58 -273q0 -156 -58 -273.5t-166.5 -181t-250.5 -63.5q-141 0 -248.5 63.5t-166 181t-58.5 273.5zM243 1427q0 27 17.5 43.5t42.5 16.5q41 0 61 -43q68 -133 203 -133t203 133q10 20 26.5 31.5 t34.5 11.5q25 0 42 -17.5t17 -44.5q0 -14 -6 -30q-39 -98 -125 -152.5t-192 -54.5q-107 0 -192 54t-126 153q-6 18 -6 32zM262 504q0 -184 79 -282.5t226 -98.5q148 0 226.5 97t78.5 284q0 182 -79.5 281.5t-225.5 99.5q-145 0 -225 -99.5t-80 -281.5z" />
<glyph unicode="&#x150;" horiz-adv-x="1564" d="M125 721q0 227 79 394t227.5 256t350.5 89q203 0 351.5 -89t227.5 -256t79 -392t-80 -392t-228.5 -257t-349.5 -90q-200 0 -348.5 90t-228.5 256t-80 391zM297 723q0 -285 128 -440.5t357 -155.5q230 0 358 154.5t128 441.5t-127 440.5t-359 153.5q-229 0 -357 -154.5 t-128 -439.5zM621 1593q0 10 6 23l109 221q27 49 67 49q27 0 46.5 -18.5t19.5 -46.5q0 -27 -23 -56l-151 -190q-17 -19 -37 -19q-16 0 -26.5 10.5t-10.5 26.5zM867 1593q0 10 6 23l108 221q27 49 68 49q27 0 46.5 -18.5t19.5 -46.5q0 -27 -23 -56l-152 -190q-16 -19 -34 -19 q-16 0 -27.5 11.5t-11.5 25.5z" />
<glyph unicode="&#x151;" horiz-adv-x="1136" d="M94 504q0 156 58.5 273.5t166 181t248.5 63.5t250 -63.5t167 -181.5t58 -273q0 -156 -58 -273.5t-166.5 -181t-250.5 -63.5q-141 0 -248.5 63.5t-166 181t-58.5 273.5zM262 504q0 -184 79 -282.5t226 -98.5q148 0 226.5 97t78.5 284q0 182 -79.5 281.5t-225.5 99.5 q-145 0 -225 -99.5t-80 -281.5zM405 1169l94 316q8 35 29.5 52t48.5 17t46.5 -18t19.5 -47q0 -20 -13 -49l-149 -299q-6 -13 -16.5 -19t-20.5 -6q-20 0 -32.5 15.5t-6.5 37.5zM653 1169l92 316q10 35 31.5 52t46.5 17q29 0 48 -18t19 -49q0 -18 -12 -47l-151 -299 q-12 -25 -37 -25q-18 0 -30.5 15.5t-6.5 37.5z" />
<glyph unicode="&#x152;" horiz-adv-x="2140" d="M125 723q0 346 189.5 533.5t533.5 187.5h1130q37 0 57.5 -18.5t20.5 -51.5q0 -70 -78 -69h-688v-502h647q37 0 57.5 -18.5t20.5 -51.5t-20.5 -51t-57.5 -18h-647v-525h688q78 0 78 -69q0 -33 -20.5 -51.5t-57.5 -18.5h-1130q-344 0 -533.5 188.5t-189.5 534.5zM297 723 q0 -285 139 -434.5t422 -149.5h268v1166h-268q-285 0 -423 -149.5t-138 -432.5z" />
<glyph unicode="&#x153;" horiz-adv-x="1851" d="M94 504q0 156 58.5 273.5t165 181t247.5 63.5q135 0 236.5 -61.5t154.5 -174.5q57 113 159 174.5t233 61.5q188 0 300.5 -128t112.5 -343q0 -41 -17.5 -59.5t-53.5 -18.5h-650q8 -174 92.5 -263t237.5 -89q80 0 137.5 21.5t118.5 58.5q4 2 30.5 16t43.5 14q22 0 37.5 -18 t15.5 -47q0 -53 -72 -94q-74 -41 -155.5 -63.5t-155.5 -22.5q-145 0 -249.5 60t-162.5 177q-55 -115 -156.5 -176t-236.5 -61q-141 0 -247.5 63.5t-165 181t-58.5 273.5zM262 504q0 -184 79 -282.5t224 -98.5q148 0 226.5 97t78.5 284q0 182 -79.5 281.5t-223.5 99.5 q-145 0 -225 -100.5t-80 -280.5zM1044 580h572q-4 152 -75 232.5t-195 80.5q-129 0 -208 -82t-94 -231z" />
<glyph unicode="&#x154;" horiz-adv-x="1404" d="M178 76v1286q0 37 23.5 59.5t62.5 22.5h508q236 0 359.5 -104.5t123.5 -307.5q0 -172 -99 -276.5t-284 -126.5q51 -16 92.5 -53t82.5 -103l233 -369q14 -22 14 -47q0 -31 -23.5 -50t-53.5 -19q-47 0 -74 41l-275 434q-53 84 -110.5 115.5t-155.5 31.5h-258v-534 q0 -39 -22.5 -62.5t-59.5 -23.5q-39 0 -61.5 23.5t-22.5 62.5zM344 750h414q168 0 251 69.5t83 210.5q0 139 -82 207t-252 68h-414v-555zM656 1597q0 18 14 33l203 221q33 35 72 35q29 0 50 -20.5t21 -48.5q0 -43 -49 -76l-240 -176q-14 -9 -26 -9q-18 0 -31.5 12.5 t-13.5 28.5z" />
<glyph unicode="&#x155;" horiz-adv-x="722" d="M154 72v864q0 39 24.5 60.5t59.5 21.5q33 0 55 -21.5t22 -58.5v-115q43 90 122 137.5t181 55.5l29 2q86 6 86 -70q0 -33 -18.5 -52t-63.5 -24l-61 -6q-137 -12 -204 -97t-67 -200v-497q0 -41 -22.5 -61.5t-58.5 -20.5q-37 0 -60.5 21.5t-23.5 60.5zM393 1163q0 16 12 31 l238 311q37 47 84 47q33 0 55 -21.5t22 -53.5q0 -43 -41 -78l-288 -269q-17 -12 -33 -12q-20 0 -34.5 13.5t-14.5 31.5z" />
<glyph unicode="&#x156;" horiz-adv-x="1404" d="M178 76v1286q0 37 23.5 59.5t62.5 22.5h508q236 0 359.5 -104.5t123.5 -307.5q0 -172 -99 -276.5t-284 -126.5q51 -16 92.5 -53t82.5 -103l233 -369q14 -22 14 -47q0 -31 -23.5 -50t-53.5 -19q-47 0 -74 41l-275 434q-53 84 -110.5 115.5t-155.5 31.5h-258v-534 q0 -39 -22.5 -62.5t-59.5 -23.5q-39 0 -61.5 23.5t-22.5 62.5zM344 750h414q168 0 251 69.5t83 210.5q0 139 -82 207t-252 68h-414v-555zM598 -233q0 43 28 69.5t71 26.5q55 0 87 -34t32 -105q0 -127 -86 -226q-23 -25 -54 -24q-18 0 -31.5 11t-13.5 28q0 20 15 36 q47 57 57 123h-2q-43 0 -73 24.5t-30 70.5z" />
<glyph unicode="&#x157;" horiz-adv-x="722" d="M137 -233q0 43 28 69.5t71 26.5q55 0 87 -34t32 -105q0 -127 -86 -226q-23 -25 -54 -24q-18 0 -31.5 11t-13.5 28q0 20 15 36q47 57 57 123h-2q-43 0 -73 24.5t-30 70.5zM154 72v864q0 39 24.5 60.5t59.5 21.5q33 0 55 -21.5t22 -58.5v-115q43 90 122 137.5t181 55.5 l29 2q86 6 86 -70q0 -33 -18.5 -52t-63.5 -24l-61 -6q-137 -12 -204 -97t-67 -200v-497q0 -41 -22.5 -61.5t-58.5 -20.5q-37 0 -60.5 21.5t-23.5 60.5z" />
<glyph unicode="&#x158;" horiz-adv-x="1404" d="M178 76v1286q0 37 23.5 59.5t62.5 22.5h508q236 0 359.5 -104.5t123.5 -307.5q0 -172 -99 -276.5t-284 -126.5q51 -16 92.5 -53t82.5 -103l233 -369q14 -22 14 -47q0 -31 -23.5 -50t-53.5 -19q-47 0 -74 41l-275 434q-53 84 -110.5 115.5t-155.5 31.5h-258v-534 q0 -39 -22.5 -62.5t-59.5 -23.5q-39 0 -61.5 23.5t-22.5 62.5zM344 750h414q168 0 251 69.5t83 210.5q0 139 -82 207t-252 68h-414v-555zM418 1827q0 25 17.5 42t42.5 17q27 0 49 -22l172 -191l172 191q20 23 49 22q23 0 41 -18.5t18 -40.5q0 -27 -22 -49l-182 -189 q-35 -33 -76 -33t-76 33l-182 189q-23 23 -23 49z" />
<glyph unicode="&#x159;" horiz-adv-x="722" d="M154 72v864q0 39 24.5 60.5t59.5 21.5q33 0 55 -21.5t22 -58.5v-115q43 90 122 137.5t181 55.5l29 2q86 6 86 -70q0 -33 -18.5 -52t-63.5 -24l-61 -6q-137 -12 -204 -97t-67 -200v-497q0 -41 -22.5 -61.5t-58.5 -20.5q-37 0 -60.5 21.5t-23.5 60.5zM157 1489 q0 25 19.5 43t44.5 18q35 0 55 -34l162 -265l162 265q18 33 55 32q25 0 44 -18.5t19 -42.5q0 -16 -12 -39l-190 -281q-33 -49 -78 -49t-78 49l-188 281q-14 20 -15 41z" />
<glyph unicode="&#x15a;" horiz-adv-x="1263" d="M90 225q0 29 16.5 50.5t38.5 21.5q27 0 58 -23q190 -147 434 -147q176 0 270 67.5t94 192.5q0 72 -45 116t-118.5 70.5t-198.5 55.5q-168 39 -275.5 82t-174 122.5t-66.5 208.5q0 123 66.5 218.5t186.5 147.5t273 52q143 0 267 -44t208 -126q33 -33 33 -71 q0 -29 -16.5 -50.5t-38.5 -21.5q-23 0 -60 22q-100 82 -186 115t-207 33q-170 0 -264 -70.5t-94 -197.5q0 -109 83 -163.5t255 -94.5q186 -45 292.5 -83t177 -114t70.5 -203q0 -121 -66.5 -213t-187 -143t-276.5 -51q-154 0 -294 46t-224 124q-31 29 -31 71zM590 1597 q0 18 14 33l203 221q33 35 72 35q29 0 50 -20.5t21 -48.5q0 -43 -49 -76l-240 -176q-14 -9 -26 -9q-18 0 -31.5 12.5t-13.5 28.5z" />
<glyph unicode="&#x15b;" horiz-adv-x="983" d="M92 170q0 27 15.5 44t39.5 17q25 0 72 -30q61 -37 121.5 -58.5t151.5 -21.5q111 0 172 39t61 112q0 45 -22.5 73t-78 49.5t-161.5 43.5q-180 39 -258 104.5t-78 178.5q0 88 49 155.5t136 106.5t198 39q80 0 154.5 -21.5t132.5 -60.5q70 -49 69 -102q0 -27 -16 -45.5 t-39 -18.5q-25 0 -74 35q-57 37 -108 57.5t-127 20.5q-96 0 -154.5 -43t-58.5 -115q0 -45 21.5 -72.5t71.5 -49t144 -42.5q139 -31 216 -67.5t110 -90t33 -135.5q0 -129 -108.5 -207.5t-287.5 -78.5q-94 0 -179 22.5t-150 63.5q-37 25 -52.5 46t-15.5 52zM465 1163 q0 16 12 31l238 311q37 47 84 47q33 0 55 -21.5t22 -53.5q0 -43 -41 -78l-288 -269q-17 -12 -33 -12q-20 0 -34.5 13.5t-14.5 31.5z" />
<glyph unicode="&#x15c;" horiz-adv-x="1263" d="M90 225q0 29 16.5 50.5t38.5 21.5q27 0 58 -23q190 -147 434 -147q176 0 270 67.5t94 192.5q0 72 -45 116t-118.5 70.5t-198.5 55.5q-168 39 -275.5 82t-174 122.5t-66.5 208.5q0 123 66.5 218.5t186.5 147.5t273 52q143 0 267 -44t208 -126q33 -33 33 -71 q0 -29 -16.5 -50.5t-38.5 -21.5q-23 0 -60 22q-100 82 -186 115t-207 33q-170 0 -264 -70.5t-94 -197.5q0 -109 83 -163.5t255 -94.5q186 -45 292.5 -83t177 -114t70.5 -203q0 -121 -66.5 -213t-187 -143t-276.5 -51q-154 0 -294 46t-224 124q-31 29 -31 71zM352 1618 q0 27 23 47l182 188q33 33 76 33q41 0 76 -33l182 -188q23 -23 22 -49q0 -23 -18 -41.5t-41 -18.5q-27 0 -49 23l-172 193l-172 -193q-20 -23 -47 -23q-25 0 -43.5 18.5t-18.5 43.5z" />
<glyph unicode="&#x15d;" horiz-adv-x="983" d="M92 170q0 27 15.5 44t39.5 17q25 0 72 -30q61 -37 121.5 -58.5t151.5 -21.5q111 0 172 39t61 112q0 45 -22.5 73t-78 49.5t-161.5 43.5q-180 39 -258 104.5t-78 178.5q0 88 49 155.5t136 106.5t198 39q80 0 154.5 -21.5t132.5 -60.5q70 -49 69 -102q0 -27 -16 -45.5 t-39 -18.5q-25 0 -74 35q-57 37 -108 57.5t-127 20.5q-96 0 -154.5 -43t-58.5 -115q0 -45 21.5 -72.5t71.5 -49t144 -42.5q139 -31 216 -67.5t110 -90t33 -135.5q0 -129 -108.5 -207.5t-287.5 -78.5q-94 0 -179 22.5t-150 63.5q-37 25 -52.5 46t-15.5 52zM229 1180 q0 23 15 43l188 278q33 49 78 49t78 -49l190 -278q14 -20 14 -41q0 -25 -19 -43.5t-44 -18.5q-37 0 -55 33l-164 266l-164 -266q-18 -33 -55 -33q-25 0 -43.5 17.5t-18.5 42.5z" />
<glyph unicode="&#x15e;" horiz-adv-x="1263" d="M90 225q0 29 16.5 50.5t38.5 21.5q27 0 58 -23q190 -147 434 -147q176 0 270 67.5t94 192.5q0 72 -45 116t-118.5 70.5t-198.5 55.5q-168 39 -275.5 82t-174 122.5t-66.5 208.5q0 123 66.5 218.5t186.5 147.5t273 52q143 0 267 -44t208 -126q33 -33 33 -71 q0 -29 -16.5 -50.5t-38.5 -21.5q-23 0 -60 22q-100 82 -186 115t-207 33q-170 0 -264 -70.5t-94 -197.5q0 -109 83 -163.5t255 -94.5q186 -45 292.5 -83t177 -114t70.5 -203q0 -115 -61 -206t-174 -143t-258 -58l-8 -74q25 6 53 6q63 0 107 -36t44 -105q0 -76 -63.5 -123 t-177.5 -47q-74 0 -139 24q-16 6 -25.5 19.5t-9.5 27.5q0 18 12 31.5t33 13.5q10 0 16 -2q55 -16 115 -16q57 0 87 18.5t30 53.5q0 27 -16.5 41t-47.5 14q-23 0 -57.5 -9t-42.5 -9q-16 0 -29.5 11t-11.5 27l16 138q-131 8 -248.5 53t-191.5 113q-31 29 -31 71z" />
<glyph unicode="&#x15f;" horiz-adv-x="983" d="M92 170q0 27 15.5 44t39.5 17q25 0 72 -30q61 -37 121.5 -58.5t151.5 -21.5q111 0 172 39t61 112q0 45 -22.5 73t-78 49.5t-161.5 43.5q-180 39 -258 104.5t-78 178.5q0 88 49 155.5t136 106.5t198 39q80 0 154.5 -21.5t132.5 -60.5q70 -49 69 -102q0 -27 -16 -45.5 t-39 -18.5q-25 0 -74 35q-57 37 -108 57.5t-127 20.5q-96 0 -154.5 -43t-58.5 -115q0 -45 21.5 -72.5t71.5 -49t144 -42.5q139 -31 216 -67.5t110 -90t33 -135.5q0 -122 -97.5 -199t-261.5 -87l-8 -76q25 6 53 6q63 0 107.5 -36t44.5 -105q0 -76 -63.5 -123t-178.5 -47 q-74 0 -139 24q-16 6 -25.5 19.5t-9.5 27.5q0 18 12.5 31.5t32.5 13.5q10 0 17 -2q55 -16 114 -16q57 0 87 18.5t30 53.5q0 27 -16.5 41t-46.5 14q-23 0 -58 -9t-43 -9q-16 0 -29.5 11t-11.5 27l17 140q-147 16 -252 82q-37 25 -52.5 46t-15.5 52z" />
<glyph unicode="&#x160;" horiz-adv-x="1263" d="M90 225q0 29 16.5 50.5t38.5 21.5q27 0 58 -23q190 -147 434 -147q176 0 270 67.5t94 192.5q0 72 -45 116t-118.5 70.5t-198.5 55.5q-168 39 -275.5 82t-174 122.5t-66.5 208.5q0 123 66.5 218.5t186.5 147.5t273 52q143 0 267 -44t208 -126q33 -33 33 -71 q0 -29 -16.5 -50.5t-38.5 -21.5q-23 0 -60 22q-100 82 -186 115t-207 33q-170 0 -264 -70.5t-94 -197.5q0 -109 83 -163.5t255 -94.5q186 -45 292.5 -83t177 -114t70.5 -203q0 -121 -66.5 -213t-187 -143t-276.5 -51q-154 0 -294 46t-224 124q-31 29 -31 71zM352 1827 q0 25 17.5 42t42.5 17q27 0 49 -22l172 -191l172 191q20 23 49 22q23 0 41 -18.5t18 -40.5q0 -27 -22 -49l-182 -189q-35 -33 -76 -33t-76 33l-182 189q-23 23 -23 49z" />
<glyph unicode="&#x161;" horiz-adv-x="983" d="M92 170q0 27 15.5 44t39.5 17q25 0 72 -30q61 -37 121.5 -58.5t151.5 -21.5q111 0 172 39t61 112q0 45 -22.5 73t-78 49.5t-161.5 43.5q-180 39 -258 104.5t-78 178.5q0 88 49 155.5t136 106.5t198 39q80 0 154.5 -21.5t132.5 -60.5q70 -49 69 -102q0 -27 -16 -45.5 t-39 -18.5q-25 0 -74 35q-57 37 -108 57.5t-127 20.5q-96 0 -154.5 -43t-58.5 -115q0 -45 21.5 -72.5t71.5 -49t144 -42.5q139 -31 216 -67.5t110 -90t33 -135.5q0 -129 -108.5 -207.5t-287.5 -78.5q-94 0 -179 22.5t-150 63.5q-37 25 -52.5 46t-15.5 52zM229 1489 q0 25 19.5 43t44.5 18q35 0 55 -34l162 -265l162 265q18 33 55 32q25 0 44 -18.5t19 -42.5q0 -16 -12 -39l-190 -281q-33 -49 -78 -49t-78 49l-188 281q-14 20 -15 41z" />
<glyph unicode="&#x162;" horiz-adv-x="1224" d="M8 1372q0 35 20.5 53.5t57.5 18.5h1051q37 0 57 -18.5t20 -53.5t-20 -53.5t-57 -18.5h-441v-1224q0 -59 -45 -78l-10 -88q25 6 53 6q63 0 107.5 -36t44.5 -105q0 -76 -63.5 -123t-178.5 -47q-74 0 -139 24q-16 6 -25.5 19.5t-9.5 27.5q0 18 12.5 31.5t32.5 13.5 q10 0 17 -2q55 -16 114 -16q57 0 87 18.5t30 53.5q0 27 -16.5 41t-47.5 14q-23 0 -57.5 -9t-42.5 -9q-16 0 -29.5 11t-11.5 27l21 177q-12 23 -13 49v1224h-440q-37 0 -57.5 18.5t-20.5 53.5z" />
<glyph unicode="&#x163;" horiz-adv-x="696" d="M-2 930q0 31 19.5 49t54.5 18h137v232q0 39 22.5 60.5t61.5 21.5q37 0 59.5 -21.5t22.5 -60.5v-232h227q33 0 52.5 -18t19.5 -49q0 -29 -19.5 -46.5t-52.5 -17.5h-227v-522q0 -113 46 -163t138 -56l55 -4q72 -6 72 -66q0 -35 -25.5 -52t-76.5 -13l-56 4l-41 4l-10 -88 q25 6 53 6q64 0 108 -36t44 -105q0 -76 -63.5 -123t-178.5 -47q-74 0 -139 24q-16 6 -25.5 19.5t-9.5 27.5q0 18 12.5 31.5t32.5 13.5q10 0 17 -2q55 -16 114 -16q57 0 87 18.5t30 53.5q0 27 -16.5 41t-46.5 14q-23 0 -58 -9t-43 -9q-16 0 -29.5 11t-11.5 27l21 179 q-84 39 -125 117.5t-41 205.5v514h-137q-35 0 -54.5 17.5t-19.5 46.5z" />
<glyph unicode="&#x164;" horiz-adv-x="1224" d="M8 1372q0 35 20.5 53.5t57.5 18.5h1051q37 0 57 -18.5t20 -53.5t-20 -53.5t-57 -18.5h-441v-1224q0 -39 -22.5 -62.5t-61.5 -23.5t-62.5 23.5t-23.5 62.5v1224h-440q-37 0 -57.5 18.5t-20.5 53.5zM332 1827q0 25 17.5 42t42.5 17q27 0 49 -22l172 -191l172 191 q20 23 49 22q23 0 41 -18.5t18 -40.5q0 -27 -22 -49l-182 -189q-35 -33 -76 -33t-76 33l-182 189q-23 23 -23 49z" />
<glyph unicode="&#x165;" horiz-adv-x="696" d="M-2 930q0 31 19.5 49t54.5 18h137v232q0 39 22.5 60.5t61.5 21.5q37 0 59.5 -21.5t22.5 -60.5v-232h227q33 0 52.5 -18t19.5 -49q0 -29 -19.5 -46.5t-52.5 -17.5h-227v-522q0 -113 46 -163t138 -56l55 -4q72 -7 72 -66q0 -35 -25.5 -52t-76.5 -13l-56 4 q-164 12 -241.5 98t-77.5 260v514h-137q-35 0 -54.5 17.5t-19.5 46.5zM483 1120v266q0 33 22.5 51.5t53.5 18.5t54.5 -17.5t23.5 -47.5q0 -12 -2 -19l-55 -260q-6 -31 -45 -31q-20 0 -36 10.5t-16 28.5z" />
<glyph unicode="&#x166;" horiz-adv-x="1224" d="M8 1372q0 35 20.5 53.5t57.5 18.5h1051q37 0 57 -18.5t20 -53.5t-20 -53.5t-57 -18.5h-441v-499h234q35 0 54.5 -18.5t19.5 -51.5t-19.5 -50t-54.5 -17h-234v-588q0 -39 -22.5 -62.5t-61.5 -23.5t-62.5 23.5t-23.5 62.5v588h-229q-35 0 -56.5 17t-21.5 50t20.5 51.5 t57.5 18.5h229v499h-440q-37 0 -57.5 18.5t-20.5 53.5z" />
<glyph unicode="&#x167;" horiz-adv-x="716" d="M8 930q0 31 19.5 49t54.5 18h137v232q0 39 22.5 60.5t61.5 21.5q37 0 59.5 -21.5t22.5 -60.5v-232h227q33 0 52.5 -18t19.5 -49q0 -29 -19.5 -46.5t-52.5 -17.5h-227v-229h188q33 0 51.5 -17.5t18.5 -46.5t-18.5 -45t-51.5 -16h-188v-168q0 -113 46 -163t138 -56l56 -4 q71 -7 71 -66q0 -35 -25.5 -52t-76.5 -13l-55 4q-164 12 -242 98t-78 260v160h-100q-33 0 -51.5 16.5t-18.5 44.5q0 29 18.5 46.5t51.5 17.5h100v229h-137q-35 0 -54.5 17.5t-19.5 46.5z" />
<glyph unicode="&#x168;" horiz-adv-x="1482" d="M168 565v803q0 39 22.5 62.5t61.5 23.5q37 0 59.5 -23.5t22.5 -62.5v-817q0 -211 103.5 -317.5t303.5 -106.5q201 0 303.5 106.5t102.5 317.5v817q0 39 23.5 62.5t60.5 23.5q39 0 61.5 -23.5t22.5 -62.5v-803q0 -285 -146.5 -433t-427.5 -148q-282 0 -427.5 147.5 t-145.5 433.5zM418 1669q0 35 22.5 73t63.5 63.5t92 25.5q35 0 70 -11.5t92 -33.5q45 -20 74 -29.5t53 -9.5q33 0 52.5 13.5t39.5 37.5q23 31 43 31t32.5 -13.5t12.5 -35.5q0 -35 -22.5 -73t-63.5 -63.5t-92 -25.5q-35 0 -72.5 12t-89.5 35q-45 20 -73.5 29.5t-53.5 9.5 q-35 0 -54 -14.5t-38 -38.5q-23 -31 -43 -31t-32.5 13.5t-12.5 35.5z" />
<glyph unicode="&#x169;" horiz-adv-x="1148" d="M150 379v557q0 37 22.5 59.5t60.5 22.5q39 0 60.5 -22.5t21.5 -59.5v-553q0 -133 53.5 -195.5t168.5 -62.5q131 0 210.5 85t79.5 224v502q0 37 22.5 59.5t61.5 22.5t60.5 -22.5t21.5 -59.5v-866q0 -35 -21.5 -57.5t-60.5 -22.5q-37 0 -58.5 21.5t-21.5 56.5v102 q-47 -90 -132 -137t-191 -47q-178 0 -268 99t-90 294zM250 1272q0 37 22.5 82t63.5 77.5t92 32.5q39 0 76 -18.5t88 -52.5q45 -29 72 -42.5t49 -13.5q33 0 52.5 18.5t39.5 51.5q14 25 24.5 36t24.5 11q18 0 30.5 -15.5t12.5 -37.5q0 -35 -22.5 -81t-63.5 -79t-92 -33 q-39 0 -75.5 18.5t-88.5 53.5q-45 29 -71.5 42t-48.5 13q-35 0 -54.5 -18.5t-38.5 -50.5q-14 -23 -24 -34t-25 -11q-18 0 -30.5 14t-12.5 37z" />
<glyph unicode="&#x16a;" horiz-adv-x="1482" d="M168 565v803q0 39 22.5 62.5t61.5 23.5q37 0 59.5 -23.5t22.5 -62.5v-817q0 -211 103.5 -317.5t303.5 -106.5q201 0 303.5 106.5t102.5 317.5v817q0 39 23.5 62.5t60.5 23.5q39 0 61.5 -23.5t22.5 -62.5v-803q0 -285 -146.5 -433t-427.5 -148q-282 0 -427.5 147.5 t-145.5 433.5zM420 1724q0 31 19.5 46.5t54.5 15.5h496q35 0 54 -15.5t19 -46.5t-19.5 -47t-53.5 -16h-496q-35 0 -54.5 16.5t-19.5 46.5z" />
<glyph unicode="&#x16b;" horiz-adv-x="1148" d="M150 379v557q0 37 22.5 59.5t60.5 22.5q39 0 60.5 -22.5t21.5 -59.5v-553q0 -133 53.5 -195.5t168.5 -62.5q131 0 210.5 85t79.5 224v502q0 37 22.5 59.5t61.5 22.5t60.5 -22.5t21.5 -59.5v-866q0 -35 -21.5 -57.5t-60.5 -22.5q-37 0 -58.5 21.5t-21.5 56.5v102 q-47 -90 -132 -137t-191 -47q-178 0 -268 99t-90 294zM252 1335q0 31 19.5 47.5t54.5 16.5h496q35 0 54 -16.5t19 -47.5q0 -29 -19.5 -45t-53.5 -16h-496q-35 0 -54.5 16.5t-19.5 44.5z" />
<glyph unicode="&#x16c;" horiz-adv-x="1482" d="M168 565v803q0 39 22.5 62.5t61.5 23.5q37 0 59.5 -23.5t22.5 -62.5v-817q0 -211 103.5 -317.5t303.5 -106.5q201 0 303.5 106.5t102.5 317.5v817q0 39 23.5 62.5t60.5 23.5q39 0 61.5 -23.5t22.5 -62.5v-803q0 -285 -146.5 -433t-427.5 -148q-282 0 -427.5 147.5 t-145.5 433.5zM416 1802q0 25 16.5 39t38.5 14q37 0 64 -34q37 -57 88 -83t119 -26t119 25.5t88 83.5q27 35 61 34q25 0 40 -14t15 -39q0 -20 -8 -37q-43 -84 -126 -129t-189 -45q-107 0 -189 44t-127 130q-10 20 -10 37z" />
<glyph unicode="&#x16d;" horiz-adv-x="1148" d="M150 379v557q0 37 22.5 59.5t60.5 22.5q39 0 60.5 -22.5t21.5 -59.5v-553q0 -133 53.5 -195.5t168.5 -62.5q131 0 210.5 85t79.5 224v502q0 37 22.5 59.5t61.5 22.5t60.5 -22.5t21.5 -59.5v-866q0 -35 -21.5 -57.5t-60.5 -22.5q-37 0 -58.5 21.5t-21.5 56.5v102 q-47 -90 -132 -137t-191 -47q-178 0 -268 99t-90 294zM250 1427q0 27 17.5 43.5t42.5 16.5q41 0 61 -43q68 -133 203 -133t203 133q10 20 26.5 31.5t34.5 11.5q25 0 42 -17.5t17 -44.5q0 -14 -6 -30q-39 -98 -125 -152.5t-192 -54.5q-107 0 -192 54t-126 153q-6 18 -6 32z " />
<glyph unicode="&#x16e;" horiz-adv-x="1482" d="M168 565v803q0 39 22.5 62.5t61.5 23.5q37 0 59.5 -23.5t22.5 -62.5v-817q0 -211 103.5 -317.5t303.5 -106.5q201 0 303.5 106.5t102.5 317.5v817q0 39 23.5 62.5t60.5 23.5q39 0 61.5 -23.5t22.5 -62.5v-803q0 -285 -146.5 -433t-427.5 -148q-282 0 -427.5 147.5 t-145.5 433.5zM535 1759q0 86 60.5 144.5t146.5 58.5t146.5 -58.5t60.5 -144.5t-60.5 -144.5t-146.5 -58.5t-146.5 58.5t-60.5 144.5zM643 1759q0 -43 28 -72.5t71 -29.5t70.5 29.5t27.5 72.5t-27.5 73t-70.5 30t-71 -30t-28 -73z" />
<glyph unicode="&#x16f;" horiz-adv-x="1148" d="M150 379v557q0 37 22.5 59.5t60.5 22.5q39 0 60.5 -22.5t21.5 -59.5v-553q0 -133 53.5 -195.5t168.5 -62.5q131 0 210.5 85t79.5 224v502q0 37 22.5 59.5t61.5 22.5t60.5 -22.5t21.5 -59.5v-866q0 -35 -21.5 -57.5t-60.5 -22.5q-37 0 -58.5 21.5t-21.5 56.5v102 q-47 -90 -132 -137t-191 -47q-178 0 -268 99t-90 294zM367 1337q0 86 60.5 144.5t146.5 58.5t146.5 -58.5t60.5 -144.5t-60.5 -144t-146.5 -58t-146.5 58t-60.5 144zM475 1337q0 -43 28 -72.5t71 -29.5t70.5 29.5t27.5 72.5t-27.5 73t-70.5 30t-71 -30t-28 -73z" />
<glyph unicode="&#x170;" horiz-adv-x="1482" d="M168 565v803q0 39 22.5 62.5t61.5 23.5q37 0 59.5 -23.5t22.5 -62.5v-817q0 -211 103.5 -317.5t303.5 -106.5q201 0 303.5 106.5t102.5 317.5v817q0 39 23.5 62.5t60.5 23.5q39 0 61.5 -23.5t22.5 -62.5v-803q0 -285 -146.5 -433t-427.5 -148q-282 0 -427.5 147.5 t-145.5 433.5zM580 1593q0 10 6 23l109 221q27 49 67 49q27 0 46.5 -18.5t19.5 -46.5q0 -27 -23 -56l-151 -190q-17 -19 -37 -19q-16 0 -26.5 10.5t-10.5 26.5zM826 1593q0 10 6 23l108 221q27 49 68 49q27 0 46.5 -18.5t19.5 -46.5q0 -27 -23 -56l-152 -190 q-16 -19 -34 -19q-16 0 -27.5 11.5t-11.5 25.5z" />
<glyph unicode="&#x171;" horiz-adv-x="1148" d="M150 379v557q0 37 22.5 59.5t60.5 22.5q39 0 60.5 -22.5t21.5 -59.5v-553q0 -133 53.5 -195.5t168.5 -62.5q131 0 210.5 85t79.5 224v502q0 37 22.5 59.5t61.5 22.5t60.5 -22.5t21.5 -59.5v-866q0 -35 -21.5 -57.5t-60.5 -22.5q-37 0 -58.5 21.5t-21.5 56.5v102 q-47 -90 -132 -137t-191 -47q-178 0 -268 99t-90 294zM412 1169l94 316q8 35 29.5 52t48.5 17t46.5 -18t19.5 -47q0 -20 -13 -49l-149 -299q-6 -13 -16.5 -19t-20.5 -6q-20 0 -32.5 15.5t-6.5 37.5zM660 1169l92 316q10 35 31.5 52t46.5 17q29 0 48 -18t19 -49 q0 -18 -12 -47l-151 -299q-12 -25 -37 -25q-18 0 -30.5 15.5t-6.5 37.5z" />
<glyph unicode="&#x172;" horiz-adv-x="1482" d="M168 565v803q0 39 22.5 62.5t61.5 23.5q37 0 59.5 -23.5t22.5 -62.5v-817q0 -211 103.5 -317.5t303.5 -106.5q201 0 303.5 106.5t102.5 317.5v817q0 39 23.5 62.5t60.5 23.5q39 0 61.5 -23.5t22.5 -62.5v-803q0 -449 -346 -551q-86 -27 -127 -68.5t-41 -103.5 q0 -59 34.5 -94t94.5 -35q49 0 98 25q8 4 23 4q18 0 30.5 -14.5t12.5 -32.5q0 -35 -31 -51q-74 -39 -152 -39q-106 0 -172.5 60.5t-66.5 154.5q0 102 73 164h-4q-283 0 -428 147.5t-145 433.5z" />
<glyph unicode="&#x173;" horiz-adv-x="1148" d="M150 379v557q0 37 22.5 59.5t60.5 22.5q39 0 60.5 -22.5t21.5 -59.5v-553q0 -133 53.5 -195.5t168.5 -62.5q131 0 210.5 85t79.5 224v502q0 37 22.5 59.5t61.5 22.5t60.5 -22.5t21.5 -59.5v-868q0 -29 -13 -47.5t-38 -24.5q-143 -35 -143 -154q0 -59 35.5 -94t95.5 -35 q47 0 98 25q9 4 23 4q18 0 30.5 -14.5t12.5 -32.5q0 -33 -31 -51q-74 -39 -154 -39q-106 0 -172.5 60.5t-66.5 156.5q0 76 43 134t121 93q-2 4 -3 19v102q-47 -90 -132 -137t-191 -47q-178 0 -268 99t-90 294z" />
<glyph unicode="&#x174;" horiz-adv-x="2254" d="M76 1382q0 33 25.5 53.5t58.5 20.5q25 0 46 -13t30 -40l403 -1163l410 1151q10 31 32.5 46t48.5 15q27 0 49.5 -16.5t32.5 -46.5l404 -1153l407 1167q9 27 29.5 40t44.5 13q33 0 56.5 -19.5t23.5 -52.5q0 -14 -6 -32l-463 -1305q-10 -29 -34.5 -44t-55.5 -15 q-29 0 -53.5 15t-34.5 44l-402 1135l-405 -1135q-10 -29 -34.5 -44t-53.5 -15t-53.5 15t-34.5 44l-465 1305q-6 16 -6 30zM846 1618q0 27 23 47l182 188q33 33 76 33q41 0 76 -33l182 -188q23 -23 22 -49q0 -23 -18 -41.5t-41 -18.5q-27 0 -49 23l-172 193l-172 -193 q-20 -23 -47 -23q-25 0 -43.5 18.5t-18.5 43.5z" />
<glyph unicode="&#x175;" horiz-adv-x="1724" d="M59 938q0 33 28 55.5t60 22.5q49 0 70 -49l281 -756l288 750q12 27 34 41t46 14q27 0 48.5 -14.5t31.5 -40.5l289 -748l283 752q20 49 67 49q31 0 55.5 -20.5t24.5 -51.5q0 -14 -6 -31l-340 -860q-12 -27 -35.5 -42t-52.5 -15q-27 0 -50.5 15.5t-35.5 41.5l-283 719 l-280 -719q-10 -27 -35 -42t-53 -15q-27 0 -51.5 15.5t-36.5 41.5l-340 858q-6 16 -7 29zM581 1180q0 23 15 43l188 278q33 49 78 49t78 -49l190 -278q14 -20 14 -41q0 -25 -19 -43.5t-44 -18.5q-37 0 -55 33l-164 266l-164 -266q-18 -33 -55 -33q-25 0 -43.5 17.5 t-18.5 42.5z" />
<glyph unicode="&#x176;" horiz-adv-x="1230" d="M12 1374q0 33 23.5 55.5t54.5 22.5q35 0 60 -31l466 -596l465 596q25 31 60 31q29 0 51 -22.5t22 -55.5q0 -31 -18 -51l-498 -629v-618q0 -41 -23.5 -63.5t-60.5 -22.5t-60.5 22.5t-23.5 63.5v620l-497 627q-20 23 -21 51zM334 1618q0 27 23 47l182 188q33 33 76 33 q41 0 76 -33l182 -188q23 -23 22 -49q0 -23 -18 -41.5t-41 -18.5q-27 0 -49 23l-172 193l-172 -193q-20 -23 -47 -23q-25 0 -43.5 18.5t-18.5 43.5z" />
<glyph unicode="&#x177;" horiz-adv-x="1052" d="M31 942q0 31 27.5 53.5t60.5 22.5q20 0 39.5 -12.5t29.5 -34.5l342 -768l342 764q23 49 72 49q31 0 55.5 -20.5t24.5 -51.5q0 -18 -8 -33l-576 -1241q-10 -23 -29.5 -35t-39.5 -12q-31 0 -54.5 19.5t-23.5 50.5q0 16 8 33l143 309l-405 876q-8 14 -8 31zM248 1180 q0 23 15 43l188 278q33 49 78 49t78 -49l190 -278q14 -20 14 -41q0 -25 -19 -43.5t-44 -18.5q-37 0 -55 33l-164 266l-164 -266q-18 -33 -55 -33q-25 0 -43.5 17.5t-18.5 42.5z" />
<glyph unicode="&#x178;" horiz-adv-x="1230" d="M12 1374q0 33 23.5 55.5t54.5 22.5q35 0 60 -31l466 -596l465 596q25 31 60 31q29 0 51 -22.5t22 -55.5q0 -31 -18 -51l-498 -629v-618q0 -41 -23.5 -63.5t-60.5 -22.5t-60.5 22.5t-23.5 63.5v620l-497 627q-20 23 -21 51zM338 1724q0 43 29 71t72 28t72.5 -28t29.5 -71 q0 -45 -28.5 -71.5t-73.5 -26.5q-43 0 -72 27.5t-29 70.5zM689 1724q0 43 29.5 71t72.5 28t71.5 -28t28.5 -71t-28.5 -70.5t-71.5 -27.5t-72.5 27.5t-29.5 70.5z" />
<glyph unicode="&#x179;" horiz-adv-x="1208" d="M76 72q0 31 22 63l820 1168h-762q-37 0 -57.5 18t-20.5 51q0 35 20.5 53.5t57.5 18.5h893q37 0 58 -20.5t21 -51.5q0 -29 -22 -61l-821 -1170h786q37 0 57.5 -18.5t20.5 -50.5q0 -35 -20.5 -53.5t-57.5 -18.5h-915q-37 0 -58.5 20.5t-21.5 51.5zM561 1597q0 18 14 33 l203 221q33 35 72 35q29 0 50 -20.5t21 -48.5q0 -43 -49 -76l-240 -176q-14 -9 -26 -9q-18 0 -31.5 12.5t-13.5 28.5z" />
<glyph unicode="&#x17a;" horiz-adv-x="1030" d="M86 930q0 31 19.5 49t54.5 18h694q37 0 59.5 -21.5t22.5 -51.5q0 -33 -25 -64l-608 -729h584q35 0 53 -17.5t18 -47.5q0 -31 -18 -48.5t-53 -17.5h-717q-35 0 -57.5 21.5t-22.5 52.5q0 33 25 63l606 729h-561q-35 0 -54.5 17.5t-19.5 46.5zM479 1163q0 16 12 31l238 311 q37 47 84 47q33 0 55 -21.5t22 -53.5q0 -43 -41 -78l-288 -269q-17 -12 -33 -12q-20 0 -34.5 13.5t-14.5 31.5z" />
<glyph unicode="&#x17b;" horiz-adv-x="1208" d="M76 72q0 31 22 63l820 1168h-762q-37 0 -57.5 18t-20.5 51q0 35 20.5 53.5t57.5 18.5h893q37 0 58 -20.5t21 -51.5q0 -29 -22 -61l-821 -1170h786q37 0 57.5 -18.5t20.5 -50.5q0 -35 -20.5 -53.5t-57.5 -18.5h-915q-37 0 -58.5 20.5t-21.5 51.5zM493 1724q0 47 31 75 t80 28t79.5 -27.5t30.5 -75.5q0 -47 -30.5 -75.5t-79.5 -28.5t-80 28.5t-31 75.5z" />
<glyph unicode="&#x17c;" horiz-adv-x="1030" d="M86 930q0 31 19.5 49t54.5 18h694q37 0 59.5 -21.5t22.5 -51.5q0 -33 -25 -64l-608 -729h584q35 0 53 -17.5t18 -47.5q0 -31 -18 -48.5t-53 -17.5h-717q-35 0 -57.5 21.5t-22.5 52.5q0 33 25 63l606 729h-561q-35 0 -54.5 17.5t-19.5 46.5zM413 1337q0 45 31 74t80 29 t79.5 -29t30.5 -74q0 -47 -30.5 -75.5t-79.5 -28.5t-80 28.5t-31 75.5z" />
<glyph unicode="&#x17d;" horiz-adv-x="1208" d="M76 72q0 31 22 63l820 1168h-762q-37 0 -57.5 18t-20.5 51q0 35 20.5 53.5t57.5 18.5h893q37 0 58 -20.5t21 -51.5q0 -29 -22 -61l-821 -1170h786q37 0 57.5 -18.5t20.5 -50.5q0 -35 -20.5 -53.5t-57.5 -18.5h-915q-37 0 -58.5 20.5t-21.5 51.5zM323 1827q0 25 17.5 42 t42.5 17q27 0 49 -22l172 -191l172 191q20 23 49 22q23 0 41 -18.5t18 -40.5q0 -27 -22 -49l-182 -189q-35 -33 -76 -33t-76 33l-182 189q-23 23 -23 49z" />
<glyph unicode="&#x17e;" horiz-adv-x="1030" d="M86 930q0 31 19.5 49t54.5 18h694q37 0 59.5 -21.5t22.5 -51.5q0 -33 -25 -64l-608 -729h584q35 0 53 -17.5t18 -47.5q0 -31 -18 -48.5t-53 -17.5h-717q-35 0 -57.5 21.5t-22.5 52.5q0 33 25 63l606 729h-561q-35 0 -54.5 17.5t-19.5 46.5zM243 1489q0 25 19.5 43 t44.5 18q35 0 55 -34l162 -265l162 265q18 33 55 32q25 0 44 -18.5t19 -42.5q0 -16 -12 -39l-190 -281q-33 -49 -78 -49t-78 49l-188 281q-14 20 -15 41z" />
<glyph unicode="&#x192;" d="M70 -313q0 29 22.5 49t61.5 20h32q90 0 145.5 49.5t76.5 157.5l196 918h-203q-27 0 -44 16t-17 43t17.5 43t43.5 16h230l24 119q35 168 133.5 251t249.5 83h41q39 0 59.5 -18.5t20.5 -44.5q0 -29 -23.5 -50.5t-62.5 -21.5h-33q-90 0 -144 -48t-77 -159l-22 -111h207 q27 0 44 -16t17 -43t-17.5 -43t-43.5 -16h-234l-197 -926q-37 -168 -135 -251t-250 -83h-38q-37 0 -58.5 19.5t-21.5 46.5z" />
<glyph unicode="&#x2c6;" horiz-adv-x="614" d="M26 1180q0 23 15 43l188 278q33 49 78 49t78 -49l190 -278q14 -20 14 -41q0 -25 -19 -43.5t-44 -18.5q-37 0 -55 33l-164 266l-164 -266q-18 -33 -55 -33q-25 0 -43.5 17.5t-18.5 42.5z" />
<glyph unicode="&#x2da;" horiz-adv-x="614" d="M100 1337q0 86 60.5 144.5t146.5 58.5t146.5 -58.5t60.5 -144.5t-60.5 -144t-146.5 -58t-146.5 58t-60.5 144zM208 1337q0 -43 28 -72.5t71 -29.5t70.5 29.5t27.5 72.5t-27.5 73t-70.5 30t-71 -30t-28 -73z" />
<glyph unicode="&#x2dc;" horiz-adv-x="614" d="M-17 1272q0 37 22.5 82t63.5 77.5t92 32.5q39 0 76 -18.5t88 -52.5q45 -29 72 -42.5t49 -13.5q33 0 52.5 18.5t39.5 51.5q14 25 24.5 36t24.5 11q18 0 30.5 -15.5t12.5 -37.5q0 -35 -22.5 -81t-63.5 -79t-92 -33q-39 0 -75.5 18.5t-88.5 53.5q-45 29 -71.5 42t-48.5 13 q-35 0 -54.5 -18.5t-38.5 -50.5q-14 -23 -24 -34t-25 -11q-18 0 -30.5 14t-12.5 37z" />
<glyph unicode="&#x3a9;" horiz-adv-x="1595" d="M115 72q0 31 21.5 50t56.5 19h309q-162 227 -244 360.5t-112.5 226.5t-30.5 194q0 164 84 285.5t237.5 188t360.5 66.5t361.5 -66.5t238.5 -189.5t84 -284q0 -102 -34 -201.5t-115 -233t-238 -346.5h309q35 0 56.5 -19.5t21.5 -49.5q0 -33 -21.5 -52.5t-56.5 -19.5h-416 q-37 0 -57.5 20.5t-20.5 51.5q0 29 23 63q217 326 297 492t80 291q0 186 -136.5 292.5t-375.5 106.5q-238 0 -374 -106.5t-136 -292.5q0 -125 81 -293t296 -490q20 -33 20 -63q0 -31 -20.5 -51.5t-57.5 -20.5h-413q-35 0 -56.5 19.5t-21.5 52.5z" />
<glyph unicode="&#x3c0;" horiz-adv-x="1187" d="M-2 930q0 31 19.5 49t54.5 18h981q35 0 53 -18t18 -49t-18.5 -47.5t-52.5 -16.5h-187v-522q0 -113 46 -163t139 -56l55 -4q39 -2 55.5 -19.5t16.5 -46.5q0 -33 -26 -51t-77 -14l-55 4q-164 12 -242 99t-78 259v514h-315q-10 -504 -125 -823q-10 -29 -34.5 -45t-53.5 -16 q-33 0 -57.5 20.5t-24.5 54.5q0 18 6 37q55 158 86 358.5t37 413.5h-147q-35 0 -54.5 17.5t-19.5 46.5z" />
<glyph unicode="&#x2000;" horiz-adv-x="981" />
<glyph unicode="&#x2001;" horiz-adv-x="1962" />
<glyph unicode="&#x2002;" horiz-adv-x="981" />
<glyph unicode="&#x2003;" horiz-adv-x="1962" />
<glyph unicode="&#x2004;" horiz-adv-x="654" />
<glyph unicode="&#x2005;" horiz-adv-x="490" />
<glyph unicode="&#x2006;" horiz-adv-x="327" />
<glyph unicode="&#x2007;" horiz-adv-x="327" />
<glyph unicode="&#x2008;" horiz-adv-x="245" />
<glyph unicode="&#x2009;" horiz-adv-x="392" />
<glyph unicode="&#x200a;" horiz-adv-x="109" />
<glyph unicode="&#x2010;" horiz-adv-x="870" d="M133 545q0 31 19.5 50t56.5 19h450q39 0 58.5 -19.5t19.5 -49.5q0 -31 -19.5 -49.5t-58.5 -18.5h-450q-37 0 -56.5 18.5t-19.5 49.5z" />
<glyph unicode="&#x2011;" horiz-adv-x="870" d="M133 545q0 31 19.5 50t56.5 19h450q39 0 58.5 -19.5t19.5 -49.5q0 -31 -19.5 -49.5t-58.5 -18.5h-450q-37 0 -56.5 18.5t-19.5 49.5z" />
<glyph unicode="&#x2012;" horiz-adv-x="870" d="M133 545q0 31 19.5 50t56.5 19h450q39 0 58.5 -19.5t19.5 -49.5q0 -31 -19.5 -49.5t-58.5 -18.5h-450q-37 0 -56.5 18.5t-19.5 49.5z" />
<glyph unicode="&#x2013;" horiz-adv-x="1024" d="M0 545q0 23 18.5 38t49.5 15h888q31 0 49.5 -15.5t18.5 -37.5q0 -23 -18.5 -38t-49.5 -15h-888q-31 0 -49.5 15t-18.5 38z" />
<glyph unicode="&#x2014;" horiz-adv-x="2048" d="M0 545q0 23 18.5 38t49.5 15h1912q31 0 49.5 -15.5t18.5 -37.5q0 -23 -18.5 -38t-49.5 -15h-1912q-31 0 -49.5 15t-18.5 38z" />
<glyph unicode="&#x2018;" horiz-adv-x="468" d="M121 1161q0 158 104 273q20 20 47 20q23 0 39.5 -15.5t16.5 -35.5q0 -23 -17 -39q-53 -55 -67 -135q45 -4 73.5 -35t28.5 -78q0 -51 -30.5 -83t-77.5 -32q-53 0 -85 39t-32 121z" />
<glyph unicode="&#x2019;" horiz-adv-x="468" d="M121 1339q0 51 31.5 83t78.5 32q52 0 83.5 -40t31.5 -120q0 -162 -104 -272q-20 -20 -45 -21q-23 0 -39.5 15.5t-16.5 36.5q0 23 17 39q53 53 67 135q-45 4 -74.5 34.5t-29.5 77.5z" />
<glyph unicode="&#x201a;" horiz-adv-x="468" d="M121 104q0 51 31.5 84t78.5 33q52 0 83.5 -40t31.5 -120q0 -162 -104 -272q-20 -23 -47 -22q-20 0 -37 15t-17 36q0 23 17 39q53 55 67 137q-45 4 -74.5 33.5t-29.5 76.5z" />
<glyph unicode="&#x201c;" horiz-adv-x="808" d="M121 1161q0 158 104 273q20 20 47 20q23 0 39.5 -15.5t16.5 -35.5q0 -23 -17 -39q-53 -55 -67 -135q45 -4 73.5 -35t28.5 -78q0 -51 -30.5 -83t-77.5 -32q-53 0 -85 39t-32 121zM461 1161q0 158 104 273q20 20 47 20q23 0 39.5 -15.5t16.5 -35.5q0 -23 -17 -39 q-53 -55 -67 -135q45 -4 73.5 -35t28.5 -78q0 -51 -30.5 -83t-77.5 -32q-53 0 -85 39t-32 121z" />
<glyph unicode="&#x201d;" horiz-adv-x="808" d="M121 1339q0 51 31.5 83t78.5 32q52 0 83.5 -40t31.5 -120q0 -162 -104 -272q-20 -20 -45 -21q-23 0 -39.5 15.5t-16.5 36.5q0 23 17 39q53 53 67 135q-45 4 -74.5 34.5t-29.5 77.5zM461 1339q0 51 31.5 83t78.5 32q52 0 83.5 -40t31.5 -120q0 -162 -104 -272 q-20 -20 -45 -21q-23 0 -39.5 15.5t-16.5 36.5q0 23 17 39q53 53 67 135q-45 4 -74.5 34.5t-29.5 77.5z" />
<glyph unicode="&#x201e;" horiz-adv-x="808" d="M121 104q0 51 31.5 84t78.5 33q52 0 83.5 -40t31.5 -120q0 -162 -104 -272q-20 -23 -47 -22q-20 0 -37 15t-17 36q0 23 17 39q53 55 67 137q-45 4 -74.5 33.5t-29.5 76.5zM461 104q0 51 31.5 84t78.5 33q52 0 83.5 -40t31.5 -120q0 -162 -104 -272q-20 -23 -47 -22 q-20 0 -37 15t-17 36q0 23 17 39q53 55 67 137q-45 4 -74.5 33.5t-29.5 76.5z" />
<glyph unicode="&#x2026;" horiz-adv-x="1406" d="M121 104q0 51 32.5 84t82.5 33q47 0 78.5 -32.5t31.5 -84.5q0 -51 -31.5 -82.5t-78.5 -31.5q-50 0 -82.5 31.5t-32.5 82.5zM590 104q0 51 32.5 84t82.5 33q47 0 78.5 -32.5t31.5 -84.5q0 -51 -31.5 -82.5t-78.5 -31.5q-50 0 -82.5 31.5t-32.5 82.5zM1059 104 q0 51 32.5 84t82.5 33q47 0 78.5 -32.5t31.5 -84.5q0 -51 -31.5 -82.5t-78.5 -31.5q-50 0 -82.5 31.5t-32.5 82.5z" />
<glyph unicode="&#x202f;" horiz-adv-x="392" />
<glyph unicode="&#x2030;" horiz-adv-x="2717" d="M113 1020q0 217 92 328.5t256 111.5t256 -111.5t92 -328.5q0 -219 -92 -330.5t-256 -111.5t-256 111.5t-92 330.5zM262 1020q0 -168 49 -246t150 -78q100 0 148 78t48 246q0 166 -48 243.5t-148 77.5t-149.5 -77.5t-49.5 -243.5zM487 33q0 25 15 47l782 1354q27 45 68 45 q27 0 46 -19.5t19 -48.5q0 -23 -12 -47l-784 -1354q-27 -45 -68 -45q-27 0 -46.5 18.5t-19.5 49.5zM1096 428q0 217 92 328.5t256 111.5q166 0 257 -110.5t91 -329.5t-91 -330.5t-257 -111.5q-164 0 -256 111.5t-92 330.5zM1247 428q0 -168 48 -246t149 -78q102 0 150 77 t48 247q0 166 -49 244t-149 78t-148.5 -78t-48.5 -244zM1909 428q0 217 92 328.5t256 111.5t256 -111.5t92 -328.5q0 -219 -92 -330.5t-256 -111.5t-256 111.5t-92 330.5zM2058 428q0 -168 49.5 -246t149.5 -78t148.5 78t48.5 246q0 166 -48.5 244t-148.5 78t-149.5 -78 t-49.5 -244z" />
<glyph unicode="&#x2039;" horiz-adv-x="532" d="M115 545q0 27 14 49l164 276q23 39 65 39q27 0 45.5 -16t18.5 -41q0 -16 -8 -33l-135 -276l135 -275q8 -16 8 -35q0 -25 -18.5 -41t-43.5 -16q-18 0 -35.5 10.5t-29.5 28.5l-166 279q-14 27 -14 51z" />
<glyph unicode="&#x203a;" horiz-adv-x="528" d="M109 854q0 25 18 40t45 15q43 0 66 -39l161 -276q16 -27 17 -49q0 -23 -17 -51l-161 -279q-25 -39 -64 -39q-27 0 -45 16.5t-18 40.5q0 18 8 35l137 275l-137 276q-10 20 -10 35z" />
<glyph unicode="&#x2044;" horiz-adv-x="354" d="M-287 33q0 23 13 47l782 1354q27 45 70 45q27 0 46 -18.5t19 -49.5q0 -25 -14 -47l-783 -1354q-26 -45 -67 -45q-27 0 -46.5 19.5t-19.5 48.5z" />
<glyph unicode="&#x205f;" horiz-adv-x="490" />
<glyph unicode="&#x20ac;" d="M18 567q0 27 17.5 44.5t44.5 17.5h156q-2 31 -3 94q0 63 3 94h-156q-27 0 -44.5 17.5t-17.5 44.5t17.5 43t44.5 16h170q41 252 174 387t344 135q106 0 217 -42t195 -126q33 -31 32 -69q0 -31 -16 -51.5t-39 -20.5q-33 0 -59 23q-84 78 -162 110.5t-164 32.5 q-295 0 -356 -379h311q27 0 44 -16.5t17 -42.5q0 -27 -17 -44.5t-44 -17.5h-324q-2 -31 -2 -94t2 -94h324q29 0 45 -16.5t16 -45.5q0 -25 -17 -42t-44 -17h-311q57 -381 356 -381q78 0 150.5 34t175.5 109q35 23 59 23q25 0 40 -20.5t15 -51.5q0 -39 -32 -69 q-90 -80 -200 -124t-212 -44q-211 0 -345 136t-173 388h-170q-27 0 -44.5 17.5t-17.5 41.5z" />
<glyph unicode="&#x2122;" horiz-adv-x="1873" d="M0 1378q0 66 74 66h606q74 0 74 -66q0 -31 -19.5 -47t-54.5 -16h-227v-668q0 -35 -21.5 -55.5t-54.5 -20.5q-35 0 -57.5 20.5t-22.5 55.5v668h-223q-74 0 -74 63zM868 647v729q0 35 21.5 55.5t52.5 20.5q43 0 74 -53l274 -529l275 529q31 53 71 53q31 0 52.5 -20.5 t21.5 -55.5v-729q0 -37 -20.5 -56.5t-49.5 -19.5t-48 19.5t-19 56.5v510l-211 -403q-27 -49 -72 -49q-43 0 -69 49l-213 397v-504q0 -37 -20.5 -56.5t-49.5 -19.5t-49.5 19.5t-20.5 56.5z" />
<glyph unicode="&#x2202;" d="M109 518q0 174 65.5 299t176 189.5t241.5 64.5q221 0 336 -172q-37 281 -174.5 406t-333.5 125h-43q-29 0 -49.5 18t-20.5 45t17.5 44t50.5 24q53 4 82 4q170 0 317.5 -85t241.5 -290t94 -543q0 -340 -134 -510t-366 -170q-143 2 -256.5 66.5t-179 188.5t-65.5 296z M276 510q0 -127 43 -218t118 -138.5t169 -47.5q148 0 240 116t92 325q0 123 -44 210t-119 131t-167 44q-145 0 -238.5 -110.5t-93.5 -311.5z" />
<glyph unicode="&#x2206;" horiz-adv-x="1595" d="M115 72q0 31 21.5 50t56.5 19h309q-162 227 -244 360.5t-112.5 226.5t-30.5 194q0 164 84 285.5t237.5 188t360.5 66.5t361.5 -66.5t238.5 -189.5t84 -284q0 -102 -34 -201.5t-115 -233t-238 -346.5h309q35 0 56.5 -19.5t21.5 -49.5q0 -33 -21.5 -52.5t-56.5 -19.5h-416 q-37 0 -57.5 20.5t-20.5 51.5q0 29 23 63q217 326 297 492t80 291q0 186 -136.5 292.5t-375.5 106.5q-238 0 -374 -106.5t-136 -292.5q0 -125 81 -293t296 -490q20 -33 20 -63q0 -31 -20.5 -51.5t-57.5 -20.5h-413q-35 0 -56.5 19.5t-21.5 52.5z" />
<glyph unicode="&#x220f;" d="M115 -303v1671q0 33 21.5 54.5t53.5 21.5h848q33 0 54.5 -21.5t21.5 -54.5v-1671q0 -33 -22.5 -54.5t-57.5 -21.5q-33 0 -54.5 21.5t-21.5 54.5v1603h-688v-1603q0 -33 -22.5 -54.5t-57.5 -21.5q-32 0 -53.5 21.5t-21.5 54.5z" />
<glyph unicode="&#x2211;" horiz-adv-x="1191" d="M68 1372q0 31 21.5 51.5t57.5 20.5h893q37 0 57.5 -19.5t20.5 -54.5q0 -33 -20.5 -52.5t-57.5 -19.5h-753l473 -677q33 -45 33 -82t-33 -82l-473 -680h753q37 0 57.5 -19.5t20.5 -52.5q0 -35 -20.5 -54.5t-57.5 -19.5h-893q-37 0 -57 20.5t-20 51.5q0 33 20 61l541 775 l-541 772q-23 33 -22 61z" />
<glyph unicode="&#x221a;" d="M12 586q0 25 19.5 43t46.5 18h182q20 0 36.5 -12t22.5 -33l254 -778l443 1599q6 23 22.5 35t38.5 12q72 0 72 -57q0 -16 -6 -35l-477 -1683q-14 -51 -35 -70.5t-56 -19.5q-63 0 -88 86l-280 827h-129q-29 0 -47.5 19.5t-18.5 48.5z" />
<glyph unicode="&#x221e;" d="M88 582q0 125 72.5 205.5t197.5 80.5q72 0 141.5 -40t114.5 -123q45 84 115 123.5t141 39.5q125 0 198 -80.5t73 -205.5t-73 -206t-198 -81q-72 0 -141.5 40t-114.5 124q-45 -84 -114.5 -124t-141.5 -40q-125 0 -197.5 81t-72.5 206zM209 582q0 -76 41 -126t112 -50 q133 0 203 178q-70 174 -203 174q-72 0 -112.5 -50.5t-40.5 -125.5zM664 584q70 -178 202 -178q72 0 113 50t41 126t-41 126t-113 50q-133 0 -202 -174z" />
<glyph unicode="&#x222b;" d="M246 -307q0 29 20.5 48t48.5 19h33q92 0 137 47.5t45 155.5v1155q0 168 91.5 252t252.5 84l44 -2q27 0 45 -20.5t18 -49.5t-19.5 -49t-48.5 -20h-32q-94 0 -139.5 -47t-45.5 -156v-1155q0 -168 -91 -251t-253 -83h-41q-26 0 -45.5 21.5t-19.5 50.5z" />
<glyph unicode="&#x2248;" d="M143 342q0 14 10 35q41 70 101.5 106.5t136.5 36.5q66 0 125 -23.5t149 -68.5q63 -35 106.5 -52.5t80.5 -17.5q88 0 141 78q29 35 57 35q16 0 31 -8q27 -12 27 -47q0 -20 -11 -37q-84 -143 -235 -144q-66 0 -127 24.5t-148 70.5q-63 35 -106 52t-80 17q-86 0 -141 -80 q-29 -35 -60 -35q-14 0 -28 9q-29 18 -29 49zM143 752q0 14 10 35q41 70 101.5 106.5t136.5 36.5q66 0 125 -23.5t149 -68.5q63 -35 106.5 -52.5t80.5 -17.5q88 0 141 78q29 35 57 35q16 0 31 -8q27 -12 27 -47q0 -20 -11 -37q-84 -143 -235 -144q-66 0 -127 24.5t-148 70.5 q-63 35 -106 52t-80 17q-86 0 -141 -80q-29 -35 -60 -35q-14 0 -28 9q-29 18 -29 49z" />
<glyph unicode="&#x2260;" d="M127 381q0 25 19.5 43t46.5 18h294l117 281h-411q-29 0 -47.5 19.5t-18.5 48.5q0 25 19.5 43t46.5 18h464l88 213q8 20 24.5 31.5t35.5 11.5q29 0 46 -18.5t17 -42.5q0 -12 -6 -29l-69 -166h268q29 0 47 -19.5t18 -48.5q0 -25 -19.5 -43t-45.5 -18h-322l-116 -281h438 q29 0 47 -19.5t18 -47.5q0 -25 -19.5 -43.5t-45.5 -18.5h-492l-88 -213q-18 -41 -59 -41q-12 0 -29 7q-16 6 -25.5 21t-9.5 34q0 14 7 29l67 163h-239q-29 0 -47.5 19.5t-18.5 48.5z" />
<glyph unicode="&#x2264;" d="M115 670q0 31 16 55.5t45 32.5l828 297q29 8 40 8q31 0 50.5 -16.5t19.5 -45.5q0 -18 -9 -32.5t-26 -20.5l-792 -278l792 -279q35 -12 35 -53q0 -29 -18.5 -45.5t-48.5 -16.5q-14 0 -43 9l-828 293q-31 8 -46 32.5t-15 59.5zM127 68q0 25 19.5 43t46.5 18h868 q29 0 47 -19.5t18 -48.5q0 -25 -19.5 -43t-45.5 -18h-868q-29 0 -47.5 19.5t-18.5 48.5z" />
<glyph unicode="&#x2265;" d="M115 338q0 41 37 53l792 279l-792 278q-16 6 -26.5 20.5t-10.5 32.5q0 29 19.5 45.5t49.5 16.5q12 0 41 -8l828 -297q29 -8 45 -33t16 -55q0 -35 -15.5 -59.5t-45.5 -32.5l-828 -293q-29 -8 -43 -9q-31 0 -49 16.5t-18 45.5zM127 68q0 25 19.5 43t46.5 18h868 q29 0 47 -19.5t18 -48.5q0 -25 -19.5 -43t-45.5 -18h-868q-29 0 -47.5 19.5t-18.5 48.5z" />
<glyph unicode="&#x25fc;" horiz-adv-x="1013" d="M0 0v1014h1014v-1014h-1014z" />
</font>
</defs>
</svg>
