<?xml version="1.0" standalone="no"?>
<!DOCTYPE svg PUBLIC "-//W3C//DTD SVG 1.1//EN" "http://www.w3.org/Graphics/SVG/1.1/DTD/svg11.dtd" >
<svg xmlns="http://www.w3.org/2000/svg" xmlns:xlink="http://www.w3.org/1999/xlink" version="1.1">
<metadata></metadata>
<defs>
<font id="nunitoextralight_italic" horiz-adv-x="1228" >
<font-face units-per-em="2048" ascent="1638" descent="-410" />
<missing-glyph horiz-adv-x="503" />
<glyph horiz-adv-x="0" />
<glyph unicode="&#xd;" horiz-adv-x="503" />
<glyph horiz-adv-x="0" />
<glyph horiz-adv-x="0" />
<glyph unicode=" "  horiz-adv-x="503" />
<glyph unicode="&#x09;" horiz-adv-x="503" />
<glyph unicode="&#xa0;" horiz-adv-x="503" />
<glyph unicode="!" horiz-adv-x="434" d="M104 72q0 37 23 59.5t57 22.5q33 0 55.5 -22.5t22.5 -59.5t-22.5 -59.5t-55.5 -22.5q-34 0 -57 22.5t-23 59.5zM176 356l57 1047q2 20 18.5 35.5t39.5 15.5t36 -14.5t13 -36.5l-107 -1047q0 -16 -9 -25t-21 -9q-13 0 -21 10t-6 24z" />
<glyph unicode="&#x22;" horiz-adv-x="808" d="M215 924l8 462q2 33 19.5 50.5t40.5 17.5q25 0 39 -16.5t10 -46.5l-60 -467q-2 -14 -11 -23.5t-21 -9.5q-13 0 -20 9t-5 24zM610 924l8 462q2 33 19.5 50.5t40.5 17.5q25 0 39 -16.5t10 -46.5l-60 -467q-2 -14 -11 -23.5t-21 -9.5q-13 0 -20 9t-5 24z" />
<glyph unicode="#" d="M68 436q0 16 12 26.5t33 10.5h145l100 514h-204q-20 0 -32.5 13.5t-12.5 31.5q0 16 12 26.5t33 10.5h221l69 356q2 14 14.5 24.5t28.5 10.5q23 0 35.5 -16.5t5.5 -40.5l-65 -334h485l70 356q4 16 16.5 25.5t28.5 9.5q20 0 32.5 -16.5t6.5 -40.5l-66 -334h121 q20 0 32.5 -13.5t12.5 -31.5q0 -16 -12 -26.5t-33 -10.5h-137l-98 -514h194q20 0 32.5 -13.5t12.5 -31.5q0 -16 -12 -26.5t-33 -10.5h-211l-71 -366q-2 -14 -14.5 -24.5t-28.5 -10.5q-23 0 -35.5 16.5t-5.5 40.5l67 344h-485l-72 -366q-2 -14 -14.5 -24.5t-28.5 -10.5 q-23 0 -35 16.5t-6 40.5l68 344h-131q-20 0 -32.5 13.5t-12.5 31.5zM348 473h483l101 514h-486z" />
<glyph unicode="$" d="M84 215q0 18 11 30.5t28 12.5q12 0 24 -12q104 -92 213 -135t240 -43q190 0 297 81.5t107 229.5q0 78 -48.5 129t-119 80.5t-195.5 68.5q-147 45 -235.5 84t-150.5 114t-62 194q0 121 60 214t167.5 145t247.5 52l16 180q0 20 12.5 35t30.5 15q20 0 31.5 -13.5t9.5 -36.5 l-14 -184q119 -12 224 -60t179 -126q17 -21 17 -37q0 -18 -12.5 -31.5t-28.5 -13.5q-20 0 -43 22q-92 86 -195.5 126t-235.5 40q-174 0 -274 -87t-100 -236q0 -90 52 -148.5t127 -91.5t208 -74q139 -43 223 -79.5t141.5 -104.5t57.5 -174q0 -113 -56.5 -201t-160 -140 t-240.5 -58l-16 -179q0 -20 -12.5 -34.5t-30.5 -14.5q-20 0 -31.5 13.5t-9.5 35.5l14 181q-252 14 -440 180q-27 27 -27 51z" />
<glyph unicode="%" horiz-adv-x="1878" d="M174 963q0 233 92 365t256 132q158 0 241 -99t83 -292q0 -231 -92 -361t-256 -130q-158 0 -241 99t-83 286zM268 952q0 -154 56.5 -226.5t175.5 -72.5q123 0 187.5 109.5t64.5 318.5q0 154 -56.5 227.5t-173.5 73.5q-125 0 -189.5 -109.5t-64.5 -320.5zM449 6q0 20 10 35 l923 1405q23 31 48 31q16 0 26 -11.5t10 -27.5t-12 -35l-922 -1405q-20 -31 -47 -31q-16 0 -26 11.5t-10 27.5zM1069 371q0 236 92 366.5t256 130.5q158 0 241 -98t83 -291q0 -233 -92.5 -363t-255.5 -130q-156 0 -240 99t-84 286zM1163 360q0 -152 56.5 -224.5t175.5 -72.5 q123 0 187.5 109t64.5 320q0 152 -56.5 225.5t-173.5 73.5q-125 0 -189.5 -110t-64.5 -321z" />
<glyph unicode="&#x26;" horiz-adv-x="1327" d="M131 348q0 123 75 226.5t253 222.5l26 16q-106 123 -144 196.5t-38 155.5q0 133 87 213t233 80q133 0 210.5 -72.5t77.5 -197.5q0 -70 -26.5 -126t-91 -116.5t-185.5 -146.5l396 -453q92 180 98 449q2 20 14 31.5t31 11.5q16 0 28.5 -11.5t12.5 -31.5q-8 -303 -129 -514 l205 -234q10 -13 10 -29t-11.5 -27t-27.5 -11q-18 0 -37 20l-184 211q-84 -109 -196.5 -167t-250.5 -58q-129 0 -228 45t-153.5 128t-54.5 189zM219 346q0 -129 94.5 -204.5t255.5 -75.5q123 0 222.5 53t166.5 153l-419 480q-6 -6 -12.5 -9.5t-10.5 -7.5 q-168 -113 -232.5 -197.5t-64.5 -191.5zM395 1163q0 -69 33 -131.5t125 -171.5q158 106 214 174t56 146q0 88 -56 142t-146 54q-102 0 -164 -58t-62 -155z" />
<glyph unicode="'" horiz-adv-x="413" d="M215 924l8 462q2 33 19.5 50.5t40.5 17.5q25 0 39 -16.5t10 -46.5l-60 -467q-2 -14 -11 -23.5t-21 -9.5q-13 0 -20 9t-5 24z" />
<glyph unicode="(" horiz-adv-x="575" d="M215 373q0 293 75 570.5t210 496.5q16 25 39 24q12 0 21 -8t9 -20q0 -8 -6 -21q-262 -502 -262 -1048q0 -174 30.5 -354.5t92.5 -350.5q2 -4 2 -12q0 -16 -12.5 -26.5t-26.5 -10.5q-23 0 -31 20q-141 353 -141 740z" />
<glyph unicode=")" horiz-adv-x="575" d="M14 -358q0 8 6 20q260 481 261 1049q0 375 -123 704q-2 4 -2 12q0 16 12 26.5t29 10.5q23 0 28 -20q144 -358 144 -737q0 -293 -76 -570.5t-209 -498.5q-16 -25 -39 -25q-12 0 -21.5 8t-9.5 21z" />
<glyph unicode="*" horiz-adv-x="917" d="M113 1106q0 16 14 28.5t39 10.5l285 -6l-150 243q-10 20 -10 33q0 16 10 27.5t27 11.5q27 0 45 -31l135 -252l135 250q18 33 45 33q14 0 24.5 -11t10.5 -28q0 -18 -10 -35l-148 -241l285 6q27 2 41 -10.5t14 -28.5t-14 -28.5t-41 -12.5l-285 6l148 -240q10 -14 10 -34 q0 -16 -10.5 -27.5t-24.5 -11.5q-27 0 -45 33l-135 247l-135 -250q-16 -31 -45 -30q-16 0 -26.5 10t-10.5 27q0 18 10 32l150 244l-285 -6q-25 0 -39 12.5t-14 28.5z" />
<glyph unicode="+" d="M123 582q0 16 12 27.5t31 11.5h420l32 415q2 18 14.5 31.5t29.5 13.5q16 0 27 -13t9 -32l-32 -415h413q19 0 31 -11.5t12 -29.5q0 -16 -12 -28.5t-31 -12.5h-422l-32 -414q-2 -18 -14.5 -30.5t-28.5 -12.5t-27.5 12t-9.5 31l33 414h-414q-18 0 -29.5 12t-11.5 31z" />
<glyph unicode="," horiz-adv-x="434" d="M92 -170q0 18 17 35q29 29 42 57.5t19 69.5q-29 4 -47.5 25.5t-18.5 54.5q0 35 21.5 58.5t54.5 23.5t56.5 -27t23.5 -74q0 -137 -94 -237q-18 -18 -39 -19q-14 0 -24.5 9.5t-10.5 23.5z" />
<glyph unicode="-" horiz-adv-x="851" d="M152 543q0 16 12 27.5t29 11.5h475q20 0 30.5 -11.5t10.5 -29.5q0 -16 -11.5 -26.5t-29.5 -10.5h-475q-19 0 -30 11t-11 28z" />
<glyph unicode="." horiz-adv-x="434" d="M104 72q0 37 23 59.5t57 22.5q33 0 55.5 -22.5t22.5 -59.5t-22.5 -59.5t-55.5 -22.5q-34 0 -57 22.5t-23 59.5z" />
<glyph unicode="/" horiz-adv-x="524" d="M-76 -76q0 8 4 21l619 1548q12 33 43 33q16 0 28.5 -12.5t12.5 -30.5q0 -4 -4 -21l-615 -1548q-6 -14 -18 -22.5t-25 -8.5q-18 0 -31.5 11.5t-13.5 29.5z" />
<glyph unicode="0" d="M141 608q0 406 136.5 629t381.5 223q229 0 347 -159.5t118 -464.5q0 -406 -136 -629t-384 -223q-227 0 -345 159.5t-118 464.5zM233 590q0 -264 92.5 -393t282.5 -129q209 0 316.5 199.5t107.5 586.5q0 264 -92 393t-281 129q-209 0 -317.5 -198.5t-108.5 -587.5z" />
<glyph unicode="1" d="M252 41q0 14 10 25.5t25 11.5h295l100 1249l-246 -153q-10 -8 -24 -9q-16 0 -28.5 13.5t-12.5 29.5q0 23 20 37l299 189v2l25 14q16 10 26 10q14 0 23.5 -10t9.5 -23l-106 -1349h288q17 0 27 -11.5t10 -27.5q0 -14 -10 -26.5t-25 -12.5h-667q-16 0 -27.5 12.5t-11.5 28.5 z" />
<glyph unicode="2" d="M152 37q0 20 16 37l561 573q141 143 197.5 246.5t56.5 218.5q0 121 -77 193.5t-204 72.5q-123 0 -225 -41t-196 -123q-16 -16 -35 -16q-14 0 -23.5 10.5t-9.5 24.5q0 27 25 51q84 80 205.5 128t250.5 48q172 0 274.5 -93t102.5 -253q0 -133 -66.5 -257t-224.5 -284 l-495 -495h745q19 0 25 -9.5t6 -25.5q0 -14 -9.5 -28.5t-27.5 -14.5h-834q-16 0 -27 10t-11 27z" />
<glyph unicode="3" d="M117 188q0 18 12 33t29 15q18 0 37 -19q166 -150 391 -149q172 0 271 88t99 250q0 143 -90 215.5t-266 72.5h-115q-18 0 -28.5 11.5t-10.5 29.5q0 16 9.5 27.5t25.5 11.5h117q174 0 279.5 96.5t105.5 253.5q0 115 -79 184.5t-208 69.5q-119 0 -220 -41t-195 -123 q-16 -16 -35 -16q-14 0 -23.5 10.5t-9.5 24.5q0 27 25 51q82 80 204.5 128t253.5 48q170 0 272.5 -93t102.5 -249q0 -127 -73.5 -231.5t-198.5 -149.5q116 -30 180.5 -114t64.5 -211q0 -195 -126.5 -310.5t-337.5 -115.5q-131 0 -246 44t-203 124q-14 14 -14 34z" />
<glyph unicode="4" d="M104 377q0 18 15 35l784 1022q20 23 43 22q16 0 26.5 -11t8.5 -30l-80 -995h199q14 0 25.5 -11.5t11.5 -27.5t-10.5 -28.5t-24.5 -12.5h-207l-25 -311q-2 -16 -13 -27.5t-28 -11.5q-18 0 -31.5 13t-13.5 34l25 303h-641l-4 -4v4h-4q-23 0 -39.5 10t-16.5 27zM229 420h586 l68 848z" />
<glyph unicode="5" d="M176 193q0 18 10.5 30.5t26.5 12.5q20 0 41 -19q78 -70 174 -109.5t203 -39.5q174 0 278.5 111.5t104.5 295.5q0 150 -89 241t-235 91q-119 0 -211 -47t-151 -139q-18 -23 -45 -23q-20 0 -33.5 15.5t-11.5 43.5l59 742q2 20 16.5 32.5t32.5 12.5h752q18 0 28.5 -12.5 t10.5 -28.5q0 -39 -37 -39h-719l-49 -631q59 72 153.5 115t196.5 43q193 0 308.5 -113.5t115.5 -302.5q0 -143 -61.5 -253.5t-170 -173t-247.5 -62.5q-123 0 -237 44t-195 120q-18 18 -19 43z" />
<glyph unicode="6" horiz-adv-x="1226" d="M147 594q0 262 72 457.5t202 302t304 106.5q127 0 238.5 -45t195.5 -137q19 -20 19 -43q0 -18 -11.5 -29.5t-27.5 -11.5q-29 0 -47 25q-70 76 -165.5 117.5t-201.5 41.5q-207 0 -334 -174t-151 -497l-9 -97q53 129 165 205t257 76q135 0 236.5 -54.5t158 -153.5 t56.5 -228q0 -135 -59.5 -243t-164 -168t-235.5 -60q-238 0 -368 158.5t-130 451.5zM272 420q0 -158 102.5 -256t270.5 -98q164 0 266.5 108.5t102.5 282.5q0 158 -99.5 254t-263.5 96q-108 0 -194 -50t-135.5 -138.5t-49.5 -198.5z" />
<glyph unicode="7" d="M238 1405q0 18 11 28.5t30 10.5h819q18 0 30.5 -11.5t12.5 -27.5q0 -14 -8 -29l-789 -1374q-10 -23 -35 -22q-16 0 -29.5 11t-13.5 27q0 12 6 21l764 1327h-755q-16 0 -29.5 12.5t-13.5 26.5z" />
<glyph unicode="8" d="M106 369q0 131 81 234.5t221 139.5q-104 39 -159.5 121t-55.5 197q0 119 59 209t167.5 140t254.5 50q213 0 331.5 -95t118.5 -255q0 -135 -71.5 -234.5t-196.5 -140.5q248 -80 248 -354q0 -117 -60.5 -206t-175 -138t-270.5 -49q-242 0 -367 96t-125 285zM199 360 q0 -143 96 -215.5t297 -72.5t310.5 80.5t109.5 230.5q0 160 -93.5 233.5t-306.5 73.5q-201 0 -307 -82t-106 -248zM285 1059q0 -133 93 -209t271 -76q184 0 283.5 88t99.5 242q0 129 -91 201.5t-269 72.5q-186 0 -286.5 -85t-100.5 -234z" />
<glyph unicode="9" d="M88 209q0 18 11.5 29.5t27.5 11.5q29 0 47 -25q74 -76 167 -117.5t200 -41.5q207 0 332.5 174t152.5 497l8 97q-53 -129 -164.5 -205t-257.5 -76q-135 0 -236.5 54.5t-157.5 153.5t-56 228q0 135 59.5 242.5t165 168t236.5 60.5q237 0 366 -159.5t129 -450.5 q0 -262 -71.5 -457.5t-201.5 -302t-304 -106.5q-127 0 -239 45t-196 137q-18 23 -18 43zM254 987q0 -158 98.5 -254t261.5 -96q109 0 196 50t135 138t48 199q0 158 -102.5 256t-269.5 98q-164 0 -265.5 -107.5t-101.5 -283.5z" />
<glyph unicode=":" horiz-adv-x="434" d="M104 72q0 37 23 59.5t57 22.5q33 0 55.5 -22.5t22.5 -59.5t-22.5 -59.5t-55.5 -22.5q-34 0 -57 22.5t-23 59.5zM174 932q0 37 22.5 59.5t57.5 22.5q33 0 55.5 -22.5t22.5 -59.5t-22.5 -58.5t-55.5 -21.5q-35 0 -57.5 21.5t-22.5 58.5z" />
<glyph unicode=";" horiz-adv-x="434" d="M92 -170q0 18 17 35q29 29 42 57.5t19 69.5q-29 4 -47.5 25.5t-18.5 54.5q0 35 21.5 58.5t54.5 23.5t56.5 -27t23.5 -74q0 -139 -94 -237q-18 -18 -39 -19q-14 0 -24.5 9.5t-10.5 23.5zM174 932q0 37 22.5 59.5t57.5 22.5q33 0 55.5 -22.5t22.5 -59.5t-22.5 -58.5 t-55.5 -21.5q-35 0 -57.5 21.5t-22.5 58.5z" />
<glyph unicode="&#x3c;" d="M123 575q0 41 39 60l919 420q15 8 33 8q16 0 28.5 -10.5t12.5 -26.5q0 -20 -22 -35l-910 -411l842 -414q23 -12 20 -35q-2 -16 -16 -26.5t-33 -10.5q-16 0 -30 8l-854 420q-29 16 -29 53z" />
<glyph unicode="=" d="M104 379q0 16 12.5 26.5t30.5 10.5h914q18 0 29.5 -12.5t11.5 -32.5q0 -14 -12.5 -25.5t-30.5 -11.5h-914q-18 0 -29.5 13t-11.5 32zM135 788q0 16 12.5 26.5t30.5 10.5h914q18 0 29.5 -12t11.5 -33q0 -14 -12.5 -25.5t-30.5 -11.5h-914q-18 0 -29.5 13.5t-11.5 31.5z " />
<glyph unicode="&#x3e;" d="M86 127q0 23 25 39l909 412l-842 413q-23 12 -22 35q2 16 16 26.5t35 10.5q16 0 31 -8l854 -420q34 -16 30 -55q-6 -41 -41 -58l-919 -420q-14 -8 -33 -8q-18 0 -30.5 9.5t-12.5 23.5z" />
<glyph unicode="?" horiz-adv-x="878" d="M53 1231q0 29 23 51q86 82 209 130t237 48q160 0 252 -75.5t92 -202.5q0 -119 -52 -207t-159 -205q-102 -115 -160.5 -206t-76.5 -214q-6 -29 -29 -28q-24 -1 -24 32q6 100 38.5 181t75.5 141.5t115 142.5q92 104 137 180t45 175q0 94 -67.5 149t-188.5 55 q-111 0 -202 -39t-201 -125q-18 -16 -37 -16q-27 0 -27 33zM289 72q0 37 22.5 59.5t57.5 22.5q33 0 55 -22.5t22 -59.5t-22.5 -59.5t-54.5 -22.5q-35 0 -57.5 22.5t-22.5 59.5z" />
<glyph unicode="@" horiz-adv-x="1882" d="M119 567q0 262 111.5 464t306 312.5t434.5 110.5q260 0 443 -110.5t275.5 -282.5t92.5 -352q0 -213 -62.5 -342t-154.5 -182.5t-189 -53.5q-111 0 -169 48t-60 140h-4q-49 -86 -132 -137t-184 -51q-125 0 -207.5 91t-82.5 261q0 137 53 260t152.5 200t228.5 77 q104 0 181 -53.5t93 -130.5h2l23 125q2 16 14 26t29 10q20 0 30.5 -12t8.5 -35l-97 -553q-6 -37 -6 -65q0 -72 36 -98.5t108 -26.5q70 0 138 49t116.5 161.5t48.5 291.5q0 156 -80 307t-244 250.5t-401 99.5q-217 0 -391 -98.5t-274.5 -279.5t-100.5 -421q0 -238 92 -414 t265 -272t411 -96q176 0 308 53t212 146q27 33 55 32q18 0 29.5 -14t11.5 -33q0 -23 -14 -39q-100 -113 -255 -173t-347 -60q-258 0 -451.5 108.5t-298 305t-104.5 456.5zM616 494q0 -141 66 -214t162 -73q112 0 196 67.5t128 177t44 228.5q0 127 -64.5 194.5t-172.5 67.5 q-109 0 -189.5 -64.5t-125 -168t-44.5 -215.5z" />
<glyph unicode="A" horiz-adv-x="1462" d="M45 33q0 12 6 24l697 1358q8 18 23 28.5t32 10.5q18 0 33.5 -12t23.5 -35l483 -1356q5 -16 5 -20q0 -18 -12.5 -29.5t-28.5 -11.5q-31 0 -45 35l-134 374h-809l-194 -383q-12 -27 -37 -26q-16 0 -29.5 12t-13.5 31zM362 481h738l-303 854z" />
<glyph unicode="B" horiz-adv-x="1361" d="M162 59l104 1340q2 20 16.5 32.5t32.5 12.5h467q223 0 337 -89t114 -261q0 -129 -67.5 -223.5t-196.5 -135.5q121 -30 182 -111t61 -206q0 -199 -124.5 -308.5t-354.5 -109.5h-516q-25 0 -40 17.5t-15 41.5zM250 80h489q187 0 285 82t98 239q0 291 -358 291h-467z M303 774h461q178 0 279.5 84t101.5 240q0 131 -90 198.5t-267 67.5h-438z" />
<glyph unicode="C" horiz-adv-x="1386" d="M154 655q0 244 80.5 426.5t230 280.5t354.5 98q338 0 520 -200q10 -14 11 -29q0 -18 -11.5 -31.5t-27.5 -13.5t-31 16q-96 92 -204.5 133t-262.5 41q-178 0 -306 -86t-195.5 -248.5t-67.5 -388.5q0 -281 135 -433t385 -152q254 0 430 168q20 20 39 20q14 0 23.5 -11.5 t9.5 -27.5q0 -20 -15 -35q-204 -198 -511 -198h-3q-176 0 -308 80.5t-203.5 232.5t-71.5 358z" />
<glyph unicode="D" horiz-adv-x="1484" d="M162 59l104 1340q2 20 16.5 32.5t32.5 12.5h387q324 0 494 -170t170 -488q0 -369 -184.5 -577.5t-524.5 -208.5h-440q-24 0 -39.5 17.5t-15.5 41.5zM250 78h409q301 0 458 185.5t157 524.5q0 578 -569 578h-355z" />
<glyph unicode="E" horiz-adv-x="1179" d="M160 51l106 1350q4 43 47 43h793q16 0 26.5 -12.5t10.5 -28.5q0 -14 -10.5 -26.5t-24.5 -12.5h-758l-47 -592h709q18 0 28.5 -11t10.5 -30q0 -14 -10.5 -26.5t-26.5 -12.5h-717l-47 -612h749q16 0 26.5 -12.5t10.5 -28.5q0 -14 -9 -26.5t-26 -12.5h-792q-49 0 -49 51z " />
<glyph unicode="F" horiz-adv-x="1122" d="M158 37l108 1364q4 43 49 43h770q17 0 27 -12.5t10 -28.5q0 -14 -10 -26.5t-25 -12.5h-737l-47 -592h688q16 0 27.5 -12t11.5 -29q0 -12 -10 -24.5t-25 -12.5h-698l-53 -665q-2 -18 -13.5 -28.5t-27.5 -10.5q-18 0 -31.5 13t-13.5 34z" />
<glyph unicode="G" horiz-adv-x="1466" d="M152 633q0 252 85 438t241.5 286.5t369.5 100.5q303 0 487 -186q17 -16 17 -41q0 -18 -11.5 -32.5t-27.5 -14.5q-14 0 -31 16q-100 92 -203.5 134t-230.5 42q-188 0 -324.5 -88t-209 -253t-72.5 -394q0 -276 137 -425.5t405 -149.5q98 0 203 19t191 54l39 506h-353 q-23 0 -36 12.5t-13 28.5q0 20 12.5 30.5t34.5 10.5h379q25 0 41 -18.5t16 -44.5l-43 -558q0 -8 -7 -19t-15 -15q-88 -39 -211 -63.5t-229 -24.5q-313 0 -477 171t-164 478z" />
<glyph unicode="H" horiz-adv-x="1538" d="M160 37l108 1378q2 18 13.5 28.5t27.5 10.5q18 0 32.5 -13.5t12.5 -33.5l-49 -635h971l51 643q0 18 12.5 28.5t28.5 10.5q18 0 31.5 -13.5t11.5 -33.5l-108 -1378q0 -18 -12.5 -28.5t-28.5 -10.5q-18 0 -31.5 13t-11.5 34l51 657h-971l-53 -665q-2 -18 -13.5 -28.5 t-27.5 -10.5q-18 0 -31.5 13t-13.5 34z" />
<glyph unicode="I" horiz-adv-x="477" d="M160 37l108 1378q2 18 13.5 28.5t27.5 10.5q18 0 31.5 -13.5t13.5 -33.5l-108 -1378q-2 -18 -13.5 -28.5t-27.5 -10.5q-19 0 -32 13t-13 34z" />
<glyph unicode="J" horiz-adv-x="608" d="M-53 33q0 10 10 21.5t27 13.5l65 4q119 8 187.5 82.5t80.5 212.5l84 1042q0 20 13.5 32.5t31.5 12.5q39 0 39 -45l-84 -1047q-14 -174 -103 -266t-249 -102l-67 -4h-2q-16 0 -25.5 13t-7.5 30z" />
<glyph unicode="K" horiz-adv-x="1226" d="M160 37l108 1378q2 14 14.5 26.5t26.5 12.5q16 0 30.5 -15.5t14.5 -31.5l-49 -633l856 672q11 6 21 6q14 0 26.5 -12.5t12.5 -26.5t-15 -27l-827 -649l756 -678q14 -14 14 -30q0 -14 -11.5 -26.5t-25.5 -12.5t-22 8l-791 702l-53 -671q-2 -14 -14.5 -26.5t-26.5 -12.5 q-16 0 -30.5 15t-14.5 32z" />
<glyph unicode="L" horiz-adv-x="1079" d="M160 51l108 1364q2 18 13.5 28.5t29.5 10.5t30.5 -13.5t12.5 -33.5l-104 -1329h733q16 0 26.5 -12.5t10.5 -28.5q0 -12 -10.5 -24.5t-24.5 -12.5h-776q-25 0 -38 13.5t-11 37.5z" />
<glyph unicode="M" horiz-adv-x="1720" d="M160 37l108 1374q2 18 13.5 30.5t31.5 12.5q31 0 43 -35l492 -1114l668 1127q12 27 47 26q34 0 34 -31l-110 -1400q-2 -16 -14.5 -26.5t-26.5 -10.5q-18 0 -31.5 13t-13.5 34l98 1214l-608 -1003q-4 -10 -18.5 -17.5t-28.5 -7.5q-16 0 -30.5 8.5t-18.5 22.5l-453 1006 l-96 -1233q-2 -16 -14.5 -26.5t-26.5 -10.5q-18 0 -32.5 13t-12.5 34z" />
<glyph unicode="N" horiz-adv-x="1499" d="M158 35l108 1376q2 43 43 43q27 0 45 -31l838 -1276l102 1270q2 37 41 37q17 0 29 -13.5t12 -31.5l-108 -1378q-4 -41 -37 -41q-20 0 -29.5 8t-19.5 22l-842 1285l-100 -1278q-2 -37 -41 -37q-16 0 -28.5 13t-12.5 32z" />
<glyph unicode="O" horiz-adv-x="1538" d="M154 655q0 244 79.5 426.5t226 280.5t343.5 98q190 0 329.5 -81t213 -232.5t73.5 -360.5q0 -242 -79.5 -424t-227 -280t-344.5 -98q-190 0 -328.5 80.5t-212 232.5t-73.5 358zM246 653q0 -281 136 -432t388 -151q172 0 298 86t192.5 247.5t66.5 384.5q0 283 -135 434.5 t-389 151.5q-172 0 -298 -86t-192.5 -248.5t-66.5 -386.5z" />
<glyph unicode="P" horiz-adv-x="1294" d="M158 37l108 1364q4 43 47 43h469q219 0 334 -103.5t115 -281.5q0 -217 -134 -327.5t-370 -110.5h-436l-47 -592q-2 -16 -14.5 -27.5t-26.5 -11.5q-18 0 -31.5 13t-13.5 34zM297 702h434q410 1 410 357q0 145 -88 225t-269 80h-436z" />
<glyph unicode="Q" horiz-adv-x="1538" d="M154 655q0 244 79.5 426.5t226 280.5t343.5 98q190 0 329.5 -81t213 -232.5t73.5 -360.5q0 -303 -125 -510.5t-360 -267.5q37 -16 67.5 -51t63.5 -96l96 -178q4 -8 4 -21q0 -16 -11 -27.5t-28 -11.5q-27 0 -45 31l-106 194q-70 131 -250 138q-170 6 -299 86t-200.5 229.5 t-71.5 353.5zM246 653q0 -281 136 -432t388 -151q172 0 298 86t192.5 247.5t66.5 384.5q0 283 -135 434.5t-389 151.5q-172 0 -298 -86t-192.5 -248.5t-66.5 -386.5z" />
<glyph unicode="R" horiz-adv-x="1386" d="M160 39l106 1360q2 20 16.5 32.5t32.5 12.5h500q217 0 334 -93.5t117 -277.5q0 -186 -109.5 -295.5t-316.5 -124.5q41 -16 73.5 -54t69.5 -105l246 -445q6 -12 6 -22q0 -14 -12.5 -24.5t-28.5 -10.5q-29 0 -43 26l-244 445q-55 102 -119.5 139t-185.5 37h-309l-47 -610 q-2 -18 -13.5 -28.5t-29.5 -10.5q-20 0 -32.5 13t-10.5 36zM299 721h469q207 0 307.5 85t100.5 263q0 150 -89.5 222.5t-267.5 72.5h-469z" />
<glyph unicode="S" horiz-adv-x="1224" d="M72 213q0 18 11 30.5t26 12.5q14 0 24 -12q106 -94 219 -136t260 -42q203 0 309.5 79.5t106.5 223.5q0 86 -50 139t-125 83t-206 66q-152 43 -246 83t-159.5 120t-65.5 209q0 119 61.5 207t175 136t265.5 48q147 0 276 -49t222 -141q14 -14 14 -35q0 -18 -12.5 -31.5 t-28.5 -13.5q-20 0 -41 20q-86 82 -194.5 125t-233.5 43q-203 0 -309.5 -82t-106.5 -229q0 -96 54.5 -156.5t135.5 -94.5t216 -71q150 -43 236.5 -79.5t148 -108.5t61.5 -188q0 -117 -61.5 -204t-175 -134t-265.5 -47q-168 0 -292.5 44t-223.5 134q-27 25 -26 51z" />
<glyph unicode="T" horiz-adv-x="1196" d="M90 1407q0 14 9.5 25.5t25.5 11.5h1087q18 0 28.5 -12.5t10.5 -28.5q0 -12 -10 -24.5t-24 -12.5h-508l-105 -1337q-2 -16 -13 -27.5t-28 -11.5q-18 0 -31.5 14t-11.5 33l105 1329h-498q-16 0 -26.5 12.5t-10.5 28.5z" />
<glyph unicode="U" horiz-adv-x="1464" d="M186 475q0 45 2 70l70 870q2 16 13.5 27.5t27.5 11.5q18 0 32.5 -13.5t12.5 -33.5l-70 -854q-2 -25 -2 -70q0 -415 420 -415h2q236 0 361 116.5t143 350.5l70 880q0 16 12 27.5t29 11.5q18 0 31.5 -13.5t11.5 -33.5l-68 -858q-23 -283 -171 -424t-417 -141 q-252 0 -381 128t-129 363z" />
<glyph unicode="V" horiz-adv-x="1372" d="M109 1417q0 18 11 27.5t27 9.5q35 0 46 -31l460 -1317l672 1326q8 20 37 20q16 0 27.5 -9t11.5 -24q0 -12 -6 -24l-695 -1370q-14 -35 -49 -35q-18 0 -34.5 11t-24.5 32l-479 1366q-4 12 -4 18z" />
<glyph unicode="W" horiz-adv-x="2238" d="M166 1413q0 18 12 29.5t29 11.5q35 0 43 -35l344 -1296l549 1290q16 39 47 39q16 0 28.5 -10t16.5 -29l346 -1288l555 1307q8 22 35 22q16 0 27.5 -9t11.5 -26q0 -8 -4 -20l-584 -1374q-16 -35 -47 -35q-16 0 -29.5 11t-19.5 32l-344 1272l-547 -1280q-14 -33 -49 -33 q-16 0 -29.5 10t-17.5 31l-371 1370z" />
<glyph unicode="X" horiz-adv-x="1290" d="M27 27q0 18 14 34l575 682l-440 643q-10 16 -10 27q0 18 13.5 28.5t31.5 10.5q25 0 37 -18l422 -625l518 629q15 16 35 16q16 0 29.5 -11t13.5 -28q0 -12 -13 -29l-540 -645l467 -684q10 -16 10 -28q0 -18 -12.5 -28.5t-30.5 -10.5q-27 0 -43 24l-442 658l-560 -666 q-14 -16 -34 -16q-16 0 -28.5 11t-12.5 26z" />
<glyph unicode="Y" horiz-adv-x="1189" d="M94 1421q0 16 11.5 24.5t25.5 8.5q31 0 41 -22l442 -658l535 649q24 31 53 31q14 0 23.5 -8t9.5 -23q0 -14 -12 -30l-570 -691l-53 -673q-2 -16 -13.5 -27.5t-27.5 -11.5q-18 0 -31.5 14t-11.5 33l51 661l-461 691q-12 18 -12 32z" />
<glyph unicode="Z" horiz-adv-x="1185" d="M47 41q0 14 8 25l994 1298h-861q-16 0 -26 12.5t-10 28.5q0 14 9 26.5t25 12.5h922l4 4v-4h18q15 0 24 -11.5t9 -27.5t-8 -27l-991 -1298h878q16 0 27.5 -12.5t11.5 -28.5q0 -14 -10 -26.5t-27 -12.5h-940l-4 -4v4h-16q-14 0 -25.5 12.5t-11.5 28.5z" />
<glyph unicode="[" horiz-adv-x="575" d="M174 -195l117 1465q6 86 52 130t130 44h127q47 0 47 -35q0 -16 -13 -28.5t-36 -12.5h-123q-90 0 -96 -94l-117 -1473q-4 -47 15.5 -70.5t66.5 -23.5h121q45 0 45 -39q0 -16 -13.5 -26.5t-35.5 -10.5h-131q-84 0 -123 44t-33 130z" />
<glyph unicode="\" horiz-adv-x="524" d="M49 1464q-6 27 9.5 45.5t37.5 18.5q14 0 25.5 -9.5t15.5 -27.5l371 -1548q6 -25 -9.5 -42.5t-37.5 -17.5q-14 0 -25.5 9.5t-13.5 25.5z" />
<glyph unicode="]" horiz-adv-x="575" d="M-63 -334q0 16 13 28.5t36 12.5h123q90 0 96 94l117 1473q4 47 -15.5 70.5t-66.5 23.5h-121q-45 0 -45 39q0 16 13 26.5t36 10.5h131q84 0 123 -44t33 -130l-117 -1465q-16 -174 -182 -174h-127q-47 0 -47 35z" />
<glyph unicode="^" d="M117 324q0 12 8 26l498 903q23 33 55 33q14 0 27.5 -9t19.5 -24l356 -901q4 -16 4 -22q0 -18 -13 -30.5t-30 -12.5q-18 0 -28 18l-346 875l-484 -875q-8 -18 -30 -18q-14 0 -25.5 10t-11.5 27z" />
<glyph unicode="_" horiz-adv-x="1024" d="M-43 -35q2 12 14.5 23.5t28.5 11.5h946q18 0 27.5 -11.5t7.5 -23.5q0 -12 -11.5 -22.5t-27.5 -10.5h-948q-17 0 -27 10.5t-10 22.5z" />
<glyph unicode="`" horiz-adv-x="614" d="M122 1501q0 20 15.5 35.5t36.5 15.5q14 0 27.5 -10t21.5 -29l155 -358l5 -16q0 -12 -9.5 -19.5t-21.5 -7.5q-20 0 -33 21l-188 335q-8 16 -9 33z" />
<glyph unicode="a" horiz-adv-x="1067" d="M125 268q0 111 60.5 175.5t195.5 94t362 29.5h72l6 80q2 18 2 51q0 121 -56 177.5t-175 56.5q-174 0 -352 -119q-8 -6 -21 -6q-14 0 -23.5 14.5t-9.5 30.5q0 25 21 43q74 55 179.5 88t203.5 33q323 -1 323 -318q0 -31 -2 -47l-49 -620q-2 -20 -13 -30.5t-28 -10.5 q-20 0 -33.5 13t-11.5 36l8 137q-47 -92 -130 -141t-191 -49q-150 0 -244 78.5t-94 203.5zM221 272q0 -92 66.5 -146t179.5 -54q137 0 231.5 94t104.5 242l6 79h-59q-205 0 -319 -19t-162 -65.5t-48 -130.5z" />
<glyph unicode="b" horiz-adv-x="1157" d="M135 37l111 1380q2 20 16 29.5t31 9.5q18 0 29.5 -10t9.5 -31l-45 -590q49 90 141 140.5t201 50.5q125 0 221 -59.5t149.5 -168t53.5 -253.5q0 -164 -58.5 -289t-164 -192.5t-240.5 -67.5q-125 0 -218 57t-136 160l-13 -166q-2 -25 -16 -36t-31 -11q-18 0 -30.5 11 t-10.5 36zM258 455q0 -186 88 -285.5t254 -99.5q168 0 263 126t95 349q0 184 -89 285.5t-248 101.5q-170 0 -266.5 -127t-96.5 -350z" />
<glyph unicode="c" horiz-adv-x="962" d="M106 463q0 166 58.5 291t166 193.5t255.5 68.5q102 0 191 -33t141 -84q18 -20 18 -41q0 -20 -12.5 -33.5t-28.5 -13.5t-29 12q-133 111 -288 111q-180 0 -279.5 -127t-99.5 -350q0 -180 90 -283.5t256 -103.5q80 0 146.5 28.5t127.5 81.5q12 12 29 13q16 0 29.5 -13.5 t13.5 -29.5q0 -10 -10 -25q-63 -66 -153.5 -102.5t-192.5 -36.5q-129 0 -225.5 59t-150 166.5t-53.5 251.5z" />
<glyph unicode="d" horiz-adv-x="1157" d="M106 465q0 164 58.5 289t163 193.5t241.5 68.5q125 0 217.5 -56.5t135.5 -156.5l47 612q2 20 16 30.5t31 10.5q41 0 39 -39l-107 -1380q-2 -25 -16 -36t-31 -11q-18 0 -30.5 11t-10.5 36l12 141q-51 -90 -143 -141t-199 -51q-125 0 -221 59t-149.5 168t-53.5 252z M199 463q0 -186 90 -289.5t250 -103.5q170 0 266 127t96 350q0 186 -88 285.5t-254 99.5q-168 0 -264 -126t-96 -343z" />
<glyph unicode="e" horiz-adv-x="1073" d="M106 463q0 166 58.5 291t167 193.5t256.5 68.5q195 0 295 -114t100 -339q0 -37 -19.5 -56.5t-48.5 -19.5h-714v-32q0 -180 90 -282.5t260 -102.5q90 0 174 28.5t145 77.5q16 14 35 14q16 0 27.5 -11t11.5 -25q0 -20 -18 -39q-55 -55 -162 -92t-211 -37q-207 0 -327 129 t-120 348zM209 567h688q1 16 1 32q0 159 -75 243q-82 94 -229 94q-164 0 -263.5 -96.5t-121.5 -272.5z" />
<glyph unicode="f" horiz-adv-x="618" d="M47 956q0 12 9.5 23.5t23.5 11.5h174l4 60q14 199 109.5 291t289.5 102l33 2h4q16 0 24.5 -12.5t8.5 -26.5q0 -12 -9 -23.5t-30 -13.5l-59 -4q-137 -8 -205 -81t-78 -222l-6 -72h270q14 0 23.5 -10t9.5 -27q0 -16 -8 -26t-23 -10h-278l-70 -883q0 -23 -12 -34t-29 -11 q-18 0 -31.5 11t-13.5 34l70 883h-166q-16 0 -25.5 11t-9.5 27z" />
<glyph unicode="g" horiz-adv-x="1165" d="M109 489q0 158 57 277t162.5 184.5t244.5 65.5q125 0 218.5 -54.5t136.5 -154.5l14 158q4 47 47 47q39 0 39 -38v-7l-72 -920q-33 -430 -421 -430q-123 0 -225.5 32t-176.5 91q-23 20 -22 45q0 18 11 30.5t28 12.5q14 0 22 -8q94 -66 173 -92.5t187 -26.5q311 0 340 344 l15 191q-45 -96 -139.5 -150.5t-206.5 -54.5q-197 0 -314.5 125t-117.5 333zM201 481q0 -178 88 -272t256 -94q170 0 267 119.5t97 330.5q0 174 -90 270.5t-254 96.5q-170 0 -267 -120t-97 -331z" />
<glyph unicode="h" horiz-adv-x="1132" d="M135 37l111 1380q2 20 16 29.5t31 9.5q18 0 29.5 -10t9.5 -31l-47 -592q51 92 141 142.5t205 50.5q168 0 256 -83t88 -245q0 -35 -2 -53l-45 -598q-2 -25 -16.5 -36t-30.5 -11q-18 0 -29.5 11t-9.5 36l45 590q2 18 2 53q0 254 -254 254q-162 0 -259 -95.5t-110 -260.5 l-45 -541q-2 -25 -15 -36t-30 -11q-18 0 -30.5 11t-10.5 36z" />
<glyph unicode="i" horiz-adv-x="434" d="M135 37l76 936q2 20 15.5 29.5t31.5 9.5q41 0 39 -39l-76 -936q-2 -47 -45 -47t-41 47zM209 1331q0 35 21.5 55.5t53.5 20.5q33 0 54.5 -20.5t21.5 -55.5q0 -33 -22.5 -53.5t-53.5 -20.5q-30 0 -52.5 20.5t-22.5 53.5z" />
<glyph unicode="j" horiz-adv-x="434" d="M-252 -334q0 12 11.5 22.5t27.5 12.5l59 4q141 8 210 83t79 226l76 955q6 43 43 43q18 0 31.5 -11.5t11.5 -31.5l-74 -942q-14 -201 -111.5 -295t-293.5 -105l-35 -2h-4q-14 0 -22.5 11.5t-8.5 25.5v4zM209 1331q0 35 21.5 55.5t53.5 20.5q33 0 54.5 -20.5t21.5 -55.5 q0 -33 -22.5 -53.5t-53.5 -20.5q-30 0 -52.5 20.5t-22.5 53.5z" />
<glyph unicode="k" horiz-adv-x="958" d="M139 39l107 1376q2 16 16 27.5t31 11.5q20 0 30.5 -13.5t8.5 -35.5l-68 -877l567 465q11 8 25 8t25.5 -11t11.5 -25q0 -20 -16 -31l-510 -422l495 -455q16 -16 17 -30q0 -14 -10.5 -25.5t-26.5 -11.5q-14 0 -27 10l-555 489l-35 -460q-2 -18 -13 -28.5t-30 -10.5 q-18 0 -31.5 14t-11.5 35z" />
<glyph unicode="l" horiz-adv-x="434" d="M135 37l111 1380q2 20 15 29.5t32 9.5q41 0 39 -39l-111 -1380q-2 -47 -45 -47t-41 47z" />
<glyph unicode="m" horiz-adv-x="1708" d="M135 37l76 936q2 20 15.5 29.5t31.5 9.5q39 0 39 -41l-12 -148q45 94 126 143.5t191 49.5q244 0 299 -195q47 92 136 143.5t204 51.5q154 0 232.5 -83t78.5 -243q0 -37 -2 -55l-47 -598q-6 -47 -47 -47q-18 0 -29.5 11t-9.5 36l47 590q2 20 2 55q0 129 -56 190.5 t-171 61.5q-147 0 -234 -93t-100 -261l-41 -543q-6 -47 -47 -47q-18 0 -29.5 11t-9.5 36l45 590q2 20 2 61q0 125 -56 185.5t-171 60.5q-145 0 -231 -93t-101 -261l-45 -543q-2 -47 -45 -47t-41 47z" />
<glyph unicode="n" horiz-adv-x="1132" d="M135 37l76 936q2 20 16.5 29.5t30.5 9.5q39 0 39 -41l-14 -152q51 94 141 145.5t207 51.5q168 0 256 -83t88 -245q0 -35 -2 -53l-45 -598q-2 -25 -16.5 -36t-30.5 -11q-18 0 -29.5 11t-9.5 36l45 590q2 18 2 53q0 254 -254 254q-162 0 -259 -95.5t-110 -260.5l-45 -541 q-2 -25 -15 -36t-30 -11q-18 0 -30.5 11t-10.5 36z" />
<glyph unicode="o" horiz-adv-x="1097" d="M106 463q0 164 57.5 289t161 194.5t240.5 69.5q195 0 311.5 -130t116.5 -349q0 -164 -57 -289t-161.5 -193.5t-239.5 -68.5q-129 0 -225.5 59t-150 166.5t-53.5 251.5zM199 457q0 -186 89 -286.5t253 -100.5q166 0 263 126t97 347q0 184 -90 286.5t-250 102.5 q-168 0 -265 -126t-97 -349z" />
<glyph unicode="p" horiz-adv-x="1157" d="M109 -338l102 1305q4 45 47 45q41 0 41 -38v-7l-12 -142q49 90 142 140.5t200 50.5q125 0 221 -59.5t149.5 -167t53.5 -250.5q0 -166 -58.5 -291t-163 -193.5t-241.5 -68.5q-125 0 -218 57t-136 160l-41 -541q-2 -20 -16.5 -30.5t-31.5 -10.5q-18 0 -29.5 10.5t-8.5 30.5 zM258 455q0 -186 88 -285.5t254 -99.5q168 0 263 126t95 345q0 186 -89 288.5t-248 102.5q-170 0 -266.5 -127t-96.5 -350z" />
<glyph unicode="q" horiz-adv-x="1157" d="M104 467q0 164 58.5 289t164 192.5t240.5 67.5q125 0 218.5 -56.5t134.5 -156.5l14 164q4 45 47 45q39 0 39 -38v-7l-105 -1305q0 -20 -14 -30.5t-31 -10.5q-16 0 -28.5 10.5t-12.5 30.5l41 516q-49 -90 -142 -141t-200 -51q-125 0 -221 59t-149.5 168t-53.5 254z M197 457q0 -182 90 -284.5t248 -102.5q170 0 267 127t97 350q0 186 -88 285.5t-254 99.5q-168 0 -264 -126t-96 -349z" />
<glyph unicode="r" horiz-adv-x="667" d="M135 37l76 936q2 20 15.5 29.5t31.5 9.5q41 0 39 -41l-12 -154q51 94 133 139t215 56l22 2h9q20 0 30.5 -11.5t10.5 -25.5v-2q0 -12 -10.5 -24.5t-22.5 -14.5l-56 -6q-326 -31 -350 -336l-45 -557q-2 -47 -45 -47t-41 47z" />
<glyph unicode="s" horiz-adv-x="974" d="M82 145q0 18 11 33t28 15q14 0 29 -13q74 -55 143 -81.5t162 -26.5q139 0 212.5 46t73.5 136q0 57 -34.5 94t-85 58.5t-138.5 46.5q-102 31 -164.5 58.5t-106.5 80.5t-44 139v5q0 127 98 203q100 77 266 77q106 0 196.5 -35t139.5 -94q12 -14 13 -31q0 -18 -11.5 -30.5 t-29.5 -12.5q-23 0 -45 21q-45 41 -114 68.5t-142 27.5q-133 0 -204 -49.5t-71 -147.5q0 -82 63.5 -121t190.5 -73q102 -29 166 -56.5t108 -81t44 -141.5q0 -127 -104.5 -200.5t-276.5 -73.5q-109 0 -207 34.5t-150 83.5q-16 20 -16 41z" />
<glyph unicode="t" horiz-adv-x="643" d="M47 956q0 14 9.5 24.5t23.5 10.5h174l20 275q2 16 14.5 28.5t30.5 12.5t30.5 -12.5t10.5 -32.5l-20 -271h270q15 0 24 -10t9 -27q0 -16 -9 -26t-22 -10h-278l-45 -578q-2 -16 -2 -45q0 -109 52 -168t144 -59q33 0 55.5 3t32.5 3q33 0 33 -43q0 -23 -26.5 -33t-98.5 -10 q-127 0 -202.5 79.5t-75.5 219.5q0 27 2 41l45 590h-166q-16 0 -25.5 10t-9.5 28z" />
<glyph unicode="u" horiz-adv-x="1116" d="M158 315q0 35 2 54l45 598q4 45 47 45q39 0 39 -38v-7l-45 -592q-2 -16 -2 -49q0 -256 248 -256q156 0 251 94t107 262l45 541q2 45 45 45t41 -45l-76 -936q-2 -20 -16.5 -30.5t-30.5 -10.5q-39 0 -37 41l13 153q-49 -96 -138.5 -147t-199.5 -51q-164 0 -251 83t-87 246z " />
<glyph unicode="v" horiz-adv-x="1032" d="M76 956q0 18 12 29.5t29 11.5q31 0 43 -30l321 -893l467 901q12 22 35 22q16 0 28.5 -11t12.5 -30q0 -10 -6 -22l-477 -907q-20 -39 -62 -39q-20 0 -38.5 13t-26.5 38l-334 897q-4 16 -4 20z" />
<glyph unicode="w" horiz-adv-x="1699" d="M125 963q0 18 12.5 28t30.5 10q33 0 45 -34l233 -867l369 848q12 29 31.5 42.5t40.5 13.5q23 0 40 -14.5t25 -41.5l232 -846l377 873q11 26 36 26q18 0 33 -12t15 -31q0 -6 -5 -18l-395 -901q-8 -20 -26.5 -32.5t-36.5 -12.5q-23 0 -41.5 14.5t-26.5 40.5l-235 838 l-369 -848q-8 -20 -25.5 -32.5t-38.5 -12.5q-23 0 -41 14.5t-26 40.5l-252 897q-2 6 -2 17z" />
<glyph unicode="x" horiz-adv-x="1036" d="M41 31q0 16 10 26l414 457l-322 420q-8 10 -8 24q0 16 15.5 29.5t33.5 13.5t33 -16l301 -403l373 403q15 14 33 14t31.5 -12t13.5 -29q0 -14 -11 -24l-387 -424l342 -453q8 -10 9 -24q0 -16 -15.5 -29.5t-32.5 -13.5q-23 0 -32 16l-328 434l-401 -438q-12 -14 -29 -14 q-16 0 -29.5 13t-13.5 30z" />
<glyph unicode="y" horiz-adv-x="1032" d="M76 956q0 18 12 29.5t29 11.5q31 0 43 -30l321 -893l467 901q12 22 35 22q16 0 28.5 -11t12.5 -30q0 -10 -6 -22l-676 -1286q-14 -27 -45 -27q-16 0 -28.5 8.5t-12.5 22.5q0 8 6 18l170 322l-352 944q-4 16 -4 20z" />
<glyph unicode="z" horiz-adv-x="1015" d="M55 29q0 16 15 30l747 859h-622q-14 0 -23.5 11t-9.5 27q0 14 8 24.5t23 10.5h722q15 0 23 -9t8 -24q0 -20 -12 -36l-741 -846h663q14 0 25.5 -12.5t11.5 -28.5q0 -12 -10.5 -23.5t-24.5 -11.5h-770q-14 0 -23.5 8t-9.5 21z" />
<glyph unicode="{" horiz-adv-x="651" d="M106 539q0 37 52 39q86 4 122.5 42.5t43.5 124.5l41 525q6 84 53 129t131 45h127q47 0 47 -37q0 -16 -11.5 -27.5t-29.5 -11.5h-131q-92 0 -98 -94l-41 -535q-6 -88 -51.5 -138t-104.5 -62q59 -12 95 -62.5t30 -138.5l-43 -537q-4 -47 15.5 -70.5t66.5 -23.5h119 q47 0 47 -41q0 -16 -12.5 -25.5t-34.5 -9.5h-113q-98 0 -140 44t-36 130l43 527q6 86 -24.5 126t-116.5 42q-23 2 -34.5 13t-11.5 26z" />
<glyph unicode="|" horiz-adv-x="501" d="M141 -332l138 1739q2 20 16 33.5t33 13.5q16 0 28.5 -13.5t12.5 -33.5l-138 -1739q-4 -20 -17 -33.5t-32 -13.5q-18 0 -30.5 13.5t-10.5 33.5z" />
<glyph unicode="}" horiz-adv-x="651" d="M-66 -332q0 16 13.5 27.5t38.5 11.5h120q92 0 99 94l43 537q6 88 51 138t104 63q-59 12 -95 62t-29 138l40 535q6 94 -81 94h-121q-23 0 -34 10.5t-11 28.5q0 16 12 26.5t35 10.5h112q98 0 139.5 -43t35.5 -131l-39 -525q-6 -86 24.5 -124.5t116.5 -42.5q45 -2 45 -39 q0 -16 -13.5 -26.5t-37.5 -12.5q-86 -4 -125 -44t-45 -124l-39 -527q-6 -84 -54.5 -129t-132.5 -45h-126q-20 0 -33 10.5t-13 26.5z" />
<glyph unicode="~" d="M131 532q0 12 10 29q94 145 248 146q68 0 127 -25t148 -74q63 -39 108 -58.5t86 -19.5q111 0 176 103q14 27 41 26q14 0 24.5 -9t10.5 -23q0 -12 -10 -29q-94 -145 -244 -145q-68 0 -130 25.5t-146 74.5q-72 39 -113 57.5t-82 18.5q-106 0 -176 -103q-14 -27 -41 -26 q-14 0 -25.5 9t-11.5 23z" />
<glyph unicode="&#xa2;" d="M201 463q0 240 119.5 389t324.5 162l17 184q0 23 11 36t32 13q18 0 30.5 -14t9.5 -35l-14 -184q88 -8 163 -40t118 -75q18 -18 18 -43q0 -18 -11 -31.5t-28 -13.5q-16 0 -28 12q-133 111 -289 111q-182 0 -281.5 -127t-99.5 -350q0 -180 90 -283.5t256 -103.5 q150 0 274 110q12 12 29 13q16 0 29.5 -13.5t13.5 -29.5q0 -14 -10 -25q-59 -61 -144.5 -98t-181.5 -41l-16 -183q0 -20 -12.5 -34.5t-30.5 -14.5q-20 0 -31.5 13.5t-9.5 35.5l14 187q-168 23 -265 148.5t-97 324.5z" />
<glyph unicode="&#xa3;" d="M61 41q0 14 11.5 25.5t27.5 11.5h203l47 604h-198q-18 0 -27.5 11.5t-9.5 29.5q0 16 12 28.5t31 12.5h200l23 295q14 188 119.5 294.5t275.5 106.5q121 0 230.5 -49t181.5 -137q16 -22 16 -45q0 -16 -9 -27.5t-24 -11.5q-16 0 -34 20q-68 76 -163 122t-196 46 q-139 0 -220 -80.5t-93 -230.5l-25 -303h361q37 0 37 -41q0 -16 -11.5 -28.5t-29.5 -12.5h-363l-47 -604h688q16 0 25.5 -11.5t9.5 -29.5q0 -16 -12.5 -26.5t-28.5 -10.5h-973q-16 0 -25.5 11.5t-9.5 29.5z" />
<glyph unicode="&#xa5;" d="M100 1407q0 16 12.5 29.5t28.5 13.5q18 0 29 -16l469 -664l567 664q19 18 35 18q14 0 23.5 -10t9.5 -27q0 -18 -14 -35l-527 -612h328q18 0 28.5 -12.5t10.5 -30.5q0 -16 -12.5 -27.5t-30.5 -11.5h-385l-19 -225h383q18 0 28.5 -11.5t10.5 -29.5q0 -16 -11 -28.5 t-32 -12.5h-385l-26 -342q0 -47 -41 -47q-20 0 -32.5 13t-10.5 34l26 342h-383q-18 0 -28.5 11t-10.5 30q0 18 12.5 29.5t30.5 11.5h385l19 225h-385q-18 0 -27.5 11.5t-9.5 29.5t12 29.5t31 11.5h334l-432 612q-10 14 -11 27z" />
<glyph unicode="&#xa8;" horiz-adv-x="614" d="M137 1331q0 31 21.5 51.5t52.5 20.5t51 -20.5t20 -51.5t-21.5 -51t-49.5 -20q-31 0 -52.5 20t-21.5 51zM467 1331q0 31 20.5 51.5t50.5 20.5q31 0 52.5 -20.5t21.5 -51.5t-21.5 -51t-52.5 -20q-28 0 -49.5 20t-21.5 51z" />
<glyph unicode="&#xa9;" horiz-adv-x="1669" d="M121 723q0 205 96 372t264 263t373 96t372 -96t263 -263t96 -372t-96 -372t-264 -264t-371 -97q-205 0 -373 97t-264 264t-96 372zM197 723q0 -182 87 -333.5t236.5 -240t333.5 -88.5q182 0 332.5 88.5t236.5 240t86 333.5t-86 333.5t-236.5 238.5t-332.5 87 q-184 0 -334.5 -87t-236.5 -238.5t-86 -333.5zM463 723q0 205 108.5 322.5t290.5 117.5q150 0 283 -104q18 -12 18 -37q0 -14 -8 -26.5t-20 -12.5q-8 0 -29 12q-74 51 -123 73t-121 22q-147 0 -227 -97.5t-80 -269.5q0 -174 80 -271.5t227 -97.5q72 0 121 21.5t123 73.5 q20 12 29 12q12 0 20 -12.5t8 -26.5q0 -18 -18 -37q-49 -51 -124 -77.5t-159 -26.5q-182 0 -290.5 118.5t-108.5 323.5z" />
<glyph unicode="&#xaa;" horiz-adv-x="665" d="M117 1012q0 98 85 139t290 41h34l2 41q12 150 -125 149q-49 0 -100 -17t-94 -46q-10 -8 -21 -8q-12 0 -20 10t-8 25q0 25 22 40q41 29 102.5 48.5t123.5 19.5q100 0 154 -52t54 -147l-2 -28l-26 -348q-2 -18 -14.5 -28.5t-28.5 -10.5q-18 0 -31.5 10t-11.5 29l4 61 q-27 -47 -75 -73.5t-107 -26.5q-92 0 -149.5 48t-57.5 124zM209 1016q0 -43 35 -74t84 -31q80 0 132 51.5t60 135.5l2 37h-28q-111 0 -172.5 -11.5t-87 -37t-25.5 -70.5z" />
<glyph unicode="&#xab;" horiz-adv-x="806" d="M121 541q0 12 10 28l193 295q14 27 43 27q16 0 26 -8.5t10 -22.5q0 -8 -6 -20l-180 -297l127 -299q4 -12 4 -17q0 -12 -11 -21t-26 -9q-29 0 -39 24l-143 293q-8 20 -8 27zM445 541q0 12 10 28l193 295q14 27 43 27q16 0 26 -8.5t10 -22.5q0 -8 -6 -20l-180 -297 l127 -299q4 -12 4 -17q0 -12 -11 -21t-26 -9q-29 0 -39 24l-143 293q-8 20 -8 27z" />
<glyph unicode="&#xac;" d="M139 803q0 14 13.5 24.5t31.5 10.5h914q18 0 30.5 -13.5t10.5 -31.5l-35 -426q-2 -18 -15.5 -31.5t-31.5 -13.5q-15 0 -22 13t-5 32l31 391h-881q-18 0 -29.5 12t-11.5 33z" />
<glyph unicode="&#xad;" horiz-adv-x="851" d="M152 543q0 16 12 27.5t29 11.5h475q20 0 30.5 -11.5t10.5 -29.5q0 -16 -11.5 -26.5t-29.5 -10.5h-475q-19 0 -30 11t-11 28z" />
<glyph unicode="&#xae;" horiz-adv-x="1669" d="M121 723q0 205 96 372t264 263t373 96t372 -96t263 -263t96 -372t-96 -372t-264 -264t-371 -97q-205 0 -372 97t-264 264t-97 372zM197 723q0 -184 86 -335.5t236.5 -239t334.5 -87.5q182 0 331.5 87.5t236.5 239t87 335.5t-87 334.5t-236.5 237.5t-331.5 87t-332.5 -87 t-237.5 -237.5t-87 -334.5zM543 324l61 784q2 20 16.5 32.5t32.5 12.5h269q287 0 286 -233q0 -105 -66.5 -172.5t-187.5 -79.5q57 -20 95 -95l129 -239q4 -8 4 -21q0 -16 -11.5 -26.5t-25.5 -10.5q-29 0 -45 31l-139 258q-31 53 -66 72.5t-98 19.5h-144l-24 -333 q-2 -43 -47 -43q-18 0 -29.5 11t-9.5 32zM659 735h250q105 0 157 47t52 136q0 88 -49 124.5t-160 36.5h-221z" />
<glyph unicode="&#xb1;" d="M80 45q0 16 12 26.5t31 10.5h913q19 0 30 -13.5t11 -31.5q0 -14 -13 -25.5t-32 -11.5h-911q-18 0 -29.5 13.5t-11.5 31.5zM129 657q0 16 12.5 27.5t32.5 11.5h418l26 340q2 18 15.5 31.5t32.5 13.5q14 0 24 -13t8 -32l-26 -340h413q19 0 31 -13t10 -32q-2 -14 -15 -24.5 t-32 -10.5h-415l-27 -337q-2 -20 -15.5 -34t-31.5 -14q-16 0 -25.5 12.5t-7.5 30.5l27 342h-414q-18 0 -29.5 11.5t-11.5 29.5z" />
<glyph unicode="&#xb4;" horiz-adv-x="614" d="M333 1145q0 14 11 22l315 359q20 23 47 22q23 0 39 -15t16 -38q0 -25 -22 -45l-358 -330q-11 -6 -19 -6q-10 0 -19.5 9.5t-9.5 21.5z" />
<glyph unicode="&#xb5;" horiz-adv-x="1116" d="M100 -338l105 1305q4 45 47 45t39 -45l-45 -592q-2 -16 -2 -49q0 -131 61.5 -193.5t186.5 -62.5q156 0 250 94t108 262l45 541q2 45 45 45t41 -45l-76 -936q-2 -20 -16.5 -30.5t-30.5 -10.5q-18 0 -29.5 10t-9.5 31l15 151q-51 -94 -140.5 -145t-199.5 -51 q-182 0 -273 100l-35 -424q0 -23 -13 -32t-32 -9q-16 0 -28.5 10.5t-12.5 30.5z" />
<glyph unicode="&#xb8;" horiz-adv-x="614" d="M86 -326q0 14 13.5 25.5t33.5 11.5q12 0 19 -2q35 -10 59.5 -14t56.5 -4q63 0 97 21.5t34 62.5q0 63 -75 63q-33 0 -62 -11t-37 -11q-16 0 -27.5 11t-9.5 26l37 188h86l-24 -133q23 8 59 8q64 0 101.5 -37t37.5 -100q0 -78 -59 -123t-164 -45q-78 0 -147 27 q-29 12 -29 36z" />
<glyph unicode="&#xba;" horiz-adv-x="665" d="M102 1118q0 150 81 243t218 93q119 0 191 -77t72 -201q0 -152 -82 -244t-222 -92q-116 0 -187 76.5t-71 201.5zM190 1118q0 -100 44.5 -153.5t125.5 -53.5q103 0 158 70t55 195q0 100 -44 153t-128 53q-100 0 -155.5 -70.5t-55.5 -193.5z" />
<glyph unicode="&#xbb;" horiz-adv-x="806" d="M86 223q0 8 6 21l180 299l-129 297l-4 16q0 14 11.5 24.5t27.5 10.5q27 0 39 -27l145 -295q8 -16 9 -26q0 -12 -11 -29l-194 -293q-16 -24 -45 -24q-16 0 -25.5 7t-9.5 19zM410 223q0 8 6 21l180 299l-129 297l-4 16q0 14 11.5 24.5t27.5 10.5q27 0 39 -27l145 -295 q8 -16 9 -26q0 -12 -11 -29l-194 -293q-16 -24 -45 -24q-16 0 -25.5 7t-9.5 19z" />
<glyph unicode="&#xc0;" horiz-adv-x="1462" d="M45 33q0 12 6 24l697 1358q8 18 23 28.5t32 10.5q18 0 33.5 -12t23.5 -35l483 -1356q5 -16 5 -20q0 -18 -12.5 -29.5t-28.5 -11.5q-31 0 -45 35l-134 374h-809l-194 -383q-12 -27 -37 -26q-16 0 -29.5 12t-13.5 31zM362 481h738l-303 854zM583 1847q0 18 13.5 30.5 t31.5 12.5q33 0 54 -37l147 -249q6 -8 6 -21q0 -12 -8 -19.5t-20 -7.5q-20 0 -31 17l-178 233q-14 20 -15 41z" />
<glyph unicode="&#xc1;" horiz-adv-x="1462" d="M45 33q0 12 6 24l697 1358q8 18 23 28.5t32 10.5q18 0 33.5 -12t23.5 -35l483 -1356q5 -16 5 -20q0 -18 -12.5 -29.5t-28.5 -11.5q-31 0 -45 35l-134 374h-809l-194 -383q-12 -27 -37 -26q-16 0 -29.5 12t-13.5 31zM362 481h738l-303 854zM798 1581q0 14 9 25l178 245 q25 37 59 37q18 0 31.5 -12t13.5 -31q0 -23 -24 -51l-209 -221q-17 -17 -33 -17q-10 0 -17.5 7.5t-7.5 17.5z" />
<glyph unicode="&#xc2;" horiz-adv-x="1462" d="M45 33q0 12 6 24l697 1358q8 18 23 28.5t32 10.5q18 0 33.5 -12t23.5 -35l483 -1356q5 -16 5 -20q0 -18 -12.5 -29.5t-28.5 -11.5q-31 0 -45 35l-134 374h-809l-194 -383q-12 -27 -37 -26q-16 0 -29.5 12t-13.5 31zM362 481h738l-303 854zM573 1602q0 12 10 26l199 225 q29 33 61 33q33 0 54 -33l153 -217q12 -18 13 -37q0 -18 -12.5 -30.5t-28.5 -12.5q-29 0 -50 31l-135 211l-178 -227q-12 -19 -37 -19q-20 0 -34.5 15.5t-14.5 34.5z" />
<glyph unicode="&#xc3;" horiz-adv-x="1462" d="M45 33q0 12 6 24l697 1358q8 18 23 28.5t32 10.5q18 0 33.5 -12t23.5 -35l483 -1356q5 -16 5 -20q0 -18 -12.5 -29.5t-28.5 -11.5q-31 0 -45 35l-134 374h-809l-194 -383q-12 -27 -37 -26q-16 0 -29.5 12t-13.5 31zM362 481h738l-303 854zM516 1671q0 31 24.5 64.5 t65.5 56.5t92 23q57 0 156 -54q31 -16 62.5 -28.5t53.5 -12.5q39 0 62.5 16.5t42.5 45.5q23 29 35 28q14 0 23 -10t9 -26q0 -29 -24.5 -63t-65.5 -56.5t-92 -22.5q-57 1 -155 54q-31 16 -63 28t-54 12q-39 0 -61.5 -16t-45.5 -47q-20 -29 -35 -29q-14 0 -22 11.5t-8 25.5z " />
<glyph unicode="&#xc4;" horiz-adv-x="1462" d="M45 33q0 12 6 24l697 1358q8 18 23 28.5t32 10.5q18 0 33.5 -12t23.5 -35l483 -1356q5 -16 5 -20q0 -18 -12.5 -29.5t-28.5 -11.5q-31 0 -45 35l-134 374h-809l-194 -383q-12 -27 -37 -26q-16 0 -29.5 12t-13.5 31zM362 481h738l-303 854zM592 1722q0 31 21.5 51.5 t51.5 20.5q29 0 50.5 -20.5t21.5 -51.5t-20.5 -51t-51.5 -20q-30 0 -51.5 20.5t-21.5 50.5zM921 1722q0 31 21.5 51.5t50.5 20.5q31 0 52.5 -20.5t21.5 -51.5t-21.5 -51t-52.5 -20t-51.5 20.5t-20.5 50.5z" />
<glyph unicode="&#xc5;" horiz-adv-x="1462" d="M45 33q0 12 6 24l688 1340q-55 20 -91 69.5t-36 110.5q0 82 57.5 138.5t141.5 56.5q82 0 139.5 -56.5t57.5 -138.5q0 -68 -40 -118t-102 -66l477 -1342q5 -16 5 -20q0 -18 -12.5 -29.5t-28.5 -11.5q-31 0 -45 35l-134 374h-809l-194 -383q-12 -27 -37 -26q-16 0 -29.5 12 t-13.5 31zM362 481h738l-303 854zM707 1577q0 -45 29.5 -77t74.5 -32q43 0 72.5 32t29.5 77q0 47 -28.5 78t-73.5 31t-74.5 -31t-29.5 -78z" />
<glyph unicode="&#xc6;" horiz-adv-x="2019" d="M16 31q0 8 9 24l919 1358q18 31 55 31h947q16 0 26 -12.5t10 -30.5q0 -14 -9 -26.5t-25 -12.5h-904l80 -590h729q16 0 26.5 -12t10.5 -29q0 -14 -10 -26.5t-25 -12.5h-720l82 -610h620q16 0 28.5 -13.5t12.5 -29.5q0 -14 -11.5 -26.5t-27.5 -12.5h-645q-49 0 -55 49 l-45 350h-738l-260 -389q-14 -20 -37 -20q-16 0 -29.5 12t-13.5 29zM412 481h669l-108 838z" />
<glyph unicode="&#xc7;" horiz-adv-x="1386" d="M154 655q0 244 80.5 426.5t230 280.5t354.5 98q338 0 520 -200q11 -15 11 -29q0 -18 -11.5 -31.5t-27.5 -13.5t-31 16q-96 92 -204.5 133t-262.5 41q-178 0 -306 -86t-195.5 -248.5t-67.5 -388.5q0 -281 135 -433t385 -152q254 0 430 168q20 20 39 20q14 0 23.5 -11.5 t9.5 -27.5q0 -20 -15 -35q-197 -190 -487 -198l-14 -76q23 8 59 8q63 0 101 -37t38 -100q0 -78 -59.5 -123t-163.5 -45q-78 0 -147 27q-29 12 -29 36q0 14 13 25.5t34 11.5q12 0 18 -2q35 -10 59.5 -14t57.5 -4q63 0 97 21.5t34 62.5q0 63 -76 63q-33 0 -61.5 -11t-36.5 -11 q-16 0 -27.5 11t-9.5 26l27 133q-160 14 -277.5 98t-182 230.5t-64.5 340.5z" />
<glyph unicode="&#xc8;" horiz-adv-x="1179" d="M160 51l106 1350q4 43 47 43h793q16 0 26.5 -12.5t10.5 -28.5q0 -14 -10.5 -26.5t-24.5 -12.5h-758l-47 -592h709q18 0 28.5 -11t10.5 -30q0 -14 -10.5 -26.5t-26.5 -12.5h-717l-47 -612h749q16 0 26.5 -12.5t10.5 -28.5q0 -14 -9 -26.5t-26 -12.5h-792q-49 0 -49 51z M508 1847q0 18 13.5 30.5t31.5 12.5q33 0 54 -37l147 -249q6 -8 6 -21q0 -12 -8 -19.5t-20 -7.5q-20 0 -31 17l-178 233q-14 20 -15 41z" />
<glyph unicode="&#xc9;" horiz-adv-x="1179" d="M160 51l106 1350q4 43 47 43h793q16 0 26.5 -12.5t10.5 -28.5q0 -14 -10.5 -26.5t-24.5 -12.5h-758l-47 -592h709q18 0 28.5 -11t10.5 -30q0 -14 -10.5 -26.5t-26.5 -12.5h-717l-47 -612h749q16 0 26.5 -12.5t10.5 -28.5q0 -14 -9 -26.5t-26 -12.5h-792q-49 0 -49 51z M723 1581q0 14 9 25l178 245q25 37 59 37q18 0 31.5 -12t13.5 -31q0 -23 -24 -51l-209 -221q-17 -17 -33 -17q-10 0 -17.5 7.5t-7.5 17.5z" />
<glyph unicode="&#xca;" horiz-adv-x="1179" d="M160 51l106 1350q4 43 47 43h793q16 0 26.5 -12.5t10.5 -28.5q0 -14 -10.5 -26.5t-24.5 -12.5h-758l-47 -592h709q18 0 28.5 -11t10.5 -30q0 -14 -10.5 -26.5t-26.5 -12.5h-717l-47 -612h749q16 0 26.5 -12.5t10.5 -28.5q0 -14 -9 -26.5t-26 -12.5h-792q-49 0 -49 51z M498 1602q0 12 10 26l199 225q29 33 61 33q33 0 54 -33l153 -217q12 -18 13 -37q0 -18 -12.5 -30.5t-28.5 -12.5q-29 0 -50 31l-135 211l-178 -227q-12 -19 -37 -19q-20 0 -34.5 15.5t-14.5 34.5z" />
<glyph unicode="&#xcb;" horiz-adv-x="1179" d="M160 51l106 1350q4 43 47 43h793q16 0 26.5 -12.5t10.5 -28.5q0 -14 -10.5 -26.5t-24.5 -12.5h-758l-47 -592h709q18 0 28.5 -11t10.5 -30q0 -14 -10.5 -26.5t-26.5 -12.5h-717l-47 -612h749q16 0 26.5 -12.5t10.5 -28.5q0 -14 -9 -26.5t-26 -12.5h-792q-49 0 -49 51z M517 1722q0 31 21.5 51.5t51.5 20.5q29 0 50.5 -20.5t21.5 -51.5t-20.5 -51t-51.5 -20q-30 0 -51.5 20.5t-21.5 50.5zM846 1722q0 31 21.5 51.5t50.5 20.5q31 0 52.5 -20.5t21.5 -51.5t-21.5 -51t-52.5 -20t-51.5 20.5t-20.5 50.5z" />
<glyph unicode="&#xcc;" horiz-adv-x="477" d="M90 1847q0 18 13.5 30.5t31.5 12.5q33 0 54 -37l147 -249q6 -8 6 -21q0 -12 -8 -19.5t-20 -7.5q-20 0 -31 17l-178 233q-14 20 -15 41zM160 37l108 1378q2 18 13.5 28.5t27.5 10.5q18 0 31.5 -13.5t13.5 -33.5l-108 -1378q-2 -18 -13.5 -28.5t-27.5 -10.5q-19 0 -32 13 t-13 34z" />
<glyph unicode="&#xcd;" horiz-adv-x="477" d="M160 37l108 1378q2 18 13.5 28.5t27.5 10.5q18 0 31.5 -13.5t13.5 -33.5l-108 -1378q-2 -18 -13.5 -28.5t-27.5 -10.5q-19 0 -32 13t-13 34zM305 1581q0 14 9 25l178 245q25 37 59 37q18 0 31.5 -12t13.5 -31q0 -23 -24 -51l-209 -221q-17 -17 -33 -17q-10 0 -17.5 7.5 t-7.5 17.5z" />
<glyph unicode="&#xce;" horiz-adv-x="477" d="M80 1602q0 12 10 26l199 225q29 33 61 33q33 0 54 -33l153 -217q12 -18 13 -37q0 -18 -12.5 -30.5t-28.5 -12.5q-29 0 -50 31l-135 211l-178 -227q-12 -19 -37 -19q-20 0 -34.5 15.5t-14.5 34.5zM160 37l108 1378q2 18 13.5 28.5t27.5 10.5q18 0 31.5 -13.5t13.5 -33.5 l-108 -1378q-2 -18 -13.5 -28.5t-27.5 -10.5q-19 0 -32 13t-13 34z" />
<glyph unicode="&#xcf;" horiz-adv-x="477" d="M99 1722q0 31 21.5 51.5t51.5 20.5q29 0 50.5 -20.5t21.5 -51.5t-20.5 -51t-51.5 -20q-30 0 -51.5 20.5t-21.5 50.5zM160 37l108 1378q2 18 13.5 28.5t27.5 10.5q18 0 31.5 -13.5t13.5 -33.5l-108 -1378q-2 -18 -13.5 -28.5t-27.5 -10.5q-19 0 -32 13t-13 34zM428 1722 q0 31 21.5 51.5t50.5 20.5q31 0 52.5 -20.5t21.5 -51.5t-21.5 -51t-52.5 -20t-51.5 20.5t-20.5 50.5z" />
<glyph unicode="&#xd0;" horiz-adv-x="1492" d="M18 735q0 14 11.5 25.5t29.5 11.5h168l47 627q2 20 16.5 32.5t33.5 12.5h387q323 0 493 -170t170 -488q0 -369 -184 -577.5t-522 -208.5h-443q-23 0 -39 18.5t-14 40.5l49 637h-155q-23 0 -35.5 10.5t-12.5 28.5zM258 78h410q301 0 457.5 185.5t156.5 524.5 q0 578 -567 578h-357l-47 -594h359q47 0 47 -39q0 -37 -41 -37h-369z" />
<glyph unicode="&#xd1;" horiz-adv-x="1499" d="M158 35l108 1376q2 43 43 43q27 0 45 -31l838 -1276l102 1270q2 37 41 37q17 0 29 -13.5t12 -31.5l-108 -1378q-4 -41 -37 -41q-20 0 -29.5 8t-19.5 22l-842 1285l-100 -1278q-2 -37 -41 -37q-16 0 -28.5 13t-12.5 32zM535 1671q0 31 24.5 64.5t65.5 56.5t92 23 q57 0 156 -54q31 -16 62.5 -28.5t53.5 -12.5q39 0 62.5 16.5t42.5 45.5q23 29 35 28q14 0 23 -10t9 -26q0 -29 -24.5 -63t-65.5 -56.5t-92 -22.5q-57 1 -155 54q-31 16 -63 28t-54 12q-39 0 -61.5 -16t-45.5 -47q-20 -29 -35 -29q-14 0 -22 11.5t-8 25.5z" />
<glyph unicode="&#xd2;" horiz-adv-x="1538" d="M154 655q0 244 79.5 426.5t226 280.5t343.5 98q190 0 329.5 -81t213 -232.5t73.5 -360.5q0 -242 -79.5 -424t-227 -280t-344.5 -98q-190 0 -328.5 80.5t-212 232.5t-73.5 358zM246 653q0 -281 136 -432t388 -151q172 0 298 86t192.5 247.5t66.5 384.5q0 283 -135 434.5 t-389 151.5q-172 0 -298 -86t-192.5 -248.5t-66.5 -386.5zM620 1847q0 18 13.5 30.5t31.5 12.5q33 0 54 -37l147 -249q6 -8 6 -21q0 -12 -8 -19.5t-20 -7.5q-20 0 -31 17l-178 233q-14 20 -15 41z" />
<glyph unicode="&#xd3;" horiz-adv-x="1538" d="M154 655q0 244 79.5 426.5t226 280.5t343.5 98q190 0 329.5 -81t213 -232.5t73.5 -360.5q0 -242 -79.5 -424t-227 -280t-344.5 -98q-190 0 -328.5 80.5t-212 232.5t-73.5 358zM246 653q0 -281 136 -432t388 -151q172 0 298 86t192.5 247.5t66.5 384.5q0 283 -135 434.5 t-389 151.5q-172 0 -298 -86t-192.5 -248.5t-66.5 -386.5zM835 1581q0 14 9 25l178 245q25 37 59 37q18 0 31.5 -12t13.5 -31q0 -23 -24 -51l-209 -221q-17 -17 -33 -17q-10 0 -17.5 7.5t-7.5 17.5z" />
<glyph unicode="&#xd4;" horiz-adv-x="1538" d="M154 655q0 244 79.5 426.5t226 280.5t343.5 98q190 0 329.5 -81t213 -232.5t73.5 -360.5q0 -242 -79.5 -424t-227 -280t-344.5 -98q-190 0 -328.5 80.5t-212 232.5t-73.5 358zM246 653q0 -281 136 -432t388 -151q172 0 298 86t192.5 247.5t66.5 384.5q0 283 -135 434.5 t-389 151.5q-172 0 -298 -86t-192.5 -248.5t-66.5 -386.5zM610 1602q0 12 10 26l199 225q29 33 61 33q33 0 54 -33l153 -217q12 -18 13 -37q0 -18 -12.5 -30.5t-28.5 -12.5q-29 0 -50 31l-135 211l-178 -227q-12 -19 -37 -19q-20 0 -34.5 15.5t-14.5 34.5z" />
<glyph unicode="&#xd5;" horiz-adv-x="1538" d="M154 655q0 244 79.5 426.5t226 280.5t343.5 98q190 0 329.5 -81t213 -232.5t73.5 -360.5q0 -242 -79.5 -424t-227 -280t-344.5 -98q-190 0 -328.5 80.5t-212 232.5t-73.5 358zM246 653q0 -281 136 -432t388 -151q172 0 298 86t192.5 247.5t66.5 384.5q0 283 -135 434.5 t-389 151.5q-172 0 -298 -86t-192.5 -248.5t-66.5 -386.5zM553 1671q0 31 24.5 64.5t65.5 56.5t92 23q57 0 156 -54q31 -16 62.5 -28.5t53.5 -12.5q39 0 62.5 16.5t42.5 45.5q23 29 35 28q14 0 23 -10t9 -26q0 -29 -24.5 -63t-65.5 -56.5t-92 -22.5q-57 1 -155 54 q-31 16 -63 28t-54 12q-39 0 -61.5 -16t-45.5 -47q-20 -29 -35 -29q-14 0 -22 11.5t-8 25.5z" />
<glyph unicode="&#xd6;" horiz-adv-x="1538" d="M154 655q0 244 79.5 426.5t226 280.5t343.5 98q190 0 329.5 -81t213 -232.5t73.5 -360.5q0 -242 -79.5 -424t-227 -280t-344.5 -98q-190 0 -328.5 80.5t-212 232.5t-73.5 358zM246 653q0 -281 136 -432t388 -151q172 0 298 86t192.5 247.5t66.5 384.5q0 283 -135 434.5 t-389 151.5q-172 0 -298 -86t-192.5 -248.5t-66.5 -386.5zM629 1722q0 31 21.5 51.5t51.5 20.5q29 0 50.5 -20.5t21.5 -51.5t-20.5 -51t-51.5 -20q-30 0 -51.5 20.5t-21.5 50.5zM958 1722q0 31 21.5 51.5t50.5 20.5q31 0 52.5 -20.5t21.5 -51.5t-21.5 -51t-52.5 -20 t-51.5 20.5t-20.5 50.5z" />
<glyph unicode="&#xd8;" horiz-adv-x="1538" d="M154 655q0 244 79.5 426.5t226 280.5t343.5 98q213 0 360 -100l82 123q16 23 37 22q16 0 28.5 -11t12.5 -28q0 -12 -10 -28l-86 -129q94 -86 143 -219.5t49 -303.5q0 -242 -79.5 -424t-227 -280t-344.5 -98q-209 0 -358 98l-80 -121q-14 -20 -37 -20q-16 0 -27.5 11 t-11.5 25q0 12 10 29l84 125q-94 88 -144 221t-50 303zM246 653q-1 -292 151 -448l719 1083q-123 86 -313 86q-172 0 -298 -86t-192.5 -248.5t-66.5 -386.5zM459 154q125 -84 311 -84q172 0 298 86t192.5 247.5t66.5 384.5q0 295 -147 449z" />
<glyph unicode="&#xd9;" horiz-adv-x="1464" d="M186 475q0 45 2 70l70 870q2 16 13.5 27.5t27.5 11.5q18 0 32.5 -13.5t12.5 -33.5l-70 -854q-2 -25 -2 -70q0 -416 422 -415q236 0 361 116.5t143 350.5l70 880q0 16 12 27.5t29 11.5q18 0 31.5 -13.5t11.5 -33.5l-68 -858q-23 -283 -171 -424t-417 -141q-252 0 -381 128 t-129 363zM585 1847q0 18 13.5 30.5t31.5 12.5q33 0 54 -37l147 -249q6 -8 6 -21q0 -12 -8 -19.5t-20 -7.5q-20 0 -31 17l-178 233q-14 20 -15 41z" />
<glyph unicode="&#xda;" horiz-adv-x="1464" d="M186 475q0 45 2 70l70 870q2 16 13.5 27.5t27.5 11.5q18 0 32.5 -13.5t12.5 -33.5l-70 -854q-2 -25 -2 -70q0 -416 422 -415q236 0 361 116.5t143 350.5l70 880q0 16 12 27.5t29 11.5q18 0 31.5 -13.5t11.5 -33.5l-68 -858q-23 -283 -171 -424t-417 -141q-252 0 -381 128 t-129 363zM800 1581q0 14 9 25l178 245q25 37 59 37q18 0 31.5 -12t13.5 -31q0 -23 -24 -51l-209 -221q-17 -17 -33 -17q-10 0 -17.5 7.5t-7.5 17.5z" />
<glyph unicode="&#xdb;" horiz-adv-x="1464" d="M186 475q0 45 2 70l70 870q2 16 13.5 27.5t27.5 11.5q18 0 32.5 -13.5t12.5 -33.5l-70 -854q-2 -25 -2 -70q0 -416 422 -415q236 0 361 116.5t143 350.5l70 880q0 16 12 27.5t29 11.5q18 0 31.5 -13.5t11.5 -33.5l-68 -858q-23 -283 -171 -424t-417 -141q-252 0 -381 128 t-129 363zM575 1602q0 12 10 26l199 225q29 33 61 33q33 0 54 -33l153 -217q12 -18 13 -37q0 -18 -12.5 -30.5t-28.5 -12.5q-29 0 -50 31l-135 211l-178 -227q-12 -19 -37 -19q-20 0 -34.5 15.5t-14.5 34.5z" />
<glyph unicode="&#xdc;" horiz-adv-x="1464" d="M186 475q0 45 2 70l70 870q2 16 13.5 27.5t27.5 11.5q18 0 32.5 -13.5t12.5 -33.5l-70 -854q-2 -25 -2 -70q0 -416 422 -415q236 0 361 116.5t143 350.5l70 880q0 16 12 27.5t29 11.5q18 0 31.5 -13.5t11.5 -33.5l-68 -858q-23 -283 -171 -424t-417 -141q-252 0 -381 128 t-129 363zM594 1722q0 31 21.5 51.5t51.5 20.5q29 0 50.5 -20.5t21.5 -51.5t-20.5 -51t-51.5 -20q-30 0 -51.5 20.5t-21.5 50.5zM923 1722q0 31 21.5 51.5t50.5 20.5q31 0 52.5 -20.5t21.5 -51.5t-21.5 -51t-52.5 -20t-51.5 20.5t-20.5 50.5z" />
<glyph unicode="&#xdd;" horiz-adv-x="1189" d="M94 1421q0 16 11.5 24.5t25.5 8.5q31 0 41 -22l442 -658l535 649q24 31 53 31q14 0 23.5 -8t9.5 -23q0 -14 -12 -30l-570 -691l-53 -673q-2 -16 -13.5 -27.5t-27.5 -11.5q-18 0 -31.5 14t-11.5 33l51 661l-461 691q-12 18 -12 32zM661 1581q0 14 9 25l178 245 q25 37 59 37q18 0 31.5 -12t13.5 -31q0 -23 -24 -51l-209 -221q-17 -17 -33 -17q-10 0 -17.5 7.5t-7.5 17.5z" />
<glyph unicode="&#xde;" horiz-adv-x="1294" d="M160 37l108 1378q2 18 13.5 28.5t27.5 10.5q18 0 32.5 -13.5t12.5 -33.5l-22 -295h444q207 0 318.5 -90t111.5 -266q0 -186 -122.5 -293t-354.5 -107h-457l-26 -327q-2 -18 -13.5 -28.5t-27.5 -10.5q-18 0 -31.5 13t-13.5 34zM279 438h450q197 0 292 80t95 238 q0 143 -86 209.5t-254 66.5h-450z" />
<glyph unicode="&#xdf;" horiz-adv-x="1189" d="M135 37l80 991q16 201 130 312.5t300 111.5q133 0 212 -62.5t79 -168.5q0 -92 -50 -156t-143 -137q-76 -61 -109.5 -100.5t-33.5 -90.5q0 -72 55.5 -110.5t167.5 -81.5q90 -35 144.5 -63.5t92.5 -79t38 -128.5q0 -129 -98.5 -208.5t-258.5 -79.5q-96 0 -191 32.5 t-153 85.5q-20 18 -20 43q0 16 11 29.5t26 13.5q16 0 28 -10q74 -57 148 -83.5t155 -26.5q119 0 189 55t70 147q0 74 -57.5 114t-170.5 79q-90 33 -143 60.5t-91 75.5t-38 122q0 57 24.5 103t59.5 79t96 82q84 66 125 115t41 121q0 66 -55.5 105.5t-147.5 39.5 q-158 0 -244 -88t-102 -268l-80 -975q-2 -20 -14 -33.5t-31 -13.5q-45 0 -41 47z" />
<glyph unicode="&#xe0;" horiz-adv-x="1067" d="M125 268q0 111 60.5 175.5t195.5 94t362 29.5h72l6 80q2 18 2 51q0 121 -56 177.5t-175 56.5q-174 0 -352 -119q-8 -6 -21 -6q-14 0 -23.5 14.5t-9.5 30.5q0 25 21 43q74 55 179.5 88t203.5 33q323 -1 323 -318q0 -31 -2 -47l-49 -620q-2 -20 -13 -30.5t-28 -10.5 q-20 0 -33.5 13t-11.5 36l8 137q-47 -92 -130 -141t-191 -49q-150 0 -244 78.5t-94 203.5zM221 272q0 -92 66.5 -146t179.5 -54q137 0 231.5 94t104.5 242l6 79h-59q-205 0 -319 -19t-162 -65.5t-48 -130.5zM370 1501q0 20 15.5 35.5t36.5 15.5q14 0 27.5 -10t21.5 -29 l155 -358l5 -16q0 -12 -9.5 -19.5t-21.5 -7.5q-20 0 -33 21l-188 335q-8 16 -9 33z" />
<glyph unicode="&#xe1;" horiz-adv-x="1067" d="M125 268q0 111 60.5 175.5t195.5 94t362 29.5h72l6 80q2 18 2 51q0 121 -56 177.5t-175 56.5q-174 0 -352 -119q-8 -6 -21 -6q-14 0 -23.5 14.5t-9.5 30.5q0 25 21 43q74 55 179.5 88t203.5 33q323 -1 323 -318q0 -31 -2 -47l-49 -620q-2 -20 -13 -30.5t-28 -10.5 q-20 0 -33.5 13t-11.5 36l8 137q-47 -92 -130 -141t-191 -49q-150 0 -244 78.5t-94 203.5zM221 272q0 -92 66.5 -146t179.5 -54q137 0 231.5 94t104.5 242l6 79h-59q-205 0 -319 -19t-162 -65.5t-48 -130.5zM581 1145q0 14 11 22l315 359q20 23 47 22q23 0 39 -15t16 -38 q0 -25 -22 -45l-358 -330q-11 -6 -19 -6q-10 0 -19.5 9.5t-9.5 21.5z" />
<glyph unicode="&#xe2;" horiz-adv-x="1067" d="M125 268q0 111 60.5 175.5t195.5 94t362 29.5h72l6 80q2 18 2 51q0 121 -56 177.5t-175 56.5q-174 0 -352 -119q-8 -6 -21 -6q-14 0 -23.5 14.5t-9.5 30.5q0 25 21 43q74 55 179.5 88t203.5 33q323 -1 323 -318q0 -31 -2 -47l-49 -620q-2 -20 -13 -30.5t-28 -10.5 q-20 0 -33.5 13t-11.5 36l8 137q-47 -92 -130 -141t-191 -49q-150 0 -244 78.5t-94 203.5zM221 272q0 -92 66.5 -146t179.5 -54q137 0 231.5 94t104.5 242l6 79h-59q-205 0 -319 -19t-162 -65.5t-48 -130.5zM368 1157q0 20 11 33l200 315q25 39 60 39q33 0 51 -39l149 -313 q6 -12 7 -25q0 -23 -16.5 -39t-35.5 -16q-20 0 -32 27l-131 309l-181 -309q-14 -25 -39 -25q-16 0 -29.5 12.5t-13.5 30.5z" />
<glyph unicode="&#xe3;" horiz-adv-x="1067" d="M125 268q0 111 60.5 175.5t195.5 94t362 29.5h72l6 80q2 18 2 51q0 121 -56 177.5t-175 56.5q-174 0 -352 -119q-8 -6 -21 -6q-14 0 -23.5 14.5t-9.5 30.5q0 25 21 43q74 55 179.5 88t203.5 33q323 -1 323 -318q0 -31 -2 -47l-49 -620q-2 -20 -13 -30.5t-28 -10.5 q-20 0 -33.5 13t-11.5 36l8 137q-47 -92 -130 -141t-191 -49q-150 0 -244 78.5t-94 203.5zM221 272q0 -92 66.5 -146t179.5 -54q137 0 231.5 94t104.5 242l6 79h-59q-205 0 -319 -19t-162 -65.5t-48 -130.5zM307 1272q0 29 24.5 70.5t66.5 72.5t91 31q35 0 70 -18.5 t86 -55.5q78 -61 117 -61q37 0 59.5 20.5t42.5 57.5q23 41 41 41q14 0 22.5 -10.5t8.5 -24.5q0 -31 -24.5 -73t-66.5 -72.5t-94 -30.5q-34 0 -69 19t-82 56q-45 33 -70.5 47.5t-48.5 14.5q-37 0 -57.5 -20.5t-42.5 -57.5q-14 -25 -22.5 -34t-18.5 -9q-14 0 -23.5 10t-9.5 27 z" />
<glyph unicode="&#xe4;" horiz-adv-x="1067" d="M125 268q0 111 60.5 175.5t195.5 94t362 29.5h72l6 80q2 18 2 51q0 121 -56 177.5t-175 56.5q-174 0 -352 -119q-8 -6 -21 -6q-14 0 -23.5 14.5t-9.5 30.5q0 25 21 43q74 55 179.5 88t203.5 33q323 -1 323 -318q0 -31 -2 -47l-49 -620q-2 -20 -13 -30.5t-28 -10.5 q-20 0 -33.5 13t-11.5 36l8 137q-47 -92 -130 -141t-191 -49q-150 0 -244 78.5t-94 203.5zM221 272q0 -92 66.5 -146t179.5 -54q137 0 231.5 94t104.5 242l6 79h-59q-205 0 -319 -19t-162 -65.5t-48 -130.5zM385 1331q0 31 21.5 51.5t52.5 20.5t51 -20.5t20 -51.5t-21.5 -51 t-49.5 -20q-31 0 -52.5 20t-21.5 51zM715 1331q0 31 20.5 51.5t50.5 20.5q31 0 52.5 -20.5t21.5 -51.5t-21.5 -51t-52.5 -20q-28 0 -49.5 20t-21.5 51z" />
<glyph unicode="&#xe5;" horiz-adv-x="1067" d="M125 268q0 111 60.5 175.5t195.5 94t362 29.5h72l6 80q2 18 2 51q0 121 -56 177.5t-175 56.5q-174 0 -352 -119q-8 -6 -21 -6q-14 0 -23.5 14.5t-9.5 30.5q0 25 21 43q74 55 179.5 88t203.5 33q323 -1 323 -318q0 -31 -2 -47l-49 -620q-2 -20 -13 -30.5t-28 -10.5 q-20 0 -33.5 13t-11.5 36l8 137q-47 -92 -130 -141t-191 -49q-150 0 -244 78.5t-94 203.5zM221 272q0 -92 66.5 -146t179.5 -54q137 0 231.5 94t104.5 242l6 79h-59q-205 0 -319 -19t-162 -65.5t-48 -130.5zM422 1329q0 82 58 138.5t140 56.5t139.5 -56.5t57.5 -138.5 t-57.5 -138t-139.5 -56t-140 56t-58 138zM516 1329q0 -45 29.5 -76.5t74.5 -31.5t75 31.5t30 76.5q0 47 -30 78t-75 31t-74.5 -31t-29.5 -78z" />
<glyph unicode="&#xe6;" horiz-adv-x="1765" d="M125 268q0 111 59.5 175.5t194.5 94t364 29.5h82l6 80q2 20 3 55q0 117 -57.5 173.5t-176.5 56.5q-184 0 -360 -119q-10 -8 -21 -8q-14 0 -23.5 13t-9.5 32q0 27 21 45q74 55 180.5 88t204.5 33q268 0 319 -203q59 96 154.5 149.5t220.5 53.5q188 0 287.5 -114t99.5 -339 q0 -37 -18.5 -56.5t-48.5 -19.5h-697l-2 -10v-22q0 -178 91.5 -281.5t263.5 -103.5q78 0 159.5 28.5t139.5 77.5q16 14 34 14q16 0 28.5 -11t12.5 -25q0 -20 -18 -39q-55 -55 -158.5 -92t-195.5 -37q-162 0 -266.5 76.5t-145.5 218.5q-45 -137 -150.5 -216t-244.5 -79 q-145 0 -238.5 78.5t-93.5 203.5zM221 272q0 -90 64.5 -145t175.5 -55q141 0 240.5 99t111.5 257l4 59h-67q-219 0 -333 -22.5t-155 -67.5t-41 -125zM915 567h672q8 180 -71.5 274.5t-221.5 94.5q-153 0 -250.5 -90t-125.5 -254z" />
<glyph unicode="&#xe7;" horiz-adv-x="962" d="M106 463q0 166 58.5 291t166 193.5t255.5 68.5q102 0 191 -33t141 -84q18 -21 18 -41t-12.5 -33.5t-28.5 -13.5t-29 12q-133 111 -288 111q-180 0 -279.5 -127t-99.5 -350q0 -180 90 -283.5t256 -103.5q80 0 146.5 28.5t127.5 81.5q12 12 29 13q16 0 29.5 -13.5 t13.5 -29.5q0 -10 -10 -25q-61 -63 -150.5 -100t-189.5 -39l-15 -78q23 8 60 8q63 0 101 -37t38 -100q0 -78 -59.5 -123t-163.5 -45q-78 0 -148 27q-29 12 -28 36q0 14 13 25.5t34 11.5q12 0 18 -2q35 -10 59.5 -14t57.5 -4q63 0 97 21.5t34 62.5q0 63 -76 63 q-33 0 -61.5 -11t-36.5 -11q-16 0 -27.5 11t-9.5 26l27 139q-160 27 -254.5 152.5t-94.5 318.5z" />
<glyph unicode="&#xe8;" horiz-adv-x="1073" d="M106 463q0 166 58.5 291t167 193.5t256.5 68.5q195 0 295 -114t100 -339q0 -37 -19.5 -56.5t-48.5 -19.5h-714v-32q0 -180 90 -282.5t260 -102.5q90 0 174 28.5t145 77.5q16 14 35 14q16 0 27.5 -11t11.5 -25q0 -20 -18 -39q-55 -55 -162 -92t-211 -37q-207 0 -327 129 t-120 348zM209 567h688q8 182 -74 275.5t-229 93.5q-164 0 -263.5 -96.5t-121.5 -272.5zM380 1501q0 20 15.5 35.5t36.5 15.5q14 0 27.5 -10t21.5 -29l155 -358l5 -16q0 -12 -9.5 -19.5t-21.5 -7.5q-20 0 -33 21l-188 335q-8 16 -9 33z" />
<glyph unicode="&#xe9;" horiz-adv-x="1073" d="M106 463q0 166 58.5 291t167 193.5t256.5 68.5q195 0 295 -114t100 -339q0 -37 -19.5 -56.5t-48.5 -19.5h-714v-32q0 -180 90 -282.5t260 -102.5q90 0 174 28.5t145 77.5q16 14 35 14q16 0 27.5 -11t11.5 -25q0 -20 -18 -39q-55 -55 -162 -92t-211 -37q-207 0 -327 129 t-120 348zM209 567h688q8 182 -74 275.5t-229 93.5q-164 0 -263.5 -96.5t-121.5 -272.5zM591 1145q0 14 11 22l315 359q20 23 47 22q23 0 39 -15t16 -38q0 -25 -22 -45l-358 -330q-11 -6 -19 -6q-10 0 -19.5 9.5t-9.5 21.5z" />
<glyph unicode="&#xea;" horiz-adv-x="1073" d="M106 463q0 166 58.5 291t167 193.5t256.5 68.5q195 0 295 -114t100 -339q0 -37 -19.5 -56.5t-48.5 -19.5h-714v-32q0 -180 90 -282.5t260 -102.5q90 0 174 28.5t145 77.5q16 14 35 14q16 0 27.5 -11t11.5 -25q0 -20 -18 -39q-55 -55 -162 -92t-211 -37q-207 0 -327 129 t-120 348zM209 567h688q8 182 -74 275.5t-229 93.5q-164 0 -263.5 -96.5t-121.5 -272.5zM378 1157q0 20 11 33l200 315q25 39 60 39q33 0 51 -39l149 -313q6 -12 7 -25q0 -23 -16.5 -39t-35.5 -16q-20 0 -32 27l-131 309l-181 -309q-14 -25 -39 -25q-16 0 -29.5 12.5 t-13.5 30.5z" />
<glyph unicode="&#xeb;" horiz-adv-x="1073" d="M106 463q0 166 58.5 291t167 193.5t256.5 68.5q195 0 295 -114t100 -339q0 -37 -19.5 -56.5t-48.5 -19.5h-714v-32q0 -180 90 -282.5t260 -102.5q90 0 174 28.5t145 77.5q16 14 35 14q16 0 27.5 -11t11.5 -25q0 -20 -18 -39q-55 -55 -162 -92t-211 -37q-207 0 -327 129 t-120 348zM209 567h688q8 182 -74 275.5t-229 93.5q-164 0 -263.5 -96.5t-121.5 -272.5zM395 1331q0 31 21.5 51.5t52.5 20.5t51 -20.5t20 -51.5t-21.5 -51t-49.5 -20q-31 0 -52.5 20t-21.5 51zM725 1331q0 31 20.5 51.5t50.5 20.5q31 0 52.5 -20.5t21.5 -51.5t-21.5 -51 t-52.5 -20q-28 0 -49.5 20t-21.5 51z" />
<glyph unicode="&#xec;" horiz-adv-x="434" d="M32 1501q0 20 15.5 35.5t36.5 15.5q14 0 27.5 -10t21.5 -29l155 -358l5 -16q0 -12 -9.5 -19.5t-21.5 -7.5q-20 0 -33 21l-188 335q-8 16 -9 33zM135 37l76 936q2 20 15.5 29.5t31.5 9.5q41 0 39 -39l-76 -936q-2 -47 -45 -47t-41 47z" />
<glyph unicode="&#xed;" horiz-adv-x="434" d="M135 37l76 936q2 20 15.5 29.5t31.5 9.5q41 0 39 -39l-76 -936q-2 -47 -45 -47t-41 47zM243 1145q0 14 11 22l315 359q20 23 47 22q23 0 39 -15t16 -38q0 -25 -22 -45l-358 -330q-11 -6 -19 -6q-10 0 -19.5 9.5t-9.5 21.5z" />
<glyph unicode="&#xee;" horiz-adv-x="434" d="M30 1157q0 20 11 33l200 315q25 39 60 39q33 0 51 -39l149 -313q6 -12 7 -25q0 -23 -16.5 -39t-35.5 -16q-20 0 -32 27l-131 309l-181 -309q-14 -25 -39 -25q-16 0 -29.5 12.5t-13.5 30.5zM135 37l76 936q2 20 15.5 29.5t31.5 9.5q41 0 39 -39l-76 -936q-2 -47 -45 -47 t-41 47z" />
<glyph unicode="&#xef;" horiz-adv-x="434" d="M47 1331q0 31 21.5 51.5t52.5 20.5t51 -20.5t20 -51.5t-21.5 -51t-49.5 -20q-31 0 -52.5 20t-21.5 51zM135 37l76 936q2 20 15.5 29.5t31.5 9.5q41 0 39 -39l-76 -936q-2 -47 -45 -47t-41 47zM377 1331q0 31 20.5 51.5t50.5 20.5q31 0 52.5 -20.5t21.5 -51.5t-21.5 -51 t-52.5 -20q-28 0 -49.5 20t-21.5 51z" />
<glyph unicode="&#xf0;" horiz-adv-x="1103" d="M102 424q0 150 57.5 265.5t162 179t241.5 63.5q135 0 231.5 -59.5t133.5 -155.5q-10 281 -183 463l-296 -121q-8 -4 -15 -4q-16 0 -27.5 13t-11.5 30q0 25 25 35l262 106q-98 84 -236 135q-14 6 -22 16.5t-8 22.5q0 20 15 32.5t34 4.5q180 -68 299 -178l240 98q8 4 14 4 q16 0 27.5 -13t11.5 -30q0 -25 -25 -35l-209 -86q184 -213 185 -551q0 -340 -128 -506.5t-350 -166.5q-195 0 -311.5 118.5t-116.5 319.5zM195 418q0 -170 88 -259t254 -89q168 0 265 114.5t97 321.5q0 162 -91 252t-251 90q-168 0 -265 -113.5t-97 -316.5z" />
<glyph unicode="&#xf1;" horiz-adv-x="1132" d="M135 37l76 936q2 20 16.5 29.5t30.5 9.5q39 0 39 -41l-14 -152q51 94 141 145.5t207 51.5q168 0 256 -83t88 -245q0 -35 -2 -53l-45 -598q-2 -25 -16.5 -36t-30.5 -11q-18 0 -29.5 11t-9.5 36l45 590q2 18 2 53q0 254 -254 254q-162 0 -259 -95.5t-110 -260.5l-45 -541 q-2 -25 -15 -36t-30 -11q-18 0 -30.5 11t-10.5 36zM319 1272q0 29 24.5 70.5t66.5 72.5t91 31q35 0 70 -18.5t86 -55.5q78 -61 117 -61q37 0 59.5 20.5t42.5 57.5q23 41 41 41q14 0 22.5 -10.5t8.5 -24.5q0 -31 -24.5 -73t-66.5 -72.5t-94 -30.5q-34 0 -69 19t-82 56 q-45 33 -70.5 47.5t-48.5 14.5q-37 0 -57.5 -20.5t-42.5 -57.5q-14 -25 -22.5 -34t-18.5 -9q-14 0 -23.5 10t-9.5 27z" />
<glyph unicode="&#xf2;" horiz-adv-x="1097" d="M106 463q0 164 57.5 289t161 194.5t240.5 69.5q195 0 311.5 -130t116.5 -349q0 -164 -57 -289t-161.5 -193.5t-239.5 -68.5q-129 0 -225.5 59t-150 166.5t-53.5 251.5zM199 457q0 -186 89 -286.5t253 -100.5q166 0 263 126t97 347q0 184 -90 286.5t-250 102.5 q-168 0 -265 -126t-97 -349zM364 1501q0 20 15.5 35.5t36.5 15.5q14 0 27.5 -10t21.5 -29l155 -358l5 -16q0 -12 -9.5 -19.5t-21.5 -7.5q-20 0 -33 21l-188 335q-8 16 -9 33z" />
<glyph unicode="&#xf3;" horiz-adv-x="1097" d="M106 463q0 164 57.5 289t161 194.5t240.5 69.5q195 0 311.5 -130t116.5 -349q0 -164 -57 -289t-161.5 -193.5t-239.5 -68.5q-129 0 -225.5 59t-150 166.5t-53.5 251.5zM199 457q0 -186 89 -286.5t253 -100.5q166 0 263 126t97 347q0 184 -90 286.5t-250 102.5 q-168 0 -265 -126t-97 -349zM575 1145q0 14 11 22l315 359q20 23 47 22q23 0 39 -15t16 -38q0 -25 -22 -45l-358 -330q-11 -6 -19 -6q-10 0 -19.5 9.5t-9.5 21.5z" />
<glyph unicode="&#xf4;" horiz-adv-x="1097" d="M106 463q0 164 57.5 289t161 194.5t240.5 69.5q195 0 311.5 -130t116.5 -349q0 -164 -57 -289t-161.5 -193.5t-239.5 -68.5q-129 0 -225.5 59t-150 166.5t-53.5 251.5zM199 457q0 -186 89 -286.5t253 -100.5q166 0 263 126t97 347q0 184 -90 286.5t-250 102.5 q-168 0 -265 -126t-97 -349zM362 1157q0 20 11 33l200 315q25 39 60 39q33 0 51 -39l149 -313q6 -12 7 -25q0 -23 -16.5 -39t-35.5 -16q-20 0 -32 27l-131 309l-181 -309q-14 -25 -39 -25q-16 0 -29.5 12.5t-13.5 30.5z" />
<glyph unicode="&#xf5;" horiz-adv-x="1097" d="M106 463q0 164 57.5 289t161 194.5t240.5 69.5q195 0 311.5 -130t116.5 -349q0 -164 -57 -289t-161.5 -193.5t-239.5 -68.5q-129 0 -225.5 59t-150 166.5t-53.5 251.5zM199 457q0 -186 89 -286.5t253 -100.5q166 0 263 126t97 347q0 184 -90 286.5t-250 102.5 q-168 0 -265 -126t-97 -349zM301 1272q0 29 24.5 70.5t66.5 72.5t91 31q35 0 70 -18.5t86 -55.5q78 -61 117 -61q37 0 59.5 20.5t42.5 57.5q23 41 41 41q14 0 22.5 -10.5t8.5 -24.5q0 -31 -24.5 -73t-66.5 -72.5t-94 -30.5q-34 0 -69 19t-82 56q-45 33 -70.5 47.5 t-48.5 14.5q-37 0 -57.5 -20.5t-42.5 -57.5q-14 -25 -22.5 -34t-18.5 -9q-14 0 -23.5 10t-9.5 27z" />
<glyph unicode="&#xf6;" horiz-adv-x="1097" d="M106 463q0 164 57.5 289t161 194.5t240.5 69.5q195 0 311.5 -130t116.5 -349q0 -164 -57 -289t-161.5 -193.5t-239.5 -68.5q-129 0 -225.5 59t-150 166.5t-53.5 251.5zM199 457q0 -186 89 -286.5t253 -100.5q166 0 263 126t97 347q0 184 -90 286.5t-250 102.5 q-168 0 -265 -126t-97 -349zM379 1331q0 31 21.5 51.5t52.5 20.5t51 -20.5t20 -51.5t-21.5 -51t-49.5 -20q-31 0 -52.5 20t-21.5 51zM709 1331q0 31 20.5 51.5t50.5 20.5q31 0 52.5 -20.5t21.5 -51.5t-21.5 -51t-52.5 -20q-28 0 -49.5 20t-21.5 51z" />
<glyph unicode="&#xf7;" d="M123 584q0 16 12 26.5t31 10.5h913q18 0 29.5 -12.5t11.5 -33.5q0 -14 -12 -25t-31 -11h-913q-19 0 -30 13t-11 32zM481 74q0 39 24.5 63.5t61.5 24.5t60.5 -24.5t23.5 -63.5t-23.5 -63.5t-60.5 -24.5t-61.5 24.5t-24.5 63.5zM565 1087q0 39 24.5 64t61.5 25t60.5 -25 t23.5 -64t-23.5 -63.5t-60.5 -24.5t-61.5 25t-24.5 63z" />
<glyph unicode="&#xf8;" horiz-adv-x="1097" d="M106 463q0 164 57.5 289t161 194.5t240.5 69.5q135 0 234 -64l57 86q18 27 41 27q14 0 24.5 -11.5t10.5 -27.5t-12 -35l-58 -88q64 -63 97.5 -156.5t33.5 -209.5q0 -164 -57 -289t-161.5 -193.5t-239.5 -68.5q-131 0 -234 63l-55 -86q-16 -25 -41 -24q-16 0 -26.5 11 t-10.5 27t12 35l58 88q-63 63 -97.5 155.5t-34.5 207.5zM201 457q0 -187 86 -283l465 707q-80 51 -191 51q-168 0 -264 -126t-96 -349zM348 119q78 -49 193 -49q166 0 262 126t96 347q0 180 -88 284z" />
<glyph unicode="&#xf9;" horiz-adv-x="1116" d="M158 315q0 35 2 54l45 598q4 45 47 45t39 -45l-45 -592q-2 -16 -2 -49q0 -256 248 -256q156 0 251 94t107 262l45 541q2 45 45 45t41 -45l-76 -936q-2 -20 -16.5 -30.5t-30.5 -10.5q-39 0 -37 41l13 153q-49 -96 -138.5 -147t-199.5 -51q-164 0 -251 83t-87 246z M374 1501q0 20 15.5 35.5t36.5 15.5q14 0 27.5 -10t21.5 -29l155 -358l5 -16q0 -12 -9.5 -19.5t-21.5 -7.5q-20 0 -33 21l-188 335q-8 16 -9 33z" />
<glyph unicode="&#xfa;" horiz-adv-x="1116" d="M158 315q0 35 2 54l45 598q4 45 47 45t39 -45l-45 -592q-2 -16 -2 -49q0 -256 248 -256q156 0 251 94t107 262l45 541q2 45 45 45t41 -45l-76 -936q-2 -20 -16.5 -30.5t-30.5 -10.5q-39 0 -37 41l13 153q-49 -96 -138.5 -147t-199.5 -51q-164 0 -251 83t-87 246z M585 1145q0 14 11 22l315 359q20 23 47 22q23 0 39 -15t16 -38q0 -25 -22 -45l-358 -330q-11 -6 -19 -6q-10 0 -19.5 9.5t-9.5 21.5z" />
<glyph unicode="&#xfb;" horiz-adv-x="1116" d="M158 315q0 35 2 54l45 598q4 45 47 45t39 -45l-45 -592q-2 -16 -2 -49q0 -256 248 -256q156 0 251 94t107 262l45 541q2 45 45 45t41 -45l-76 -936q-2 -20 -16.5 -30.5t-30.5 -10.5q-39 0 -37 41l13 153q-49 -96 -138.5 -147t-199.5 -51q-164 0 -251 83t-87 246z M372 1157q0 20 11 33l200 315q25 39 60 39q33 0 51 -39l149 -313q6 -12 7 -25q0 -23 -16.5 -39t-35.5 -16q-20 0 -32 27l-131 309l-181 -309q-14 -25 -39 -25q-16 0 -29.5 12.5t-13.5 30.5z" />
<glyph unicode="&#xfc;" horiz-adv-x="1116" d="M158 315q0 35 2 54l45 598q4 45 47 45t39 -45l-45 -592q-2 -16 -2 -49q0 -256 248 -256q156 0 251 94t107 262l45 541q2 45 45 45t41 -45l-76 -936q-2 -20 -16.5 -30.5t-30.5 -10.5q-39 0 -37 41l13 153q-49 -96 -138.5 -147t-199.5 -51q-164 0 -251 83t-87 246z M389 1331q0 31 21.5 51.5t52.5 20.5t51 -20.5t20 -51.5t-21.5 -51t-49.5 -20q-31 0 -52.5 20t-21.5 51zM719 1331q0 31 20.5 51.5t50.5 20.5q31 0 52.5 -20.5t21.5 -51.5t-21.5 -51t-52.5 -20q-28 0 -49.5 20t-21.5 51z" />
<glyph unicode="&#xfd;" horiz-adv-x="1032" d="M76 956q0 18 12 29.5t29 11.5q31 0 43 -30l321 -893l467 901q12 22 35 22q16 0 28.5 -11t12.5 -30q0 -10 -6 -22l-676 -1286q-14 -27 -45 -27q-16 0 -28.5 8.5t-12.5 22.5q0 8 6 18l170 322l-352 944q-4 16 -4 20zM542 1145q0 14 11 22l315 359q20 23 47 22q23 0 39 -15 t16 -38q0 -25 -22 -45l-358 -330q-11 -6 -19 -6q-10 0 -19.5 9.5t-9.5 21.5z" />
<glyph unicode="&#xfe;" horiz-adv-x="1157" d="M109 -338l137 1745q2 25 16 36t31 11q18 0 31.5 -11t11.5 -36l-47 -578q51 86 142 136.5t198 50.5q125 0 221 -59.5t149.5 -167t53.5 -250.5q0 -166 -58.5 -291t-163 -193.5t-241.5 -68.5q-125 0 -218 57t-136 160l-41 -541q-2 -20 -16.5 -30.5t-31.5 -10.5 q-18 0 -29.5 10.5t-8.5 30.5zM258 455q0 -186 88 -285.5t254 -99.5q168 0 263 126t95 345q0 186 -89 288.5t-248 102.5q-170 0 -266.5 -127t-96.5 -350z" />
<glyph unicode="&#xff;" horiz-adv-x="1032" d="M76 956q0 18 12 29.5t29 11.5q31 0 43 -30l321 -893l467 901q12 22 35 22q16 0 28.5 -11t12.5 -30q0 -10 -6 -22l-676 -1286q-14 -27 -45 -27q-16 0 -28.5 8.5t-12.5 22.5q0 8 6 18l170 322l-352 944q-4 16 -4 20zM346 1331q0 31 21.5 51.5t52.5 20.5t51 -20.5t20 -51.5 t-21.5 -51t-49.5 -20q-31 0 -52.5 20t-21.5 51zM676 1331q0 31 20.5 51.5t50.5 20.5q31 0 52.5 -20.5t21.5 -51.5t-21.5 -51t-52.5 -20q-28 0 -49.5 20t-21.5 51z" />
<glyph unicode="&#x100;" horiz-adv-x="1462" d="M45 33q0 12 6 24l697 1358q8 18 23 28.5t32 10.5q18 0 33.5 -12t23.5 -35l483 -1356q5 -16 5 -20q0 -18 -12.5 -29.5t-28.5 -11.5q-31 0 -45 35l-134 374h-809l-194 -383q-12 -27 -37 -26q-16 0 -29.5 12t-13.5 31zM362 481h738l-303 854zM522 1722q0 20 16.5 31.5 t44.5 11.5h498q55 0 55 -43q0 -20 -16 -31.5t-45 -11.5h-498q-55 0 -55 43z" />
<glyph unicode="&#x101;" horiz-adv-x="1067" d="M125 268q0 111 60.5 175.5t195.5 94t362 29.5h72l6 80q2 18 2 51q0 121 -56 177.5t-175 56.5q-174 0 -352 -119q-8 -6 -21 -6q-14 0 -23.5 14.5t-9.5 30.5q0 25 21 43q74 55 179.5 88t203.5 33q323 -1 323 -318q0 -31 -2 -47l-49 -620q-2 -20 -13 -30.5t-28 -10.5 q-20 0 -33.5 13t-11.5 36l8 137q-47 -92 -130 -141t-191 -49q-150 0 -244 78.5t-94 203.5zM221 272q0 -92 66.5 -146t179.5 -54q137 0 231.5 94t104.5 242l6 79h-59q-205 0 -319 -19t-162 -65.5t-48 -130.5zM315 1333q0 20 16.5 31.5t45.5 11.5h497q55 0 56 -45 q0 -20 -16.5 -31.5t-45.5 -11.5h-498q-55 0 -55 45z" />
<glyph unicode="&#x102;" horiz-adv-x="1462" d="M45 33q0 12 6 24l697 1358q8 18 23 28.5t32 10.5q18 0 33.5 -12t23.5 -35l483 -1356q5 -16 5 -20q0 -18 -12.5 -29.5t-28.5 -11.5q-31 0 -45 35l-134 374h-809l-194 -383q-12 -27 -37 -26q-16 0 -29.5 12t-13.5 31zM362 481h738l-303 854zM528 1802q0 20 12.5 32.5 t30.5 12.5q33 0 47 -35q35 -72 84 -103.5t119 -31.5q72 0 126 32t99 103q20 35 55 35q18 0 30.5 -10t12.5 -29q0 -14 -8 -28q-51 -94 -135 -140.5t-184 -46.5q-98 0 -173 46.5t-112 140.5q-4 8 -4 22z" />
<glyph unicode="&#x103;" horiz-adv-x="1067" d="M125 268q0 111 60.5 175.5t195.5 94t362 29.5h72l6 80q2 18 2 51q0 121 -56 177.5t-175 56.5q-174 0 -352 -119q-8 -6 -21 -6q-14 0 -23.5 14.5t-9.5 30.5q0 25 21 43q74 55 179.5 88t203.5 33q323 -1 323 -318q0 -31 -2 -47l-49 -620q-2 -20 -13 -30.5t-28 -10.5 q-20 0 -33.5 13t-11.5 36l8 137q-47 -92 -130 -141t-191 -49q-150 0 -244 78.5t-94 203.5zM221 272q0 -92 66.5 -146t179.5 -54q137 0 231.5 94t104.5 242l6 79h-59q-205 0 -319 -19t-162 -65.5t-48 -130.5zM325 1417q0 20 13.5 33.5t31.5 13.5q33 0 48 -39 q53 -147 198 -147q143 0 221 147q20 39 54 39q16 0 26.5 -11t10.5 -30q0 -16 -9 -32q-45 -96 -128 -145.5t-183 -49.5q-96 0 -169 48t-109 147q-4 10 -5 26z" />
<glyph unicode="&#x104;" horiz-adv-x="1462" d="M43 33q0 12 6 24l696 1358q8 18 23.5 28.5t32.5 10.5q18 0 33.5 -12t23.5 -35l483 -1358l5 -20q0 -20 -14.5 -33.5t-31.5 -9.5q-72 2 -114.5 -46.5t-42.5 -119.5q0 -63 34.5 -97t96.5 -34q18 0 47 8t53 20q15 9 29 9t22.5 -9.5t8.5 -21.5q0 -14 -9.5 -28.5t-23.5 -22.5 q-63 -33 -139 -33q-96 0 -153.5 53t-57.5 141q0 94 50 161t146 95l-121 338h-809l-194 -383q-12 -27 -37 -26q-16 0 -29.5 12t-13.5 31zM360 481h738l-305 852z" />
<glyph unicode="&#x105;" horiz-adv-x="1067" d="M125 268q0 111 59.5 175.5t194.5 94t364 29.5h72l6 80q2 18 2 51q0 121 -56 177.5t-175 56.5q-172 0 -352 -119q-10 -8 -21 -8q-14 0 -23.5 14.5t-9.5 32.5q0 29 21 43q76 53 181.5 87t201.5 34q162 0 242.5 -81t80.5 -237q0 -31 -2 -47l-49 -618q-2 -18 -11 -26.5 t-24 -6.5q-70 -4 -124 -51t-54 -129q0 -63 34 -97t95 -34q45 0 103 28q14 9 28 9q12 0 20.5 -9.5t8.5 -21.5q0 -33 -31 -51q-59 -33 -137 -33q-98 0 -155.5 53t-57.5 141q0 92 57.5 161t163.5 95l6 117q-49 -96 -133 -144t-188 -48q-150 0 -244 78.5t-94 203.5zM221 272 q0 -92 65.5 -146t180.5 -54q135 0 230.5 94t105.5 242l6 79h-59q-219 0 -333 -22.5t-155 -67.5t-41 -125z" />
<glyph unicode="&#x106;" horiz-adv-x="1386" d="M154 655q0 244 80.5 426.5t230 280.5t354.5 98q338 0 520 -200q10 -14 11 -29q0 -18 -11.5 -31.5t-27.5 -13.5t-31 16q-96 92 -204.5 133t-262.5 41q-178 0 -306 -86t-195.5 -248.5t-67.5 -388.5q0 -281 135 -433t385 -152q254 0 430 168q20 20 39 20q14 0 23.5 -11.5 t9.5 -27.5q0 -20 -15 -35q-205 -199 -514 -198q-176 0 -308 80.5t-203.5 232.5t-71.5 358zM850 1581q0 14 9 25l178 245q25 37 59 37q18 0 31.5 -12t13.5 -31q0 -23 -24 -51l-209 -221q-17 -17 -33 -17q-10 0 -17.5 7.5t-7.5 17.5z" />
<glyph unicode="&#x107;" horiz-adv-x="962" d="M106 463q0 166 58.5 291t166 193.5t255.5 68.5q102 0 191 -33t141 -84q18 -20 18 -41q0 -20 -12.5 -33.5t-28.5 -13.5t-29 12q-133 111 -288 111q-180 0 -279.5 -127t-99.5 -350q0 -180 90 -283.5t256 -103.5q80 0 146.5 28.5t127.5 81.5q12 12 29 13q16 0 29.5 -13.5 t13.5 -29.5q0 -10 -10 -25q-63 -66 -153.5 -102.5t-192.5 -36.5q-129 0 -225.5 59t-150 166.5t-53.5 251.5zM585 1145q0 14 11 22l315 359q20 23 47 22q23 0 39 -15t16 -38q0 -25 -22 -45l-358 -330q-11 -6 -19 -6q-10 0 -19.5 9.5t-9.5 21.5z" />
<glyph unicode="&#x108;" horiz-adv-x="1386" d="M154 655q0 244 80.5 426.5t230 280.5t354.5 98q338 0 520 -200q10 -14 11 -29q0 -18 -11.5 -31.5t-27.5 -13.5t-31 16q-96 92 -204.5 133t-262.5 41q-178 0 -306 -86t-195.5 -248.5t-67.5 -388.5q0 -281 135 -433t385 -152q254 0 430 168q20 20 39 20q14 0 23.5 -11.5 t9.5 -27.5q0 -20 -15 -35q-205 -199 -514 -198q-176 0 -308 80.5t-203.5 232.5t-71.5 358zM625 1602q0 12 10 26l199 225q29 33 61 33q33 0 54 -33l153 -217q12 -18 13 -37q0 -18 -12.5 -30.5t-28.5 -12.5q-29 0 -50 31l-135 211l-178 -227q-12 -19 -37 -19 q-20 0 -34.5 15.5t-14.5 34.5z" />
<glyph unicode="&#x109;" horiz-adv-x="962" d="M106 463q0 166 58.5 291t166 193.5t255.5 68.5q102 0 191 -33t141 -84q18 -20 18 -41q0 -20 -12.5 -33.5t-28.5 -13.5t-29 12q-133 111 -288 111q-180 0 -279.5 -127t-99.5 -350q0 -180 90 -283.5t256 -103.5q80 0 146.5 28.5t127.5 81.5q12 12 29 13q16 0 29.5 -13.5 t13.5 -29.5q0 -10 -10 -25q-63 -66 -153.5 -102.5t-192.5 -36.5q-129 0 -225.5 59t-150 166.5t-53.5 251.5zM372 1157q0 20 11 33l200 315q25 39 60 39q33 0 51 -39l149 -313q6 -12 7 -25q0 -23 -16.5 -39t-35.5 -16q-20 0 -32 27l-131 309l-181 -309q-14 -25 -39 -25 q-16 0 -29.5 12.5t-13.5 30.5z" />
<glyph unicode="&#x10a;" horiz-adv-x="1386" d="M154 655q0 244 80.5 426.5t230 280.5t354.5 98q338 0 520 -200q10 -14 11 -29q0 -18 -11.5 -31.5t-27.5 -13.5t-31 16q-96 92 -204.5 133t-262.5 41q-178 0 -306 -86t-195.5 -248.5t-67.5 -388.5q0 -281 135 -433t385 -152q254 0 430 168q20 20 39 20q14 0 23.5 -11.5 t9.5 -27.5q0 -20 -15 -35q-205 -199 -514 -198q-176 0 -308 80.5t-203.5 232.5t-71.5 358zM805 1722q0 33 22.5 53.5t53.5 20.5q33 0 54.5 -20.5t21.5 -53.5q0 -35 -21.5 -55t-54.5 -20t-54.5 20.5t-21.5 54.5z" />
<glyph unicode="&#x10b;" horiz-adv-x="962" d="M106 463q0 166 58.5 291t166 193.5t255.5 68.5q102 0 191 -33t141 -84q18 -20 18 -41q0 -20 -12.5 -33.5t-28.5 -13.5t-29 12q-133 111 -288 111q-180 0 -279.5 -127t-99.5 -350q0 -180 90 -283.5t256 -103.5q80 0 146.5 28.5t127.5 81.5q12 12 29 13q16 0 29.5 -13.5 t13.5 -29.5q0 -10 -10 -25q-63 -66 -153.5 -102.5t-192.5 -36.5q-129 0 -225.5 59t-150 166.5t-53.5 251.5zM551 1331q0 35 21.5 55.5t53.5 20.5q33 0 54.5 -20.5t21.5 -55.5q0 -33 -22.5 -53.5t-53.5 -20.5q-30 0 -52.5 20.5t-22.5 53.5z" />
<glyph unicode="&#x10c;" horiz-adv-x="1386" d="M154 655q0 244 80.5 426.5t230 280.5t354.5 98q338 0 520 -200q10 -14 11 -29q0 -18 -11.5 -31.5t-27.5 -13.5t-31 16q-96 92 -204.5 133t-262.5 41q-178 0 -306 -86t-195.5 -248.5t-67.5 -388.5q0 -281 135 -433t385 -152q254 0 430 168q20 20 39 20q14 0 23.5 -11.5 t9.5 -27.5q0 -20 -15 -35q-205 -199 -514 -198q-176 0 -308 80.5t-203.5 232.5t-71.5 358zM646 1839q0 18 12 30.5t31 12.5q27 0 47 -29l135 -213l180 228q15 20 35 20t34.5 -15t14.5 -36q0 -12 -10 -27l-199 -225q-29 -33 -61 -33q-33 0 -54 33l-153 217q-12 18 -12 37z " />
<glyph unicode="&#x10d;" horiz-adv-x="962" d="M106 463q0 166 58.5 291t166 193.5t255.5 68.5q102 0 191 -33t141 -84q18 -20 18 -41q0 -20 -12.5 -33.5t-28.5 -13.5t-29 12q-133 111 -288 111q-180 0 -279.5 -127t-99.5 -350q0 -180 90 -283.5t256 -103.5q80 0 146.5 28.5t127.5 81.5q12 12 29 13q16 0 29.5 -13.5 t13.5 -29.5q0 -10 -10 -25q-63 -66 -153.5 -102.5t-192.5 -36.5q-129 0 -225.5 59t-150 166.5t-53.5 251.5zM401 1491q0 23 16.5 39t34.5 16q20 0 33 -24l131 -312l180 310q14 24 39 24q16 0 29.5 -12t13.5 -33q0 -14 -10 -31l-201 -313q-25 -41 -59 -41q-33 0 -51 41 l-150 311q-6 12 -6 25z" />
<glyph unicode="&#x10e;" horiz-adv-x="1484" d="M162 59l104 1340q2 20 16.5 32.5t32.5 12.5h387q324 0 494 -170t170 -488q0 -369 -184.5 -577.5t-524.5 -208.5h-440q-24 0 -39.5 17.5t-15.5 41.5zM250 78h409q301 0 458 185.5t157 524.5q0 578 -569 578h-355zM605 1839q0 18 12 30.5t31 12.5q27 0 47 -29l135 -213 l180 228q15 20 35 20t34.5 -15t14.5 -36q0 -12 -10 -27l-199 -225q-29 -33 -61 -33q-33 0 -54 33l-153 217q-12 18 -12 37z" />
<glyph unicode="&#x10f;" horiz-adv-x="1157" d="M106 465q0 164 58.5 289t163 193.5t241.5 68.5q125 0 217.5 -56.5t135.5 -156.5l47 612q2 20 16 30.5t31 10.5q41 0 39 -39l-107 -1380q-2 -25 -16 -36t-31 -11q-18 0 -30.5 11t-10.5 36l12 141q-51 -90 -143 -141t-199 -51q-125 0 -221 59t-149.5 168t-53.5 252z M199 463q0 -186 90 -289.5t250 -103.5q170 0 266 127t96 350q0 186 -88 285.5t-254 99.5q-168 0 -264 -126t-96 -343zM1106 1085l24 306q3 32 21 48.5t41 16.5q20 0 34.5 -14.5t14.5 -38.5q0 -14 -2 -23l-68 -299q-2 -12 -12 -19t-22 -7q-14 0 -23.5 8t-7.5 22z" />
<glyph unicode="&#x110;" horiz-adv-x="1492" d="M18 735q0 14 11.5 25.5t29.5 11.5h168l47 627q2 20 16.5 32.5t33.5 12.5h387q323 0 493 -170t170 -488q0 -369 -184 -577.5t-522 -208.5h-443q-23 0 -39 18.5t-14 40.5l49 637h-155q-23 0 -35.5 10.5t-12.5 28.5zM258 78h410q301 0 457.5 185.5t156.5 524.5 q0 578 -567 578h-357l-47 -594h359q47 0 47 -39q0 -37 -41 -37h-369z" />
<glyph unicode="&#x111;" horiz-adv-x="1157" d="M106 465q0 164 58.5 289t163 193.5t241.5 68.5q125 0 217.5 -56.5t135.5 -156.5l26 358h-368q-16 0 -26.5 11.5t-10.5 27.5t10 26.5t25 10.5h376l15 178q2 20 16 30.5t31 10.5q41 0 39 -39l-15 -180h164q17 0 28 -11.5t11 -27.5q0 -14 -10 -25.5t-27 -11.5h-172 l-86 -1124q-2 -25 -16 -36t-31 -11q-18 0 -30.5 11t-10.5 36l12 141q-51 -90 -143 -141t-199 -51q-125 0 -221 59t-149.5 168t-53.5 252zM199 463q0 -186 90 -289.5t250 -103.5q170 0 266 127t96 350q0 186 -88 285.5t-254 99.5q-168 0 -264 -126t-96 -343z" />
<glyph unicode="&#x112;" horiz-adv-x="1179" d="M160 51l106 1350q4 43 47 43h793q16 0 26.5 -12.5t10.5 -28.5q0 -14 -10.5 -26.5t-24.5 -12.5h-758l-47 -592h709q18 0 28.5 -11t10.5 -30q0 -14 -10.5 -26.5t-26.5 -12.5h-717l-47 -612h749q16 0 26.5 -12.5t10.5 -28.5q0 -14 -9 -26.5t-26 -12.5h-792q-49 0 -49 51z M447 1722q0 20 16.5 31.5t44.5 11.5h498q55 0 55 -43q0 -20 -16 -31.5t-45 -11.5h-498q-55 0 -55 43z" />
<glyph unicode="&#x113;" horiz-adv-x="1073" d="M106 463q0 166 58.5 291t167 193.5t256.5 68.5q195 0 295 -114t100 -339q0 -37 -19.5 -56.5t-48.5 -19.5h-714v-32q0 -180 90 -282.5t260 -102.5q90 0 174 28.5t145 77.5q16 14 35 14q16 0 27.5 -11t11.5 -25q0 -20 -18 -39q-55 -55 -162 -92t-211 -37q-207 0 -327 129 t-120 348zM209 567h688q8 182 -74 275.5t-229 93.5q-164 0 -263.5 -96.5t-121.5 -272.5zM325 1333q0 20 16.5 31.5t45.5 11.5h497q55 0 56 -45q0 -20 -16.5 -31.5t-45.5 -11.5h-498q-55 0 -55 45z" />
<glyph unicode="&#x114;" horiz-adv-x="1179" d="M160 51l106 1350q4 43 47 43h793q16 0 26.5 -12.5t10.5 -28.5q0 -14 -10.5 -26.5t-24.5 -12.5h-758l-47 -592h709q18 0 28.5 -11t10.5 -30q0 -14 -10.5 -26.5t-26.5 -12.5h-717l-47 -612h749q16 0 26.5 -12.5t10.5 -28.5q0 -14 -9 -26.5t-26 -12.5h-792q-49 0 -49 51z M453 1802q0 20 12.5 32.5t30.5 12.5q33 0 47 -35q35 -72 84 -103.5t119 -31.5q72 0 126 32t99 103q20 35 55 35q18 0 30.5 -10t12.5 -29q0 -14 -8 -28q-51 -94 -135 -140.5t-184 -46.5q-98 0 -173 46.5t-112 140.5q-4 8 -4 22z" />
<glyph unicode="&#x115;" horiz-adv-x="1073" d="M106 463q0 166 58.5 291t167 193.5t256.5 68.5q195 0 295 -114t100 -339q0 -37 -19.5 -56.5t-48.5 -19.5h-714v-32q0 -180 90 -282.5t260 -102.5q90 0 174 28.5t145 77.5q16 14 35 14q16 0 27.5 -11t11.5 -25q0 -20 -18 -39q-55 -55 -162 -92t-211 -37q-207 0 -327 129 t-120 348zM209 567h688q8 182 -74 275.5t-229 93.5q-164 0 -263.5 -96.5t-121.5 -272.5zM335 1417q0 20 13.5 33.5t31.5 13.5q33 0 48 -39q53 -147 198 -147q143 0 221 147q20 39 54 39q16 0 26.5 -11t10.5 -30q0 -16 -9 -32q-45 -96 -128 -145.5t-183 -49.5q-96 0 -169 48 t-109 147q-4 10 -5 26z" />
<glyph unicode="&#x116;" horiz-adv-x="1179" d="M160 51l106 1350q4 43 47 43h793q16 0 26.5 -12.5t10.5 -28.5q0 -14 -10.5 -26.5t-24.5 -12.5h-758l-47 -592h709q18 0 28.5 -11t10.5 -30q0 -14 -10.5 -26.5t-26.5 -12.5h-717l-47 -612h749q16 0 26.5 -12.5t10.5 -28.5q0 -14 -9 -26.5t-26 -12.5h-792q-49 0 -49 51z M678 1722q0 33 22.5 53.5t53.5 20.5q33 0 54.5 -20.5t21.5 -53.5q0 -35 -21.5 -55t-54.5 -20t-54.5 20.5t-21.5 54.5z" />
<glyph unicode="&#x117;" horiz-adv-x="1073" d="M106 463q0 166 58.5 291t167 193.5t256.5 68.5q195 0 295 -114t100 -339q0 -37 -19.5 -56.5t-48.5 -19.5h-714v-32q0 -180 90 -282.5t260 -102.5q90 0 174 28.5t145 77.5q16 14 35 14q16 0 27.5 -11t11.5 -25q0 -20 -18 -39q-55 -55 -162 -92t-211 -37q-207 0 -327 129 t-120 348zM209 567h688q8 182 -74 275.5t-229 93.5q-164 0 -263.5 -96.5t-121.5 -272.5zM557 1331q0 35 21.5 55.5t53.5 20.5q33 0 54.5 -20.5t21.5 -55.5q0 -33 -22.5 -53.5t-53.5 -20.5q-30 0 -52.5 20.5t-22.5 53.5z" />
<glyph unicode="&#x118;" horiz-adv-x="1179" d="M160 51l106 1350q4 43 47 43h793q16 0 26.5 -12.5t10.5 -28.5q0 -14 -10.5 -26.5t-24.5 -12.5h-758l-47 -592h709q18 0 28.5 -11t10.5 -30q0 -14 -10.5 -26.5t-26.5 -12.5h-717l-47 -612h749q16 0 26.5 -12.5t10.5 -28.5t-10 -28.5t-29 -10.5q-109 2 -162 -50t-53 -130 q0 -63 34 -97t95 -34q18 0 47 8t54 20q16 8 28 9q14 0 22.5 -9.5t8.5 -21.5q0 -14 -9 -28.5t-24 -22.5q-57 -33 -139 -33q-96 0 -153.5 53t-57.5 141q0 115 92 195h-571q-49 0 -49 51z" />
<glyph unicode="&#x119;" horiz-adv-x="1073" d="M106 463q0 166 58.5 291t167 193.5t256.5 68.5q195 0 295 -114t100 -339q0 -37 -19.5 -56.5t-48.5 -19.5h-714v-32q0 -180 90 -282.5t260 -102.5q90 0 174 28.5t145 77.5q16 14 35 14q16 0 27.5 -11t11.5 -25q0 -20 -18 -39q-41 -41 -105 -70q-123 -55 -167 -109.5 t-44 -115.5q0 -63 34 -97t95 -34q45 0 103 28q14 8 28 9q12 0 20.5 -9.5t8.5 -21.5q0 -33 -31 -51q-59 -33 -139 -33q-96 0 -153.5 54t-57.5 140q0 115 84 185q-33 -4 -49 -4q-207 0 -327 129t-120 348zM209 567h688q8 182 -74 275.5t-229 93.5q-164 0 -263.5 -96.5 t-121.5 -272.5z" />
<glyph unicode="&#x11a;" horiz-adv-x="1179" d="M160 51l106 1350q4 43 47 43h793q16 0 26.5 -12.5t10.5 -28.5q0 -14 -10.5 -26.5t-24.5 -12.5h-758l-47 -592h709q18 0 28.5 -11t10.5 -30q0 -14 -10.5 -26.5t-26.5 -12.5h-717l-47 -612h749q16 0 26.5 -12.5t10.5 -28.5q0 -14 -9 -26.5t-26 -12.5h-792q-49 0 -49 51z M519 1839q0 18 12 30.5t31 12.5q27 0 47 -29l135 -213l180 228q15 20 35 20t34.5 -15t14.5 -36q0 -12 -10 -27l-199 -225q-29 -33 -61 -33q-33 0 -54 33l-153 217q-12 18 -12 37z" />
<glyph unicode="&#x11b;" horiz-adv-x="1073" d="M106 463q0 166 58.5 291t167 193.5t256.5 68.5q195 0 295 -114t100 -339q0 -37 -19.5 -56.5t-48.5 -19.5h-714v-32q0 -180 90 -282.5t260 -102.5q90 0 174 28.5t145 77.5q16 14 35 14q16 0 27.5 -11t11.5 -25q0 -20 -18 -39q-55 -55 -162 -92t-211 -37q-207 0 -327 129 t-120 348zM209 567h688q8 182 -74 275.5t-229 93.5q-164 0 -263.5 -96.5t-121.5 -272.5zM407 1491q0 23 16.5 39t34.5 16q20 0 33 -24l131 -312l180 310q14 24 39 24q16 0 29.5 -12t13.5 -33q0 -14 -10 -31l-201 -313q-25 -41 -59 -41q-33 0 -51 41l-150 311q-6 12 -6 25z " />
<glyph unicode="&#x11c;" horiz-adv-x="1466" d="M152 633q0 252 85 438t241.5 286.5t369.5 100.5q303 0 487 -186q17 -16 17 -41q0 -18 -11.5 -32.5t-27.5 -14.5q-14 0 -31 16q-100 92 -203.5 134t-230.5 42q-188 0 -324.5 -88t-209 -253t-72.5 -394q0 -276 137 -425.5t405 -149.5q98 0 203 19t191 54l39 506h-353 q-23 0 -36 12.5t-13 28.5q0 20 12.5 30.5t34.5 10.5h379q25 0 41 -18.5t16 -44.5l-43 -558q0 -8 -7 -19t-15 -15q-88 -39 -211 -63.5t-229 -24.5q-313 0 -477 171t-164 478zM627 1602q0 12 10 26l199 225q29 33 61 33q33 0 54 -33l153 -217q12 -18 13 -37q0 -18 -12.5 -30.5 t-28.5 -12.5q-29 0 -50 31l-135 211l-178 -227q-12 -19 -37 -19q-20 0 -34.5 15.5t-14.5 34.5z" />
<glyph unicode="&#x11d;" horiz-adv-x="1165" d="M109 489q0 158 57 277t162.5 184.5t244.5 65.5q125 0 218.5 -54.5t136.5 -154.5l14 158q4 47 47 47t39 -45l-72 -920q-33 -430 -421 -430q-123 0 -225.5 32t-176.5 91q-23 20 -22 45q0 18 11 30.5t28 12.5q14 0 22 -8q94 -66 173 -92.5t187 -26.5q311 0 340 344l15 191 q-45 -96 -139.5 -150.5t-206.5 -54.5q-197 0 -314.5 125t-117.5 333zM201 481q0 -178 88 -272t256 -94q170 0 267 119.5t97 330.5q0 174 -90 270.5t-254 96.5q-170 0 -267 -120t-97 -331zM401 1157q0 20 11 33l200 315q25 39 60 39q33 0 51 -39l149 -313q6 -12 7 -25 q0 -23 -16.5 -39t-35.5 -16q-20 0 -32 27l-131 309l-181 -309q-14 -25 -39 -25q-16 0 -29.5 12.5t-13.5 30.5z" />
<glyph unicode="&#x11e;" horiz-adv-x="1466" d="M152 633q0 252 85 438t241.5 286.5t369.5 100.5q303 0 487 -186q17 -16 17 -41q0 -18 -11.5 -32.5t-27.5 -14.5q-14 0 -31 16q-100 92 -203.5 134t-230.5 42q-188 0 -324.5 -88t-209 -253t-72.5 -394q0 -276 137 -425.5t405 -149.5q98 0 203 19t191 54l39 506h-353 q-23 0 -36 12.5t-13 28.5q0 20 12.5 30.5t34.5 10.5h379q25 0 41 -18.5t16 -44.5l-43 -558q0 -8 -7 -19t-15 -15q-88 -39 -211 -63.5t-229 -24.5q-313 0 -477 171t-164 478zM582 1802q0 20 12.5 32.5t30.5 12.5q33 0 47 -35q35 -72 84 -103.5t119 -31.5q72 0 126 32t99 103 q20 35 55 35q18 0 30.5 -10t12.5 -29q0 -14 -8 -28q-51 -94 -135 -140.5t-184 -46.5q-98 0 -173 46.5t-112 140.5q-4 8 -4 22z" />
<glyph unicode="&#x11f;" horiz-adv-x="1165" d="M109 489q0 158 57 277t162.5 184.5t244.5 65.5q125 0 218.5 -54.5t136.5 -154.5l14 158q4 47 47 47t39 -45l-72 -920q-33 -430 -421 -430q-123 0 -225.5 32t-176.5 91q-23 20 -22 45q0 18 11 30.5t28 12.5q14 0 22 -8q94 -66 173 -92.5t187 -26.5q311 0 340 344l15 191 q-45 -96 -139.5 -150.5t-206.5 -54.5q-197 0 -314.5 125t-117.5 333zM201 481q0 -178 88 -272t256 -94q170 0 267 119.5t97 330.5q0 174 -90 270.5t-254 96.5q-170 0 -267 -120t-97 -331zM358 1417q0 20 13.5 33.5t31.5 13.5q33 0 48 -39q53 -147 198 -147q143 0 221 147 q20 39 54 39q16 0 26.5 -11t10.5 -30q0 -16 -9 -32q-45 -96 -128 -145.5t-183 -49.5q-96 0 -169 48t-109 147q-4 10 -5 26z" />
<glyph unicode="&#x120;" horiz-adv-x="1466" d="M152 633q0 252 85 438t241.5 286.5t369.5 100.5q303 0 487 -186q17 -16 17 -41q0 -18 -11.5 -32.5t-27.5 -14.5q-14 0 -31 16q-100 92 -203.5 134t-230.5 42q-188 0 -324.5 -88t-209 -253t-72.5 -394q0 -276 137 -425.5t405 -149.5q98 0 203 19t191 54l39 506h-353 q-23 0 -36 12.5t-13 28.5q0 20 12.5 30.5t34.5 10.5h379q25 0 41 -18.5t16 -44.5l-43 -558q0 -8 -7 -19t-15 -15q-88 -39 -211 -63.5t-229 -24.5q-313 0 -477 171t-164 478zM807 1722q0 33 22.5 53.5t53.5 20.5q33 0 54.5 -20.5t21.5 -53.5q0 -35 -21.5 -55t-54.5 -20 t-54.5 20.5t-21.5 54.5z" />
<glyph unicode="&#x121;" horiz-adv-x="1165" d="M109 489q0 158 57 277t162.5 184.5t244.5 65.5q125 0 218.5 -54.5t136.5 -154.5l14 158q4 47 47 47t39 -45l-72 -920q-33 -430 -421 -430q-123 0 -225.5 32t-176.5 91q-23 20 -22 45q0 18 11 30.5t28 12.5q14 0 22 -8q94 -66 173 -92.5t187 -26.5q311 0 340 344l15 191 q-45 -96 -139.5 -150.5t-206.5 -54.5q-197 0 -314.5 125t-117.5 333zM201 481q0 -178 88 -272t256 -94q170 0 267 119.5t97 330.5q0 174 -90 270.5t-254 96.5q-170 0 -267 -120t-97 -331zM580 1331q0 35 21.5 55.5t53.5 20.5q33 0 54.5 -20.5t21.5 -55.5q0 -33 -22.5 -53.5 t-53.5 -20.5q-30 0 -52.5 20.5t-22.5 53.5z" />
<glyph unicode="&#x122;" horiz-adv-x="1466" d="M152 633q0 252 85 438t241.5 286.5t369.5 100.5q303 0 487 -186q17 -16 17 -41q0 -18 -11.5 -32.5t-27.5 -14.5q-14 0 -31 16q-100 92 -203.5 134t-230.5 42q-188 0 -324.5 -88t-209 -253t-72.5 -394q0 -276 137 -425.5t405 -149.5q98 0 203 19t191 54l39 506h-353 q-23 0 -36 12.5t-13 28.5q0 20 12.5 30.5t34.5 10.5h379q25 0 41 -18.5t16 -44.5l-43 -558q0 -8 -7 -19t-15 -15q-88 -39 -211 -63.5t-229 -24.5q-313 0 -477 171t-164 478zM649 -477q0 16 17 33q35 35 52 69.5t26 75.5q-33 2 -52.5 20.5t-19.5 51.5q0 35 22.5 58.5 t55.5 23.5q77 -1 77 -97q0 -61 -26.5 -126.5t-83.5 -120.5q-18 -18 -37 -19q-14 0 -22.5 9.5t-8.5 21.5z" />
<glyph unicode="&#x123;" horiz-adv-x="1165" d="M109 489q0 158 57 277t162.5 184.5t244.5 65.5q125 0 218.5 -54.5t136.5 -154.5l14 158q4 47 47 47t39 -45l-72 -920q-33 -430 -421 -430q-123 0 -225.5 32t-176.5 91q-23 20 -22 45q0 18 11 30.5t28 12.5q14 0 22 -8q94 -66 173 -92.5t187 -26.5q311 0 340 344l15 191 q-45 -96 -139.5 -150.5t-206.5 -54.5q-197 0 -314.5 125t-117.5 333zM201 481q0 -178 88 -272t256 -94q170 0 267 119.5t97 330.5q0 174 -90 270.5t-254 96.5q-170 0 -267 -120t-97 -331zM563 1270q0 139 111 250q19 18 39 18q12 0 19 -8t7 -21q0 -20 -16 -36 q-63 -70 -76 -146q33 -2 52.5 -20.5t19.5 -51.5q0 -37 -17.5 -59t-52.5 -22q-37 0 -61.5 23.5t-24.5 72.5z" />
<glyph unicode="&#x124;" horiz-adv-x="1538" d="M160 37l108 1378q2 18 13.5 28.5t27.5 10.5q18 0 32.5 -13.5t12.5 -33.5l-49 -635h971l51 643q0 18 12.5 28.5t28.5 10.5q18 0 31.5 -13.5t11.5 -33.5l-108 -1378q0 -18 -12.5 -28.5t-28.5 -10.5q-18 0 -31.5 13t-11.5 34l51 657h-971l-53 -665q-2 -18 -13.5 -28.5 t-27.5 -10.5q-18 0 -31.5 13t-13.5 34zM610 1602q0 12 10 26l199 225q29 33 61 33q33 0 54 -33l153 -217q12 -18 13 -37q0 -18 -12.5 -30.5t-28.5 -12.5q-29 0 -50 31l-135 211l-178 -227q-12 -19 -37 -19q-20 0 -34.5 15.5t-14.5 34.5z" />
<glyph unicode="&#x125;" horiz-adv-x="1132" d="M59 1602q0 12 10 26l199 225q29 33 61 33q33 0 54 -33l153 -217q12 -18 13 -37q0 -18 -12.5 -30.5t-28.5 -12.5q-29 0 -50 31l-135 211l-178 -227q-12 -19 -37 -19q-20 0 -34.5 15.5t-14.5 34.5zM135 37l111 1380q2 20 16 29.5t31 9.5q18 0 29.5 -10t9.5 -31l-47 -592 q51 92 141 142.5t205 50.5q168 0 256 -83t88 -245q0 -35 -2 -53l-45 -598q-2 -25 -16.5 -36t-30.5 -11q-18 0 -29.5 11t-9.5 36l45 590q2 18 2 53q0 254 -254 254q-162 0 -259 -95.5t-110 -260.5l-45 -541q-2 -25 -15 -36t-30 -11q-18 0 -30.5 11t-10.5 36z" />
<glyph unicode="&#x126;" horiz-adv-x="1554" d="M49 1118q0 16 11.5 27.5t23.5 11.5h176l21 258q0 18 12 28.5t29 10.5q18 0 31.5 -13.5t11.5 -33.5l-21 -250h973l20 258q2 18 13.5 28.5t27.5 10.5q18 0 31.5 -13.5t13.5 -33.5l-20 -250h164q12 0 24.5 -11t12.5 -28q0 -14 -11.5 -26.5t-23.5 -12.5h-172l-82 -1050 q-2 -18 -13.5 -28.5t-27.5 -10.5q-18 0 -32.5 13t-12.5 34l51 657h-971l-53 -665q0 -18 -12.5 -28.5t-28.5 -10.5q-18 0 -31.5 13t-11.5 34l82 1042h-168q-14 0 -25.5 12.5t-11.5 26.5zM315 772h971l25 307h-973z" />
<glyph unicode="&#x127;" horiz-adv-x="1132" d="M25 1200q0 16 10 26.5t24 10.5h172l15 180q2 20 16 29.5t31 9.5q18 0 29.5 -10t9.5 -31l-15 -178h369q16 0 27.5 -11.5t11.5 -27.5t-10 -26.5t-27 -10.5h-377l-26 -338q51 92 141 142.5t205 50.5q168 0 256 -83t88 -245q0 -35 -2 -53l-45 -598q-2 -25 -16.5 -36 t-30.5 -11q-18 0 -29.5 11t-9.5 36l45 590q2 18 2 53q0 254 -254 254q-162 0 -259 -95.5t-110 -260.5l-45 -541q-2 -25 -15 -36t-30 -11q-18 0 -30.5 11t-10.5 36l90 1124h-164q-16 0 -26 11.5t-10 27.5z" />
<glyph unicode="&#x128;" horiz-adv-x="477" d="M23 1671q0 31 24.5 64.5t65.5 56.5t92 23q57 0 156 -54q31 -16 62.5 -28.5t53.5 -12.5q39 0 62.5 16.5t42.5 45.5q23 29 35 28q14 0 23 -10t9 -26q0 -29 -24.5 -63t-65.5 -56.5t-92 -22.5q-57 1 -155 54q-31 16 -63 28t-54 12q-39 0 -61.5 -16t-45.5 -47q-20 -29 -35 -29 q-14 0 -22 11.5t-8 25.5zM160 37l108 1378q2 18 13.5 28.5t27.5 10.5q18 0 31.5 -13.5t13.5 -33.5l-108 -1378q-2 -18 -13.5 -28.5t-27.5 -10.5q-19 0 -32 13t-13 34z" />
<glyph unicode="&#x129;" horiz-adv-x="434" d="M-31 1272q0 29 24.5 70.5t66.5 72.5t91 31q35 0 70 -18.5t86 -55.5q78 -61 117 -61q37 0 59.5 20.5t42.5 57.5q23 41 41 41q14 0 22.5 -10.5t8.5 -24.5q0 -31 -24.5 -73t-66.5 -72.5t-94 -30.5q-34 0 -69 19t-82 56q-45 33 -70.5 47.5t-48.5 14.5q-37 0 -57.5 -20.5 t-42.5 -57.5q-14 -25 -22.5 -34t-18.5 -9q-14 0 -23.5 10t-9.5 27zM135 37l76 936q2 20 15.5 29.5t31.5 9.5q41 0 39 -39l-76 -936q-2 -47 -45 -47t-41 47z" />
<glyph unicode="&#x12a;" horiz-adv-x="477" d="M29 1722q0 20 16.5 31.5t44.5 11.5h498q55 0 55 -43q0 -20 -16 -31.5t-45 -11.5h-498q-55 0 -55 43zM160 37l108 1378q2 18 13.5 28.5t27.5 10.5q18 0 31.5 -13.5t13.5 -33.5l-108 -1378q-2 -18 -13.5 -28.5t-27.5 -10.5q-19 0 -32 13t-13 34z" />
<glyph unicode="&#x12b;" horiz-adv-x="434" d="M-23 1333q0 20 16.5 31.5t45.5 11.5h497q55 0 56 -45q0 -20 -16.5 -31.5t-45.5 -11.5h-498q-55 0 -55 45zM135 37l76 936q2 20 15.5 29.5t31.5 9.5q41 0 39 -39l-76 -936q-2 -47 -45 -47t-41 47z" />
<glyph unicode="&#x12c;" horiz-adv-x="477" d="M35 1802q0 20 12.5 32.5t30.5 12.5q33 0 47 -35q35 -72 84 -103.5t119 -31.5q72 0 126 32t99 103q20 35 55 35q18 0 30.5 -10t12.5 -29q0 -14 -8 -28q-51 -94 -135 -140.5t-184 -46.5q-98 0 -173 46.5t-112 140.5q-4 8 -4 22zM160 37l108 1378q2 18 13.5 28.5t27.5 10.5 q18 0 31.5 -13.5t13.5 -33.5l-108 -1378q-2 -18 -13.5 -28.5t-27.5 -10.5q-19 0 -32 13t-13 34z" />
<glyph unicode="&#x12d;" horiz-adv-x="434" d="M-13 1417q0 20 13.5 33.5t31.5 13.5q33 0 48 -39q53 -147 198 -147q143 0 221 147q20 39 54 39q16 0 26.5 -11t10.5 -30q0 -16 -9 -32q-45 -96 -128 -145.5t-183 -49.5q-96 0 -169 48t-109 147q-4 10 -5 26zM135 37l76 936q2 20 15.5 29.5t31.5 9.5q41 0 39 -39l-76 -936 q-2 -47 -45 -47t-41 47z" />
<glyph unicode="&#x12e;" horiz-adv-x="477" d="M-59 -197q0 102 59 173t162 92l106 1347q2 18 13.5 28.5t27.5 10.5q18 0 31.5 -13.5t13.5 -33.5l-108 -1378q-2 -20 -17.5 -30.5t-40.5 -10.5q-76 -4 -115.5 -50.5t-39.5 -117.5q0 -63 33.5 -97t95.5 -34q45 0 102 28q15 9 29 9q12 0 20.5 -9.5t8.5 -21.5q0 -33 -31 -51 q-66 -33 -139 -33q-96 0 -153.5 53t-57.5 139z" />
<glyph unicode="&#x12f;" horiz-adv-x="434" d="M-84 -195q0 102 59.5 173t161.5 90l74 905q2 20 15.5 29.5t31.5 9.5q41 0 39 -39l-76 -936q0 -25 -16.5 -37t-38.5 -12q-76 -2 -117 -48t-41 -120q0 -63 34 -97t97 -34q18 0 47 8t54 20q14 9 28 9t22.5 -9.5t8.5 -21.5q0 -14 -9 -28.5t-24 -22.5q-63 -33 -137 -33 q-98 0 -155.5 54t-57.5 140zM205 1331q0 35 21.5 55.5t54.5 20.5q30 0 51.5 -20.5t21.5 -55.5q0 -33 -21.5 -53.5t-51.5 -20.5q-33 0 -54.5 20.5t-21.5 53.5z" />
<glyph unicode="&#x130;" horiz-adv-x="477" d="M160 37l108 1378q2 18 13.5 28.5t27.5 10.5q18 0 31.5 -13.5t13.5 -33.5l-108 -1378q-2 -18 -13.5 -28.5t-27.5 -10.5q-19 0 -32 13t-13 34zM260 1722q0 33 22.5 53.5t53.5 20.5q33 0 54.5 -20.5t21.5 -53.5q0 -35 -21.5 -55t-54.5 -20t-54.5 20.5t-21.5 54.5z" />
<glyph unicode="&#x131;" horiz-adv-x="434" d="M135 37l76 936q2 20 15.5 29.5t31.5 9.5q41 0 39 -39l-76 -936q-2 -47 -45 -47t-41 47z" />
<glyph unicode="&#x134;" horiz-adv-x="608" d="M-53 33q0 10 10 21.5t27 13.5l65 4q119 8 187.5 82.5t80.5 212.5l84 1042q0 20 13.5 32.5t31.5 12.5q39 0 39 -45l-84 -1047q-14 -174 -103 -266t-249 -102l-67 -4h-2q-16 0 -25.5 13t-7.5 30zM213 1602q0 12 10 26l199 225q29 33 61 33q33 0 54 -33l153 -217 q12 -18 13 -37q0 -18 -12.5 -30.5t-28.5 -12.5q-29 0 -50 31l-135 211l-178 -227q-12 -19 -37 -19q-20 0 -34.5 15.5t-14.5 34.5z" />
<glyph unicode="&#x135;" horiz-adv-x="434" d="M-252 -334q0 12 11.5 22.5t27.5 12.5l59 4q141 8 210 83t79 226l76 955q6 43 43 43q18 0 31.5 -11.5t11.5 -31.5l-74 -942q-14 -201 -111.5 -295t-293.5 -105l-35 -2h-4q-14 0 -22.5 11.5t-8.5 25.5v4zM30 1157q0 20 11 33l200 315q25 39 60 39q33 0 51 -39l149 -313 q6 -12 7 -25q0 -23 -16.5 -39t-35.5 -16q-20 0 -32 27l-131 309l-181 -309q-14 -25 -39 -25q-16 0 -29.5 12.5t-13.5 30.5z" />
<glyph unicode="&#x136;" horiz-adv-x="1226" d="M160 37l108 1378q2 14 14.5 26.5t26.5 12.5q16 0 30.5 -15.5t14.5 -31.5l-49 -633l856 672q11 6 21 6q14 0 26.5 -12.5t12.5 -26.5t-15 -27l-827 -649l756 -678q14 -14 14 -30q0 -14 -11.5 -26.5t-25.5 -12.5t-22 8l-791 702l-53 -671q-2 -14 -14.5 -26.5t-26.5 -12.5 q-16 0 -30.5 15t-14.5 32zM469 -477q0 16 17 33q35 35 52 69.5t26 75.5q-33 2 -52.5 20.5t-19.5 51.5q0 35 22.5 58.5t55.5 23.5q77 -1 77 -97q0 -61 -26.5 -126.5t-83.5 -120.5q-18 -18 -37 -19q-14 0 -22.5 9.5t-8.5 21.5z" />
<glyph unicode="&#x137;" horiz-adv-x="958" d="M139 39l107 1376q2 16 16 27.5t31 11.5q20 0 30.5 -13.5t8.5 -35.5l-68 -877l567 465q11 8 25 8t25.5 -11t11.5 -25q0 -20 -16 -31l-510 -422l495 -455q16 -16 17 -30q0 -14 -10.5 -25.5t-26.5 -11.5q-14 0 -27 10l-555 489l-35 -460q-2 -18 -13 -28.5t-30 -10.5 q-18 0 -31.5 14t-11.5 35zM329 -477q0 16 17 33q35 35 52 69.5t26 75.5q-33 2 -52.5 20.5t-19.5 51.5q0 35 22.5 58.5t55.5 23.5q77 -1 77 -97q0 -61 -26.5 -126.5t-83.5 -120.5q-18 -18 -37 -19q-14 0 -22.5 9.5t-8.5 21.5z" />
<glyph unicode="&#x138;" horiz-adv-x="958" d="M135 37l76 936q2 20 15.5 29.5t31.5 9.5q41 0 39 -39l-37 -449l571 469q11 8 25 8t25.5 -11t11.5 -25q0 -20 -16 -31l-510 -422l495 -455q16 -16 17 -30q0 -14 -10.5 -25.5t-26.5 -11.5q-14 0 -27 10l-557 492l-37 -455q-2 -47 -45 -47t-41 47z" />
<glyph unicode="&#x139;" horiz-adv-x="1079" d="M160 51l108 1364q2 18 13.5 28.5t29.5 10.5t30.5 -13.5t12.5 -33.5l-104 -1329h733q16 0 26.5 -12.5t10.5 -28.5q0 -12 -10.5 -24.5t-24.5 -12.5h-776q-25 0 -38 13.5t-11 37.5zM307 1581q0 14 9 25l178 245q25 37 59 37q18 0 31.5 -12t13.5 -31q0 -23 -24 -51l-209 -221 q-17 -17 -33 -17q-10 0 -17.5 7.5t-7.5 17.5z" />
<glyph unicode="&#x13a;" horiz-adv-x="434" d="M135 37l111 1380q2 20 15 29.5t32 9.5q41 0 39 -39l-111 -1380q-2 -47 -45 -47t-41 47zM284 1581q0 14 9 25l178 245q25 37 59 37q18 0 31.5 -12t13.5 -31q0 -23 -24 -51l-209 -221q-17 -17 -33 -17q-10 0 -17.5 7.5t-7.5 17.5z" />
<glyph unicode="&#x13b;" horiz-adv-x="1079" d="M160 51l108 1364q2 18 13.5 28.5t29.5 10.5t30.5 -13.5t12.5 -33.5l-104 -1329h733q16 0 26.5 -12.5t10.5 -28.5q0 -12 -10.5 -24.5t-24.5 -12.5h-776q-25 0 -38 13.5t-11 37.5zM477 -477q0 16 17 33q35 35 52 69.5t26 75.5q-33 2 -52.5 20.5t-19.5 51.5q0 35 22.5 58.5 t55.5 23.5q77 -1 77 -97q0 -61 -26.5 -126.5t-83.5 -120.5q-18 -18 -37 -19q-14 0 -22.5 9.5t-8.5 21.5z" />
<glyph unicode="&#x13c;" horiz-adv-x="434" d="M67 -477q0 16 17 33q35 35 52 69.5t26 75.5q-33 2 -52.5 20.5t-19.5 51.5q0 35 22.5 58.5t55.5 23.5q77 -1 77 -97q0 -61 -26.5 -126.5t-83.5 -120.5q-18 -18 -37 -19q-14 0 -22.5 9.5t-8.5 21.5zM135 37l111 1380q2 20 15 29.5t32 9.5q41 0 39 -39l-111 -1380 q-2 -47 -45 -47t-41 47z" />
<glyph unicode="&#x13d;" horiz-adv-x="1079" d="M160 51l108 1364q2 18 13.5 28.5t29.5 10.5t30.5 -13.5t12.5 -33.5l-104 -1329h733q16 0 26.5 -12.5t10.5 -28.5q0 -12 -10.5 -24.5t-24.5 -12.5h-776q-25 0 -38 13.5t-11 37.5zM498 1085l22 306q2 31 18.5 47t37.5 16q20 0 34.5 -14.5t14.5 -40.5q0 -12 -2 -19l-64 -301 q-5 -26 -32 -26q-14 0 -22.5 8t-6.5 24z" />
<glyph unicode="&#x13e;" horiz-adv-x="434" d="M135 37l111 1380q2 20 15 29.5t32 9.5q41 0 39 -39l-111 -1380q-2 -47 -45 -47t-41 47zM391 1085l25 306q2 31 19.5 48t39.5 17q20 0 35.5 -15.5t15.5 -41.5q0 -12 -2 -19l-67 -299q-2 -12 -12.5 -19t-22.5 -7q-14 0 -23.5 8t-7.5 22z" />
<glyph unicode="&#x13f;" horiz-adv-x="1079" d="M160 51l108 1364q2 18 13.5 28.5t29.5 10.5t30.5 -13.5t12.5 -33.5l-104 -1329h733q16 0 26.5 -12.5t10.5 -28.5q0 -12 -10.5 -24.5t-24.5 -12.5h-776q-25 0 -38 13.5t-11 37.5zM612 723q0 33 23 54.5t53 21.5q33 0 54.5 -21.5t21.5 -54.5q0 -35 -21.5 -55.5t-54.5 -20.5 t-54.5 20.5t-21.5 55.5z" />
<glyph unicode="&#x140;" horiz-adv-x="407" d="M135 37l111 1380q2 20 15 29.5t32 9.5q41 0 39 -39l-111 -1380q-2 -47 -45 -47t-41 47zM342 723q0 33 23 54.5t53 21.5q33 0 54.5 -21.5t21.5 -54.5q0 -35 -21.5 -55.5t-54.5 -20.5t-54.5 20.5t-21.5 55.5z" />
<glyph unicode="&#x141;" horiz-adv-x="1087" d="M12 614q0 25 23 35l190 105l51 661q2 18 14.5 28.5t31.5 10.5q18 0 30.5 -13.5t9.5 -33.5l-47 -604l355 194q6 4 18 4q14 0 25.5 -12t11.5 -28q0 -18 -18 -29l-400 -221l-49 -633h733q17 0 27 -12.5t10 -28.5q0 -14 -9 -25.5t-26 -11.5h-776q-25 0 -37 13.5t-10 37.5 l47 611l-147 -82q-12 -6 -21 -7q-14 0 -25.5 12.5t-11.5 28.5z" />
<glyph unicode="&#x142;" horiz-adv-x="499" d="M8 614q0 18 21 31l200 111l54 661q0 20 14 29.5t31 9.5q41 0 41 -39l-50 -612l152 84q12 4 16 4q14 0 27.5 -13.5t13.5 -29.5t-18 -29l-199 -108l-53 -676q-6 -47 -47 -47q-45 0 -39 47l51 627l-157 -86q-8 -4 -15 -5q-16 0 -29.5 13.5t-13.5 27.5z" />
<glyph unicode="&#x143;" horiz-adv-x="1499" d="M158 35l108 1376q2 43 43 43q27 0 45 -31l838 -1276l102 1270q2 37 41 37q17 0 29 -13.5t12 -31.5l-108 -1378q-4 -41 -37 -41q-20 0 -29.5 8t-19.5 22l-842 1285l-100 -1278q-2 -37 -41 -37q-16 0 -28.5 13t-12.5 32zM817 1581q0 14 9 25l178 245q25 37 59 37 q18 0 31.5 -12t13.5 -31q0 -23 -24 -51l-209 -221q-17 -17 -33 -17q-10 0 -17.5 7.5t-7.5 17.5z" />
<glyph unicode="&#x144;" horiz-adv-x="1132" d="M135 37l76 936q2 20 16.5 29.5t30.5 9.5q39 0 39 -41l-14 -152q51 94 141 145.5t207 51.5q168 0 256 -83t88 -245q0 -35 -2 -53l-45 -598q-2 -25 -16.5 -36t-30.5 -11q-18 0 -29.5 11t-9.5 36l45 590q2 18 2 53q0 254 -254 254q-162 0 -259 -95.5t-110 -260.5l-45 -541 q-2 -25 -15 -36t-30 -11q-18 0 -30.5 11t-10.5 36zM593 1145q0 14 11 22l315 359q20 23 47 22q23 0 39 -15t16 -38q0 -25 -22 -45l-358 -330q-11 -6 -19 -6q-10 0 -19.5 9.5t-9.5 21.5z" />
<glyph unicode="&#x145;" horiz-adv-x="1499" d="M158 35l108 1376q2 43 43 43q27 0 45 -31l838 -1276l102 1270q2 37 41 37q17 0 29 -13.5t12 -31.5l-108 -1378q-4 -41 -37 -41q-20 0 -29.5 8t-19.5 22l-842 1285l-100 -1278q-2 -37 -41 -37q-16 0 -28.5 13t-12.5 32zM600 -477q0 16 17 33q35 35 52 69.5t26 75.5 q-33 2 -52.5 20.5t-19.5 51.5q0 35 22.5 58.5t55.5 23.5q77 -1 77 -97q0 -61 -26.5 -126.5t-83.5 -120.5q-18 -18 -37 -19q-14 0 -22.5 9.5t-8.5 21.5z" />
<glyph unicode="&#x146;" horiz-adv-x="1132" d="M135 37l76 936q2 20 16.5 29.5t30.5 9.5q39 0 39 -41l-14 -152q51 94 141 145.5t207 51.5q168 0 256 -83t88 -245q0 -35 -2 -53l-45 -598q-2 -25 -16.5 -36t-30.5 -11q-18 0 -29.5 11t-9.5 36l45 590q2 18 2 53q0 254 -254 254q-162 0 -259 -95.5t-110 -260.5l-45 -541 q-2 -25 -15 -36t-30 -11q-18 0 -30.5 11t-10.5 36zM417 -477q0 16 17 33q35 35 52 69.5t26 75.5q-33 2 -52.5 20.5t-19.5 51.5q0 35 22.5 58.5t55.5 23.5q77 -1 77 -97q0 -61 -26.5 -126.5t-83.5 -120.5q-18 -18 -37 -19q-14 0 -22.5 9.5t-8.5 21.5z" />
<glyph unicode="&#x147;" horiz-adv-x="1499" d="M158 35l108 1376q2 43 43 43q27 0 45 -31l838 -1276l102 1270q2 37 41 37q17 0 29 -13.5t12 -31.5l-108 -1378q-4 -41 -37 -41q-20 0 -29.5 8t-19.5 22l-842 1285l-100 -1278q-2 -37 -41 -37q-16 0 -28.5 13t-12.5 32zM613 1839q0 18 12 30.5t31 12.5q27 0 47 -29 l135 -213l180 228q15 20 35 20t34.5 -15t14.5 -36q0 -12 -10 -27l-199 -225q-29 -33 -61 -33q-33 0 -54 33l-153 217q-12 18 -12 37z" />
<glyph unicode="&#x148;" horiz-adv-x="1132" d="M135 37l76 936q2 20 16.5 29.5t30.5 9.5q39 0 39 -41l-14 -152q51 94 141 145.5t207 51.5q168 0 256 -83t88 -245q0 -35 -2 -53l-45 -598q-2 -25 -16.5 -36t-30.5 -11q-18 0 -29.5 11t-9.5 36l45 590q2 18 2 53q0 254 -254 254q-162 0 -259 -95.5t-110 -260.5l-45 -541 q-2 -25 -15 -36t-30 -11q-18 0 -30.5 11t-10.5 36zM409 1491q0 23 16.5 39t34.5 16q20 0 33 -24l131 -312l180 310q14 24 39 24q16 0 29.5 -12t13.5 -33q0 -14 -10 -31l-201 -313q-25 -41 -59 -41q-33 0 -51 41l-150 311q-6 12 -6 25z" />
<glyph unicode="&#x149;" horiz-adv-x="1132" d="M135 37l76 936q2 20 16.5 29.5t30.5 9.5q39 0 39 -41l-14 -152q51 94 141 145.5t207 51.5q168 0 256 -83t88 -245q0 -35 -2 -53l-45 -598q-2 -25 -16.5 -36t-30.5 -11q-18 0 -29.5 11t-9.5 36l45 590q2 18 2 53q0 254 -254 254q-162 0 -259 -95.5t-110 -260.5l-45 -541 q-2 -25 -15 -36t-30 -11q-18 0 -30.5 11t-10.5 36zM274 1219q0 16 17 32q68 74 76 146q-31 2 -50.5 20.5t-19.5 48.5q0 35 22.5 58.5t55.5 23.5q80 0 80 -90q0 -137 -111 -254q-18 -18 -37 -18q-14 0 -23.5 9t-9.5 24z" />
<glyph unicode="&#x14a;" horiz-adv-x="1499" d="M158 35l108 1376q2 43 43 43q27 0 45 -31l838 -1276l102 1270q2 37 41 37q17 0 29 -13.5t12 -31.5l-112 -1417q-14 -172 -104.5 -264.5t-250.5 -102.5l-71 -4h-2q-12 0 -20.5 11.5t-8.5 25.5q0 16 9 29.5t26 11.5l88 4q106 4 173.5 83t80.5 214v14l-844 1291l-100 -1278 q-2 -37 -41 -37q-16 0 -28.5 13t-12.5 32z" />
<glyph unicode="&#x14b;" horiz-adv-x="1132" d="M135 37l76 936q2 20 16.5 29.5t30.5 9.5q39 0 39 -41l-14 -152q51 94 141 145.5t207 51.5q168 0 256 -82t88 -246q0 -35 -2 -53l-47 -608q-14 -201 -110.5 -295t-293.5 -105l-35 -2h-4q-14 0 -22 10.5t-10 26.5q0 14 10 25.5t31 13.5l59 4q139 8 206.5 82t80.5 227 l49 613q2 18 2 53q0 129 -63.5 191.5t-190.5 62.5q-162 0 -259 -95.5t-110 -260.5l-45 -541q-2 -25 -15 -36t-30 -11q-18 0 -30.5 11t-10.5 36z" />
<glyph unicode="&#x14c;" horiz-adv-x="1538" d="M154 655q0 244 79.5 426.5t226 280.5t343.5 98q190 0 329.5 -81t213 -232.5t73.5 -360.5q0 -242 -79.5 -424t-227 -280t-344.5 -98q-190 0 -328.5 80.5t-212 232.5t-73.5 358zM246 653q0 -281 136 -432t388 -151q172 0 298 86t192.5 247.5t66.5 384.5q0 283 -135 434.5 t-389 151.5q-172 0 -298 -86t-192.5 -248.5t-66.5 -386.5zM559 1722q0 20 16.5 31.5t44.5 11.5h498q55 0 55 -43q0 -20 -16 -31.5t-45 -11.5h-498q-55 0 -55 43z" />
<glyph unicode="&#x14d;" horiz-adv-x="1097" d="M106 463q0 164 57.5 289t161 194.5t240.5 69.5q195 0 311.5 -130t116.5 -349q0 -164 -57 -289t-161.5 -193.5t-239.5 -68.5q-129 0 -225.5 59t-150 166.5t-53.5 251.5zM199 457q0 -186 89 -286.5t253 -100.5q166 0 263 126t97 347q0 184 -90 286.5t-250 102.5 q-168 0 -265 -126t-97 -349zM309 1333q0 20 16.5 31.5t45.5 11.5h497q55 0 56 -45q0 -20 -16.5 -31.5t-45.5 -11.5h-498q-55 0 -55 45z" />
<glyph unicode="&#x14e;" horiz-adv-x="1538" d="M154 655q0 244 79.5 426.5t226 280.5t343.5 98q190 0 329.5 -81t213 -232.5t73.5 -360.5q0 -242 -79.5 -424t-227 -280t-344.5 -98q-190 0 -328.5 80.5t-212 232.5t-73.5 358zM246 653q0 -281 136 -432t388 -151q172 0 298 86t192.5 247.5t66.5 384.5q0 283 -135 434.5 t-389 151.5q-172 0 -298 -86t-192.5 -248.5t-66.5 -386.5zM565 1802q0 20 12.5 32.5t30.5 12.5q33 0 47 -35q35 -72 84 -103.5t119 -31.5q72 0 126 32t99 103q20 35 55 35q18 0 30.5 -10t12.5 -29q0 -14 -8 -28q-51 -94 -135 -140.5t-184 -46.5q-98 0 -173 46.5t-112 140.5 q-4 8 -4 22z" />
<glyph unicode="&#x14f;" horiz-adv-x="1097" d="M106 463q0 164 57.5 289t161 194.5t240.5 69.5q195 0 311.5 -130t116.5 -349q0 -164 -57 -289t-161.5 -193.5t-239.5 -68.5q-129 0 -225.5 59t-150 166.5t-53.5 251.5zM199 457q0 -186 89 -286.5t253 -100.5q166 0 263 126t97 347q0 184 -90 286.5t-250 102.5 q-168 0 -265 -126t-97 -349zM319 1417q0 20 13.5 33.5t31.5 13.5q33 0 48 -39q53 -147 198 -147q143 0 221 147q20 39 54 39q16 0 26.5 -11t10.5 -30q0 -16 -9 -32q-45 -96 -128 -145.5t-183 -49.5q-96 0 -169 48t-109 147q-4 10 -5 26z" />
<glyph unicode="&#x150;" horiz-adv-x="1538" d="M154 655q0 244 79.5 426.5t226 280.5t343.5 98q190 0 329.5 -81t213 -232.5t73.5 -360.5q0 -242 -79.5 -424t-227 -280t-344.5 -98q-190 0 -328.5 80.5t-212 232.5t-73.5 358zM246 653q0 -281 136 -432t388 -151q172 0 298 86t192.5 247.5t66.5 384.5q0 283 -135 434.5 t-389 151.5q-172 0 -298 -86t-192.5 -248.5t-66.5 -386.5zM725 1567.5q-6 11.5 2 25.5l129 246q25 45 59 45q16 0 29.5 -12t13.5 -31q0 -16 -16 -39l-176 -233q-9 -13 -23 -13q-12 0 -18 11.5zM950.5 1567.5q-6.5 11.5 1.5 25.5l129 246q23 45 60 45q16 0 29.5 -12t13.5 -31 q0 -16 -17 -39l-176 -233q-8 -13 -22 -13q-12 0 -18.5 11.5z" />
<glyph unicode="&#x151;" horiz-adv-x="1097" d="M106 463q0 164 57.5 289t161 194.5t240.5 69.5q195 0 311.5 -130t116.5 -349q0 -164 -57 -289t-161.5 -193.5t-239.5 -68.5q-129 0 -225.5 59t-150 166.5t-53.5 251.5zM199 457q0 -186 89 -286.5t253 -100.5q166 0 263 126t97 347q0 184 -90 286.5t-250 102.5 q-168 0 -265 -126t-97 -349zM465 1145l115 352q8 25 23 38t34 13q18 0 32.5 -13t14.5 -36q0 -12 -10 -37l-162 -334q-9 -16 -25 -16q-12 0 -20 10.5t-2 22.5zM692 1145l115 352q8 25 23.5 38t33.5 13t32.5 -13t14.5 -36q0 -12 -10 -37l-162 -334q-8 -16 -24 -16 q-12 0 -20.5 10.5t-2.5 22.5z" />
<glyph unicode="&#x152;" horiz-adv-x="2142" d="M154 657q0 369 184 578t524 209h1209q16 0 26 -12.5t10 -28.5q0 -14 -9 -26.5t-25 -12.5h-762l-47 -592h714q16 0 26.5 -12t10.5 -29q0 -14 -10 -26.5t-25 -12.5h-723l-47 -612h754q16 0 27.5 -12.5t11.5 -28.5q0 -14 -10.5 -26.5t-26.5 -12.5h-1149q-324 0 -493.5 170 t-169.5 487zM246 655q0 -575 567 -575h313l103 1284h-369q-301 0 -457.5 -184.5t-156.5 -524.5z" />
<glyph unicode="&#x153;" horiz-adv-x="1857" d="M106 463q0 164 57.5 289t162 194.5t241.5 69.5q147 0 246.5 -75t138.5 -222q51 141 160 219t262 78q193 0 293 -114t100 -339q0 -37 -19 -56.5t-48 -19.5h-709v-32q0 -180 91.5 -282.5t267.5 -102.5q80 0 162.5 28.5t142.5 77.5q16 14 35 14q16 0 27.5 -11t11.5 -25 q0 -20 -19 -39q-55 -55 -159.5 -92t-198.5 -37q-162 0 -266.5 74.5t-147.5 209.5q-51 -131 -155.5 -207.5t-245.5 -76.5q-129 0 -226.5 59t-151 166.5t-53.5 251.5zM199 457q0 -186 89 -286.5t253 -100.5q166 0 263 126t97 347q0 184 -90 286.5t-250 102.5q-168 0 -265 -126 t-97 -349zM999 567h680q8 180 -71.5 274.5t-225.5 94.5q-161 0 -260.5 -97.5t-122.5 -271.5z" />
<glyph unicode="&#x154;" horiz-adv-x="1386" d="M160 39l106 1360q2 20 16.5 32.5t32.5 12.5h500q217 0 334 -93.5t117 -277.5q0 -186 -109.5 -295.5t-316.5 -124.5q41 -16 73.5 -54t69.5 -105l246 -445q6 -12 6 -22q0 -14 -12.5 -24.5t-28.5 -10.5q-29 0 -43 26l-244 445q-55 102 -119.5 139t-185.5 37h-309l-47 -610 q-2 -18 -13.5 -28.5t-29.5 -10.5q-20 0 -32.5 13t-10.5 36zM299 721h469q207 0 307.5 85t100.5 263q0 150 -89.5 222.5t-267.5 72.5h-469zM751 1581q0 14 9 25l178 245q25 37 59 37q18 0 31.5 -12t13.5 -31q0 -23 -24 -51l-209 -221q-17 -17 -33 -17q-10 0 -17.5 7.5 t-7.5 17.5z" />
<glyph unicode="&#x155;" horiz-adv-x="667" d="M135 37l76 936q2 20 15.5 29.5t31.5 9.5q41 0 39 -41l-12 -154q51 94 133 139t215 56l22 2h9q20 0 30.5 -11.5t10.5 -25.5v-2q0 -12 -10.5 -24.5t-22.5 -14.5l-56 -6q-326 -31 -350 -336l-45 -557q-2 -47 -45 -47t-41 47zM444 1145q0 14 11 22l315 359q20 23 47 22 q23 0 39 -15t16 -38q0 -25 -22 -45l-358 -330q-11 -6 -19 -6q-10 0 -19.5 9.5t-9.5 21.5z" />
<glyph unicode="&#x156;" horiz-adv-x="1386" d="M160 39l106 1360q2 20 16.5 32.5t32.5 12.5h500q217 0 334 -93.5t117 -277.5q0 -186 -109.5 -295.5t-316.5 -124.5q41 -16 73.5 -54t69.5 -105l246 -445q6 -12 6 -22q0 -14 -12.5 -24.5t-28.5 -10.5q-29 0 -43 26l-244 445q-55 102 -119.5 139t-185.5 37h-309l-47 -610 q-2 -18 -13.5 -28.5t-29.5 -10.5q-20 0 -32.5 13t-10.5 36zM299 721h469q207 0 307.5 85t100.5 263q0 150 -89.5 222.5t-267.5 72.5h-469zM534 -477q0 16 17 33q35 35 52 69.5t26 75.5q-33 2 -52.5 20.5t-19.5 51.5q0 35 22.5 58.5t55.5 23.5q77 -1 77 -97 q0 -61 -26.5 -126.5t-83.5 -120.5q-18 -18 -37 -19q-14 0 -22.5 9.5t-8.5 21.5z" />
<glyph unicode="&#x157;" horiz-adv-x="667" d="M67 -477q0 16 17 33q35 35 52 69.5t26 75.5q-33 2 -52.5 20.5t-19.5 51.5q0 35 22.5 58.5t55.5 23.5q77 -1 77 -97q0 -61 -26.5 -126.5t-83.5 -120.5q-18 -18 -37 -19q-14 0 -22.5 9.5t-8.5 21.5zM135 37l76 936q2 20 15.5 29.5t31.5 9.5q41 0 39 -41l-12 -154 q51 94 133 139t215 56l22 2h9q20 0 30.5 -11.5t10.5 -25.5v-2q0 -12 -10.5 -24.5t-22.5 -14.5l-56 -6q-326 -31 -350 -336l-45 -557q-2 -47 -45 -47t-41 47z" />
<glyph unicode="&#x158;" horiz-adv-x="1386" d="M160 39l106 1360q2 20 16.5 32.5t32.5 12.5h500q217 0 334 -93.5t117 -277.5q0 -186 -109.5 -295.5t-316.5 -124.5q41 -16 73.5 -54t69.5 -105l246 -445q6 -12 6 -22q0 -14 -12.5 -24.5t-28.5 -10.5q-29 0 -43 26l-244 445q-55 102 -119.5 139t-185.5 37h-309l-47 -610 q-2 -18 -13.5 -28.5t-29.5 -10.5q-20 0 -32.5 13t-10.5 36zM299 721h469q207 0 307.5 85t100.5 263q0 150 -89.5 222.5t-267.5 72.5h-469zM547 1839q0 18 12 30.5t31 12.5q27 0 47 -29l135 -213l180 228q15 20 35 20t34.5 -15t14.5 -36q0 -12 -10 -27l-199 -225 q-29 -33 -61 -33q-33 0 -54 33l-153 217q-12 18 -12 37z" />
<glyph unicode="&#x159;" horiz-adv-x="667" d="M135 37l76 936q2 20 15.5 29.5t31.5 9.5q41 0 39 -41l-12 -154q51 94 133 139t215 56l22 2h9q20 0 30.5 -11.5t10.5 -25.5v-2q0 -12 -10.5 -24.5t-22.5 -14.5l-56 -6q-326 -31 -350 -336l-45 -557q-2 -47 -45 -47t-41 47zM260 1491q0 23 16.5 39t34.5 16q20 0 33 -24 l131 -312l180 310q14 24 39 24q16 0 29.5 -12t13.5 -33q0 -14 -10 -31l-201 -313q-25 -41 -59 -41q-33 0 -51 41l-150 311q-6 12 -6 25z" />
<glyph unicode="&#x15a;" horiz-adv-x="1224" d="M72 213q0 18 11 30.5t26 12.5q14 0 24 -12q106 -94 219 -136t260 -42q203 0 309.5 79.5t106.5 223.5q0 86 -50 139t-125 83t-206 66q-152 43 -246 83t-159.5 120t-65.5 209q0 119 61.5 207t175 136t265.5 48q147 0 276 -49t222 -141q14 -14 14 -35q0 -18 -12.5 -31.5 t-28.5 -13.5q-20 0 -41 20q-86 82 -194.5 125t-233.5 43q-203 0 -309.5 -82t-106.5 -229q0 -96 54.5 -156.5t135.5 -94.5t216 -71q150 -43 236.5 -79.5t148 -108.5t61.5 -188q0 -117 -61.5 -204t-175 -134t-265.5 -47q-168 0 -292.5 44t-223.5 134q-27 25 -26 51zM680 1581 q0 14 9 25l178 245q25 37 59 37q18 0 31.5 -12t13.5 -31q0 -23 -24 -51l-209 -221q-17 -17 -33 -17q-10 0 -17.5 7.5t-7.5 17.5z" />
<glyph unicode="&#x15b;" horiz-adv-x="974" d="M82 145q0 18 11 33t28 15q14 0 29 -13q74 -55 143 -81.5t162 -26.5q139 0 212.5 46t73.5 136q0 57 -34.5 94t-85 58.5t-138.5 46.5q-102 31 -164.5 58.5t-106.5 80.5t-44 139q-2 131 98.5 208t265.5 77q106 0 196.5 -35t139.5 -94q12 -14 13 -31q0 -18 -11.5 -30.5 t-29.5 -12.5q-23 0 -45 21q-45 41 -114 68.5t-142 27.5q-133 0 -204 -49.5t-71 -147.5q0 -82 63.5 -121t190.5 -73q102 -29 166 -56.5t108 -81t44 -141.5q0 -127 -104.5 -200.5t-276.5 -73.5q-109 0 -207 34.5t-150 83.5q-16 20 -16 41zM530 1145q0 14 11 22l315 359 q20 23 47 22q23 0 39 -15t16 -38q0 -25 -22 -45l-358 -330q-11 -6 -19 -6q-10 0 -19.5 9.5t-9.5 21.5z" />
<glyph unicode="&#x15c;" horiz-adv-x="1224" d="M72 213q0 18 11 30.5t26 12.5q14 0 24 -12q106 -94 219 -136t260 -42q203 0 309.5 79.5t106.5 223.5q0 86 -50 139t-125 83t-206 66q-152 43 -246 83t-159.5 120t-65.5 209q0 119 61.5 207t175 136t265.5 48q147 0 276 -49t222 -141q14 -14 14 -35q0 -18 -12.5 -31.5 t-28.5 -13.5q-20 0 -41 20q-86 82 -194.5 125t-233.5 43q-203 0 -309.5 -82t-106.5 -229q0 -96 54.5 -156.5t135.5 -94.5t216 -71q150 -43 236.5 -79.5t148 -108.5t61.5 -188q0 -117 -61.5 -204t-175 -134t-265.5 -47q-168 0 -292.5 44t-223.5 134q-27 25 -26 51zM455 1602 q0 12 10 26l199 225q29 33 61 33q33 0 54 -33l153 -217q12 -18 13 -37q0 -18 -12.5 -30.5t-28.5 -12.5q-29 0 -50 31l-135 211l-178 -227q-12 -19 -37 -19q-20 0 -34.5 15.5t-14.5 34.5z" />
<glyph unicode="&#x15d;" horiz-adv-x="974" d="M82 145q0 18 11 33t28 15q14 0 29 -13q74 -55 143 -81.5t162 -26.5q139 0 212.5 46t73.5 136q0 57 -34.5 94t-85 58.5t-138.5 46.5q-102 31 -164.5 58.5t-106.5 80.5t-44 139q-2 131 98.5 208t265.5 77q106 0 196.5 -35t139.5 -94q12 -14 13 -31q0 -18 -11.5 -30.5 t-29.5 -12.5q-23 0 -45 21q-45 41 -114 68.5t-142 27.5q-133 0 -204 -49.5t-71 -147.5q0 -82 63.5 -121t190.5 -73q102 -29 166 -56.5t108 -81t44 -141.5q0 -127 -104.5 -200.5t-276.5 -73.5q-109 0 -207 34.5t-150 83.5q-16 20 -16 41zM317 1157q0 20 11 33l200 315 q25 39 60 39q33 0 51 -39l149 -313q6 -12 7 -25q0 -23 -16.5 -39t-35.5 -16q-20 0 -32 27l-131 309l-181 -309q-14 -25 -39 -25q-16 0 -29.5 12.5t-13.5 30.5z" />
<glyph unicode="&#x15e;" horiz-adv-x="1224" d="M72 213q0 18 11 30.5t26 12.5q14 0 24 -12q106 -94 219 -136t260 -42q203 0 309.5 79.5t106.5 223.5q0 86 -50 139t-125 83t-206 66q-152 43 -246 83t-159.5 120t-65.5 209q0 119 61.5 207t175 136t265.5 48q147 0 276 -49t222 -141q14 -15 14 -35q0 -18 -12.5 -31.5 t-28.5 -13.5q-20 0 -41 20q-86 82 -194.5 125t-233.5 43q-203 0 -309.5 -82t-106.5 -229q0 -96 54.5 -156.5t135.5 -94.5t216 -71q150 -43 236.5 -79.5t148 -108.5t61.5 -188q0 -117 -61.5 -204t-175 -134t-265.5 -47h-4l-14 -76q23 8 59 8q63 0 101.5 -37t38.5 -100 q0 -78 -59.5 -123t-164.5 -45q-78 0 -147 27q-29 12 -29 36q0 14 13.5 25.5t33.5 11.5q12 0 19 -2q35 -10 59.5 -14t57.5 -4q63 0 97 21.5t34 62.5q0 63 -76 63q-33 0 -61.5 -11t-36.5 -11q-16 0 -27.5 11t-9.5 26l26 135q-133 10 -237.5 53t-188.5 121q-27 25 -26 51z" />
<glyph unicode="&#x15f;" horiz-adv-x="974" d="M82 145q0 18 11 33t28 15q14 0 29 -13q74 -55 143 -81.5t162 -26.5q139 0 212.5 46t73.5 136q0 57 -34.5 94t-85 58.5t-138.5 46.5q-102 31 -164.5 58.5t-106.5 80.5t-44 139q-2 131 98.5 208t265.5 77q106 0 196.5 -35t139.5 -94q13 -15 13 -31q0 -18 -11.5 -30.5 t-29.5 -12.5q-23 0 -45 21q-45 41 -114 68.5t-142 27.5q-133 0 -204 -49.5t-71 -147.5q0 -82 63.5 -121t190.5 -73q102 -29 166 -56.5t108 -81t44 -141.5q0 -123 -100.5 -196.5t-266.5 -77.5l-14 -78q23 8 59 8q63 0 101 -37t38 -100q0 -78 -59 -123t-164 -45q-78 0 -147 27 q-29 12 -29 36q0 14 13.5 25.5t33.5 11.5q12 0 18 -2q35 -10 59.5 -14t57.5 -4q63 0 97 21.5t34 62.5q0 63 -75 63q-33 0 -62 -11t-37 -11q-16 0 -27.5 11t-9.5 26l27 137q-88 10 -165 41.5t-120 72.5q-16 20 -16 41z" />
<glyph unicode="&#x160;" horiz-adv-x="1224" d="M72 213q0 18 11 30.5t26 12.5q14 0 24 -12q106 -94 219 -136t260 -42q203 0 309.5 79.5t106.5 223.5q0 86 -50 139t-125 83t-206 66q-152 43 -246 83t-159.5 120t-65.5 209q0 119 61.5 207t175 136t265.5 48q147 0 276 -49t222 -141q14 -14 14 -35q0 -18 -12.5 -31.5 t-28.5 -13.5q-20 0 -41 20q-86 82 -194.5 125t-233.5 43q-203 0 -309.5 -82t-106.5 -229q0 -96 54.5 -156.5t135.5 -94.5t216 -71q150 -43 236.5 -79.5t148 -108.5t61.5 -188q0 -117 -61.5 -204t-175 -134t-265.5 -47q-168 0 -292.5 44t-223.5 134q-27 25 -26 51zM476 1839 q0 18 12 30.5t31 12.5q27 0 47 -29l135 -213l180 228q15 20 35 20t34.5 -15t14.5 -36q0 -12 -10 -27l-199 -225q-29 -33 -61 -33q-33 0 -54 33l-153 217q-12 18 -12 37z" />
<glyph unicode="&#x161;" horiz-adv-x="974" d="M82 145q0 18 11 33t28 15q14 0 29 -13q74 -55 143 -81.5t162 -26.5q139 0 212.5 46t73.5 136q0 57 -34.5 94t-85 58.5t-138.5 46.5q-102 31 -164.5 58.5t-106.5 80.5t-44 139q-2 131 98.5 208t265.5 77q106 0 196.5 -35t139.5 -94q12 -14 13 -31q0 -18 -11.5 -30.5 t-29.5 -12.5q-23 0 -45 21q-45 41 -114 68.5t-142 27.5q-133 0 -204 -49.5t-71 -147.5q0 -82 63.5 -121t190.5 -73q102 -29 166 -56.5t108 -81t44 -141.5q0 -127 -104.5 -200.5t-276.5 -73.5q-109 0 -207 34.5t-150 83.5q-16 20 -16 41zM346 1491q0 23 16.5 39t34.5 16 q20 0 33 -24l131 -312l180 310q14 24 39 24q16 0 29.5 -12t13.5 -33q0 -14 -10 -31l-201 -313q-25 -41 -59 -41q-33 0 -51 41l-150 311q-6 12 -6 25z" />
<glyph unicode="&#x162;" horiz-adv-x="1196" d="M90 1407q0 14 9.5 25.5t25.5 11.5h1087q19 0 29 -12.5t10 -28.5q0 -12 -10 -24.5t-24 -12.5h-508l-105 -1337q-2 -23 -18 -31l-17 -90q23 8 60 8q63 0 101 -37t38 -100q0 -78 -59.5 -123t-163.5 -45q-78 0 -148 27q-29 12 -28 36q0 14 13 25.5t34 11.5q12 0 18 -2 q35 -10 59.5 -14t57.5 -4q63 0 97 21.5t34 62.5q0 63 -76 63q-33 0 -61.5 -11t-36.5 -11q-16 0 -27.5 11t-9.5 26l37 188h12l105 1325h-498q-16 0 -26.5 12.5t-10.5 28.5z" />
<glyph unicode="&#x163;" horiz-adv-x="643" d="M47 956q0 14 9.5 24.5t23.5 10.5h174l20 275q2 16 14.5 28.5t30.5 12.5t30.5 -12.5t10.5 -32.5l-20 -271h270q15 0 24 -10t9 -27q0 -16 -9 -26t-22 -10h-278l-45 -578q-2 -16 -2 -45q0 -109 52 -168t144 -59q33 0 55.5 3t32.5 3q33 0 33 -43q0 -23 -26.5 -33t-98.5 -10 q-41 0 -71 8l-17 -88q23 8 60 8q63 0 101 -37t38 -100q0 -78 -59.5 -123t-163.5 -45q-78 0 -148 27q-29 12 -29 36q0 14 13.5 25.5t34.5 11.5q12 0 18 -2q35 -10 59.5 -14t57.5 -4q63 0 97 21.5t34 62.5q0 63 -76 63q-33 0 -61.5 -11t-36.5 -11q-16 0 -27.5 11t-9.5 26 l35 174q-61 37 -94 104.5t-33 157.5l2 39l45 590h-166q-16 0 -25.5 10t-9.5 28z" />
<glyph unicode="&#x164;" horiz-adv-x="1196" d="M90 1407q0 14 9.5 25.5t25.5 11.5h1087q18 0 28.5 -12.5t10.5 -28.5q0 -12 -10 -24.5t-24 -12.5h-508l-105 -1337q-2 -16 -13 -27.5t-28 -11.5q-18 0 -31.5 14t-11.5 33l105 1329h-498q-16 0 -26.5 12.5t-10.5 28.5zM461 1839q0 18 12 30.5t31 12.5q27 0 47 -29l135 -213 l180 228q15 20 35 20t34.5 -15t14.5 -36q0 -12 -10 -27l-199 -225q-29 -33 -61 -33q-33 0 -54 33l-153 217q-12 18 -12 37z" />
<glyph unicode="&#x165;" horiz-adv-x="643" d="M47 956q0 14 9.5 24.5t23.5 10.5h174l20 275q2 16 14.5 28.5t30.5 12.5t30.5 -12.5t10.5 -32.5l-20 -271h270q15 0 24 -10t9 -27q0 -16 -9 -26t-22 -10h-278l-45 -578q-2 -16 -2 -45q0 -109 52 -168t144 -59q33 0 55.5 3t32.5 3q33 0 33 -43q0 -23 -26.5 -33t-98.5 -10 q-127 0 -202.5 79.5t-75.5 219.5q0 27 2 41l45 590h-166q-16 0 -25.5 10t-9.5 28zM467 1122l22 275q2 27 17.5 42t36.5 15q20 0 33.5 -12t13.5 -35q0 -12 -2 -18l-62 -273q-2 -12 -11 -18t-21 -6t-20.5 8t-6.5 22z" />
<glyph unicode="&#x166;" horiz-adv-x="1196" d="M90 1407q0 14 9.5 25.5t25.5 11.5h1087q19 0 29 -12.5t10 -28.5q0 -12 -10 -24.5t-24 -12.5h-508l-47 -594h268q14 0 25.5 -11t11.5 -28q0 -16 -10.5 -26.5t-24.5 -10.5h-277l-51 -667q-2 -16 -13 -27.5t-28 -11.5q-18 0 -31.5 14t-11.5 33l51 659h-268q-16 0 -26.5 11.5 t-10.5 27.5q0 14 10.5 25.5t24.5 11.5h277l47 594h-498q-16 0 -26.5 12.5t-10.5 28.5z" />
<glyph unicode="&#x167;" horiz-adv-x="663" d="M57 956q0 12 9.5 23.5t23.5 11.5h174l21 275q2 18 15 29.5t30 11.5q18 0 30.5 -12.5t10.5 -32.5l-21 -271h271q14 0 23 -11t9 -26q0 -16 -8 -26t-22 -10h-279l-25 -306h228q16 0 26.5 -10t10.5 -27q0 -16 -10.5 -27t-24.5 -11h-236l-14 -197q-2 -16 -2 -45 q0 -111 56.5 -169t162.5 -58q35 0 62 4h6q14 0 23 -11.5t9 -27.5q0 -20 -16 -38t-47 -20q-20 12 -41 13q-141 0 -221 79.5t-80 219.5q0 27 2 41l16 209h-125q-16 0 -26 10t-10 26t10 27.5t24 11.5h134l22 306h-166q-16 0 -25.5 11t-9.5 27z" />
<glyph unicode="&#x168;" horiz-adv-x="1464" d="M186 475q0 45 2 70l70 870q2 16 13.5 27.5t27.5 11.5q18 0 32.5 -13.5t12.5 -33.5l-70 -854q-2 -25 -2 -70q0 -416 422 -415q236 0 361 116.5t143 350.5l70 880q0 16 12 27.5t29 11.5q18 0 31.5 -13.5t11.5 -33.5l-68 -858q-23 -283 -171 -424t-417 -141q-252 0 -381 128 t-129 363zM518 1671q0 31 24.5 64.5t65.5 56.5t92 23q57 0 156 -54q31 -16 62.5 -28.5t53.5 -12.5q39 0 62.5 16.5t42.5 45.5q23 29 35 28q14 0 23 -10t9 -26q0 -29 -24.5 -63t-65.5 -56.5t-92 -22.5q-57 1 -155 54q-31 16 -63 28t-54 12q-39 0 -61.5 -16t-45.5 -47 q-20 -29 -35 -29q-14 0 -22 11.5t-8 25.5z" />
<glyph unicode="&#x169;" horiz-adv-x="1116" d="M158 315q0 35 2 54l45 598q4 45 47 45t39 -45l-45 -592q-2 -16 -2 -49q0 -256 248 -256q156 0 251 94t107 262l45 541q2 45 45 45t41 -45l-76 -936q-2 -20 -16.5 -30.5t-30.5 -10.5q-39 0 -37 41l13 153q-49 -96 -138.5 -147t-199.5 -51q-164 0 -251 83t-87 246z M311 1272q0 29 24.5 70.5t66.5 72.5t91 31q35 0 70 -18.5t86 -55.5q78 -61 117 -61q37 0 59.5 20.5t42.5 57.5q23 41 41 41q14 0 22.5 -10.5t8.5 -24.5q0 -31 -24.5 -73t-66.5 -72.5t-94 -30.5q-34 0 -69 19t-82 56q-45 33 -70.5 47.5t-48.5 14.5q-37 0 -57.5 -20.5 t-42.5 -57.5q-14 -25 -22.5 -34t-18.5 -9q-14 0 -23.5 10t-9.5 27z" />
<glyph unicode="&#x16a;" horiz-adv-x="1464" d="M186 475q0 45 2 70l70 870q2 16 13.5 27.5t27.5 11.5q18 0 32.5 -13.5t12.5 -33.5l-70 -854q-2 -25 -2 -70q0 -416 422 -415q236 0 361 116.5t143 350.5l70 880q0 16 12 27.5t29 11.5q18 0 31.5 -13.5t11.5 -33.5l-68 -858q-23 -283 -171 -424t-417 -141q-252 0 -381 128 t-129 363zM524 1722q0 20 16.5 31.5t44.5 11.5h498q55 0 55 -43q0 -20 -16 -31.5t-45 -11.5h-498q-55 0 -55 43z" />
<glyph unicode="&#x16b;" horiz-adv-x="1116" d="M158 315q0 35 2 54l45 598q4 45 47 45t39 -45l-45 -592q-2 -16 -2 -49q0 -256 248 -256q156 0 251 94t107 262l45 541q2 45 45 45t41 -45l-76 -936q-2 -20 -16.5 -30.5t-30.5 -10.5q-39 0 -37 41l13 153q-49 -96 -138.5 -147t-199.5 -51q-164 0 -251 83t-87 246z M319 1333q0 20 16.5 31.5t45.5 11.5h497q55 0 56 -45q0 -20 -16.5 -31.5t-45.5 -11.5h-498q-55 0 -55 45z" />
<glyph unicode="&#x16c;" horiz-adv-x="1464" d="M186 475q0 45 2 70l70 870q2 16 13.5 27.5t27.5 11.5q18 0 32.5 -13.5t12.5 -33.5l-70 -854q-2 -25 -2 -70q0 -416 422 -415q236 0 361 116.5t143 350.5l70 880q0 16 12 27.5t29 11.5q18 0 31.5 -13.5t11.5 -33.5l-68 -858q-23 -283 -171 -424t-417 -141q-252 0 -381 128 t-129 363zM530 1802q0 20 12.5 32.5t30.5 12.5q33 0 47 -35q35 -72 84 -103.5t119 -31.5q72 0 126 32t99 103q20 35 55 35q18 0 30.5 -10t12.5 -29q0 -14 -8 -28q-51 -94 -135 -140.5t-184 -46.5q-98 0 -173 46.5t-112 140.5q-4 8 -4 22z" />
<glyph unicode="&#x16d;" horiz-adv-x="1116" d="M158 315q0 35 2 54l45 598q4 45 47 45t39 -45l-45 -592q-2 -16 -2 -49q0 -256 248 -256q156 0 251 94t107 262l45 541q2 45 45 45t41 -45l-76 -936q-2 -20 -16.5 -30.5t-30.5 -10.5q-39 0 -37 41l13 153q-49 -96 -138.5 -147t-199.5 -51q-164 0 -251 83t-87 246z M329 1417q0 20 13.5 33.5t31.5 13.5q33 0 48 -39q53 -147 198 -147q143 0 221 147q20 39 54 39q16 0 26.5 -11t10.5 -30q0 -16 -9 -32q-45 -96 -128 -145.5t-183 -49.5q-96 0 -169 48t-109 147q-4 10 -5 26z" />
<glyph unicode="&#x16e;" horiz-adv-x="1464" d="M186 475q0 45 2 70l70 870q2 16 13.5 27.5t27.5 11.5q18 0 32.5 -13.5t12.5 -33.5l-70 -854q-2 -25 -2 -70q0 -416 422 -415q236 0 361 116.5t143 350.5l70 880q0 16 12 27.5t29 11.5q18 0 31.5 -13.5t11.5 -33.5l-68 -858q-23 -283 -171 -424t-417 -141q-252 0 -381 128 t-129 363zM632 1751q0 80 58.5 136.5t140.5 56.5t139.5 -55.5t57.5 -137.5t-57.5 -138.5t-139.5 -56.5t-140.5 56.5t-58.5 138.5zM727 1751q0 -47 29.5 -78t74.5 -31t75 31t30 78q0 45 -30 76t-75 31t-74.5 -31t-29.5 -76z" />
<glyph unicode="&#x16f;" horiz-adv-x="1116" d="M158 315q0 35 2 54l45 598q4 45 47 45t39 -45l-45 -592q-2 -16 -2 -49q0 -256 248 -256q156 0 251 94t107 262l45 541q2 45 45 45t41 -45l-76 -936q-2 -20 -16.5 -30.5t-30.5 -10.5q-39 0 -37 41l13 153q-49 -96 -138.5 -147t-199.5 -51q-164 0 -251 83t-87 246z M426 1329q0 82 58 138.5t140 56.5t139.5 -56.5t57.5 -138.5t-57.5 -138t-139.5 -56t-140 56t-58 138zM520 1329q0 -45 29.5 -76.5t74.5 -31.5t75 31.5t30 76.5q0 47 -30 78t-75 31t-74.5 -31t-29.5 -78z" />
<glyph unicode="&#x170;" horiz-adv-x="1464" d="M186 475q0 45 2 70l70 870q2 16 13.5 27.5t27.5 11.5q18 0 32.5 -13.5t12.5 -33.5l-70 -854q-2 -25 -2 -70q0 -416 422 -415q236 0 361 116.5t143 350.5l70 880q0 16 12 27.5t29 11.5q18 0 31.5 -13.5t11.5 -33.5l-68 -858q-23 -283 -171 -424t-417 -141q-252 0 -381 128 t-129 363zM690 1567.5q-6 11.5 2 25.5l129 246q25 45 59 45q16 0 29.5 -12t13.5 -31q0 -16 -16 -39l-176 -233q-9 -13 -23 -13q-12 0 -18 11.5zM915.5 1567.5q-6.5 11.5 1.5 25.5l129 246q23 45 60 45q16 0 29.5 -12t13.5 -31q0 -16 -17 -39l-176 -233q-8 -13 -22 -13 q-12 0 -18.5 11.5z" />
<glyph unicode="&#x171;" horiz-adv-x="1116" d="M158 315q0 35 2 54l45 598q4 45 47 45t39 -45l-45 -592q-2 -16 -2 -49q0 -256 248 -256q156 0 251 94t107 262l45 541q2 45 45 45t41 -45l-76 -936q-2 -20 -16.5 -30.5t-30.5 -10.5q-39 0 -37 41l13 153q-49 -96 -138.5 -147t-199.5 -51q-164 0 -251 83t-87 246z M475 1145l115 352q8 25 23 38t34 13q18 0 32.5 -13t14.5 -36q0 -12 -10 -37l-162 -334q-9 -16 -25 -16q-12 0 -20 10.5t-2 22.5zM702 1145l115 352q8 25 23.5 38t33.5 13t32.5 -13t14.5 -36q0 -12 -10 -37l-162 -334q-8 -16 -24 -16q-12 0 -20.5 10.5t-2.5 22.5z" />
<glyph unicode="&#x172;" horiz-adv-x="1464" d="M186 475q0 45 2 70l70 870q2 16 13.5 27.5t27.5 11.5q18 0 32.5 -13.5t12.5 -33.5l-70 -854q-2 -25 -2 -70q0 -416 422 -415q236 0 361 116.5t143 350.5l70 880q0 16 12 27.5t29 11.5q18 0 31.5 -13.5t11.5 -33.5l-68 -858q-18 -219 -112.5 -354.5t-260.5 -182.5 q-100 -29 -148 -75t-48 -117q0 -63 33.5 -97t95.5 -34q18 0 47 8t53 20q14 8 29 9q14 0 22.5 -9.5t8.5 -21.5q0 -14 -9.5 -28.5t-23.5 -22.5q-57 -33 -135 -33q-98 0 -155.5 53t-57.5 141q0 117 90 179h-23q-248 0 -376 128t-128 363z" />
<glyph unicode="&#x173;" horiz-adv-x="1116" d="M158 315q0 35 2 54l45 598q4 45 47 45t39 -45l-45 -592q-2 -16 -2 -49q0 -256 248 -256q156 0 251 94t107 262l45 541q2 45 45 45t41 -45l-74 -934q-2 -37 -33 -33q-72 -6 -126 -53t-54 -127q0 -63 34 -97t95 -34q45 0 103 28q14 9 28 9q12 0 20.5 -9.5t8.5 -21.5 q0 -33 -31 -51q-59 -33 -137 -33q-98 0 -155.5 53t-57.5 141q0 92 58.5 160t162.5 94l11 125q-49 -96 -138.5 -147t-199.5 -51q-164 0 -251 83t-87 246z" />
<glyph unicode="&#x174;" horiz-adv-x="2238" d="M166 1413q0 18 12 29.5t29 11.5q35 0 43 -35l344 -1296l549 1290q16 39 47 39q16 0 28.5 -10t16.5 -29l346 -1288l555 1307q8 22 35 22q16 0 27.5 -9t11.5 -26q0 -8 -4 -20l-584 -1374q-16 -35 -47 -35q-16 0 -29.5 11t-19.5 32l-344 1272l-547 -1280q-14 -33 -49 -33 q-16 0 -29.5 10t-17.5 31l-371 1370zM960 1602q0 12 10 26l199 225q29 33 61 33q33 0 54 -33l153 -217q12 -18 13 -37q0 -18 -12.5 -30.5t-28.5 -12.5q-29 0 -50 31l-135 211l-178 -227q-12 -19 -37 -19q-20 0 -34.5 15.5t-14.5 34.5z" />
<glyph unicode="&#x175;" horiz-adv-x="1699" d="M125 963q0 18 12.5 28t30.5 10q33 0 45 -34l233 -867l369 848q12 29 31.5 42.5t40.5 13.5q23 0 40 -14.5t25 -41.5l232 -846l377 873q11 26 36 26q18 0 33 -12t15 -31q0 -6 -5 -18l-395 -901q-8 -20 -26.5 -32.5t-36.5 -12.5q-23 0 -41.5 14.5t-26.5 40.5l-235 838 l-369 -848q-8 -20 -25.5 -32.5t-38.5 -12.5q-23 0 -41 14.5t-26 40.5l-252 897q-2 6 -2 17zM663 1157q0 20 11 33l200 315q25 39 60 39q33 0 51 -39l149 -313q6 -12 7 -25q0 -23 -16.5 -39t-35.5 -16q-20 0 -32 27l-131 309l-181 -309q-14 -25 -39 -25q-16 0 -29.5 12.5 t-13.5 30.5z" />
<glyph unicode="&#x176;" horiz-adv-x="1189" d="M94 1421q0 16 11.5 24.5t25.5 8.5q31 0 41 -22l442 -658l535 649q24 31 53 31q14 0 23.5 -8t9.5 -23q0 -14 -12 -30l-570 -691l-53 -673q-2 -16 -13.5 -27.5t-27.5 -11.5q-18 0 -31.5 14t-11.5 33l51 661l-461 691q-12 18 -12 32zM436 1602q0 12 10 26l199 225 q29 33 61 33q33 0 54 -33l153 -217q12 -18 13 -37q0 -18 -12.5 -30.5t-28.5 -12.5q-29 0 -50 31l-135 211l-178 -227q-12 -19 -37 -19q-20 0 -34.5 15.5t-14.5 34.5z" />
<glyph unicode="&#x177;" horiz-adv-x="1032" d="M76 956q0 18 12 29.5t29 11.5q31 0 43 -30l321 -893l467 901q12 22 35 22q16 0 28.5 -11t12.5 -30q0 -10 -6 -22l-676 -1286q-14 -27 -45 -27q-16 0 -28.5 8.5t-12.5 22.5q0 8 6 18l170 322l-352 944q-4 16 -4 20zM329 1157q0 20 11 33l200 315q25 39 60 39q33 0 51 -39 l149 -313q6 -12 7 -25q0 -23 -16.5 -39t-35.5 -16q-20 0 -32 27l-131 309l-181 -309q-14 -25 -39 -25q-16 0 -29.5 12.5t-13.5 30.5z" />
<glyph unicode="&#x178;" horiz-adv-x="1189" d="M94 1421q0 16 11.5 24.5t25.5 8.5q31 0 41 -22l442 -658l535 649q24 31 53 31q14 0 23.5 -8t9.5 -23q0 -14 -12 -30l-570 -691l-53 -673q-2 -16 -13.5 -27.5t-27.5 -11.5q-18 0 -31.5 14t-11.5 33l51 661l-461 691q-12 18 -12 32zM455 1722q0 31 21.5 51.5t51.5 20.5 q29 0 50.5 -20.5t21.5 -51.5t-20.5 -51t-51.5 -20q-30 0 -51.5 20.5t-21.5 50.5zM784 1722q0 31 21.5 51.5t50.5 20.5q31 0 52.5 -20.5t21.5 -51.5t-21.5 -51t-52.5 -20t-51.5 20.5t-20.5 50.5z" />
<glyph unicode="&#x179;" horiz-adv-x="1185" d="M47 41q0 14 8 25l994 1298h-861q-16 0 -26 12.5t-10 28.5q0 14 9 26.5t25 12.5h922l4 4v-4h18q15 0 24 -11.5t9 -27.5t-8 -27l-991 -1298h878q16 0 27.5 -12.5t11.5 -28.5q0 -14 -10 -26.5t-27 -12.5h-940l-4 -4v4h-16q-14 0 -25.5 12.5t-11.5 28.5zM657 1581q0 14 9 25 l178 245q25 37 59 37q18 0 31.5 -12t13.5 -31q0 -23 -24 -51l-209 -221q-17 -17 -33 -17q-10 0 -17.5 7.5t-7.5 17.5z" />
<glyph unicode="&#x17a;" horiz-adv-x="1015" d="M55 29q0 16 15 30l747 859h-622q-14 0 -23.5 11t-9.5 27q0 14 8 24.5t23 10.5h722q15 0 23 -9t8 -24q0 -20 -12 -36l-741 -846h663q14 0 25.5 -12.5t11.5 -28.5q0 -12 -10.5 -23.5t-24.5 -11.5h-770q-14 0 -23.5 8t-9.5 21zM538 1145q0 14 11 22l315 359q20 23 47 22 q23 0 39 -15t16 -38q0 -25 -22 -45l-358 -330q-11 -6 -19 -6q-10 0 -19.5 9.5t-9.5 21.5z" />
<glyph unicode="&#x17b;" horiz-adv-x="1185" d="M47 41q0 14 8 25l994 1298h-861q-16 0 -26 12.5t-10 28.5q0 14 9 26.5t25 12.5h922l4 4v-4h18q15 0 24 -11.5t9 -27.5t-8 -27l-991 -1298h878q16 0 27.5 -12.5t11.5 -28.5q0 -14 -10 -26.5t-27 -12.5h-940l-4 -4v4h-16q-14 0 -25.5 12.5t-11.5 28.5zM612 1722 q0 33 22.5 53.5t53.5 20.5q33 0 54.5 -20.5t21.5 -53.5q0 -35 -21.5 -55t-54.5 -20t-54.5 20.5t-21.5 54.5z" />
<glyph unicode="&#x17c;" horiz-adv-x="1015" d="M55 29q0 16 15 30l747 859h-622q-14 0 -23.5 11t-9.5 27q0 14 8 24.5t23 10.5h722q15 0 23 -9t8 -24q0 -20 -12 -36l-741 -846h663q14 0 25.5 -12.5t11.5 -28.5q0 -12 -10.5 -23.5t-24.5 -11.5h-770q-14 0 -23.5 8t-9.5 21zM504 1331q0 35 21.5 55.5t53.5 20.5 q33 0 54.5 -20.5t21.5 -55.5q0 -33 -22.5 -53.5t-53.5 -20.5q-30 0 -52.5 20.5t-22.5 53.5z" />
<glyph unicode="&#x17d;" horiz-adv-x="1185" d="M47 41q0 14 8 25l994 1298h-861q-16 0 -26 12.5t-10 28.5q0 14 9 26.5t25 12.5h922l4 4v-4h18q15 0 24 -11.5t9 -27.5t-8 -27l-991 -1298h878q16 0 27.5 -12.5t11.5 -28.5q0 -14 -10 -26.5t-27 -12.5h-940l-4 -4v4h-16q-14 0 -25.5 12.5t-11.5 28.5zM453 1839 q0 18 12 30.5t31 12.5q27 0 47 -29l135 -213l180 228q15 20 35 20t34.5 -15t14.5 -36q0 -12 -10 -27l-199 -225q-29 -33 -61 -33q-33 0 -54 33l-153 217q-12 18 -12 37z" />
<glyph unicode="&#x17e;" horiz-adv-x="1015" d="M55 29q0 16 15 30l747 859h-622q-14 0 -23.5 11t-9.5 27q0 14 8 24.5t23 10.5h722q15 0 23 -9t8 -24q0 -20 -12 -36l-741 -846h663q14 0 25.5 -12.5t11.5 -28.5q0 -12 -10.5 -23.5t-24.5 -11.5h-770q-14 0 -23.5 8t-9.5 21zM354 1491q0 23 16.5 39t34.5 16q20 0 33 -24 l131 -312l180 310q14 24 39 24q16 0 29.5 -12t13.5 -33q0 -14 -10 -31l-201 -313q-25 -41 -59 -41q-33 0 -51 41l-150 311q-6 12 -6 25z" />
<glyph unicode="&#x192;" d="M25 -342q0 16 11 27.5t30 11.5h51q106 0 173.5 53t104.5 180l285 977h-229q-37 0 -37 43q0 16 11 28.5t30 12.5h250l47 160q45 147 134 224t236 77h41q23 0 34 -10t11 -27q0 -14 -11 -26.5t-30 -12.5h-49q-111 0 -177.5 -52t-100.5 -181l-45 -152h237q37 0 37 -43 q0 -16 -11 -28.5t-30 -12.5h-258l-289 -985q-88 -301 -370 -301h-39q-23 0 -35 11.5t-12 25.5z" />
<glyph unicode="&#x2c6;" horiz-adv-x="614" d="M120 1157q0 20 11 33l200 315q25 39 60 39q33 0 51 -39l149 -313q6 -12 7 -25q0 -23 -16.5 -39t-35.5 -16q-20 0 -32 27l-131 309l-181 -309q-14 -25 -39 -25q-16 0 -29.5 12.5t-13.5 30.5z" />
<glyph unicode="&#x2da;" horiz-adv-x="614" d="M174 1329q0 82 58 138.5t140 56.5t139.5 -56.5t57.5 -138.5t-57.5 -138t-139.5 -56t-140 56t-58 138zM268 1329q0 -45 29.5 -76.5t74.5 -31.5t75 31.5t30 76.5q0 47 -30 78t-75 31t-74.5 -31t-29.5 -78z" />
<glyph unicode="&#x2dc;" horiz-adv-x="614" d="M59 1272q0 29 24.5 70.5t66.5 72.5t91 31q35 0 70 -18.5t86 -55.5q78 -61 117 -61q37 0 59.5 20.5t42.5 57.5q23 41 41 41q14 0 22.5 -10.5t8.5 -24.5q0 -31 -24.5 -73t-66.5 -72.5t-94 -30.5q-34 0 -69 19t-82 56q-45 33 -70.5 47.5t-48.5 14.5q-37 0 -57.5 -20.5 t-42.5 -57.5q-14 -25 -22.5 -34t-18.5 -9q-14 0 -23.5 10t-9.5 27z" />
<glyph unicode="&#x3a9;" horiz-adv-x="1556" d="M88 41q0 14 10.5 25.5t24.5 11.5h381q-141 227 -215 368.5t-103.5 243t-29.5 201.5q0 170 79.5 299t234.5 199.5t372 70.5q188 0 329.5 -61.5t219 -178t77.5 -274.5q0 -111 -37.5 -215t-139 -253.5t-304.5 -399.5h373q16 0 26.5 -12.5t10.5 -28.5q0 -14 -9.5 -25.5 t-25.5 -11.5h-412q-27 0 -42 13.5t-15 35.5q0 20 14 43q186 238 287.5 392.5t141.5 259t40 196.5q0 205 -145.5 320.5t-392.5 115.5q-289 0 -440.5 -128t-151.5 -345q0 -150 75.5 -326t264.5 -481q12 -20 12 -39q0 -25 -18.5 -41t-42.5 -16h-410q-16 0 -27.5 12.5 t-11.5 28.5z" />
<glyph unicode="&#x3c0;" horiz-adv-x="1146" d="M39 956q0 12 9 23.5t24 11.5h991q16 0 26.5 -10t10.5 -27q0 -16 -10.5 -26t-24.5 -10h-236l-43 -553q-2 -14 -2 -43q0 -121 60.5 -180.5t189.5 -69.5q18 0 28.5 -12.5t10.5 -28.5t-9 -28.5t-26 -10.5q-176 12 -258 92t-82 233q0 33 2 52l43 549h-409q-49 -528 -201 -902 q-10 -25 -35 -24q-18 0 -34.5 14t-16.5 33l4 16q152 369 197 863h-174q-14 0 -24.5 11t-10.5 27z" />
<glyph unicode="&#x2000;" horiz-adv-x="972" />
<glyph unicode="&#x2001;" horiz-adv-x="1944" />
<glyph unicode="&#x2002;" horiz-adv-x="972" />
<glyph unicode="&#x2003;" horiz-adv-x="1944" />
<glyph unicode="&#x2004;" horiz-adv-x="648" />
<glyph unicode="&#x2005;" horiz-adv-x="486" />
<glyph unicode="&#x2006;" horiz-adv-x="324" />
<glyph unicode="&#x2007;" horiz-adv-x="324" />
<glyph unicode="&#x2008;" horiz-adv-x="243" />
<glyph unicode="&#x2009;" horiz-adv-x="388" />
<glyph unicode="&#x200a;" horiz-adv-x="108" />
<glyph unicode="&#x2010;" horiz-adv-x="851" d="M152 543q0 16 12 27.5t29 11.5h475q20 0 30.5 -11.5t10.5 -29.5q0 -16 -11.5 -26.5t-29.5 -10.5h-475q-19 0 -30 11t-11 28z" />
<glyph unicode="&#x2011;" horiz-adv-x="851" d="M152 543q0 16 12 27.5t29 11.5h475q20 0 30.5 -11.5t10.5 -29.5q0 -16 -11.5 -26.5t-29.5 -10.5h-475q-19 0 -30 11t-11 28z" />
<glyph unicode="&#x2012;" horiz-adv-x="851" d="M152 543q0 16 12 27.5t29 11.5h475q20 0 30.5 -11.5t10.5 -29.5q0 -16 -11.5 -26.5t-29.5 -10.5h-475q-19 0 -30 11t-11 28z" />
<glyph unicode="&#x2013;" horiz-adv-x="1024" d="M4 543q0 12 11.5 23.5t27.5 11.5h950q16 0 25.5 -10.5t9.5 -24.5q0 -12 -10 -22.5t-27 -10.5h-950q-16 0 -26.5 10t-10.5 23z" />
<glyph unicode="&#x2014;" horiz-adv-x="2048" d="M4 543q0 12 11.5 23.5t27.5 11.5h1974q16 0 25.5 -10.5t9.5 -24.5q0 -12 -10 -22.5t-27 -10.5h-1974q-16 0 -26.5 10t-10.5 23z" />
<glyph unicode="&#x2018;" horiz-adv-x="434" d="M195 1200q0 139 94 238q18 18 39 18q14 0 24 -9t10 -24q0 -18 -16 -34q-29 -29 -42 -57.5t-19 -69.5q28 -5 46.5 -26.5t18.5 -53.5q0 -35 -21.5 -58.5t-54.5 -23.5t-56 26.5t-23 73.5z" />
<glyph unicode="&#x2019;" horiz-adv-x="434" d="M197 1130q0 18 16 35q29 29 42 57.5t19 69.5q-29 4 -47 25.5t-18 54.5q0 35 21.5 58.5t54.5 23.5q32 0 56 -26.5t24 -73.5q0 -139 -95 -238q-18 -18 -39 -18q-14 0 -24 9t-10 23z" />
<glyph unicode="&#x201a;" horiz-adv-x="434" d="M92 -170q0 18 17 35q29 29 42 57.5t19 69.5q-29 4 -47.5 25.5t-18.5 54.5q0 35 21.5 58.5t54.5 23.5t56.5 -27t23.5 -74q0 -137 -94 -237q-18 -18 -39 -19q-14 0 -24.5 9.5t-10.5 23.5z" />
<glyph unicode="&#x201c;" horiz-adv-x="727" d="M195 1200q0 139 94 238q18 18 39 18q14 0 24 -9t10 -24q0 -18 -16 -34q-29 -29 -42 -57.5t-19 -69.5q28 -5 46.5 -26.5t18.5 -53.5q0 -35 -21.5 -58.5t-54.5 -23.5t-56 26.5t-23 73.5zM488 1200q0 139 94 238q18 18 39 18q14 0 24 -9t10 -24q0 -18 -16 -34 q-29 -29 -42 -57.5t-19 -69.5q28 -5 46.5 -26.5t18.5 -53.5q0 -35 -21.5 -58.5t-54.5 -23.5t-56 26.5t-23 73.5z" />
<glyph unicode="&#x201d;" horiz-adv-x="727" d="M197 1130q0 18 16 35q29 29 42 57.5t19 69.5q-29 4 -47 25.5t-18 54.5q0 35 21.5 58.5t54.5 23.5q32 0 56 -26.5t24 -73.5q0 -139 -95 -238q-18 -18 -39 -18q-14 0 -24 9t-10 23zM490 1130q0 18 16 35q29 29 42 57.5t19 69.5q-29 4 -47 25.5t-18 54.5q0 35 21.5 58.5 t54.5 23.5q32 0 56 -26.5t24 -73.5q0 -139 -95 -238q-18 -18 -39 -18q-14 0 -24 9t-10 23z" />
<glyph unicode="&#x201e;" horiz-adv-x="727" d="M92 -170q0 18 17 35q29 29 42 57.5t19 69.5q-29 4 -47.5 25.5t-18.5 54.5q0 35 21.5 58.5t54.5 23.5t56.5 -27t23.5 -74q0 -137 -94 -237q-18 -18 -39 -19q-14 0 -24.5 9.5t-10.5 23.5zM385 -170q0 18 17 35q29 29 42 57.5t19 69.5q-29 4 -47.5 25.5t-18.5 54.5 q0 35 21.5 58.5t54.5 23.5t56.5 -27t23.5 -74q0 -137 -94 -237q-18 -18 -39 -19q-14 0 -24.5 9.5t-10.5 23.5z" />
<glyph unicode="&#x2026;" horiz-adv-x="1300" d="M104 72q0 37 23 59.5t57 22.5q33 0 55.5 -22.5t22.5 -59.5t-22.5 -59.5t-55.5 -22.5q-34 0 -57 22.5t-23 59.5zM539 72q0 37 22.5 59.5t56.5 22.5q33 0 55.5 -22.5t22.5 -59.5t-22.5 -59.5t-55.5 -22.5q-34 0 -56.5 22.5t-22.5 59.5zM973 72q0 37 21.5 59.5t56.5 22.5 q33 0 55 -22.5t22 -59.5t-22.5 -59.5t-54.5 -22.5q-35 0 -56.5 22.5t-21.5 59.5z" />
<glyph unicode="&#x202f;" horiz-adv-x="388" />
<glyph unicode="&#x2030;" horiz-adv-x="2684" d="M174 963q0 233 92 365t256 132q158 0 241 -99t83 -292q0 -231 -92 -361t-256 -130q-158 0 -241 99t-83 286zM268 952q0 -154 56.5 -226.5t175.5 -72.5q123 0 187.5 109.5t64.5 318.5q0 154 -56.5 227.5t-173.5 73.5q-125 0 -189.5 -109.5t-64.5 -320.5zM449 6q0 20 10 35 l923 1405q23 31 48 31q16 0 26 -11.5t10 -27.5t-12 -35l-922 -1405q-20 -31 -47 -31q-16 0 -26 11.5t-10 27.5zM1069 371q0 236 92 366.5t256 130.5q158 0 241 -98t83 -291q0 -233 -92.5 -363t-255.5 -130q-156 0 -240 99t-84 286zM1163 360q0 -152 56.5 -224.5t175.5 -72.5 q123 0 187.5 109t64.5 320q0 152 -56.5 225.5t-173.5 73.5q-125 0 -189.5 -110t-64.5 -321zM1878 371q0 236 92 366.5t256 130.5q158 0 240 -99t82 -290q0 -233 -92.5 -363t-255.5 -130q-156 0 -239 99t-83 286zM1970 360q0 -152 56.5 -224.5t175.5 -72.5q122 0 188 110 t66 319q0 152 -56.5 225.5t-173.5 73.5q-125 0 -190.5 -110t-65.5 -321z" />
<glyph unicode="&#x2039;" horiz-adv-x="483" d="M121 541q0 12 10 28l193 295q14 27 43 27q16 0 26 -8.5t10 -22.5q0 -8 -6 -20l-180 -297l127 -299q4 -12 4 -17q0 -12 -11 -21t-26 -9q-29 0 -39 24l-143 293q-8 20 -8 27z" />
<glyph unicode="&#x203a;" horiz-adv-x="483" d="M86 223q0 8 6 21l180 299l-129 297l-4 16q0 14 11.5 24.5t27.5 10.5q27 0 39 -27l145 -295q8 -16 9 -26q0 -12 -11 -29l-194 -293q-16 -24 -45 -24q-16 0 -25.5 7t-9.5 19z" />
<glyph unicode="&#x2044;" horiz-adv-x="323" d="M-330 4q0 14 11 31l927 1417q18 27 43 27q16 0 28.5 -11.5t12.5 -27.5q0 -14 -10 -31l-928 -1417q-18 -27 -43 -27q-16 0 -28.5 11.5t-12.5 27.5z" />
<glyph unicode="&#x205f;" horiz-adv-x="486" />
<glyph unicode="&#x20ac;" d="M27 569q0 18 12 29.5t31 11.5h196v15q0 113 13 211h-189q-18 0 -28.5 11t-10.5 30q0 18 12.5 29.5t30.5 11.5h197q49 260 186 401t342 141q276 0 426 -174q21 -22 21 -51q0 -16 -8.5 -27.5t-22.5 -11.5q-25 0 -51 33q-59 68 -151.5 108.5t-213.5 40.5 q-170 0 -281.5 -118.5t-156.5 -341.5h356q37 0 37 -41q0 -18 -11 -29.5t-30 -11.5h-364q-14 -94 -15 -222v-4h359q37 0 37 -41q0 -16 -11.5 -28.5t-29.5 -12.5h-353q16 -229 117.5 -345.5t284.5 -116.5q92 0 194.5 48t167.5 119q16 18 35 19q14 0 22.5 -10.5t8.5 -26.5 q0 -23 -19 -45q-66 -76 -185.5 -131t-217.5 -55q-219 0 -346 141t-148 403h-204q-18 0 -28.5 11.5t-10.5 29.5z" />
<glyph unicode="&#x2122;" horiz-adv-x="1841" d="M72 1405q0 18 12 28.5t31 10.5h639q37 0 37 -41q0 -16 -12.5 -25.5t-30.5 -9.5h-277l-59 -754q-2 -18 -14.5 -30.5t-30.5 -12.5q-20 0 -32.5 12.5t-10.5 30.5l59 754h-272q-39 0 -39 37zM858 614l62 793q2 18 13 30.5t30 12.5q25 0 41 -33l274 -616l369 616q18 33 43 33 q20 0 32.5 -12.5t10.5 -30.5l-64 -793q0 -20 -12 -31.5t-31 -11.5q-16 0 -26.5 11.5t-8.5 31.5l54 662l-324 -543q-18 -31 -49 -31q-27 0 -39 31l-240 522l-53 -641q-2 -20 -14.5 -31.5t-30.5 -11.5q-39 0 -37 43z" />
<glyph unicode="&#x2202;" d="M141 465q0 193 69 336t189.5 219t276.5 76q246 0 348 -199q-23 322 -160 453t-327 131h-48q-18 0 -30.5 11t-12.5 26q0 14 11.5 24t31.5 12q25 2 68 2q266 0 411.5 -202.5t145.5 -575.5q0 -393 -135 -601t-389 -208q-135 0 -236.5 61.5t-157 173t-55.5 261.5zM227 465 q0 -190 98.5 -304t268.5 -114q125 0 223 70.5t153.5 203t55.5 308.5q0 178 -97.5 284.5t-260.5 106.5q-129 0 -229.5 -66.5t-156 -192.5t-55.5 -296z" />
<glyph unicode="&#x2206;" horiz-adv-x="1556" d="M88 41q0 14 10.5 25.5t24.5 11.5h381q-141 227 -215 368.5t-103.5 243t-29.5 201.5q0 170 79.5 299t234.5 199.5t372 70.5q188 0 329.5 -61.5t219 -178t77.5 -274.5q0 -111 -37.5 -215t-139 -253.5t-304.5 -399.5h373q16 0 26.5 -12.5t10.5 -28.5q0 -14 -9.5 -25.5 t-25.5 -11.5h-412q-27 0 -42 13.5t-15 35.5q0 20 14 43q186 238 287.5 392.5t141.5 259t40 196.5q0 205 -145.5 320.5t-392.5 115.5q-289 0 -440.5 -128t-151.5 -345q0 -150 75.5 -326t264.5 -481q12 -20 12 -39q0 -25 -18.5 -41t-42.5 -16h-410q-16 0 -27.5 12.5 t-11.5 28.5z" />
<glyph unicode="&#x220f;" d="M49 -340l137 1745q2 14 14.5 26.5t28.5 12.5h922q14 0 25.5 -11.5t9.5 -27.5l-137 -1745q-2 -16 -15.5 -27.5t-34.5 -11.5q-16 0 -26 11.5t-10 27.5l137 1700h-832l-135 -1700q-2 -16 -15.5 -27.5t-33.5 -11.5q-14 0 -25.5 11.5t-9.5 27.5z" />
<glyph unicode="&#x2211;" horiz-adv-x="1165" d="M10 -334q0 14 10 31l642 840l-508 837q-8 10 -9 25q0 18 16.5 31.5t35.5 13.5h10v4l2 -4h919q17 0 27 -12.5t10 -28.5q0 -14 -10 -25.5t-25 -11.5h-874l463 -756l2 2v-4q23 -39 22 -61q0 -33 -32 -74l-4 -4v-6l-2 2l-580 -756h868q16 0 27.5 -11t11.5 -28 q0 -14 -10 -26.5t-27 -12.5h-929l-3 -2v2h-4q-25 0 -37 10.5t-12 24.5z" />
<glyph unicode="&#x221a;" d="M20 584q0 16 12.5 26.5t30.5 10.5h177q14 0 24 -8.5t12 -18.5l232 -838l637 1686q12 31 45 31q14 0 26.5 -11.5t12.5 -29.5q0 -10 -6 -27l-672 -1745q-10 -29 -22.5 -38t-30.5 -9q-33 0 -47 45l-248 881h-142q-18 0 -29.5 13t-11.5 32z" />
<glyph unicode="&#x221e;" d="M109 565q0 115 70.5 192t191.5 77q72 0 144.5 -44.5t113.5 -125.5q49 84 121.5 127t142.5 43q108 0 175 -67t67 -165q0 -117 -71 -194.5t-194 -77.5q-74 0 -145.5 44t-110.5 126q-49 -84 -121.5 -127t-144.5 -43q-111 0 -175 66.5t-64 168.5zM190 567q0 -70 45.5 -117 t116.5 -47q64 0 120 37t112 144q-39 104 -96.5 140t-125.5 36q-80 0 -126 -55.5t-46 -137.5zM657 584q41 -106 99.5 -143.5t124.5 -37.5q80 0 124 56.5t44 142.5q0 68 -43 113t-115 45q-63 0 -119.5 -35t-114.5 -141z" />
<glyph unicode="&#x222b;" d="M215 -336q0 16 13.5 26.5t31.5 10.5h37q106 0 161.5 51t65.5 178l97 1221q12 150 98 226.5t235 76.5q33 0 48.5 -7t15.5 -36q0 -18 -13.5 -28.5t-33.5 -10.5h-37q-106 0 -160.5 -51t-64.5 -178l-97 -1221q-10 -145 -95 -223t-228 -78q-39 0 -56.5 7t-17.5 36z" />
<glyph unicode="&#x2248;" d="M100 328q0 12 11 28q94 145 247 146q68 0 131.5 -26.5t143.5 -74.5q72 -39 112.5 -57t81.5 -18q109 0 179 102q14 29 38 29q14 0 24.5 -9.5t10.5 -23.5q0 -18 -10 -31q-90 -145 -244 -145q-67 0 -129.5 25.5t-146.5 74.5q-72 39 -113 57.5t-82 18.5q-106 0 -176 -102 q-14 -27 -41 -27q-14 0 -25.5 9t-11.5 24zM133 737q0 12 10 29q94 145 248 145q68 0 131.5 -26.5t143.5 -73.5q72 -39 112.5 -57.5t81.5 -18.5q109 0 178 103q14 29 39 28q14 0 24.5 -9t10.5 -23q0 -18 -10 -31q-90 -145 -244 -146q-67 0 -130.5 27t-143.5 74 q-72 39 -113 57.5t-82 18.5q-109 0 -178 -103q-14 -27 -41 -26q-14 0 -25.5 9t-11.5 23z" />
<glyph unicode="&#x2260;" d="M104 379q0 16 12.5 26.5t30.5 10.5h332l162 327h-465q-18 0 -29.5 13.5t-11.5 31.5q0 16 12.5 26.5t30.5 10.5h504l119 240q6 12 18 20.5t27 8.5q12 0 18 -4q16 -10 17 -29q0 -12 -7 -25l-104 -211h322q18 0 29.5 -12t11.5 -33q0 -14 -12.5 -25.5t-30.5 -11.5h-361 l-162 -327h494q18 0 29.5 -12.5t11.5 -32.5q0 -14 -12.5 -25.5t-30.5 -11.5h-533l-116 -238q-12 -29 -43 -28q-6 0 -19 4q-16 10 -16 32q0 14 4 23l102 207h-293q-18 0 -29.5 13t-11.5 32z" />
<glyph unicode="&#x2264;" d="M80 45q0 16 12 26.5t31 10.5h913q19 0 30 -13.5t11 -31.5q0 -14 -13 -25.5t-32 -11.5h-911q-18 0 -29.5 13.5t-11.5 31.5zM129 657q2 18 12.5 34t26.5 22l909 338q17 8 37 8q18 0 30.5 -9.5t10.5 -25.5q0 -25 -22 -35l-891 -334l839 -329q23 -10 19 -33 q-2 -16 -15.5 -25.5t-31.5 -9.5q-20 0 -39 8l-856 332q-35 14 -29 59z" />
<glyph unicode="&#x2265;" d="M80 45q0 16 12 26.5t31 10.5h913q19 0 30 -13.5t11 -31.5q0 -14 -13 -25.5t-32 -11.5h-911q-18 0 -29.5 13.5t-11.5 31.5zM98 289q0 29 23 37l893 329l-840 336q-18 6 -18 33q2 16 16 25.5t33 9.5q20 0 37 -8l856 -338q16 -6 24 -21.5t6 -34.5q-6 -47 -43 -59l-909 -334 q-18 -6 -37 -6q-41 0 -41 31z" />
<glyph unicode="&#x25fc;" horiz-adv-x="1003" d="M0 0v1004h1004v-1004h-1004z" />
</font>
</defs>
</svg>
