<?xml version="1.0" standalone="no"?>
<!DOCTYPE svg PUBLIC "-//W3C//DTD SVG 1.1//EN" "http://www.w3.org/Graphics/SVG/1.1/DTD/svg11.dtd" >
<svg xmlns="http://www.w3.org/2000/svg" xmlns:xlink="http://www.w3.org/1999/xlink" version="1.1">
<metadata></metadata>
<defs>
<font id="nunitoextralight" horiz-adv-x="1129" >
<font-face units-per-em="2048" ascent="1638" descent="-410" />
<missing-glyph horiz-adv-x="590" />
<glyph horiz-adv-x="0" />
<glyph unicode="&#xd;" horiz-adv-x="682" />
<glyph unicode=" "  horiz-adv-x="590" />
<glyph unicode="&#x09;" horiz-adv-x="590" />
<glyph unicode="&#xa0;" horiz-adv-x="590" />
<glyph unicode="!" horiz-adv-x="798" d="M333 75q0 -31 23 -54.5t66 -23.5q42 0 65.5 23t23.5 55q0 29 -23 53t-66 24q-42 0 -65.5 -23.5t-23.5 -53.5zM358 1418l32 -1022q0 -18 9 -29t20 -11t19.5 10.5t9.5 29.5l34 1022q0 30 -18.5 46t-43.5 16t-43.5 -16.5t-18.5 -45.5z" />
<glyph unicode="&#x22;" horiz-adv-x="556" d="M85 1425q0 -4 5.5 -75t13 -164.5t10.5 -135.5q8 -37 41 -37q43 0 46 56l25 356v5q0 24 -21.5 37.5t-48.5 13.5q-30 0 -50.5 -13.5t-20.5 -42.5zM111 1067v2v-2zM111 1067v2v-2zM111 1067q4 -40 4 -45q-1 11 -4 45zM323 1431q0 -2 5.5 -77t12.5 -170t10 -136q9 -35 42 -35 q12 0 20 3t16 16t9 37l25 356v6q0 22 -21.5 36t-48.5 14t-48.5 -13.5t-21.5 -36.5zM348 1069q0 -2 0.5 -4t0.5 -3q0 1 -0.5 3t-0.5 4zM349 1062q3 -24 3 -39q0 8 -3 39z" />
<glyph unicode="#" horiz-adv-x="1132" d="M54 525q0 -23 15.5 -40.5t42.5 -17.5h162q-69 -458 -69 -476q0 -48 59 -48q22 0 40.5 14.5t22.5 40.5l70 469h282l-66 -456q-2 -7 -2 -19q0 -25 17.5 -37t41.5 -12q22 0 40 14.5t23 40.5l69 469h161q28 0 43.5 17t15.5 40t-16 40.5t-43 17.5h-143l42 284h158 q28 0 42.5 17t14.5 41t-15 41.5t-42 17.5h-141l62 417q2 8 2 13q0 22 -18.5 33.5t-42.5 11.5q-22 0 -41 -14.5t-24 -40.5l-62 -420h-281q7 48 24 160t28.5 188.5t11.5 82.5q0 14 -12 22.5t-29 13.5t-21 8q-22 0 -41 -14.5t-24 -40.5l-61 -420h-183q-28 0 -43 -17t-15 -41 t15.5 -41.5t42.5 -17.5h165l-41 -284h-179q-28 0 -43 -16.5t-15 -40.5zM415 582l41 284h282l-42 -284h-281z" />
<glyph unicode="$" horiz-adv-x="1335" d="M309 975q0 -50 14 -88t36 -62t61 -43.5t75 -30.5t93 -24l196 -47q104 -24 146 -66t42 -120q0 -98 -72 -150.5t-202 -52.5q-167 0 -306 87q-20 14 -39 14q-18 0 -30 -11.5t-12 -27.5q0 -24 24 -42q50 -39 151.5 -71t196.5 -32q112 0 197 30t137.5 98.5t52.5 168.5 q0 46 -10.5 83.5t-37 74t-78 65t-126.5 46.5l-192 47q-133 32 -169.5 59t-36.5 98q0 178 281 178q35 0 70.5 -5t68.5 -14.5t53 -16.5t49.5 -18.5t33.5 -13.5q11 -4 23 -4q19 0 29.5 11.5t10.5 27.5q0 25 -24 39q-47 27 -137.5 52t-185.5 25q-73 0 -137 -13t-121.5 -41.5 t-91 -82.5t-33.5 -127zM635 0q0 -28 16.5 -43.5t40.5 -15.5t42.5 15.5t18.5 43.5v267h-118v-267zM637 1200h118v238q0 28 -18.5 43.5t-42.5 15.5t-40.5 -15.5t-16.5 -43.5v-238z" />
<glyph unicode="%" horiz-adv-x="2045" d="M248 1019q0 -151 87 -259.5t234 -108.5q149 0 236.5 108t87.5 260q0 99 -37.5 181.5t-112.5 134.5t-174 52t-173.5 -52t-111 -134.5t-36.5 -181.5zM352 1019q0 49 11.5 96.5t35.5 90.5t68 69.5t102 26.5t102.5 -26.5t68.5 -69.5t35.5 -90.5t11.5 -96.5q0 -50 -11.5 -97.5 t-36 -91t-68.5 -70t-102 -26.5q-57 0 -101 26.5t-68 69.5t-36 91t-12 98zM527 -20q0 -1 1 -2.5t1 -3.5q0 -20 16.5 -34t37.5 -14q3 0 7 -0.5t7 -0.5q15 0 21 11l818 1421q2 4 2 6q0 1 -0.5 3.5t-0.5 4.5q0 22 -14.5 37.5t-34.5 15.5q-32 0 -52 -36l-808 -1406v-1zM1152 340 q0 -97 36.5 -180t112 -136.5t174.5 -53.5q148 0 235.5 108.5t87.5 261.5q0 99 -37.5 181.5t-112 133.5t-173.5 51q-147 0 -235 -107.5t-88 -258.5zM1258 340q0 50 11.5 97t35 90t68 69.5t102.5 26.5t102 -26t68 -69t35.5 -90.5t11.5 -97.5q0 -49 -11 -96.5t-35 -91.5 t-68 -71t-103 -27q-58 0 -102 26.5t-68 70t-35.5 91.5t-11.5 98z" />
<glyph unicode="&#x26;" horiz-adv-x="1493" d="M116 409q0 -204 148.5 -321.5t401.5 -117.5q262 0 458 226l150 -169q25 -31 58 -31q27 0 47.5 21t20.5 50q0 3 -0.5 6.5t-1.5 6.5t-1.5 5.5t-2.5 5.5t-3 5t-4 5.5t-4.5 5.5t-5 6.5t-5.5 6.5l-167 182q86 147 127.5 298t41.5 243q0 36 -18.5 55.5t-48.5 19.5 q-25 0 -41.5 -18.5t-17.5 -49.5q0 -171 -127 -462l-444 472q125 97 173 148q109 115 109 240q0 67 -28 119.5t-74 83t-99 46.5t-108 16q-163 0 -262.5 -68.5t-99.5 -202.5q0 -51 17 -101.5t53.5 -103.5t62 -84t73.5 -85q-78 -42 -137 -82.5t-118 -97t-91 -127.5t-32 -152z M255 433q0 91 85.5 183t235.5 172l476 -507q-107 -104 -197 -151.5t-209 -47.5q-104 0 -192 41.5t-143.5 123t-55.5 186.5zM436 1236q0 76 53.5 112t134.5 36q77 0 136 -38.5t59 -109.5q0 -37 -13.5 -71.5t-41 -67t-50 -55t-62 -56.5t-55.5 -49q-161 177 -161 299z" />
<glyph unicode="'" horiz-adv-x="565" d="M213 1425q23 -304 29 -398q6 -14 25 -14h15h16q14 0 21 6t8 25l27 381q0 26 -20.5 41t-48.5 15q-31 0 -51.5 -15t-20.5 -41zM239 1044q0 -2 0.5 -5.5t0.5 -4.5q0 2 -0.5 5t-0.5 5zM240 1034q2 -14 2 -25v-10q-2 0 -2 35z" />
<glyph unicode="(" horiz-adv-x="563" d="M157 643q0 -192 56 -386t157 -432q17 -33 42 -33q17 0 31 11.5t14 27.5v6v1q-166 438 -166 805q0 366 166 803q1 1 1 2v2l-1 2q0 17 -14.5 29.5t-31.5 12.5q-2 0 -6 0.5t-7 0.5q-14 0 -19 -10q-105 -247 -163.5 -446.5t-58.5 -395.5z" />
<glyph unicode=")" horiz-adv-x="563" d="M105 -169q0 -16 14.5 -27.5t31.5 -11.5q25 0 43 33q100 238 156 432.5t56 385.5q0 197 -58 395.5t-163 446.5q-6 9 -19 9q-2 0 -7 -0.5t-8 -0.5q-17 0 -31.5 -12t-14.5 -29q0 -5 2 -6q165 -440 165 -804q0 -366 -166 -803q-1 -4 -1 -8z" />
<glyph unicode="*" horiz-adv-x="1149" d="M153 1078q0 -24 16.5 -41.5t45.5 -17.5l264 11l-141 -227q-7 -10 -7 -23q0 -24 21 -44.5t46 -20.5q28 0 45 29l130 233l131 -233q17 -31 44 -31q24 0 46 22t22 46q0 9 -4 16l-144 233l267 -11q30 0 46 17.5t16 41.5t-16 41t-46 17l-265 -10l142 226q5 9 5 23q0 25 -19 46 t-43 21q-27 0 -50 -31l-132 -238l-130 235q-19 33 -50 33q-25 0 -45 -20.5t-20 -43.5q0 -11 6 -22l142 -229l-261 10q-29 0 -45.5 -17.5t-16.5 -40.5z" />
<glyph unicode="+" horiz-adv-x="1356" d="M166 493q0 -19 14 -38t37 -19h401v-384q0 -20 18.5 -33.5t41.5 -13.5q20 0 39.5 13t19.5 34v384h402q21 0 36 18.5t15 38.5q0 22 -13.5 39.5t-37.5 17.5h-402v387q0 22 -18.5 35.5t-40.5 13.5t-41 -13t-19 -36v-387h-401q-21 0 -36 -17t-15 -40z" />
<glyph unicode="," horiz-adv-x="565" d="M138 -320q0 -30 25 -31h18h3q38 0 53 43l155 460q3 12 3 18q0 35 -37 38h-62q-64 -2 -73 -56l-84 -460q-1 -3 -1 -12z" />
<glyph unicode="-" horiz-adv-x="724" d="M42 523q0 -39 61 -39h520q59 0 59 39q0 43 -59 43h-520q-61 0 -61 -43z" />
<glyph unicode="." horiz-adv-x="565" d="M193 79q0 -31 23 -54.5t66 -23.5q42 0 65.5 23t23.5 55q0 29 -23 53t-66 24q-42 0 -65.5 -23.5t-23.5 -53.5z" />
<glyph unicode="/" horiz-adv-x="724" d="M54 -138q0 -25 17 -40.5t41 -15.5q45 0 60 45l494 1487q1 4 2 10t2 9.5t1 5.5q0 25 -18.5 40.5t-43.5 15.5q-48 0 -61 -44l-489 -1489q-5 -18 -5 -24z" />
<glyph unicode="0" horiz-adv-x="1132" d="M99 687q0 -121 11.5 -219.5t43 -192.5t82.5 -157t134.5 -101.5t194.5 -38.5q112 0 196 39t134.5 102.5t82 158t43 192t11.5 217.5q0 129 -12.5 232.5t-44.5 198t-83.5 157.5t-134 100t-192.5 37q-109 0 -191 -37t-133.5 -99.5t-84 -157t-45 -198t-12.5 -233.5zM235 687 q0 65 2.5 120t11.5 121t23.5 118.5t39.5 103.5t59 85.5t83.5 55.5t110.5 21q62 0 112 -21.5t84.5 -56t60 -86t40 -104t23.5 -118.5t11.5 -121t2.5 -118q0 -609 -334 -609q-330 0 -330 609z" />
<glyph unicode="1" horiz-adv-x="1128" d="M257 1161q0 -21 15.5 -36t37.5 -15q11 0 27 9l236 155l-1 -1217q0 -27 18 -42t43 -15q27 0 45.5 14.5t18.5 42.5l1 1303q0 30 -17 44.5t-43 14.5h-5q-18 0 -33 -11l-322 -211q-21 -18 -21 -36z" />
<glyph unicode="2" horiz-adv-x="1118" d="M142 70q0 -32 34.5 -51t86.5 -19h666q33 0 51.5 14t18.5 34q0 19 -18.5 33.5t-51.5 14.5h-649l491 507q129 125 181.5 223.5t52.5 215.5q0 162 -118.5 277t-290.5 115q-76 0 -136 -9t-110.5 -30t-78.5 -36.5t-77 -47.5q-26 -17 -26 -44q0 -19 14 -34t34 -15q16 0 29 8 q9 5 52.5 31t69 37t87.5 23.5t138 12.5q127 0 213 -84.5t86 -223.5q0 -84 -44.5 -163t-141.5 -178l-523 -537q-40 -41 -40 -74z" />
<glyph unicode="3" horiz-adv-x="1128" d="M153 1290q0 -24 14 -42.5t36 -18.5q9 0 16 3q2 0 15.5 8t38.5 20t59.5 23.5t88 20t114.5 8.5q130 0 214 -72.5t84 -192.5q0 -138 -87.5 -209.5t-246.5 -71.5h-48q-27 0 -43.5 -15.5t-16.5 -37.5q0 -21 16.5 -33.5t43.5 -12.5h56q164 0 268 -86t104 -234 q0 -118 -98 -193.5t-242 -75.5q-142 0 -284 68q-12 4 -25 4q-21 0 -33.5 -11.5t-12.5 -29.5q0 -39 53 -66q59 -33 143.5 -49t149.5 -16q70 0 135.5 13t127 43t107 73t73 108.5t27.5 144.5q0 140 -89.5 240.5t-218.5 121.5q111 19 189 103.5t78 205.5q0 100 -33.5 175 t-94.5 119t-139 65.5t-174 21.5q-66 0 -145 -18t-133.5 -37t-55.5 -19q-31 -13 -31 -48z" />
<glyph unicode="4" horiz-adv-x="1128" d="M81 402q0 -33 24 -52.5t61 -19.5h592v-269q0 -28 19.5 -43.5t44.5 -15.5t43 15.5t18 43.5v269h175q24 0 37.5 14.5t13.5 35.5q0 20 -13.5 35t-37.5 15h-174v900q0 43 -25.5 66t-63.5 23q-28 0 -54.5 -13.5t-42.5 -37.5l-593 -898q-24 -35 -24 -68zM202 430l556 857v-857 h-556z" />
<glyph unicode="5" horiz-adv-x="1128" d="M173 180q0 -18 15 -32q101 -93 196 -131.5t211 -38.5q214 0 337 122.5t123 328.5q0 200 -113 327t-318 127q-64 0 -121.5 -16t-94.5 -38.5t-65 -45.5t-41 -39l-12 -16l3 571h616q57 0 57 46q0 48 -57 48h-662q-26 0 -40 -16t-14 -37v-697q0 -17 21 -29t45 -12q32 0 43 22 q42 75 136 118.5t184 43.5q142 0 228 -100.5t86 -254.5q0 -165 -86 -259t-256 -94q-197 0 -331 142q-10 13 -29 13q-22 0 -41.5 -16.5t-19.5 -36.5z" />
<glyph unicode="6" horiz-adv-x="1128" d="M102 612q0 -634 483 -634q201 0 321 134t120 334q0 204 -111.5 328.5t-317.5 124.5q-78 0 -147 -27.5t-114 -70t-73 -90.5t-35 -94q0 92 4 164.5t15.5 147t30.5 130t50.5 105t74.5 81t102.5 49.5t134.5 18q129 0 250 -63q16 -8 28 -8q20 0 33.5 16t13.5 36q0 28 -25 42 q-145 77 -299 77q-84 0 -154.5 -19.5t-122 -50.5t-93 -79t-68.5 -96.5t-46.5 -112.5t-30 -116.5t-16 -118.5t-7 -109.5t-1.5 -97.5zM244 449q0 159 93.5 259.5t260.5 100.5q77 0 137 -30t96 -81.5t54.5 -114.5t18.5 -134q0 -75 -20.5 -141.5t-60 -118.5t-103.5 -82.5 t-145 -30.5q-69 0 -125.5 22.5t-94 59t-63 85.5t-37 100.5t-11.5 105.5z" />
<glyph unicode="7" horiz-adv-x="1128" d="M87 1351q0 -21 15 -35t43 -14h711l-526 -1219q-3 -5 -5 -22q0 -27 17.5 -44t44.5 -17q39 0 54 34l535 1254q8 15 8 49q0 30 -21 47.5t-56 17.5h-762q-28 0 -43 -14.5t-15 -36.5z" />
<glyph unicode="8" horiz-adv-x="1128" d="M117 366q0 -97 37 -173.5t100 -122t142 -69t168 -23.5t168 23.5t142.5 69t101 122t37.5 173.5q0 272 -291 358q272 67 272 332q0 73 -23.5 133t-64 100.5t-95.5 68.5t-117 41t-130 13q-83 0 -158 -21t-136.5 -62.5t-98 -112t-36.5 -160.5q0 -59 14.5 -109.5t45 -95.5 t85.5 -78t130 -49q-139 -27 -216 -125.5t-77 -232.5zM236 361q0 142 93.5 222t234.5 80t234.5 -80t93.5 -222q0 -135 -93.5 -211.5t-234.5 -76.5q-139 0 -233.5 76.5t-94.5 211.5zM249 1050q0 89 46.5 152t116 91t152.5 28q84 0 154 -28t116.5 -91t46.5 -152 q0 -127 -85 -195t-232 -68q-146 0 -230.5 68t-84.5 195z" />
<glyph unicode="9" horiz-adv-x="1128" d="M103 944q0 -204 111.5 -328.5t317.5 -124.5q78 0 147 27.5t114 70.5t73 91t35 94q0 -92 -4 -165t-15.5 -147t-30.5 -130t-50.5 -105.5t-74.5 -81t-102.5 -49.5t-134.5 -18q-129 0 -250 63q-13 8 -28 8q-20 0 -33.5 -15.5t-13.5 -35.5q0 -29 25 -43q145 -77 299 -77 q84 0 154.5 19.5t122 50.5t93 79t68.5 96.5t46.5 112.5t30 116.5t16 118.5t7 110t1.5 98q0 100 -12 185t-45 170.5t-85 144.5t-139.5 96t-201.5 37q-201 0 -321 -134t-120 -334zM225 942q0 101 34.5 183.5t111 135.5t183.5 53q69 0 125.5 -22.5t94 -59t63 -85.5t37 -100.5 t11.5 -105.5q0 -158 -93 -259t-259 -101q-77 0 -137.5 30t-97 81.5t-55 115t-18.5 134.5z" />
<glyph unicode=":" horiz-adv-x="565" d="M193 79q0 -31 23 -54.5t66 -23.5q42 0 65.5 23t23.5 55q0 29 -23 53t-66 24q-42 0 -65.5 -23.5t-23.5 -53.5zM193 906q0 -31 23 -54t66 -23q42 0 65.5 22.5t23.5 54.5q0 31 -23 54.5t-66 23.5q-42 0 -65.5 -23t-23.5 -55z" />
<glyph unicode=";" horiz-adv-x="565" d="M139 -194q0 -30 25 -31h18h3q38 0 53 43l155 460q3 12 3 18q0 35 -37 38h-62q-64 -2 -73 -56l-84 -460q-1 -3 -1 -12zM216 931q0 -32 22 -55.5t66 -23.5q42 0 66 23.5t24 55.5q0 30 -23 53t-67 23q-42 0 -65 -22.5t-23 -53.5z" />
<glyph unicode="&#x3c;" horiz-adv-x="1356" d="M176 492q0 -27 32 -43l921 -415q9 -4 19 -4q17 0 28.5 14t11.5 32q0 23 -19 32l-853 384l850 362q26 12 26 33q0 16 -13.5 29.5t-32.5 13.5q-9 0 -21 -5l-923 -397q-26 -12 -26 -36z" />
<glyph unicode="=" horiz-adv-x="1356" d="M166 304q0 -22 17 -39t43 -17h916q21 0 34 18t13 38q0 22 -14 39.5t-39 17.5h-922q-21 0 -34.5 -17.5t-13.5 -39.5zM166 681q0 -22 17.5 -39.5t42.5 -17.5h916q20 0 33.5 19t13.5 38q0 21 -12.5 39.5t-34.5 18.5h-928q-21 0 -34.5 -18t-13.5 -40z" />
<glyph unicode="&#x3e;" horiz-adv-x="1356" d="M176 887q0 -21 26 -33l850 -362l-853 -384q-19 -9 -19 -32q0 -18 11.5 -32t28.5 -14q10 0 19 4l921 415q32 16 32 43q0 24 -26 36l-923 397q-12 5 -21 5q-19 0 -32.5 -13.5t-13.5 -29.5z" />
<glyph unicode="?" horiz-adv-x="1022" d="M165 1325q0 -21 13 -39.5t35 -18.5q19 0 127 21t119 21q48 0 85.5 -4.5t77 -18.5t65.5 -38t42.5 -66.5t16.5 -99.5q0 -72 -38.5 -132.5t-94 -102.5t-111.5 -81t-97 -86.5t-45 -100.5l-2 -155q-1 -26 18 -41.5t44 -15.5q22 0 38 12.5t16 35.5l-1 131q0 45 40.5 92t98 91.5 t115 94.5t98 119t40.5 146q0 89 -29.5 155t-82.5 104.5t-119.5 57t-146.5 18.5q-110 0 -272 -40q-50 -11 -50 -59zM334 82q0 -32 23 -55.5t66 -23.5q42 0 65.5 23.5t23.5 55.5q0 30 -22.5 53t-66.5 23q-43 0 -66 -22t-23 -54z" />
<glyph unicode="@" horiz-adv-x="1638" d="M63 745q0 -177 56.5 -323t156 -243t235.5 -150t295 -53q156 0 326 53q30 9 30 44q0 20 -11 32.5t-34 12.5q-16 0 -25 -4q-147 -43 -267 -43q-105 0 -199.5 26.5t-175.5 81t-140 132t-92.5 185.5t-33.5 236q0 125 41.5 235.5t111.5 190t161 137t192 86t203 28.5 q107 0 200.5 -32.5t168 -96t117.5 -167.5t43 -238q0 -108 -39.5 -210.5t-110 -169.5t-152.5 -67q-34 0 -47 12.5t-13 38.5q0 34 25 107l155 483q5 9 5 26q0 24 -17 37t-41 13q-23 0 -45 -13t-28 -36l-9 -31q-28 63 -91 98t-136 35q-109 0 -202 -51t-153 -133.5t-93.5 -183.5 t-33.5 -205q0 -130 75 -216.5t203 -86.5q53 0 121.5 21.5t114.5 55.5q28 -41 76 -62.5t105 -21.5q81 0 161.5 42t145 113.5t104.5 176t40 220.5q0 129 -35.5 237t-97 182.5t-145 126.5t-177.5 76t-197 24q-120 0 -238.5 -32t-224.5 -97.5t-187.5 -156t-129 -215.5 t-47.5 -267zM529 615q0 115 45 221.5t128.5 176t184.5 69.5q44 0 88.5 -38t66.5 -76l23 -37l-89 -294q-18 -62 -70 -111t-108.5 -71.5t-103.5 -22.5q-62 0 -110.5 47t-53.5 108q-1 9 -1 28z" />
<glyph unicode="A" horiz-adv-x="1385" d="M58 54q0 -25 18 -41t42 -16q42 0 60 44l144 361h734l145 -361q18 -44 60 -44q24 0 42 16t18 41q0 16 -7 31l-496 1215q-30 74 -57 98t-72 24t-72 -24t-56 -98l-496 -1215q-7 -15 -7 -31zM360 496l329 822l330 -822h-659z" />
<glyph unicode="B" horiz-adv-x="1242" d="M181 60q0 -26 19 -43t44 -17h469q119 0 207.5 31.5t139.5 86t75.5 120.5t24.5 144q0 157 -100.5 251t-271.5 107v4q97 6 170.5 55t109 117.5t35.5 141.5q0 175 -118 268t-378 93h-363q-25 0 -44 -17t-19 -42v-1300zM301 97v590h304q214 0 319.5 -69t105.5 -219 q0 -167 -84 -234.5t-271 -67.5h-374zM301 782v542h319q362 0 362 -260q0 -282 -374 -282h-307z" />
<glyph unicode="C" horiz-adv-x="1354" d="M139 693q0 -114 22.5 -216.5t72.5 -194.5t123.5 -159t182 -106t241.5 -39q201 0 360 107q46 31 46 62q0 18 -14.5 29.5t-33.5 11.5t-34 -11q-81 -50 -151 -74.5t-166 -24.5q-116 0 -208 38t-148.5 98.5t-94 143t-52 165t-14.5 170.5q0 87 15 170t53 166t95 144.5t148 100 t205 38.5q91 0 160 -14.5t89 -24.5t50 -29q18 -11 33 -11q18 0 28.5 13.5t10.5 31.5q0 24 -16 36q-3 4 -15 13.5t-42 24.5t-68.5 28t-99.5 22.5t-130 9.5q-133 0 -243 -42t-184 -112.5t-124.5 -164.5t-73.5 -194.5t-23 -205.5z" />
<glyph unicode="D" horiz-adv-x="1477" d="M181 66q0 -24 18.5 -42t44.5 -18h330q368 0 565 180t197 529q0 350 -195 530t-560 180h-337q-26 0 -44.5 -17.5t-18.5 -41.5v-1300zM306 105v1222h229q346 0 508.5 -142.5t162.5 -469.5q0 -150 -34 -260.5t-107.5 -190t-196 -119.5t-293.5 -40h-269z" />
<glyph unicode="E" horiz-adv-x="1220" d="M181 60q0 -22 20 -41t42 -19h783q28 0 42.5 14t14.5 37q0 22 -14.5 35t-42.5 13h-720v585h660q28 0 43 13.5t15 35.5q0 48 -58 48h-660v539h688q28 0 43 13.5t15 36.5q0 22 -15 35.5t-43 13.5h-756q-24 0 -40.5 -19t-16.5 -41v-1299z" />
<glyph unicode="F" horiz-adv-x="1122" d="M182 57q0 -27 19 -42t45 -15q25 0 43 14.5t18 42.5v633h621q28 0 43.5 14.5t15.5 37.5q0 21 -15.5 34t-43.5 13h-621v531h646q28 0 42.5 13.5t14.5 36.5q0 22 -14.5 35.5t-42.5 13.5h-714q-24 0 -40.5 -15.5t-16.5 -41.5v-1305z" />
<glyph unicode="G" horiz-adv-x="1422" d="M139 702q0 -181 50.5 -322t139 -227.5t202.5 -130.5t247 -44q132 0 258.5 21.5t215.5 60.5q14 8 27 30.5t13 41.5v534q0 25 -15 40t-40 15h-383q-26 0 -41 -15.5t-15 -35.5q0 -18 15.5 -32.5t40.5 -14.5h316v-490q-79 -23 -183 -39t-186 -16q-114 0 -205.5 34t-151 92 t-99.5 137.5t-57 166.5t-17 184q0 281 147 450.5t415 169.5q157 0 350 -65h10q19 0 31.5 15t12.5 36q0 31 -25 42q-173 72 -386 72q-167 0 -301 -60t-216.5 -160.5t-126 -226t-43.5 -263.5z" />
<glyph unicode="H" horiz-adv-x="1428" d="M181 56q0 -27 18.5 -42t43.5 -15q26 0 44.5 14.5t18.5 42.5v631h816v-631q0 -27 18 -42t43 -15q26 0 45 14.5t19 42.5v1307q0 27 -18.5 42t-44.5 15q-25 0 -43.5 -15.5t-18.5 -41.5v-576h-816v576q0 27 -18 42t-43 15t-44.5 -15.5t-19.5 -41.5v-1307z" />
<glyph unicode="I" horiz-adv-x="565" d="M221 56q0 -27 18.5 -42t43.5 -15q26 0 44.5 14.5t18.5 42.5v1303q0 28 -18 43.5t-43 15.5t-44.5 -16t-19.5 -43v-1303z" />
<glyph unicode="J" horiz-adv-x="970" d="M80 130q19 -44 117 -95.5t209 -51.5q63 0 122.5 15t115 49.5t97 86t66.5 130.5t25 176v923q0 27 -18.5 41.5t-44.5 14.5t-45 -14.5t-19 -41.5v-910q0 -184 -73.5 -274.5t-210.5 -90.5q-74 0 -128 25t-78 57q-46 40 -83 40q-23 0 -35 -15.5t-12 -37.5q0 -4 0.5 -7.5 t1 -5.5t0 -4.5t-2 -4.5t-4.5 -5z" />
<glyph unicode="K" horiz-adv-x="1185" d="M180 57q0 -27 17.5 -42t40.5 -15q26 0 44 14.5t18 42.5v651l728 -688q28 -21 48 -21q26 0 40.5 14.5t14.5 38.5q0 27 -20 44l-683 633l629 602q18 17 18 41q0 21 -12.5 34.5t-35.5 13.5q-24 0 -43 -16l-684 -664v621q0 26 -18 42t-41 16q-25 0 -43 -15.5t-18 -42.5v-1304 z" />
<glyph unicode="L" horiz-adv-x="1075" d="M181 59q0 -25 18.5 -42t44.5 -17h749q27 0 42.5 14t15.5 35q0 50 -58 50h-687v1264q0 27 -18 42t-43 15q-26 0 -45 -15.5t-19 -41.5v-1304z" />
<glyph unicode="M" horiz-adv-x="1884" d="M186 42q0 -24 16.5 -37.5t39.5 -13.5t40 13.5t17 37.5v1231l569 -1192q29 -57 80 -57t80 57l569 1192v-1231q0 -24 17 -37.5t40 -13.5t39.5 13.5t16.5 37.5v1279q0 40 -28 70.5t-65 30.5q-63 0 -105 -85l-564 -1180l-564 1180q-42 85 -105 85q-37 0 -65 -30.5t-28 -70.5 v-1279z" />
<glyph unicode="N" horiz-adv-x="1464" d="M184 59q0 -29 16 -44t43 -15q24 0 40.5 15.5t16.5 43.5v1183l809 -1202q16 -24 33 -32t43 -8q42 0 68.5 24.5t26.5 68.5v1266q0 28 -17 44t-41 16q-26 0 -42 -15.5t-16 -44.5v-1204l-794 1183q-56 81 -107 81q-37 0 -58 -24.5t-21 -68.5v-1267z" />
<glyph unicode="O" horiz-adv-x="1593" d="M146 695q0 -333 177.5 -525t473.5 -192q294 0 472 192.5t178 524.5t-178 524.5t-472 192.5q-296 0 -473.5 -192t-177.5 -525zM278 695q0 291 142 454t377 163t376.5 -162.5t141.5 -454.5q0 -290 -141.5 -453.5t-376.5 -163.5t-377 163.5t-142 453.5z" />
<glyph unicode="P" horiz-adv-x="1150" d="M181 58q0 -27 18.5 -42t44.5 -15q25 0 43.5 14.5t18.5 42.5v598h330q495 0 495 379q0 208 -123 296t-362 88h-402q-27 0 -45 -17.5t-18 -42.5v-1301zM306 753v567h356q190 0 269 -70.5t79 -214.5q0 -143 -87.5 -212.5t-279.5 -69.5h-337z" />
<glyph unicode="Q" horiz-adv-x="1593" d="M146 695q0 -333 177.5 -525t473.5 -192q294 0 472 192.5t178 524.5t-178 524.5t-472 192.5q-296 0 -473.5 -192t-177.5 -525zM278 695q0 291 142 454t377 163t376.5 -162.5t141.5 -454.5q0 -290 -141.5 -453.5t-376.5 -163.5t-377 163.5t-142 453.5zM735 23l622 -264 q11 -5 27 -5q22 0 37.5 15t15.5 39q0 17 -9 32t-25 21l-428 175z" />
<glyph unicode="R" horiz-adv-x="1312" d="M181 57q0 -28 18.5 -43t43.5 -15t44 15t19 43v629h404q59 0 96 -4t70 -17.5t51 -34t34 -60t25 -88t18 -125.5l34 -298q4 -29 24.5 -44.5t45.5 -15.5t40 17.5t15 44.5q0 8 -1 13l-42 367q-16 133 -72 205.5t-163 94.5v4q136 32 204 117t68 206q0 88 -30.5 153.5 t-77.5 102.5t-116.5 59t-133 29t-141.5 7h-414q-26 0 -44.5 -17.5t-18.5 -41.5v-1303zM306 783v537h381q349 0 349 -253q0 -284 -347 -284h-383z" />
<glyph unicode="S" horiz-adv-x="1248" d="M156 1056q0 -72 23 -128t68.5 -95.5t97.5 -66.5t124 -51l235 -80q67 -22 107.5 -39t80 -41t59.5 -52t32 -67.5t12 -92.5q0 -126 -103 -195.5t-260 -69.5q-118 0 -216 40.5t-162 100.5q-9 10 -26 10q-23 0 -45.5 -16t-22.5 -34q0 -10 9 -19q177 -182 445 -182 q232 0 366.5 100t134.5 291q0 62 -17 113t-44.5 87t-71.5 66.5t-89 50.5t-106 40l-239 79q-143 46 -207.5 101.5t-64.5 152.5q0 108 95.5 180.5t262.5 72.5q117 0 214 -42.5t141 -81.5q15 -15 37 -15q21 0 36 13t15 31t-16 35q-59 59 -181 109.5t-257 50.5q-199 0 -333 -98 t-134 -258z" />
<glyph unicode="T" horiz-adv-x="1133" d="M28 1369q0 -21 15 -35t42 -14h424v-1261q0 -27 18 -42.5t44 -15.5q25 0 44 15.5t19 42.5v1261h412q28 0 43.5 13.5t15.5 34.5q0 51 -59 51h-961q-27 0 -42 -14t-15 -36z" />
<glyph unicode="U" horiz-adv-x="1476" d="M202 494q0 -127 46 -228t122.5 -162.5t170.5 -93.5t197 -32q82 0 159 19.5t146 61.5t120.5 101.5t82 145.5t30.5 188v861q0 28 -18.5 43.5t-43.5 15.5q-26 0 -45 -16t-19 -43v-860q0 -100 -35 -181.5t-94 -131.5t-131.5 -77t-151.5 -27t-151.5 27t-131 77t-93.5 131.5 t-35 181.5v860q0 28 -18 43.5t-43 15.5q-26 0 -45 -16t-19 -43v-861z" />
<glyph unicode="V" horiz-adv-x="1243" d="M30 1353q0 -9 5 -21l496 -1249q15 -32 43.5 -56.5t54.5 -24.5t55 24.5t44 56.5l495 1249q5 12 5 22q0 24 -19.5 41t-43.5 17q-37 0 -52 -38l-484 -1225l-483 1225q-15 38 -52 38q-25 0 -44.5 -17.5t-19.5 -41.5z" />
<glyph unicode="W" horiz-adv-x="2160" d="M95 1368q0 -15 4 -28l350 -1273q11 -38 35 -58.5t54 -20.5q31 0 59.5 21.5t43.5 60.5l434 1206l435 -1206q30 -81 97 -81q31 0 57.5 21t36.5 57l351 1273q4 13 4 27q0 28 -17.5 44.5t-40.5 16.5q-21 0 -38 -12.5t-23 -36.5l-336 -1264l-417 1170q-31 86 -52.5 109.5 t-56.5 23.5q-33 0 -56.5 -27t-51.5 -106l-418 -1170l-336 1264q-6 24 -23 36.5t-38 12.5q-23 0 -40 -16t-17 -44z" />
<glyph unicode="X" horiz-adv-x="1245" d="M86 67q0 -22 16.5 -41t38.5 -19q27 0 47 30l430 598l423 -594q16 -26 46 -26q24 0 43.5 16.5t19.5 37.5q0 11 -6 22l-451 634l435 604q10 14 10 28q0 20 -17 34t-39 14q-30 0 -48 -27l-405 -562l-401 564q-18 27 -47 27q-25 0 -46.5 -19t-21.5 -38q0 -9 5 -15l436 -611 l-461 -632q-7 -11 -7 -25z" />
<glyph unicode="Y" horiz-adv-x="1264" d="M82 1362q0 -18 13 -37l480 -711v-556q0 -27 19 -41.5t44 -14.5t43.5 15t18.5 42v557l479 712q11 17 11 33q0 22 -15 38t-35 16q-29 0 -52 -34l-443 -667l-452 679q-17 23 -47 23q-25 0 -44.5 -15.5t-19.5 -38.5z" />
<glyph unicode="Z" horiz-adv-x="1146" d="M112 79q0 -33 24 -56t72 -23h811q29 0 44 13.5t15 36.5q0 22 -15.5 35.5t-43.5 13.5h-781l829 1187q22 30 22 64q0 31 -20.5 50t-55.5 19h-839q-27 0 -42 -14t-15 -35q0 -23 15 -36.5t42 -13.5h788l-834 -1187q-16 -26 -16 -54z" />
<glyph unicode="[" horiz-adv-x="561" d="M174 -125q0 -26 18.5 -44t45.5 -18h159h3q21 0 33.5 14.5t12.5 33.5q0 20 -12 33.5t-37 13.5h-96v1416h96q23 0 35.5 14t12.5 34q0 19 -12 33t-36 14h-159q-28 0 -46 -18t-18 -44v-1482z" />
<glyph unicode="\" horiz-adv-x="565" d="M-25 1441q0 -2 4 -24l494 -1488q13 -45 59 -45q24 0 41 15t17 41q0 16 -4 25l-489 1488q-7 22 -24 33t-36 11q-25 0 -43.5 -15.5t-18.5 -40.5z" />
<glyph unicode="]" horiz-adv-x="561" d="M114 -139q0 -19 12 -33.5t33 -14.5h3h160q26 0 45 18.5t19 43.5v1482q0 26 -19 44t-45 18h-160q-24 0 -36 -14t-12 -33q0 -20 12.5 -34t35.5 -14h97v-1416h-97q-23 0 -35.5 -14t-12.5 -33z" />
<glyph unicode="^" horiz-adv-x="1356" d="M194 541q-1 -2 0.5 -4.5t1.5 -4.5q0 -23 18.5 -38t41.5 -15q37 0 45 22l369 740l367 -740q10 -23 45 -23q23 0 42.5 16.5t19.5 39.5q0 1 1 3t0 4l-412 796q-18 31 -63 31q-44 0 -61 -31z" />
<glyph unicode="_" horiz-adv-x="1024" d="M-2 -197q0 -23 14.5 -39.5t39.5 -16.5h915q27 0 41.5 16.5t14.5 39.5q0 24 -14.5 40.5t-41.5 16.5h-915q-25 0 -39.5 -16.5t-14.5 -40.5z" />
<glyph unicode="`" horiz-adv-x="569" d="M90 1485q0 -20 19 -36l331 -246q16 -11 31 -11q28 0 28 28q0 17 -8 26l-293 307q-11 8 -26 8h-6q-28 0 -52 -24.5t-24 -51.5z" />
<glyph unicode="a" horiz-adv-x="1023" d="M65 264q0 -139 96.5 -214t257.5 -75q232 0 340 234v-168q0 -21 14.5 -32.5t36.5 -11.5q25 0 45 13.5t20 35.5v642q0 164 -97 244.5t-275 80.5q-228 0 -374 -99q-12 -9 -12 -26t13.5 -31t30.5 -14q11 0 21 7q85 43 153 62.5t168 19.5q118 0 189 -57t71 -174v-142 q-170 0 -283.5 -8.5t-197.5 -27.5t-129.5 -53.5t-66.5 -83.5t-21 -122zM175 270q0 90 48.5 135t172 64t368.5 19v-37q0 -172 -97.5 -283.5t-229.5 -111.5q-262 0 -262 214z" />
<glyph unicode="b" horiz-adv-x="1162" d="M171 53q0 -24 15.5 -36t39.5 -12q26 0 41 10.5t17.5 19.5t2.5 19v145q47 -108 144 -166t215 -58q87 0 158 28t120.5 76t83 115t49 143.5t15.5 161.5q0 99 -28 189.5t-81.5 163.5t-140 117t-194.5 44q-113 0 -208 -60.5t-133 -163.5v576q0 24 -17.5 38t-40.5 14t-40.5 -14 t-17.5 -38v-1312zM288 500q0 83 19.5 158t58.5 137.5t106.5 99.5t154.5 37t153.5 -39.5t103.5 -105.5t55 -141t18 -157q0 -79 -15.5 -150.5t-49.5 -136.5t-97.5 -104.5t-148.5 -41.5q-80 0 -143 25.5t-102.5 67t-65.5 100.5t-36.5 120.5t-10.5 130.5z" />
<glyph unicode="c" horiz-adv-x="950" d="M90 493q0 -233 117 -377t327 -144q188 0 301 86q31 23 31 46q0 15 -12.5 25.5t-28.5 10.5q-13 0 -24 -7q-114 -77 -259 -77q-77 0 -137.5 28.5t-97 73t-60.5 103.5t-33 113.5t-9 109.5q0 214 106 331.5t262 117.5q129 0 227 -76q17 -16 37 -16q15 0 24.5 8.5t9.5 23.5 q0 22 -21 44q-44 44 -118.5 70t-152.5 26q-223 0 -356 -145t-133 -375z" />
<glyph unicode="d" horiz-adv-x="1162" d="M90 499q0 -85 15.5 -161.5t49 -143.5t83 -115t120.5 -76t158 -28q117 0 214.5 58t144.5 166v-145q0 -10 2.5 -19t17.5 -19.5t41 -10.5q24 0 39.5 12t15.5 36v1312q0 24 -17.5 38t-40.5 14t-40.5 -14t-17.5 -38v-576q-38 103 -133 163.5t-209 60.5q-107 0 -193.5 -44 t-140 -117t-81.5 -163.5t-28 -189.5zM205 489q0 82 18 157t55 141t103.5 105.5t153.5 39.5t154 -37t106.5 -99.5t59 -137.5t19.5 -158q0 -69 -10.5 -131t-36.5 -120t-66 -100t-102.5 -67.5t-142.5 -25.5q-85 2 -148.5 41.5t-97.5 104.5t-49.5 136.5t-15.5 150.5z" />
<glyph unicode="e" horiz-adv-x="1160" d="M102 486q0 -115 38.5 -212.5t103 -162t149.5 -100.5t178 -36q80 0 148 15t117 42t79 50t60 54q21 21 21 44q0 16 -10 26t-26 10q-19 0 -39 -17q-75 -65 -152.5 -100.5t-192.5 -35.5q-69 2 -132 28t-114 75t-81 126.5t-30 173.5v16h736q30 0 47 11.5t17 28.5 q-21 491 -443 491q-145 0 -254.5 -73.5t-164.5 -192t-55 -261.5zM224 558q5 75 31 141.5t70.5 119t112.5 83t150 30.5q156 0 236.5 -102.5t89.5 -271.5h-690z" />
<glyph unicode="f" horiz-adv-x="680" d="M50 936q0 -38 42 -38h3h160v-841q0 -27 17 -42t39 -15q23 0 41 15.5t18 41.5v841h202q25 0 32.5 8.5t7.5 29.5t-7.5 30t-32.5 9h-202v59q0 138 13.5 203t45 88t97.5 23h85q21 0 32 12.5t11 29.5t-11 29t-31 12h-116q-43 0 -76.5 -7t-65.5 -27.5t-53 -54.5t-33.5 -91.5 t-12.5 -135.5v-140h-160q-45 -1 -45 -39z" />
<glyph unicode="g" horiz-adv-x="1144" d="M90 489q0 -72 15.5 -141t50 -132.5t84.5 -111t123.5 -76t162.5 -28.5q132 0 222.5 73t122.5 178v-251q0 -157 -76.5 -233.5t-257.5 -76.5q-160 0 -293 55q-8 2 -12 2q-18 0 -30.5 -14.5t-12.5 -32.5q0 -31 37 -45q156 -54 317 -54q212 0 327.5 99t115.5 288v945 q0 25 -15 38.5t-38 13.5q-22 0 -38.5 -14.5t-16.5 -39.5v-158q-43 113 -135 176.5t-220 63.5q-106 0 -190 -43.5t-136 -117t-79.5 -166.5t-27.5 -197zM205 495q0 128 36 224.5t113 154.5t187 58q91 0 158 -40t102.5 -106t52 -137t16.5 -148q0 -180 -94 -300t-231 -120 q-153 0 -246.5 105.5t-93.5 308.5z" />
<glyph unicode="h" horiz-adv-x="1126" d="M171 54q0 -26 16.5 -40t39.5 -14t41 14t18 40v530q0 85 25.5 149t72 102t104.5 56t129 18q243 0 243 -257v-598q0 -26 16.5 -40t40.5 -14q23 0 40.5 14t17.5 40v580q0 101 -27 176t-76 118.5t-110.5 64t-136.5 20.5q-68 0 -134.5 -22.5t-124 -73t-80.5 -119.5v569 q0 25 -16 38t-40 13q-23 0 -41 -14t-18 -37v-1313z" />
<glyph unicode="i" horiz-adv-x="487" d="M161 1338q0 -38 24.5 -61t64.5 -23q41 0 66 23.5t25 60.5q0 38 -25 61t-65 23t-65 -23.5t-25 -60.5zM194 60q0 -30 16 -45t39 -15q24 0 42 16t18 44v867q0 27 -17 42.5t-39 15.5q-23 0 -41 -15.5t-18 -42.5v-867z" />
<glyph unicode="j" horiz-adv-x="482" d="M-22 -326q0 -20 12.5 -34.5t33.5 -14.5q44 0 78.5 2t62.5 9t49 13t37 20.5t26.5 25.5t18 34.5t11 40t5.5 49.5t2.5 56t0.5 66v14v972q0 27 -17 42.5t-39 15.5q-24 0 -42 -15.5t-18 -42.5v-1018q0 -46 -1.5 -73t-9 -49.5t-17 -33t-31.5 -17.5t-45.5 -8.5t-65.5 -1.5 q-24 0 -37.5 -15.5t-13.5 -36.5zM167 1338q0 -38 24.5 -61t65.5 -23t66 23.5t25 60.5q0 38 -25 61t-65 23q-41 0 -66 -23.5t-25 -60.5z" />
<glyph unicode="k" horiz-adv-x="951" d="M170 59q0 -30 16 -44.5t40 -14.5t42 16t18 43v497l491 -532q16 -19 39 -19q21 0 36.5 16t15.5 37q0 18 -15 35l-439 468l420 355q21 17 21 38q0 20 -17.5 34.5t-38.5 14.5q-14 0 -25 -8l-488 -418v782q0 28 -17.5 43.5t-39.5 15.5q-23 0 -41 -15.5t-18 -43.5v-1300z" />
<glyph unicode="l" horiz-adv-x="482" d="M199 60q0 -30 15.5 -45t39.5 -15t42 16t18 44v1299q0 28 -17 43.5t-39 15.5q-23 0 -41 -15.5t-18 -43.5v-1299z" />
<glyph unicode="m" horiz-adv-x="1822" d="M171 53q0 -26 16.5 -39.5t40.5 -13.5q25 0 42.5 13.5t17.5 39.5v530q0 171 89 260.5t240 89.5q244 0 244 -343v-536q0 -26 16 -40t40 -14q23 0 41 14t18 40v550q0 89 27.5 155.5t75 103t103 53.5t120.5 17q120 0 184 -73t64 -213v-594q0 -26 16.5 -39.5t40.5 -13.5 q23 0 40.5 13.5t17.5 39.5v581q0 100 -29 175.5t-79.5 118.5t-110.5 64t-129 21q-298 0 -373 -248q-59 248 -326 248q-118 0 -208 -59.5t-122 -150.5v132q0 24 -17.5 37t-40.5 13t-41 -14t-18 -37v-881z" />
<glyph unicode="n" horiz-adv-x="1132" d="M171 52q0 -25 16.5 -38.5t39.5 -13.5t41.5 14.5t18.5 37.5v575q15 149 97.5 227t212.5 78q137 0 200 -79t63 -231v-570q0 -25 17 -38.5t41 -13.5q23 0 40 13.5t17 38.5v568q0 204 -89.5 298.5t-269.5 94.5q-116 0 -207.5 -58t-121.5 -163v138q0 25 -17.5 39t-39.5 14 q-24 0 -41.5 -14t-17.5 -40v-877z" />
<glyph unicode="o" horiz-adv-x="1113" d="M90 494q0 -126 38.5 -226.5t105.5 -163.5t152.5 -96t183.5 -33t184 33t153 95.5t105.5 163t38.5 227.5q0 123 -38 223t-104 164t-152.5 98t-186.5 34q-99 0 -185 -33.5t-152.5 -97t-104.5 -163.5t-38 -225zM207 494q0 198 97 318t266 120t266.5 -121t97.5 -317 q0 -197 -96 -317.5t-270 -120.5q-168 0 -264.5 121.5t-96.5 316.5z" />
<glyph unicode="p" horiz-adv-x="1162" d="M171 -325q0 -24 17.5 -38t40.5 -14t40.5 14t17.5 38v524q38 -103 133 -163.5t208 -60.5q108 0 194.5 44t140 117t81.5 163.5t28 189.5q0 85 -15.5 161.5t-49 143.5t-83 115t-120.5 76t-158 28q-118 0 -215 -58t-144 -166v145q0 10 -2.5 19t-17.5 19.5t-41 10.5 q-24 0 -39.5 -12t-15.5 -36v-1260zM288 489q0 88 18 163t57 140t111.5 102.5t171.5 37.5q69 -1 124 -28t89 -69.5t57 -100t32 -115.5t9 -120q0 -64 -10.5 -125t-35.5 -119.5t-62 -102t-94 -70t-128 -26.5q-70 0 -128 24.5t-96.5 66t-64.5 97.5t-38 117.5t-12 127.5z" />
<glyph unicode="q" horiz-adv-x="1162" d="M90 489q0 -99 28 -189.5t81.5 -163.5t140 -117t193.5 -44q114 0 209 60.5t133 163.5v-524q0 -24 17.5 -38t40.5 -14t40.5 14t17.5 38v1260q0 24 -15.5 36t-39.5 12q-26 0 -41 -10.5t-17.5 -19.5t-2.5 -19v-145q-47 108 -144.5 166t-214.5 58q-87 0 -158 -28t-120.5 -76 t-83 -115t-49 -143.5t-15.5 -161.5zM205 499q0 62 9 120t32 115.5t57 100t89 69.5t124 28q80 0 142.5 -25.5t102.5 -67t66 -100t36.5 -120t10.5 -130.5q0 -83 -19.5 -158.5t-59 -138t-106.5 -99.5t-154 -37q-71 0 -128 26.5t-94 70t-62 102t-35.5 119.5t-10.5 125z" />
<glyph unicode="r" horiz-adv-x="686" d="M175 52q0 -26 16 -39t40 -13t41.5 14t17.5 38v597q0 25 7 56.5t26.5 70.5t49 71t81 53.5t115.5 21.5q30 0 44 13t14 33q0 12 -8 22t-21 19.5t-17 13.5q-120 0 -193 -61.5t-96 -154.5l-2 116q-1 28 -18 43t-41 15q-23 0 -39.5 -14t-16.5 -39v-876z" />
<glyph unicode="s" horiz-adv-x="1010" d="M129 745q0 -50 14 -88t36 -62t61 -43.5t75 -30.5t93 -24l196 -47q104 -24 146 -66t42 -120q0 -98 -72 -150.5t-202 -52.5q-167 0 -306 87q-20 14 -39 14q-18 0 -30 -11.5t-12 -27.5q0 -24 24 -42q50 -39 151.5 -71t196.5 -32q112 0 197 30t137.5 98.5t52.5 168.5 q0 46 -10.5 83.5t-37 74t-78 65t-126.5 46.5l-192 47q-133 32 -169.5 59t-36.5 98q0 178 281 178q35 0 70.5 -5t68.5 -14.5t53 -16.5t49.5 -18.5t33.5 -13.5q11 -4 23 -4q19 0 29.5 11.5t10.5 27.5q0 25 -24 39q-47 27 -137.5 52t-185.5 25q-73 0 -137 -13t-121.5 -41.5 t-91 -82.5t-33.5 -127z" />
<glyph unicode="t" horiz-adv-x="698" d="M47 935q0 -20 11 -28.5t37 -8.5h141v-611q0 -92 17.5 -155.5t49.5 -95.5t67 -45t79 -13q94 0 132 5q17 3 27 15t10 28q0 19 -13.5 32.5t-38.5 13.5h-2l-59 -1h-12q-35 0 -58.5 8t-43.5 30t-29.5 64.5t-9.5 107.5v617h199q26 0 37 8.5t11 28.5q0 40 -48 40h-199v302 q0 24 -15.5 38.5t-35.5 14.5q-10 0 -31.5 -17.5t-20.5 -31.5l-13 -306h-139q-50 0 -50 -40z" />
<glyph unicode="u" horiz-adv-x="1132" d="M157 368q0 -393 361 -393q116 0 206.5 58t120.5 163v-143q0 -25 17.5 -39t39.5 -14q24 0 41.5 14t17.5 40v879q0 25 -16.5 38.5t-39.5 13.5t-41.5 -14.5t-18.5 -37.5v-572q-15 -148 -98.5 -226.5t-213.5 -78.5q-136 0 -198.5 79t-62.5 231v567q0 25 -17 38.5t-41 13.5 q-23 0 -40 -13.5t-17 -38.5v-565z" />
<glyph unicode="v" horiz-adv-x="1002" d="M51 923q0 -7 3 -13l354 -817q23 -53 41.5 -72t56.5 -19t56.5 19t41.5 72l354 817q3 6 3 13q0 21 -20 42t-43 21q-30 0 -47 -40l-345 -818l-345 818q-17 40 -47 40q-23 0 -43 -21t-20 -42z" />
<glyph unicode="w" horiz-adv-x="1697" d="M76 930q0 -13 6 -28l320 -839q26 -63 77 -63q47 0 75 67l306 809l306 -809q28 -67 75 -67q51 0 77 63l320 839q6 15 6 28q0 23 -16 37.5t-37 14.5q-38 0 -53 -41l-302 -808l-291 777q-28 75 -85 75t-85 -75l-291 -777l-301 808q-16 41 -54 41q-21 0 -37 -14.5t-16 -37.5z " />
<glyph unicode="x" horiz-adv-x="1026" d="M98 52q0 -20 17.5 -36t40.5 -16t38 20l319 408l315 -401q18 -27 48 -27q25 0 38.5 18t13.5 42q0 16 -12 32l-327 418l308 397q11 18 11 30q0 19 -17 33.5t-37 14.5q-25 0 -41 -22l-288 -372l-288 368q-20 26 -49 26q-24 0 -38 -17.5t-14 -42.5q0 -19 13 -34l303 -385 l-343 -427q-11 -15 -11 -27z" />
<glyph unicode="y" horiz-adv-x="1001" d="M94 932q0 -15 5 -26l389 -869l-148 -336q-7 -15 -7 -29q0 -20 13 -31t33 -11q49 0 71 52l545 1228q2 10 2 14q0 23 -18.5 40t-40.5 17q-35 0 -50 -37l-339 -768l-349 781q-15 35 -48 35q-23 0 -40.5 -17.5t-17.5 -42.5z" />
<glyph unicode="z" horiz-adv-x="910" d="M87 66q0 -29 20 -47.5t56 -18.5h580q26 0 41 15t15 35q0 19 -15 33.5t-41 14.5h-524l566 763q23 32 23 57q0 30 -22 48.5t-59 18.5h-579q-23 0 -37 -15t-14 -35q0 -18 13 -31t38 -13h525l-565 -768q-21 -30 -21 -57z" />
<glyph unicode="{" horiz-adv-x="558" d="M21 639q0 -18 12 -35t37 -17h3q39 -4 66 -19t43.5 -36.5t26 -55.5t12.5 -70t3 -87v-290q0 -93 54 -158.5t117 -65.5h108q18 0 29.5 14.5t11.5 33.5q0 18 -10 33.5t-32 15.5h-74q-34 0 -56.5 36t-22.5 99v312q0 55 -12 103.5t-28 79t-36.5 56t-32.5 36t-22 16.5l16 10 q17 11 28 20t29 32t29.5 50.5t20 73t8.5 100.5v327q0 60 22.5 95t57.5 35h77q20 0 29 15t9 33q0 9 -2 18.5t-11.5 19.5t-24.5 10h-111q-56 0 -113.5 -61.5t-57.5 -157.5v-297q0 -51 -3 -86.5t-12 -70.5t-25.5 -57t-44 -37.5t-66.5 -19.5h-3q-23 0 -36 -16t-13 -37z" />
<glyph unicode="|" horiz-adv-x="455" d="M167 -441q0 -29 18 -45t42 -16q25 0 43 16t18 45v1854q0 29 -17.5 44.5t-42.5 15.5q-26 0 -43.5 -15t-17.5 -45v-1854z" />
<glyph unicode="}" horiz-adv-x="558" d="M12 -146q0 -18 9.5 -33.5t31.5 -15.5h105q60 0 116.5 63t56.5 158v293q0 63 5 104.5t20 79t45.5 58t77.5 25.5q26 0 41 16t15 37q0 18 -12 35.5t-37 17.5h-3q-48 5 -79 25.5t-46.5 58t-21 80t-5.5 107.5v294q0 92 -54 157t-119 65h-105q-19 0 -30 -15t-11 -34 q0 -17 8.5 -32t29.5 -15h76q37 0 59 -34.5t22 -99.5v-315q0 -49 8.5 -92t19.5 -70.5t28.5 -53.5t28.5 -37t27 -25.5t17 -15.5q-1 -1 -9 -8t-16.5 -14.5t-20.5 -22.5t-23 -30.5t-22.5 -39t-19.5 -49t-13 -58.5t-5 -69v-305q0 -66 -22 -104t-60 -38h-72q-19 0 -30 -15t-11 -33 z" />
<glyph unicode="~" horiz-adv-x="1355" d="M381 1241q0 -17 14.5 -29t31.5 -12q21 0 29 18q16 34 76 34q38 0 117 -29.5t111 -29.5q104 0 157 92q5 5 5 14q0 14 -14.5 26.5t-31.5 12.5q-18 0 -28 -15q-20 -30 -71 -30q-32 0 -111.5 27t-119.5 27q-95 0 -158 -86q-7 -10 -7 -20z" />
<glyph unicode="&#xa2;" horiz-adv-x="1022" d="M90 493q0 -233 117 -377t327 -144q188 0 301 86q31 23 31 46q0 15 -12.5 25.5t-28.5 10.5q-13 0 -24 -7q-114 -77 -259 -77q-77 0 -137.5 28.5t-97 73t-60.5 103.5t-33 113.5t-9 109.5q0 214 106 331.5t262 117.5q129 0 227 -76q17 -16 37 -16q15 0 24.5 8.5t9.5 23.5 q0 22 -21 44q-44 44 -118.5 70t-152.5 26q-223 0 -356 -145t-133 -375zM494 6v-238q0 -18 11.5 -28.5t26.5 -10.5q14 0 25 10t11 29v237zM494 966l74 1v236q0 20 -11 30t-25 10q-15 0 -26.5 -10.5t-11.5 -29.5v-237z" />
<glyph unicode="&#xa3;" horiz-adv-x="1350" d="M169 827q0 -40 23 -40h156v-692h-127q-24 0 -24 -45q0 -21 7.5 -36t20.5 -15h836q11 0 18 14.5t7 33.5t-7 33.5t-18 14.5h-601v692h407q8 0 14 15t6 33q0 38 -21 38h-406v142q0 65 3.5 108t13.5 82t27.5 61.5t47 39.5t70.5 23.5t99 6.5q40 0 73 -3.5t73.5 -10t62.5 -9.5 h2q15 0 24.5 18.5t9.5 39.5q0 23 -10 24q-128 32 -255 32q-353 0 -353 -321v-233h-156q-10 0 -16.5 -14t-6.5 -32z" />
<glyph unicode="&#xa5;" d="M82 1362q0 -18 13 -37l480 -711v-556q0 -27 19 -41.5t44 -14.5t43.5 15t18.5 42v557l479 712q11 17 11 33q0 22 -15 38t-35 16q-29 0 -52 -34l-443 -667l-452 679q-17 23 -47 23q-25 0 -44.5 -15.5t-19.5 -38.5zM126 359q0 -24 15.5 -40.5t43.5 -16.5h829q29 0 44.5 15.5 t15.5 39.5q0 25 -15.5 40.5t-44.5 15.5h-829q-28 0 -43.5 -15.5t-15.5 -38.5zM126 607q0 -23 15.5 -40t43.5 -17h829q29 0 44.5 15.5t15.5 39.5q0 25 -15.5 41t-44.5 16h-829q-28 0 -43.5 -16t-15.5 -39z" />
<glyph unicode="&#xa8;" horiz-adv-x="569" d="M19 1300q0 -32 22.5 -56.5t66.5 -24.5q45 0 68 24.5t23 56.5q0 31 -23 54t-68 23q-43 0 -66 -23t-23 -54zM371 1300q0 -32 23.5 -56.5t67.5 -24.5q43 0 66 24.5t23 56.5q0 31 -22.5 54t-66.5 23t-67.5 -23t-23.5 -54z" />
<glyph unicode="&#xa9;" horiz-adv-x="1634" d="M145 797q0 -178 91 -328t248 -237.5t343 -87.5q184 0 339.5 87.5t246.5 238t91 327.5q0 132 -53.5 252.5t-144.5 208t-216.5 139t-262.5 51.5q-186 0 -343 -87.5t-248 -237t-91 -326.5zM252 797q0 238 162 392.5t413 154.5q249 0 409 -154t160 -393q0 -241 -160 -395 t-409 -154q-251 0 -413 154t-162 395zM450 804q0 -123 56.5 -215.5t143.5 -137t189 -44.5q42 0 98.5 11.5t105 37.5t48.5 57q0 17 -11 28.5t-27 11.5q-15 0 -20 -5q-92 -53 -177 -53q-123 0 -209.5 84t-86.5 227q0 145 81 221.5t205 76.5q107 0 201 -53q13 -5 18 -5 q18 0 29.5 14t11.5 32q0 23 -32 43.5t-77.5 32t-89 18.5t-72.5 7q-78 0 -146.5 -25t-122 -72.5t-85 -122.5t-31.5 -169z" />
<glyph unicode="&#xaa;" horiz-adv-x="1021" d="M144 931q0 -110 76 -175t191 -65q83 0 154 39t103 106v-81q-1 -20 13 -30.5t32 -10.5q19 0 32.5 11t13.5 29l1 502q0 253 -283 253q-158 0 -275 -91q-19 -19 -19 -32q0 -17 11 -29.5t30 -12.5q18 0 30 10q55 38 101 55t122 17q92 0 142 -38.5t50 -127.5v-73q-41 5 -94 5 q-431 0 -431 -261zM244 929q0 53 28 88t86.5 53.5t131 25.5t179.5 7v-78q-7 -121 -75 -185t-171 -66q-79 2 -129 41t-50 114z" />
<glyph unicode="&#xab;" horiz-adv-x="1134" d="M218 549l203 -373q15 -28 48 -28q14 0 25.5 10t11.5 25q2 11 -2 18l-165 348l168 351q1 2 0 5.5t-1 4.5q0 16 -11 27t-28 11q-33 0 -51 -37zM570 549l203 -373q14 -28 47 -28q15 0 26.5 11t11.5 26q1 8 -1 16l-166 348l168 351v10q0 16 -12 27t-29 11q-31 0 -50 -37z" />
<glyph unicode="&#xac;" horiz-adv-x="1355" d="M167 711q0 -24 13 -41.5t39 -17.5h850v-369q0 -27 18 -42t42 -15q25 0 43 15t18 42v427q0 23 -19.5 42t-42.5 19h-909q-26 0 -39 -17t-13 -43z" />
<glyph unicode="&#xad;" horiz-adv-x="724" d="M42 523q0 -39 61 -39h520q59 0 59 39q0 43 -59 43h-520q-61 0 -61 -43z" />
<glyph unicode="&#xae;" horiz-adv-x="1634" d="M129 765q0 -178 93 -329.5t253 -240.5t348 -89q186 0 345.5 89t252.5 240.5t93 329.5q0 179 -93 332t-252.5 242t-345.5 89q-188 0 -348 -89t-253 -241.5t-93 -332.5zM241 765q0 242 164 399t418 157q253 0 415.5 -157t162.5 -399q0 -244 -162.5 -400.5t-415.5 -156.5 q-254 0 -418 156.5t-164 400.5zM575 445q0 -23 15 -35.5t35 -12.5q22 0 37.5 12.5t15.5 35.5v297h159l216 -326q16 -24 37 -24q19 0 34 16.5t15 36.5q0 11 -6 22l-195 274q113 10 174 54t61 149q0 101 -60 149.5t-205 48.5h-264q-34 0 -51.5 -22t-17.5 -45v-630zM674 829h4 v223h208q38 0 65.5 -3.5t54.5 -14t41 -32.5t14 -56q0 -33 -10 -55.5t-23.5 -34.5t-37.5 -18.5t-42.5 -7.5t-48.5 -1h-20q-104 -1 -164 -1z" />
<glyph unicode="&#xb1;" horiz-adv-x="1355" d="M167 57q0 -23 15.5 -40t43.5 -17h903q28 0 44 17t16 40q0 25 -15 41.5t-45 16.5h-903q-28 0 -43.5 -16.5t-15.5 -41.5zM168 589q0 -24 15.5 -41.5t42.5 -17.5h391v-279q0 -26 17 -40.5t41 -14.5t43 15t19 40v279h392q28 0 43.5 17.5t15.5 40.5q0 24 -15.5 40.5 t-43.5 16.5h-392v283q0 27 -17.5 42t-41.5 15q-25 0 -43 -15.5t-18 -41.5v-283h-391q-27 0 -42.5 -17t-15.5 -39z" />
<glyph unicode="&#xb4;" horiz-adv-x="569" d="M52 1234q0 -30 27 -30q13 0 37 16l330 246q15 10 15 33q0 26 -23.5 50.5t-52.5 24.5q-23 0 -35 -10l-290 -305q-8 -8 -8 -25z" />
<glyph unicode="&#xb5;" horiz-adv-x="1136" d="M166 -177q0 -30 15.5 -44t40.5 -14q23 0 41 15.5t18 42.5v223q90 -76 240 -76q105 0 198 49.5t135 134.5v-101q0 -25 17 -39t40 -14t41 14.5t18 38.5v880q0 26 -16.5 39.5t-39.5 13.5t-41.5 -14.5t-18.5 -38.5v-548q-10 -153 -100.5 -235.5t-224.5 -82.5q-104 0 -176 70 t-72 202v593q0 26 -17 39.5t-40 13.5q-24 0 -41 -13.5t-17 -39.5v-1109z" />
<glyph unicode="&#xb8;" horiz-adv-x="569" d="M82 -304q0 -27 71.5 -49t156.5 -22q66 0 118 36.5t52 101.5q0 138 -185 138h-6h-14l29 111h-43l-42 -133q-1 -4 -1 -11q0 -26 28 -26h7q48 0 82 -18.5t34 -56.5q0 -43 -20 -63.5t-71 -20.5q-74 0 -162 35q-8 4 -15 4q-8 0 -13.5 -8t-5.5 -18z" />
<glyph unicode="&#xba;" horiz-adv-x="1144" d="M179 1097q0 -79 23 -151t67.5 -131t117.5 -94t165 -35t165.5 35t118 94t68 131t23.5 151q0 78 -23.5 150.5t-68 131.5t-118 94.5t-165.5 35.5t-165.5 -35.5t-117.5 -95t-67 -131.5t-23 -150zM277 1098q0 57 16 113t47 105t86 79.5t125 30.5q71 0 126 -30.5t86.5 -79.5 t47.5 -105t16 -113t-16 -113t-47.5 -106t-86.5 -80.5t-126 -30.5q-57 0 -103.5 20.5t-77.5 54t-52.5 77t-31 88.5t-9.5 90z" />
<glyph unicode="&#xbb;" horiz-adv-x="1134" d="M270 186q0 -15 11.5 -26.5t27.5 -11.5q34 0 47 28l203 373l-203 371q-16 28 -46 28q-17 0 -28.5 -11.5t-11.5 -27.5q0 -8 1 -10l168 -350l-168 -352q-1 -2 -1 -11zM623 185q0 -15 11.5 -26t27.5 -11q33 0 47 28l203 373l-203 371q-16 28 -46 28q-17 0 -28.5 -11.5 t-11.5 -27.5q0 -7 1 -9l168 -351l-168 -353q-1 -2 -1 -11z" />
<glyph unicode="&#xc0;" horiz-adv-x="1392" d="M58 54q0 -25 18 -41t42 -16q42 0 60 44l144 361h734l145 -361q18 -44 60 -44q24 0 42 16t18 41q0 16 -7 31l-496 1215q-30 74 -57 98t-72 24t-72 -24t-56 -98l-496 -1215q-7 -15 -7 -31zM339 1883q0 -20 19 -36l331 -246q16 -11 31 -11q28 0 28 28q0 17 -8 26l-293 307 q-11 8 -26 8h-6q-28 0 -52 -24.5t-24 -51.5zM360 496l329 822l330 -822h-659z" />
<glyph unicode="&#xc1;" horiz-adv-x="1392" d="M58 54q0 -25 18 -41t42 -16q42 0 60 44l144 361h734l145 -361q18 -44 60 -44q24 0 42 16t18 41q0 16 -7 31l-496 1215q-30 74 -57 98t-72 24t-72 -24t-56 -98l-496 -1215q-7 -15 -7 -31zM360 496l329 822l330 -822h-659zM631 1632q0 -30 27 -30q13 0 37 16l330 246 q15 10 15 33q0 26 -23.5 50.5t-52.5 24.5q-23 0 -35 -10l-290 -305q-8 -8 -8 -25z" />
<glyph unicode="&#xc2;" horiz-adv-x="1392" d="M58 54q0 -25 18 -41t42 -16q42 0 60 44l144 361h734l145 -361q18 -44 60 -44q24 0 42 16t18 41q0 16 -7 31l-496 1215q-30 74 -57 98t-72 24t-72 -24t-56 -98l-496 -1215q-7 -15 -7 -31zM360 496l329 822l330 -822h-659zM415 1640q0 -20 12.5 -33t32.5 -13q32 0 50 28 l181 243l181 -243q24 -27 50 -27q20 0 33 12.5t13 32.5q0 17 -14 40l-187 274q-35 45 -77 45q-47 0 -74 -45l-188 -273q-11 -16 -13 -41z" />
<glyph unicode="&#xc3;" horiz-adv-x="1392" d="M58 54q0 -25 18 -41t42 -16q42 0 60 44l144 361h734l145 -361q18 -44 60 -44q24 0 42 16t18 41q0 16 -7 31l-496 1215q-30 74 -57 98t-72 24t-72 -24t-56 -98l-496 -1215q-7 -15 -7 -31zM360 496l329 822l330 -822h-659zM413 1594q0 -12 8.5 -19t21.5 -7q24 0 47 25 q30 33 77 33q35 0 111.5 -29t109.5 -29q108 0 163 108q1 -2 8.5 -2t15.5 3q2 23 -9.5 36t-33.5 13h-2l-2 1q-12 0 -53 -30.5t-65 -30.5q-30 0 -107.5 27t-120.5 27q-108 0 -164 -105q-5 -12 -5 -21z" />
<glyph unicode="&#xc4;" horiz-adv-x="1392" d="M58 54q0 -25 18 -41t42 -16q42 0 60 44l144 361h734l145 -361q18 -44 60 -44q24 0 42 16t18 41q0 16 -7 31l-496 1215q-30 74 -57 98t-72 24t-72 -24t-56 -98l-496 -1215q-7 -15 -7 -31zM360 496l329 822l330 -822h-659zM427 1698q0 -32 22.5 -56.5t66.5 -24.5 q45 0 68 24.5t23 56.5q0 31 -23 54t-68 23q-43 0 -66 -23t-23 -54zM779 1698q0 -32 23.5 -56.5t67.5 -24.5q43 0 66 24.5t23 56.5q0 31 -22.5 54t-66.5 23t-67.5 -23t-23.5 -54z" />
<glyph unicode="&#xc5;" horiz-adv-x="1392" d="M58 54q0 -25 18 -41t42 -16q42 0 60 44l144 361h734l145 -361q18 -44 60 -44q24 0 42 16t18 41q0 16 -7 31l-496 1215q-30 74 -57 98t-72 24t-72 -24t-56 -98l-496 -1215q-7 -15 -7 -31zM360 496l329 822l330 -822h-659zM515 1756q0 -82 47 -127t133 -45q85 0 132 45 t47 127q0 81 -47 125.5t-132 44.5q-86 0 -133 -44.5t-47 -125.5zM582 1756q0 51 29.5 79.5t83.5 28.5t83.5 -28.5t29.5 -79.5t-29.5 -80t-83.5 -29t-83.5 29t-29.5 80z" />
<glyph unicode="&#xc6;" horiz-adv-x="1955" d="M50 44q0 -20 15.5 -33t37.5 -13q36 0 59 35l228 352h728l61 -352q3 -15 14.5 -22.5t22.5 -9t30 -1.5h612h4q22 0 33.5 14t11.5 32q0 25 -19.5 46t-49.5 21h-548l-94 564h611q24 0 37 13t13 33q0 26 -19.5 46t-50.5 20h-609l-84 517h743q24 0 36 13t12 33q0 25 -19 46 t-49 21h-814q-17 0 -30.5 -3.5t-31.5 -14t-39 -34.5t-45 -61l-795 -1227q-12 -18 -12 -30v-5zM466 500l501 804h3l133 -804h-637z" />
<glyph unicode="&#xc7;" horiz-adv-x="1340" d="M139 693q0 -114 22.5 -216.5t72.5 -194.5t123.5 -159t182 -106t241.5 -39q201 0 360 107q46 31 46 62q0 18 -14.5 29.5t-33.5 11.5t-34 -11q-81 -50 -151 -74.5t-166 -24.5q-116 0 -208 38t-148.5 98.5t-94 143t-52 165t-14.5 170.5q0 87 15 170t53 166t95 144.5t148 100 t205 38.5q91 0 160 -14.5t89 -24.5t50 -29q18 -11 33 -11q18 0 28.5 13.5t10.5 31.5q0 24 -16 36q-3 4 -15 13.5t-42 24.5t-68.5 28t-99.5 22.5t-130 9.5q-133 0 -243 -42t-184 -112.5t-124.5 -164.5t-73.5 -194.5t-23 -205.5zM558 -292q0 -27 71.5 -49t156.5 -22 q66 0 118 36.5t52 101.5q0 138 -185 138h-6h-14l29 111h-43l-42 -133q-1 -4 -1 -11q0 -26 28 -26h7q48 0 82 -18.5t34 -56.5q0 -43 -20 -63.5t-71 -20.5q-74 0 -162 35q-8 4 -15 4q-8 0 -13.5 -8t-5.5 -18z" />
<glyph unicode="&#xc8;" horiz-adv-x="1230" d="M181 60q0 -22 20 -41t42 -19h783q28 0 42.5 14t14.5 37q0 22 -14.5 35t-42.5 13h-720v585h660q28 0 43 13.5t15 35.5q0 48 -58 48h-660v539h688q28 0 43 13.5t15 36.5q0 22 -15 35.5t-43 13.5h-756q-24 0 -40.5 -19t-16.5 -41v-1299zM283 1883q0 -20 19 -36l331 -246 q16 -11 31 -11q28 0 28 28q0 17 -8 26l-293 307q-11 8 -26 8h-6q-28 0 -52 -24.5t-24 -51.5z" />
<glyph unicode="&#xc9;" horiz-adv-x="1230" d="M181 60q0 -22 20 -41t42 -19h783q28 0 42.5 14t14.5 37q0 22 -14.5 35t-42.5 13h-720v585h660q28 0 43 13.5t15 35.5q0 48 -58 48h-660v539h688q28 0 43 13.5t15 36.5q0 22 -15 35.5t-43 13.5h-756q-24 0 -40.5 -19t-16.5 -41v-1299zM575 1632q0 -30 27 -30q13 0 37 16 l330 246q15 10 15 33q0 26 -23.5 50.5t-52.5 24.5q-23 0 -35 -10l-290 -305q-8 -8 -8 -25z" />
<glyph unicode="&#xca;" horiz-adv-x="1230" d="M181 60q0 -22 20 -41t42 -19h783q28 0 42.5 14t14.5 37q0 22 -14.5 35t-42.5 13h-720v585h660q28 0 43 13.5t15 35.5q0 48 -58 48h-660v539h688q28 0 43 13.5t15 36.5q0 22 -15 35.5t-43 13.5h-756q-24 0 -40.5 -19t-16.5 -41v-1299zM359 1640q0 -20 12.5 -33t32.5 -13 q32 0 50 28l181 243l181 -243q24 -27 50 -27q20 0 33 12.5t13 32.5q0 17 -14 40l-187 274q-35 45 -77 45q-47 0 -74 -45l-188 -273q-11 -16 -13 -41z" />
<glyph unicode="&#xcb;" horiz-adv-x="1230" d="M181 60q0 -22 20 -41t42 -19h783q28 0 42.5 14t14.5 37q0 22 -14.5 35t-42.5 13h-720v585h660q28 0 43 13.5t15 35.5q0 48 -58 48h-660v539h688q28 0 43 13.5t15 36.5q0 22 -15 35.5t-43 13.5h-756q-24 0 -40.5 -19t-16.5 -41v-1299zM371 1698q0 -32 22.5 -56.5 t66.5 -24.5q45 0 68 24.5t23 56.5q0 31 -23 54t-68 23q-43 0 -66 -23t-23 -54zM723 1698q0 -32 23.5 -56.5t67.5 -24.5q43 0 66 24.5t23 56.5q0 31 -22.5 54t-66.5 23t-67.5 -23t-23.5 -54z" />
<glyph unicode="&#xcc;" horiz-adv-x="563" d="M-65 1883q0 -20 19 -36l331 -246q16 -11 31 -11q28 0 28 28q0 17 -8 26l-293 307q-11 8 -26 8h-6q-28 0 -52 -24.5t-24 -51.5zM221 56q0 -27 18.5 -42t43.5 -15q26 0 44.5 14.5t18.5 42.5v1303q0 28 -18 43.5t-43 15.5t-44.5 -16t-19.5 -43v-1303z" />
<glyph unicode="&#xcd;" horiz-adv-x="563" d="M221 56q0 -27 18.5 -42t43.5 -15q26 0 44.5 14.5t18.5 42.5v1303q0 28 -18 43.5t-43 15.5t-44.5 -16t-19.5 -43v-1303zM227 1632q0 -30 27 -30q13 0 37 16l330 246q15 10 15 33q0 26 -23.5 50.5t-52.5 24.5q-23 0 -35 -10l-290 -305q-8 -8 -8 -25z" />
<glyph unicode="&#xce;" horiz-adv-x="563" d="M11 1640q0 -20 12.5 -33t32.5 -13q32 0 50 28l181 243l181 -243q24 -27 50 -27q20 0 33 12.5t13 32.5q0 17 -14 40l-187 274q-35 45 -77 45q-47 0 -74 -45l-188 -273q-11 -16 -13 -41zM221 56q0 -27 18.5 -42t43.5 -15q26 0 44.5 14.5t18.5 42.5v1303q0 28 -18 43.5 t-43 15.5t-44.5 -16t-19.5 -43v-1303z" />
<glyph unicode="&#xcf;" horiz-adv-x="563" d="M23 1698q0 -32 22.5 -56.5t66.5 -24.5q45 0 68 24.5t23 56.5q0 31 -23 54t-68 23q-43 0 -66 -23t-23 -54zM221 56q0 -27 18.5 -42t43.5 -15q26 0 44.5 14.5t18.5 42.5v1303q0 28 -18 43.5t-43 15.5t-44.5 -16t-19.5 -43v-1303zM375 1698q0 -32 23.5 -56.5t67.5 -24.5 q43 0 66 24.5t23 56.5q0 31 -22.5 54t-66.5 23t-67.5 -23t-23.5 -54z" />
<glyph unicode="&#xd0;" horiz-adv-x="1486" d="M0 718q0 -39 61 -39h520q59 0 59 39q0 43 -59 43h-520q-61 0 -61 -43zM181 66q0 -24 18.5 -42t44.5 -18h330q368 0 565 180t197 529q0 350 -195 530t-560 180h-337q-26 0 -44.5 -17.5t-18.5 -41.5v-1300zM306 105v1222h229q346 0 508.5 -142.5t162.5 -469.5 q0 -150 -34 -260.5t-107.5 -190t-196 -119.5t-293.5 -40h-269z" />
<glyph unicode="&#xd1;" horiz-adv-x="1466" d="M184 59q0 -29 16 -44t43 -15q24 0 40.5 15.5t16.5 43.5v1183l809 -1202q16 -24 33 -32t43 -8q42 0 68.5 24.5t26.5 68.5v1266q0 28 -17 44t-41 16q-26 0 -42 -15.5t-16 -44.5v-1204l-794 1183q-56 81 -107 81q-37 0 -58 -24.5t-21 -68.5v-1267zM488 1590q0 -12 8.5 -19 t21.5 -7q24 0 47 25q30 33 77 33q35 0 111.5 -29t109.5 -29q108 0 163 108q1 -2 8.5 -2t15.5 3q2 23 -9.5 36t-33.5 13h-2l-2 1q-12 0 -53 -30.5t-65 -30.5q-30 0 -107.5 27t-120.5 27q-108 0 -164 -105q-5 -12 -5 -21z" />
<glyph unicode="&#xd2;" horiz-adv-x="1586" d="M146 695q0 -333 177.5 -525t473.5 -192q294 0 472 192.5t178 524.5t-178 524.5t-472 192.5q-296 0 -473.5 -192t-177.5 -525zM278 695q0 291 142 454t377 163t376.5 -162.5t141.5 -454.5q0 -290 -141.5 -453.5t-376.5 -163.5t-377 163.5t-142 453.5zM438 1879 q0 -20 19 -36l331 -246q16 -11 31 -11q28 0 28 28q0 17 -8 26l-293 307q-11 8 -26 8h-6q-28 0 -52 -24.5t-24 -51.5z" />
<glyph unicode="&#xd3;" horiz-adv-x="1586" d="M146 695q0 -333 177.5 -525t473.5 -192q294 0 472 192.5t178 524.5t-178 524.5t-472 192.5q-296 0 -473.5 -192t-177.5 -525zM278 695q0 291 142 454t377 163t376.5 -162.5t141.5 -454.5q0 -290 -141.5 -453.5t-376.5 -163.5t-377 163.5t-142 453.5zM730 1628 q0 -30 27 -30q13 0 37 16l330 246q15 10 15 33q0 26 -23.5 50.5t-52.5 24.5q-23 0 -35 -10l-290 -305q-8 -8 -8 -25z" />
<glyph unicode="&#xd4;" horiz-adv-x="1586" d="M146 695q0 -333 177.5 -525t473.5 -192q294 0 472 192.5t178 524.5t-178 524.5t-472 192.5q-296 0 -473.5 -192t-177.5 -525zM278 695q0 291 142 454t377 163t376.5 -162.5t141.5 -454.5q0 -290 -141.5 -453.5t-376.5 -163.5t-377 163.5t-142 453.5zM514 1636 q0 -20 12.5 -33t32.5 -13q32 0 50 28l181 243l181 -243q24 -27 50 -27q20 0 33 12.5t13 32.5q0 17 -14 40l-187 274q-35 45 -77 45q-47 0 -74 -45l-188 -273q-11 -16 -13 -41z" />
<glyph unicode="&#xd5;" horiz-adv-x="1586" d="M146 695q0 -333 177.5 -525t473.5 -192q294 0 472 192.5t178 524.5t-178 524.5t-472 192.5q-296 0 -473.5 -192t-177.5 -525zM278 695q0 291 142 454t377 163t376.5 -162.5t141.5 -454.5q0 -290 -141.5 -453.5t-376.5 -163.5t-377 163.5t-142 453.5zM512 1590 q0 -12 8.5 -19t21.5 -7q24 0 47 25q30 33 77 33q35 0 111.5 -29t109.5 -29q108 0 163 108q1 -2 8.5 -2t15.5 3q2 23 -9.5 36t-33.5 13h-2l-2 1q-12 0 -53 -30.5t-65 -30.5q-30 0 -107.5 27t-120.5 27q-108 0 -164 -105q-5 -12 -5 -21z" />
<glyph unicode="&#xd6;" horiz-adv-x="1586" d="M146 695q0 -333 177.5 -525t473.5 -192q294 0 472 192.5t178 524.5t-178 524.5t-472 192.5q-296 0 -473.5 -192t-177.5 -525zM278 695q0 291 142 454t377 163t376.5 -162.5t141.5 -454.5q0 -290 -141.5 -453.5t-376.5 -163.5t-377 163.5t-142 453.5zM526 1694 q0 -32 22.5 -56.5t66.5 -24.5q45 0 68 24.5t23 56.5q0 31 -23 54t-68 23q-43 0 -66 -23t-23 -54zM878 1694q0 -32 23.5 -56.5t67.5 -24.5q43 0 66 24.5t23 56.5q0 31 -22.5 54t-66.5 23t-67.5 -23t-23.5 -54z" />
<glyph unicode="&#xd8;" horiz-adv-x="1593" d="M146 695q0 -333 177.5 -525t473.5 -192q294 0 472 192.5t178 524.5t-178 524.5t-472 192.5q-296 0 -473.5 -192t-177.5 -525zM218 -47q0 -17 13.5 -30.5t31.5 -13.5q31 0 49 21l1069 1497q17 25 17 47q0 21 -13 34t-32 13q-34 0 -54 -30l-1073 -1514q-8 -10 -8 -24z M278 695q0 291 142 454t377 163t376.5 -162.5t141.5 -454.5q0 -290 -141.5 -453.5t-376.5 -163.5t-377 163.5t-142 453.5z" />
<glyph unicode="&#xd9;" horiz-adv-x="1479" d="M202 494q0 -127 46 -228t122.5 -162.5t170.5 -93.5t197 -32q82 0 159 19.5t146 61.5t120.5 101.5t82 145.5t30.5 188v861q0 28 -18.5 43.5t-43.5 15.5q-26 0 -45 -16t-19 -43v-860q0 -100 -35 -181.5t-94 -131.5t-131.5 -77t-151.5 -27t-151.5 27t-131 77t-93.5 131.5 t-35 181.5v860q0 28 -18 43.5t-43 15.5q-26 0 -45 -16t-19 -43v-861zM396 1883q0 -20 19 -36l331 -246q16 -11 31 -11q28 0 28 28q0 17 -8 26l-293 307q-11 8 -26 8h-6q-28 0 -52 -24.5t-24 -51.5z" />
<glyph unicode="&#xda;" horiz-adv-x="1479" d="M202 494q0 -127 46 -228t122.5 -162.5t170.5 -93.5t197 -32q82 0 159 19.5t146 61.5t120.5 101.5t82 145.5t30.5 188v861q0 28 -18.5 43.5t-43.5 15.5q-26 0 -45 -16t-19 -43v-860q0 -100 -35 -181.5t-94 -131.5t-131.5 -77t-151.5 -27t-151.5 27t-131 77t-93.5 131.5 t-35 181.5v860q0 28 -18 43.5t-43 15.5q-26 0 -45 -16t-19 -43v-861zM688 1632q0 -30 27 -30q13 0 37 16l330 246q15 10 15 33q0 26 -23.5 50.5t-52.5 24.5q-23 0 -35 -10l-290 -305q-8 -8 -8 -25z" />
<glyph unicode="&#xdb;" horiz-adv-x="1479" d="M202 494q0 -127 46 -228t122.5 -162.5t170.5 -93.5t197 -32q82 0 159 19.5t146 61.5t120.5 101.5t82 145.5t30.5 188v861q0 28 -18.5 43.5t-43.5 15.5q-26 0 -45 -16t-19 -43v-860q0 -100 -35 -181.5t-94 -131.5t-131.5 -77t-151.5 -27t-151.5 27t-131 77t-93.5 131.5 t-35 181.5v860q0 28 -18 43.5t-43 15.5q-26 0 -45 -16t-19 -43v-861zM472 1640q0 -20 12.5 -33t32.5 -13q32 0 50 28l181 243l181 -243q24 -27 50 -27q20 0 33 12.5t13 32.5q0 17 -14 40l-187 274q-35 45 -77 45q-47 0 -74 -45l-188 -273q-11 -16 -13 -41z" />
<glyph unicode="&#xdc;" horiz-adv-x="1479" d="M202 494q0 -127 46 -228t122.5 -162.5t170.5 -93.5t197 -32q82 0 159 19.5t146 61.5t120.5 101.5t82 145.5t30.5 188v861q0 28 -18.5 43.5t-43.5 15.5q-26 0 -45 -16t-19 -43v-860q0 -100 -35 -181.5t-94 -131.5t-131.5 -77t-151.5 -27t-151.5 27t-131 77t-93.5 131.5 t-35 181.5v860q0 28 -18 43.5t-43 15.5q-26 0 -45 -16t-19 -43v-861zM484 1698q0 -32 22.5 -56.5t66.5 -24.5q45 0 68 24.5t23 56.5q0 31 -23 54t-68 23q-43 0 -66 -23t-23 -54zM836 1698q0 -32 23.5 -56.5t67.5 -24.5q43 0 66 24.5t23 56.5q0 31 -22.5 54t-66.5 23 t-67.5 -23t-23.5 -54z" />
<glyph unicode="&#xdd;" horiz-adv-x="1263" d="M82 1362q0 -18 13 -37l480 -711v-556q0 -27 19 -41.5t44 -14.5t43.5 15t18.5 42v557l479 712q11 17 11 33q0 22 -15 38t-35 16q-29 0 -52 -34l-443 -667l-452 679q-17 23 -47 23q-25 0 -44.5 -15.5t-19.5 -38.5zM598 1632q0 -30 27 -30q13 0 37 16l330 246q15 10 15 33 q0 26 -23.5 50.5t-52.5 24.5q-23 0 -35 -10l-290 -305q-8 -8 -8 -25z" />
<glyph unicode="&#xde;" horiz-adv-x="1246" d="M207 56q0 -27 18 -42t44 -15q25 0 43 14.5t18 42.5v383h273q62 0 117.5 5t114 17t107 32t92.5 51t74.5 72t48 98t17.5 125q0 95 -34 167t-88.5 115.5t-131.5 70.5t-153.5 37t-165.5 10h-271v128q0 26 -18.5 41.5t-44.5 15.5q-24 0 -42 -15t-18 -42v-1311zM330 554v571 h330q378 0 378 -286q0 -285 -377 -285h-331z" />
<glyph unicode="&#xdf;" horiz-adv-x="1245" d="M181 55q0 -26 16 -40.5t39 -14.5q24 0 42 15t18 40v904q1 72 14.5 134t43 121t87.5 93.5t139 34.5q101 0 177 -50.5t76 -143.5q0 -37 -25 -73.5t-60.5 -68t-71 -64.5t-60.5 -76t-25 -89q0 -52 24.5 -95.5t63.5 -73.5t86 -56.5t94 -52t86 -53t63.5 -66t24.5 -84.5 q0 -108 -60.5 -164t-165.5 -56q-120 0 -185 103q-18 25 -46 25q-23 0 -40.5 -16t-17.5 -40q0 -17 10 -36q82 -142 282 -142q150 0 250 89t100 241q0 62 -24.5 112.5t-63.5 84.5t-86.5 62t-95 52t-86.5 48.5t-63.5 57.5t-24.5 72q0 27 25 59t60.5 64.5t71.5 67t61 78t25 86.5 q0 95 -53 166t-134.5 104.5t-177.5 33.5q-206 0 -309.5 -120t-103.5 -326v-947z" />
<glyph unicode="&#xe0;" horiz-adv-x="1017" d="M65 264q0 -139 96.5 -214t257.5 -75q232 0 340 234v-168q0 -21 14.5 -32.5t36.5 -11.5q25 0 45 13.5t20 35.5v642q0 164 -97 244.5t-275 80.5q-228 0 -374 -99q-12 -9 -12 -26t13.5 -31t30.5 -14q11 0 21 7q85 43 153 62.5t168 19.5q118 0 189 -57t71 -174v-142 q-170 0 -283.5 -8.5t-197.5 -27.5t-129.5 -53.5t-66.5 -83.5t-21 -122zM128 1433q0 -20 19 -36l331 -246q16 -11 31 -11q28 0 28 28q0 17 -8 26l-293 307q-11 8 -26 8h-6q-28 0 -52 -24.5t-24 -51.5zM175 270q0 90 48.5 135t172 64t368.5 19v-37q0 -172 -97.5 -283.5 t-229.5 -111.5q-262 0 -262 214z" />
<glyph unicode="&#xe1;" horiz-adv-x="1017" d="M65 264q0 -139 96.5 -214t257.5 -75q232 0 340 234v-168q0 -21 14.5 -32.5t36.5 -11.5q25 0 45 13.5t20 35.5v642q0 164 -97 244.5t-275 80.5q-228 0 -374 -99q-12 -9 -12 -26t13.5 -31t30.5 -14q11 0 21 7q85 43 153 62.5t168 19.5q118 0 189 -57t71 -174v-142 q-170 0 -283.5 -8.5t-197.5 -27.5t-129.5 -53.5t-66.5 -83.5t-21 -122zM175 270q0 90 48.5 135t172 64t368.5 19v-37q0 -172 -97.5 -283.5t-229.5 -111.5q-262 0 -262 214zM420 1182q0 -30 27 -30q13 0 37 16l330 246q15 10 15 33q0 26 -23.5 50.5t-52.5 24.5q-23 0 -35 -10 l-290 -305q-8 -8 -8 -25z" />
<glyph unicode="&#xe2;" horiz-adv-x="1017" d="M65 264q0 -139 96.5 -214t257.5 -75q232 0 340 234v-168q0 -21 14.5 -32.5t36.5 -11.5q25 0 45 13.5t20 35.5v642q0 164 -97 244.5t-275 80.5q-228 0 -374 -99q-12 -9 -12 -26t13.5 -31t30.5 -14q11 0 21 7q85 43 153 62.5t168 19.5q118 0 189 -57t71 -174v-142 q-170 0 -283.5 -8.5t-197.5 -27.5t-129.5 -53.5t-66.5 -83.5t-21 -122zM175 270q0 90 48.5 135t172 64t368.5 19v-37q0 -172 -97.5 -283.5t-229.5 -111.5q-262 0 -262 214zM204 1190q0 -20 12.5 -33t32.5 -13q32 0 50 28l181 243l181 -243q24 -27 50 -27q20 0 33 12.5 t13 32.5q0 17 -14 40l-187 274q-35 45 -77 45q-47 0 -74 -45l-188 -273q-11 -16 -13 -41z" />
<glyph unicode="&#xe3;" horiz-adv-x="1017" d="M65 264q0 -139 96.5 -214t257.5 -75q232 0 340 234v-168q0 -21 14.5 -32.5t36.5 -11.5q25 0 45 13.5t20 35.5v642q0 164 -97 244.5t-275 80.5q-228 0 -374 -99q-12 -9 -12 -26t13.5 -31t30.5 -14q11 0 21 7q85 43 153 62.5t168 19.5q118 0 189 -57t71 -174v-142 q-170 0 -283.5 -8.5t-197.5 -27.5t-129.5 -53.5t-66.5 -83.5t-21 -122zM175 270q0 90 48.5 135t172 64t368.5 19v-37q0 -172 -97.5 -283.5t-229.5 -111.5q-262 0 -262 214zM202 1144q0 -12 8.5 -19t21.5 -7q24 0 47 25q30 33 77 33q35 0 111.5 -29t109.5 -29q108 0 163 108 q1 -2 8.5 -2t15.5 3q2 23 -9.5 36t-33.5 13h-2l-2 1q-12 0 -53 -30.5t-65 -30.5q-30 0 -107.5 27t-120.5 27q-108 0 -164 -105q-5 -12 -5 -21z" />
<glyph unicode="&#xe4;" horiz-adv-x="1017" d="M65 264q0 -139 96.5 -214t257.5 -75q232 0 340 234v-168q0 -21 14.5 -32.5t36.5 -11.5q25 0 45 13.5t20 35.5v642q0 164 -97 244.5t-275 80.5q-228 0 -374 -99q-12 -9 -12 -26t13.5 -31t30.5 -14q11 0 21 7q85 43 153 62.5t168 19.5q118 0 189 -57t71 -174v-142 q-170 0 -283.5 -8.5t-197.5 -27.5t-129.5 -53.5t-66.5 -83.5t-21 -122zM175 270q0 90 48.5 135t172 64t368.5 19v-37q0 -172 -97.5 -283.5t-229.5 -111.5q-262 0 -262 214zM216 1248q0 -32 22.5 -56.5t66.5 -24.5q45 0 68 24.5t23 56.5q0 31 -23 54t-68 23q-43 0 -66 -23 t-23 -54zM568 1248q0 -32 23.5 -56.5t67.5 -24.5q43 0 66 24.5t23 56.5q0 31 -22.5 54t-66.5 23t-67.5 -23t-23.5 -54z" />
<glyph unicode="&#xe5;" horiz-adv-x="1017" d="M65 264q0 -139 96.5 -214t257.5 -75q232 0 340 234v-168q0 -21 14.5 -32.5t36.5 -11.5q25 0 45 13.5t20 35.5v642q0 164 -97 244.5t-275 80.5q-228 0 -374 -99q-12 -9 -12 -26t13.5 -31t30.5 -14q11 0 21 7q85 43 153 62.5t168 19.5q118 0 189 -57t71 -174v-142 q-170 0 -283.5 -8.5t-197.5 -27.5t-129.5 -53.5t-66.5 -83.5t-21 -122zM175 270q0 90 48.5 135t172 64t368.5 19v-37q0 -172 -97.5 -283.5t-229.5 -111.5q-262 0 -262 214zM304 1306q0 -82 47 -127t133 -45q85 0 132 45t47 127q0 81 -47 125.5t-132 44.5q-86 0 -133 -44.5 t-47 -125.5zM371 1306q0 51 29.5 79.5t83.5 28.5t83.5 -28.5t29.5 -79.5t-29.5 -80t-83.5 -29t-83.5 29t-29.5 80z" />
<glyph unicode="&#xe6;" horiz-adv-x="1678" d="M75 277q0 -141 97 -224t243 -83q71 0 143 22t142.5 78.5t107.5 139.5q48 -112 131.5 -176t203.5 -64q88 0 179 30.5t148.5 75t57.5 84.5q0 18 -12 29.5t-31 11.5q-22 0 -44 -18q-48 -44 -119.5 -76t-139.5 -32q-64 0 -116 20.5t-87 56t-59 85.5t-35 107t-12 123h634 q30 0 44 16.5t14 40.5q-4 106 -28.5 192.5t-71.5 155t-124.5 106.5t-179.5 38q-213 0 -331 -190q-71 190 -329 190q-206 0 -353 -116q-22 -19 -22 -44q0 -21 15.5 -36t35.5 -15q17 0 38 14q50 33 80.5 49t84.5 29.5t121 13.5q117 0 181.5 -49t64.5 -165v-91q-78 2 -120 4 q-552 0 -552 -333zM203 275q0 53 20 92.5t57.5 62.5t79.5 37t98.5 19t101.5 7t101 2.5t85 2.5v-103q-7 -153 -94 -235t-220 -84q-100 2 -164.5 52.5t-64.5 146.5zM878 574q7 90 39 164t96 123t150 49q128 0 197 -92.5t80 -243.5h-562z" />
<glyph unicode="&#xe7;" horiz-adv-x="930" d="M90 493q0 -233 117 -377t327 -144q188 0 301 86q31 23 31 46q0 15 -12.5 25.5t-28.5 10.5q-13 0 -24 -7q-114 -77 -259 -77q-77 0 -137.5 28.5t-97 73t-60.5 103.5t-33 113.5t-9 109.5q0 214 106 331.5t262 117.5q129 0 227 -76q17 -16 37 -16q15 0 24.5 8.5t9.5 23.5 q0 22 -21 44q-44 44 -118.5 70t-152.5 26q-223 0 -356 -145t-133 -375zM318 -292q0 -27 71.5 -49t156.5 -22q66 0 118 36.5t52 101.5q0 138 -185 138h-6h-14l29 111h-43l-42 -133q-1 -4 -1 -11q0 -26 28 -26h7q48 0 82 -18.5t34 -56.5q0 -43 -20 -63.5t-71 -20.5 q-74 0 -162 35q-8 4 -15 4q-8 0 -13.5 -8t-5.5 -18z" />
<glyph unicode="&#xe8;" horiz-adv-x="1126" d="M102 486q0 -115 38.5 -212.5t103 -162t149.5 -100.5t178 -36q80 0 148 15t117 42t79 50t60 54q21 21 21 44q0 16 -10 26t-26 10q-19 0 -39 -17q-75 -65 -152.5 -100.5t-192.5 -35.5q-69 2 -132 28t-114 75t-81 126.5t-30 173.5v16h736q30 0 47 11.5t17 28.5 q-21 491 -443 491q-145 0 -254.5 -73.5t-164.5 -192t-55 -261.5zM218 1446q0 -20 19 -36l331 -246q16 -11 31 -11q28 0 28 28q0 17 -8 26l-293 307q-11 8 -26 8h-6q-28 0 -52 -24.5t-24 -51.5zM224 558q5 75 31 141.5t70.5 119t112.5 83t150 30.5q156 0 236.5 -102.5 t89.5 -271.5h-690z" />
<glyph unicode="&#xe9;" horiz-adv-x="1126" d="M102 486q0 -115 38.5 -212.5t103 -162t149.5 -100.5t178 -36q80 0 148 15t117 42t79 50t60 54q21 21 21 44q0 16 -10 26t-26 10q-19 0 -39 -17q-75 -65 -152.5 -100.5t-192.5 -35.5q-69 2 -132 28t-114 75t-81 126.5t-30 173.5v16h736q30 0 47 11.5t17 28.5 q-21 491 -443 491q-145 0 -254.5 -73.5t-164.5 -192t-55 -261.5zM224 558q5 75 31 141.5t70.5 119t112.5 83t150 30.5q156 0 236.5 -102.5t89.5 -271.5h-690zM510 1195q0 -30 27 -30q13 0 37 16l330 246q15 10 15 33q0 26 -23.5 50.5t-52.5 24.5q-23 0 -35 -10l-290 -305 q-8 -8 -8 -25z" />
<glyph unicode="&#xea;" horiz-adv-x="1126" d="M102 486q0 -115 38.5 -212.5t103 -162t149.5 -100.5t178 -36q80 0 148 15t117 42t79 50t60 54q21 21 21 44q0 16 -10 26t-26 10q-19 0 -39 -17q-75 -65 -152.5 -100.5t-192.5 -35.5q-69 2 -132 28t-114 75t-81 126.5t-30 173.5v16h736q30 0 47 11.5t17 28.5 q-21 491 -443 491q-145 0 -254.5 -73.5t-164.5 -192t-55 -261.5zM224 558q5 75 31 141.5t70.5 119t112.5 83t150 30.5q156 0 236.5 -102.5t89.5 -271.5h-690zM294 1203q0 -20 12.5 -33t32.5 -13q32 0 50 28l181 243l181 -243q24 -27 50 -27q20 0 33 12.5t13 32.5 q0 17 -14 40l-187 274q-35 45 -77 45q-47 0 -74 -45l-188 -273q-11 -16 -13 -41z" />
<glyph unicode="&#xeb;" horiz-adv-x="1126" d="M102 486q0 -115 38.5 -212.5t103 -162t149.5 -100.5t178 -36q80 0 148 15t117 42t79 50t60 54q21 21 21 44q0 16 -10 26t-26 10q-19 0 -39 -17q-75 -65 -152.5 -100.5t-192.5 -35.5q-69 2 -132 28t-114 75t-81 126.5t-30 173.5v16h736q30 0 47 11.5t17 28.5 q-21 491 -443 491q-145 0 -254.5 -73.5t-164.5 -192t-55 -261.5zM224 558q5 75 31 141.5t70.5 119t112.5 83t150 30.5q156 0 236.5 -102.5t89.5 -271.5h-690zM306 1261q0 -32 22.5 -56.5t66.5 -24.5q45 0 68 24.5t23 56.5q0 31 -23 54t-68 23q-43 0 -66 -23t-23 -54z M658 1261q0 -32 23.5 -56.5t67.5 -24.5q43 0 66 24.5t23 56.5q0 31 -22.5 54t-66.5 23t-67.5 -23t-23.5 -54z" />
<glyph unicode="&#xec;" horiz-adv-x="450" d="M-130 1436q0 -20 19 -36l331 -246q16 -11 31 -11q28 0 28 28q0 17 -8 26l-293 307q-11 8 -26 8h-6q-28 0 -52 -24.5t-24 -51.5zM168 60q0 -30 16 -45t40 -15q23 0 41 16t18 44v867q0 27 -17 42t-39 15q-23 0 -41 -15t-18 -42v-867z" />
<glyph unicode="&#xed;" horiz-adv-x="450" d="M162 1185q0 -30 27 -30q13 0 37 16l330 246q15 10 15 33q0 26 -23.5 50.5t-52.5 24.5q-23 0 -35 -10l-290 -305q-8 -8 -8 -25zM168 60q0 -30 16 -45t40 -15q23 0 41 16t18 44v867q0 27 -17 42t-39 15q-23 0 -41 -15t-18 -42v-867z" />
<glyph unicode="&#xee;" horiz-adv-x="450" d="M-54 1193q0 -20 12.5 -33t32.5 -13q32 0 50 28l181 243l181 -243q24 -27 50 -27q20 0 33 12.5t13 32.5q0 17 -14 40l-187 274q-35 45 -77 45q-47 0 -74 -45l-188 -273q-11 -16 -13 -41zM168 60q0 -30 16 -45t40 -15q23 0 41 16t18 44v867q0 27 -17 42t-39 15 q-23 0 -41 -15t-18 -42v-867z" />
<glyph unicode="&#xef;" horiz-adv-x="450" d="M-42 1251q0 -32 22.5 -56.5t66.5 -24.5q45 0 68 24.5t23 56.5q0 31 -23 54t-68 23q-43 0 -66 -23t-23 -54zM168 60q0 -30 16 -45t40 -15q23 0 41 16t18 44v867q0 27 -17 42t-39 15q-23 0 -41 -15t-18 -42v-867zM310 1251q0 -32 23.5 -56.5t67.5 -24.5q43 0 66 24.5 t23 56.5q0 31 -22.5 54t-66.5 23t-67.5 -23t-23.5 -54z" />
<glyph unicode="&#xf0;" horiz-adv-x="1132" d="M93 430q0 -130 52 -234.5t154 -166t237 -61.5q115 0 204 36t145 95.5t92 144t50 173.5t14 192q0 238 -45 439h136q27 0 43.5 18t16.5 41q0 24 -15.5 41t-44.5 17h-169q-15 44 -39.5 97.5t-58 111.5t-73 96.5t-74.5 38.5q-26 0 -45.5 -17t-19.5 -40t22 -44 q83 -91 144 -243h-171q-29 0 -45 -17.5t-16 -41.5q0 -23 16 -40.5t45 -17.5h211q8 -40 14.5 -79.5t10 -66t6.5 -68.5t4 -57.5t3.5 -63.5t2.5 -58q-44 109 -144.5 167t-228.5 58q-205 0 -319.5 -125.5t-114.5 -324.5zM230 420q0 71 17.5 133t52 113t94 80.5t136.5 29.5 q165 0 257 -102.5t92 -262.5q0 -132 -92.5 -230.5t-230.5 -98.5q-154 0 -240 94t-86 244z" />
<glyph unicode="&#xf1;" d="M171 52q0 -25 16.5 -38.5t39.5 -13.5t41.5 14.5t18.5 37.5v575q15 149 97.5 227t212.5 78q137 0 200 -79t63 -231v-570q0 -25 17 -38.5t41 -13.5q23 0 40 13.5t17 38.5v568q0 204 -89.5 298.5t-269.5 94.5q-116 0 -207.5 -58t-121.5 -163v138q0 25 -17.5 39t-39.5 14 q-24 0 -41.5 -14t-17.5 -40v-877zM326 1147q0 -12 8.5 -19t21.5 -7q24 0 47 25q30 33 77 33q35 0 111.5 -29t109.5 -29q108 0 163 108q1 -2 8.5 -2t15.5 3q2 23 -9.5 36t-33.5 13h-2l-2 1q-12 0 -53 -30.5t-65 -30.5q-30 0 -107.5 27t-120.5 27q-108 0 -164 -105 q-5 -12 -5 -21z" />
<glyph unicode="&#xf2;" horiz-adv-x="1108" d="M90 494q0 -126 38.5 -226.5t105.5 -163.5t152.5 -96t183.5 -33t184 33t153 95.5t105.5 163t38.5 227.5q0 123 -38 223t-104 164t-152.5 98t-186.5 34q-99 0 -185 -33.5t-152.5 -97t-104.5 -163.5t-38 -225zM198 1449q0 -20 19 -36l331 -246q16 -11 31 -11q28 0 28 28 q0 17 -8 26l-293 307q-11 8 -26 8h-6q-28 0 -52 -24.5t-24 -51.5zM207 494q0 198 97 318t266 120t266.5 -121t97.5 -317q0 -197 -96 -317.5t-270 -120.5q-168 0 -264.5 121.5t-96.5 316.5z" />
<glyph unicode="&#xf3;" horiz-adv-x="1108" d="M90 494q0 -126 38.5 -226.5t105.5 -163.5t152.5 -96t183.5 -33t184 33t153 95.5t105.5 163t38.5 227.5q0 123 -38 223t-104 164t-152.5 98t-186.5 34q-99 0 -185 -33.5t-152.5 -97t-104.5 -163.5t-38 -225zM207 494q0 198 97 318t266 120t266.5 -121t97.5 -317 q0 -197 -96 -317.5t-270 -120.5q-168 0 -264.5 121.5t-96.5 316.5zM490 1198q0 -30 27 -30q13 0 37 16l330 246q15 10 15 33q0 26 -23.5 50.5t-52.5 24.5q-23 0 -35 -10l-290 -305q-8 -8 -8 -25z" />
<glyph unicode="&#xf4;" horiz-adv-x="1108" d="M90 494q0 -126 38.5 -226.5t105.5 -163.5t152.5 -96t183.5 -33t184 33t153 95.5t105.5 163t38.5 227.5q0 123 -38 223t-104 164t-152.5 98t-186.5 34q-99 0 -185 -33.5t-152.5 -97t-104.5 -163.5t-38 -225zM207 494q0 198 97 318t266 120t266.5 -121t97.5 -317 q0 -197 -96 -317.5t-270 -120.5q-168 0 -264.5 121.5t-96.5 316.5zM274 1206q0 -20 12.5 -33t32.5 -13q32 0 50 28l181 243l181 -243q24 -27 50 -27q20 0 33 12.5t13 32.5q0 17 -14 40l-187 274q-35 45 -77 45q-47 0 -74 -45l-188 -273q-11 -16 -13 -41z" />
<glyph unicode="&#xf5;" horiz-adv-x="1108" d="M90 494q0 -126 38.5 -226.5t105.5 -163.5t152.5 -96t183.5 -33t184 33t153 95.5t105.5 163t38.5 227.5q0 123 -38 223t-104 164t-152.5 98t-186.5 34q-99 0 -185 -33.5t-152.5 -97t-104.5 -163.5t-38 -225zM207 494q0 198 97 318t266 120t266.5 -121t97.5 -317 q0 -197 -96 -317.5t-270 -120.5q-168 0 -264.5 121.5t-96.5 316.5zM272 1160q0 -12 8.5 -19t21.5 -7q24 0 47 25q30 33 77 33q35 0 111.5 -29t109.5 -29q108 0 163 108q1 -2 8.5 -2t15.5 3q2 23 -9.5 36t-33.5 13h-2l-2 1q-12 0 -53 -30.5t-65 -30.5q-30 0 -107.5 27 t-120.5 27q-108 0 -164 -105q-5 -12 -5 -21z" />
<glyph unicode="&#xf6;" horiz-adv-x="1108" d="M90 494q0 -126 38.5 -226.5t105.5 -163.5t152.5 -96t183.5 -33t184 33t153 95.5t105.5 163t38.5 227.5q0 123 -38 223t-104 164t-152.5 98t-186.5 34q-99 0 -185 -33.5t-152.5 -97t-104.5 -163.5t-38 -225zM207 494q0 198 97 318t266 120t266.5 -121t97.5 -317 q0 -197 -96 -317.5t-270 -120.5q-168 0 -264.5 121.5t-96.5 316.5zM286 1264q0 -32 22.5 -56.5t66.5 -24.5q45 0 68 24.5t23 56.5q0 31 -23 54t-68 23q-43 0 -66 -23t-23 -54zM638 1264q0 -32 23.5 -56.5t67.5 -24.5q43 0 66 24.5t23 56.5q0 31 -22.5 54t-66.5 23t-67.5 -23 t-23.5 -54z" />
<glyph unicode="&#xf7;" horiz-adv-x="1355" d="M165 513q0 -24 14.5 -41t40.5 -17h921q26 0 40.5 17t14.5 41t-14.5 42t-40.5 18h-921q-26 0 -40.5 -18t-14.5 -42zM587 83q0 -33 24 -57t68 -24t67 23.5t23 57.5q0 31 -23 55t-67 24q-43 0 -67.5 -24.5t-24.5 -54.5zM587 948q0 -33 24 -57t68 -24t67 23.5t23 57.5 q0 32 -23 55.5t-67 23.5q-43 0 -67.5 -23.5t-24.5 -55.5z" />
<glyph unicode="&#xf8;" horiz-adv-x="1108" d="M90 494q0 -143 48.5 -250t134.5 -173l-74 -126q-2 -3 -2 -19q0 -20 15 -33t36 -13q27 0 43 28l66 112q20 -9 40 -16.5t41 -12.5t43 -8.5t44 -5.5t45 -2q98 0 184 33t153 95.5t105.5 163t38.5 227.5q0 92 -21 170.5t-58.5 138t-90.5 104.5l87 148q1 1 1 3t-0.5 3.5t-0.5 4 v4.5q0 13 -7 23.5t-18.5 16.5t-25.5 6q-9 0 -17.5 -3t-16.5 -9.5t-13 -16.5l-73 -125q-103 51 -227 51q-99 0 -185 -33.5t-152.5 -97t-104.5 -163.5t-38 -225zM207 494q0 198 97 318t266 120q51 0 97 -12t84 -35l-428 -729q-38 39 -63.5 91t-39 114.5t-13.5 132.5zM402 95 l427 724q105 -120 105 -325q0 -96 -24 -176t-69.5 -138.5t-115 -91t-157.5 -32.5q-92 0 -166 39z" />
<glyph unicode="&#xf9;" d="M157 368q0 -393 361 -393q116 0 206.5 58t120.5 163v-143q0 -25 17.5 -39t39.5 -14q24 0 41.5 14t17.5 40v879q0 25 -16.5 38.5t-39.5 13.5t-41.5 -14.5t-18.5 -37.5v-572q-15 -148 -98.5 -226.5t-213.5 -78.5q-136 0 -198.5 79t-62.5 231v567q0 25 -17 38.5t-41 13.5 q-23 0 -40 -13.5t-17 -38.5v-565zM200 1449q0 -20 19 -36l331 -246q16 -11 31 -11q28 0 28 28q0 17 -8 26l-293 307q-11 8 -26 8h-6q-28 0 -52 -24.5t-24 -51.5z" />
<glyph unicode="&#xfa;" d="M157 368q0 -393 361 -393q116 0 206.5 58t120.5 163v-143q0 -25 17.5 -39t39.5 -14q24 0 41.5 14t17.5 40v879q0 25 -16.5 38.5t-39.5 13.5t-41.5 -14.5t-18.5 -37.5v-572q-15 -148 -98.5 -226.5t-213.5 -78.5q-136 0 -198.5 79t-62.5 231v567q0 25 -17 38.5t-41 13.5 q-23 0 -40 -13.5t-17 -38.5v-565zM492 1198q0 -30 27 -30q13 0 37 16l330 246q15 10 15 33q0 26 -23.5 50.5t-52.5 24.5q-23 0 -35 -10l-290 -305q-8 -8 -8 -25z" />
<glyph unicode="&#xfb;" d="M157 368q0 -393 361 -393q116 0 206.5 58t120.5 163v-143q0 -25 17.5 -39t39.5 -14q24 0 41.5 14t17.5 40v879q0 25 -16.5 38.5t-39.5 13.5t-41.5 -14.5t-18.5 -37.5v-572q-15 -148 -98.5 -226.5t-213.5 -78.5q-136 0 -198.5 79t-62.5 231v567q0 25 -17 38.5t-41 13.5 q-23 0 -40 -13.5t-17 -38.5v-565zM276 1206q0 -20 12.5 -33t32.5 -13q32 0 50 28l181 243l181 -243q24 -27 50 -27q20 0 33 12.5t13 32.5q0 17 -14 40l-187 274q-35 45 -77 45q-47 0 -74 -45l-188 -273q-11 -16 -13 -41z" />
<glyph unicode="&#xfc;" d="M157 368q0 -393 361 -393q116 0 206.5 58t120.5 163v-143q0 -25 17.5 -39t39.5 -14q24 0 41.5 14t17.5 40v879q0 25 -16.5 38.5t-39.5 13.5t-41.5 -14.5t-18.5 -37.5v-572q-15 -148 -98.5 -226.5t-213.5 -78.5q-136 0 -198.5 79t-62.5 231v567q0 25 -17 38.5t-41 13.5 q-23 0 -40 -13.5t-17 -38.5v-565zM288 1264q0 -32 22.5 -56.5t66.5 -24.5q45 0 68 24.5t23 56.5q0 31 -23 54t-68 23q-43 0 -66 -23t-23 -54zM640 1264q0 -32 23.5 -56.5t67.5 -24.5q43 0 66 24.5t23 56.5q0 31 -22.5 54t-66.5 23t-67.5 -23t-23.5 -54z" />
<glyph unicode="&#xfd;" horiz-adv-x="1005" d="M94 932q0 -15 5 -26l389 -869l-148 -336q-7 -15 -7 -29q0 -20 13 -31t33 -11q49 0 71 52l545 1228q2 10 2 14q0 23 -18.5 40t-40.5 17q-35 0 -50 -37l-339 -768l-349 781q-15 35 -48 35q-23 0 -40.5 -17.5t-17.5 -42.5zM493 1186q0 -30 27 -30q13 0 37 16l330 246 q15 10 15 33q0 26 -23.5 50.5t-52.5 24.5q-23 0 -35 -10l-290 -305q-8 -8 -8 -25z" />
<glyph unicode="&#xfe;" horiz-adv-x="1130" d="M145 -283q0 -29 16 -45t38 -16t39 16.5t17 44.5v449q131 -196 369 -196q87 0 158.5 31.5t118.5 83t78.5 120.5t45.5 142t14 149q0 79 -13.5 152t-45.5 141t-79.5 117.5t-120.5 79.5t-163 30q-107 0 -205.5 -49t-151.5 -137v537q0 24 -17 37.5t-40 13.5t-40.5 -14 t-17.5 -37v-1650zM260 514q0 78 19 147t58 126t105.5 90.5t153.5 33.5q68 0 123.5 -24t91 -63.5t59.5 -92.5t34 -109t10 -115q0 -60 -8 -116t-29 -115t-53.5 -102.5t-86.5 -71t-123 -27.5q-79 0 -140.5 24t-101 65t-65.5 98t-36.5 119t-10.5 133z" />
<glyph unicode="&#xff;" horiz-adv-x="1005" d="M94 932q0 -15 5 -26l389 -869l-148 -336q-7 -15 -7 -29q0 -20 13 -31t33 -11q49 0 71 52l545 1228q2 10 2 14q0 23 -18.5 40t-40.5 17q-35 0 -50 -37l-339 -768l-349 781q-15 35 -48 35q-23 0 -40.5 -17.5t-17.5 -42.5zM289 1252q0 -32 22.5 -56.5t66.5 -24.5 q45 0 68 24.5t23 56.5q0 31 -23 54t-68 23q-43 0 -66 -23t-23 -54zM641 1252q0 -32 23.5 -56.5t67.5 -24.5q43 0 66 24.5t23 56.5q0 31 -22.5 54t-66.5 23t-67.5 -23t-23.5 -54z" />
<glyph unicode="&#x100;" horiz-adv-x="1392" d="M58 54q0 -25 18 -41t42 -16q42 0 60 44l144 361h734l145 -361q18 -44 60 -44q24 0 42 16t18 41q0 16 -7 31l-496 1215q-30 74 -57 98t-72 24t-72 -24t-56 -98l-496 -1215q-7 -15 -7 -31zM360 496l329 822l330 -822h-659zM406 1669q0 -47 61 -47h457q58 0 58 47t-58 47 h-457q-61 0 -61 -47z" />
<glyph unicode="&#x101;" horiz-adv-x="1017" d="M65 264q0 -139 96.5 -214t257.5 -75q232 0 340 234v-168q0 -21 14.5 -32.5t36.5 -11.5q25 0 45 13.5t20 35.5v642q0 164 -97 244.5t-275 80.5q-228 0 -374 -99q-12 -9 -12 -26t13.5 -31t30.5 -14q11 0 21 7q85 43 153 62.5t168 19.5q118 0 189 -57t71 -174v-142 q-170 0 -283.5 -8.5t-197.5 -27.5t-129.5 -53.5t-66.5 -83.5t-21 -122zM175 270q0 90 48.5 135t172 64t368.5 19v-37q0 -172 -97.5 -283.5t-229.5 -111.5q-262 0 -262 214zM195 1219q0 -47 61 -47h457q58 0 58 47t-58 47h-457q-61 0 -61 -47z" />
<glyph unicode="&#x102;" horiz-adv-x="1392" d="M58 54q0 -25 18 -41t42 -16q42 0 60 44l144 361h734l145 -361q18 -44 60 -44q24 0 42 16t18 41q0 16 -7 31l-496 1215q-30 74 -57 98t-72 24t-72 -24t-56 -98l-496 -1215q-7 -15 -7 -31zM360 496l329 822l330 -822h-659zM443 1825q0 -9 4 -17q31 -68 95 -105t154 -37 t154 37t95 105q4 8 4 15q0 35 -39 35q-17 0 -36 -17q-37 -48 -74.5 -66.5t-103.5 -18.5q-68 0 -106 18.5t-72 66.5q-15 17 -36 17q-17 0 -28 -9t-11 -24z" />
<glyph unicode="&#x103;" horiz-adv-x="1017" d="M65 264q0 -139 96.5 -214t257.5 -75q232 0 340 234v-168q0 -21 14.5 -32.5t36.5 -11.5q25 0 45 13.5t20 35.5v642q0 164 -97 244.5t-275 80.5q-228 0 -374 -99q-12 -9 -12 -26t13.5 -31t30.5 -14q11 0 21 7q85 43 153 62.5t168 19.5q118 0 189 -57t71 -174v-142 q-170 0 -283.5 -8.5t-197.5 -27.5t-129.5 -53.5t-66.5 -83.5t-21 -122zM175 270q0 90 48.5 135t172 64t368.5 19v-37q0 -172 -97.5 -283.5t-229.5 -111.5q-262 0 -262 214zM232 1375q0 -9 4 -17q31 -68 95 -105t154 -37t154 37t95 105q4 8 4 15q0 35 -39 35q-17 0 -36 -17 q-37 -48 -74.5 -66.5t-103.5 -18.5q-68 0 -106 18.5t-72 66.5q-15 17 -36 17q-17 0 -28 -9t-11 -24z" />
<glyph unicode="&#x104;" horiz-adv-x="1392" d="M58 54q0 -25 18 -41t42 -16q42 0 60 44l144 361h734l145 -361q18 -44 60 -44q24 0 42 16t18 41q0 16 -7 31l-496 1215q-30 74 -57 98t-72 24t-72 -24t-56 -98l-496 -1215q-7 -15 -7 -31zM360 496l329 822l330 -822h-659zM1099 -268q0 -71 53 -110t147 -39q65 0 136 17v59 q-215 0 -215 146q0 82 71 214h-48q-144 -168 -144 -287z" />
<glyph unicode="&#x105;" horiz-adv-x="1017" d="M65 264q0 -139 96.5 -214t257.5 -75q232 0 340 234v-168q0 -21 14.5 -32.5t36.5 -11.5q25 0 45 13.5t20 35.5v642q0 164 -97 244.5t-275 80.5q-228 0 -374 -99q-12 -9 -12 -26t13.5 -31t30.5 -14q11 0 21 7q85 43 153 62.5t168 19.5q118 0 189 -57t71 -174v-142 q-170 0 -283.5 -8.5t-197.5 -27.5t-129.5 -53.5t-66.5 -83.5t-21 -122zM175 270q0 90 48.5 135t172 64t368.5 19v-37q0 -172 -97.5 -283.5t-229.5 -111.5q-262 0 -262 214zM632 -285q0 -71 53 -110t147 -39q65 0 136 17v59q-215 0 -215 146q0 82 71 214h-48 q-144 -168 -144 -287z" />
<glyph unicode="&#x106;" horiz-adv-x="1340" d="M139 693q0 -114 22.5 -216.5t72.5 -194.5t123.5 -159t182 -106t241.5 -39q201 0 360 107q46 31 46 62q0 18 -14.5 29.5t-33.5 11.5t-34 -11q-81 -50 -151 -74.5t-166 -24.5q-116 0 -208 38t-148.5 98.5t-94 143t-52 165t-14.5 170.5q0 87 15 170t53 166t95 144.5t148 100 t205 38.5q91 0 160 -14.5t89 -24.5t50 -29q18 -11 33 -11q18 0 28.5 13.5t10.5 31.5q0 24 -16 36q-3 4 -15 13.5t-42 24.5t-68.5 28t-99.5 22.5t-130 9.5q-133 0 -243 -42t-184 -112.5t-124.5 -164.5t-73.5 -194.5t-23 -205.5zM710 1632q0 -30 27 -30q13 0 37 16l330 246 q15 10 15 33q0 26 -23.5 50.5t-52.5 24.5q-23 0 -35 -10l-290 -305q-8 -8 -8 -25z" />
<glyph unicode="&#x107;" horiz-adv-x="930" d="M90 493q0 -233 117 -377t327 -144q188 0 301 86q31 23 31 46q0 15 -12.5 25.5t-28.5 10.5q-13 0 -24 -7q-114 -77 -259 -77q-77 0 -137.5 28.5t-97 73t-60.5 103.5t-33 113.5t-9 109.5q0 214 106 331.5t262 117.5q129 0 227 -76q17 -16 37 -16q15 0 24.5 8.5t9.5 23.5 q0 22 -21 44q-44 44 -118.5 70t-152.5 26q-223 0 -356 -145t-133 -375zM481 1187q0 -30 27 -30q13 0 37 16l330 246q15 10 15 33q0 26 -23.5 50.5t-52.5 24.5q-23 0 -35 -10l-290 -305q-8 -8 -8 -25z" />
<glyph unicode="&#x108;" horiz-adv-x="1340" d="M139 693q0 -114 22.5 -216.5t72.5 -194.5t123.5 -159t182 -106t241.5 -39q201 0 360 107q46 31 46 62q0 18 -14.5 29.5t-33.5 11.5t-34 -11q-81 -50 -151 -74.5t-166 -24.5q-116 0 -208 38t-148.5 98.5t-94 143t-52 165t-14.5 170.5q0 87 15 170t53 166t95 144.5t148 100 t205 38.5q91 0 160 -14.5t89 -24.5t50 -29q18 -11 33 -11q18 0 28.5 13.5t10.5 31.5q0 24 -16 36q-3 4 -15 13.5t-42 24.5t-68.5 28t-99.5 22.5t-130 9.5q-133 0 -243 -42t-184 -112.5t-124.5 -164.5t-73.5 -194.5t-23 -205.5zM494 1640q0 -20 12.5 -33t32.5 -13q32 0 50 28 l181 243l181 -243q24 -27 50 -27q20 0 33 12.5t13 32.5q0 17 -14 40l-187 274q-35 45 -77 45q-47 0 -74 -45l-188 -273q-11 -16 -13 -41z" />
<glyph unicode="&#x109;" horiz-adv-x="930" d="M90 493q0 -233 117 -377t327 -144q188 0 301 86q31 23 31 46q0 15 -12.5 25.5t-28.5 10.5q-13 0 -24 -7q-114 -77 -259 -77q-77 0 -137.5 28.5t-97 73t-60.5 103.5t-33 113.5t-9 109.5q0 214 106 331.5t262 117.5q129 0 227 -76q17 -16 37 -16q15 0 24.5 8.5t9.5 23.5 q0 22 -21 44q-44 44 -118.5 70t-152.5 26q-223 0 -356 -145t-133 -375zM265 1195q0 -20 12.5 -33t32.5 -13q32 0 50 28l181 243l181 -243q24 -27 50 -27q20 0 33 12.5t13 32.5q0 17 -14 40l-187 274q-35 45 -77 45q-47 0 -74 -45l-188 -273q-11 -16 -13 -41z" />
<glyph unicode="&#x10a;" horiz-adv-x="1340" d="M139 693q0 -114 22.5 -216.5t72.5 -194.5t123.5 -159t182 -106t241.5 -39q201 0 360 107q46 31 46 62q0 18 -14.5 29.5t-33.5 11.5t-34 -11q-81 -50 -151 -74.5t-166 -24.5q-116 0 -208 38t-148.5 98.5t-94 143t-52 165t-14.5 170.5q0 87 15 170t53 166t95 144.5t148 100 t205 38.5q91 0 160 -14.5t89 -24.5t50 -29q18 -11 33 -11q18 0 28.5 13.5t10.5 31.5q0 24 -16 36q-3 4 -15 13.5t-42 24.5t-68.5 28t-99.5 22.5t-130 9.5q-133 0 -243 -42t-184 -112.5t-124.5 -164.5t-73.5 -194.5t-23 -205.5zM682 1687q0 -33 23.5 -56t66.5 -23t66.5 23 t23.5 56q0 31 -24 55t-66 24q-43 0 -66.5 -24t-23.5 -55z" />
<glyph unicode="&#x10b;" horiz-adv-x="930" d="M90 493q0 -233 117 -377t327 -144q188 0 301 86q31 23 31 46q0 15 -12.5 25.5t-28.5 10.5q-13 0 -24 -7q-114 -77 -259 -77q-77 0 -137.5 28.5t-97 73t-60.5 103.5t-33 113.5t-9 109.5q0 214 106 331.5t262 117.5q129 0 227 -76q17 -16 37 -16q15 0 24.5 8.5t9.5 23.5 q0 22 -21 44q-44 44 -118.5 70t-152.5 26q-223 0 -356 -145t-133 -375zM453 1241q0 -33 23.5 -56t66.5 -23t66.5 23t23.5 56q0 31 -24 55t-66 24q-43 0 -66.5 -24t-23.5 -55z" />
<glyph unicode="&#x10c;" horiz-adv-x="1340" d="M139 693q0 -114 22.5 -216.5t72.5 -194.5t123.5 -159t182 -106t241.5 -39q201 0 360 107q46 31 46 62q0 18 -14.5 29.5t-33.5 11.5t-34 -11q-81 -50 -151 -74.5t-166 -24.5q-116 0 -208 38t-148.5 98.5t-94 143t-52 165t-14.5 170.5q0 87 15 170t53 166t95 144.5t148 100 t205 38.5q91 0 160 -14.5t89 -24.5t50 -29q18 -11 33 -11q18 0 28.5 13.5t10.5 31.5q0 24 -16 36q-3 4 -15 13.5t-42 24.5t-68.5 28t-99.5 22.5t-130 9.5q-133 0 -243 -42t-184 -112.5t-124.5 -164.5t-73.5 -194.5t-23 -205.5zM486 1869q0 -21 12 -40l188 -273 q27 -45 76 -45q43 0 75 45l187 274q13 17 13 40q0 20 -14 34t-33 14q-26 0 -48 -28l-180 -243l-182 243q-21 28 -47 28q-20 0 -33.5 -14.5t-13.5 -34.5z" />
<glyph unicode="&#x10d;" horiz-adv-x="930" d="M90 493q0 -233 117 -377t327 -144q188 0 301 86q31 23 31 46q0 15 -12.5 25.5t-28.5 10.5q-13 0 -24 -7q-114 -77 -259 -77q-77 0 -137.5 28.5t-97 73t-60.5 103.5t-33 113.5t-9 109.5q0 214 106 331.5t262 117.5q129 0 227 -76q17 -16 37 -16q15 0 24.5 8.5t9.5 23.5 q0 22 -21 44q-44 44 -118.5 70t-152.5 26q-223 0 -356 -145t-133 -375zM257 1424q0 -21 12 -40l188 -273q27 -45 76 -45q43 0 75 45l187 274q13 17 13 40q0 20 -14 34t-33 14q-26 0 -48 -28l-180 -243l-182 243q-21 28 -47 28q-20 0 -33.5 -14.5t-13.5 -34.5z" />
<glyph unicode="&#x10e;" horiz-adv-x="1486" d="M181 66q0 -24 18.5 -42t44.5 -18h330q368 0 565 180t197 529q0 350 -195 530t-560 180h-337q-26 0 -44.5 -17.5t-18.5 -41.5v-1300zM306 105v1222h229q346 0 508.5 -142.5t162.5 -469.5q0 -150 -34 -260.5t-107.5 -190t-196 -119.5t-293.5 -40h-269zM497 1869 q0 -21 12 -40l188 -273q27 -45 76 -45q43 0 75 45l187 274q13 17 13 40q0 20 -14 34t-33 14q-26 0 -48 -28l-180 -243l-182 243q-21 28 -47 28q-20 0 -33.5 -14.5t-13.5 -34.5z" />
<glyph unicode="&#x10f;" horiz-adv-x="1151" d="M90 499q0 -85 15.5 -161.5t49 -143.5t83 -115t120.5 -76t158 -28q117 0 214.5 58t144.5 166v-145q0 -10 2.5 -19t17.5 -19.5t41 -10.5q24 0 39.5 12t15.5 36v1312q0 24 -17.5 38t-40.5 14t-40.5 -14t-17.5 -38v-576q-38 103 -133 163.5t-209 60.5q-107 0 -193.5 -44 t-140 -117t-81.5 -163.5t-28 -189.5zM205 489q0 82 18 157t55 141t103.5 105.5t153.5 39.5t154 -37t106.5 -99.5t59 -137.5t19.5 -158q0 -69 -10.5 -131t-36.5 -120t-66 -100t-102.5 -67.5t-142.5 -25.5q-85 2 -148.5 41.5t-97.5 104.5t-49.5 136.5t-15.5 150.5zM1152 1017 q0 -30 25 -31q35 1 49 43l116 369q3 12 3 18q0 35 -37 38h-24q-64 -2 -73 -56l-58 -369q-1 -3 -1 -12z" />
<glyph unicode="&#x110;" horiz-adv-x="1486" d="M-1 718q0 -20 17 -32t46 -12h467q25 0 40 12t15 32q0 22 -15 34.5t-40 12.5h-474q-26 0 -41 -12.5t-15 -34.5zM181 66q0 -24 18.5 -42t44.5 -18h330q368 0 565 180t197 529q0 350 -195 530t-560 180h-337q-26 0 -44.5 -17.5t-18.5 -41.5v-1300zM306 105v1222h229 q346 0 508.5 -142.5t162.5 -469.5q0 -150 -34 -260.5t-107.5 -190t-196 -119.5t-293.5 -40h-269z" />
<glyph unicode="&#x111;" horiz-adv-x="1151" d="M90 499q0 -85 15.5 -161.5t49 -143.5t83 -115t120.5 -76t158 -28q117 0 214.5 58t144.5 166v-145q0 -10 2.5 -19t17.5 -19.5t41 -10.5q24 0 39.5 12t15.5 36v1312q0 24 -17.5 38t-40.5 14t-40.5 -14t-17.5 -38v-576q-38 103 -133 163.5t-209 60.5q-107 0 -193.5 -44 t-140 -117t-81.5 -163.5t-28 -189.5zM205 489q0 82 18 157t55 141t103.5 105.5t153.5 39.5t154 -37t106.5 -99.5t59 -137.5t19.5 -158q0 -69 -10.5 -131t-36.5 -120t-66 -100t-102.5 -67.5t-142.5 -25.5q-85 2 -148.5 41.5t-97.5 104.5t-49.5 136.5t-15.5 150.5zM565 1175 q0 -47 61 -47h457q58 0 58 47t-58 47h-457q-61 0 -61 -47z" />
<glyph unicode="&#x112;" horiz-adv-x="1230" d="M181 60q0 -22 20 -41t42 -19h783q28 0 42.5 14t14.5 37q0 22 -14.5 35t-42.5 13h-720v585h660q28 0 43 13.5t15 35.5q0 48 -58 48h-660v539h688q28 0 43 13.5t15 36.5q0 22 -15 35.5t-43 13.5h-756q-24 0 -40.5 -19t-16.5 -41v-1299zM350 1669q0 -47 61 -47h457 q58 0 58 47t-58 47h-457q-61 0 -61 -47z" />
<glyph unicode="&#x113;" horiz-adv-x="1126" d="M102 486q0 -115 38.5 -212.5t103 -162t149.5 -100.5t178 -36q80 0 148 15t117 42t79 50t60 54q21 21 21 44q0 16 -10 26t-26 10q-19 0 -39 -17q-75 -65 -152.5 -100.5t-192.5 -35.5q-69 2 -132 28t-114 75t-81 126.5t-30 173.5v16h736q30 0 47 11.5t17 28.5 q-21 491 -443 491q-145 0 -254.5 -73.5t-164.5 -192t-55 -261.5zM224 558q5 75 31 141.5t70.5 119t112.5 83t150 30.5q156 0 236.5 -102.5t89.5 -271.5h-690zM285 1232q0 -47 61 -47h457q58 0 58 47t-58 47h-457q-61 0 -61 -47z" />
<glyph unicode="&#x114;" horiz-adv-x="1230" d="M181 60q0 -22 20 -41t42 -19h783q28 0 42.5 14t14.5 37q0 22 -14.5 35t-42.5 13h-720v585h660q28 0 43 13.5t15 35.5q0 48 -58 48h-660v539h688q28 0 43 13.5t15 36.5q0 22 -15 35.5t-43 13.5h-756q-24 0 -40.5 -19t-16.5 -41v-1299zM386 1825q0 -9 4 -17q31 -68 95 -105 t154 -37t154 37t95 105q4 8 4 15q0 35 -39 35q-17 0 -36 -17q-37 -48 -74.5 -66.5t-103.5 -18.5q-68 0 -106 18.5t-72 66.5q-15 17 -36 17q-17 0 -28 -9t-11 -24z" />
<glyph unicode="&#x115;" horiz-adv-x="1126" d="M102 486q0 -115 38.5 -212.5t103 -162t149.5 -100.5t178 -36q80 0 148 15t117 42t79 50t60 54q21 21 21 44q0 16 -10 26t-26 10q-19 0 -39 -17q-75 -65 -152.5 -100.5t-192.5 -35.5q-69 2 -132 28t-114 75t-81 126.5t-30 173.5v16h736q30 0 47 11.5t17 28.5 q-21 491 -443 491q-145 0 -254.5 -73.5t-164.5 -192t-55 -261.5zM224 558q5 75 31 141.5t70.5 119t112.5 83t150 30.5q156 0 236.5 -102.5t89.5 -271.5h-690zM322 1388q0 -9 4 -17q31 -68 95 -105t154 -37t154 37t95 105q4 8 4 15q0 35 -39 35q-17 0 -36 -17 q-37 -48 -74.5 -66.5t-103.5 -18.5q-68 0 -106 18.5t-72 66.5q-15 17 -36 17q-17 0 -28 -9t-11 -24z" />
<glyph unicode="&#x116;" horiz-adv-x="1230" d="M181 60q0 -22 20 -41t42 -19h783q28 0 42.5 14t14.5 37q0 22 -14.5 35t-42.5 13h-720v585h660q28 0 43 13.5t15 35.5q0 48 -58 48h-660v539h688q28 0 43 13.5t15 36.5q0 22 -15 35.5t-43 13.5h-756q-24 0 -40.5 -19t-16.5 -41v-1299zM547 1687q0 -33 23.5 -56t66.5 -23 t66.5 23t23.5 56q0 31 -24 55t-66 24q-43 0 -66.5 -24t-23.5 -55z" />
<glyph unicode="&#x117;" horiz-adv-x="1126" d="M102 486q0 -115 38.5 -212.5t103 -162t149.5 -100.5t178 -36q80 0 148 15t117 42t79 50t60 54q21 21 21 44q0 16 -10 26t-26 10q-19 0 -39 -17q-75 -65 -152.5 -100.5t-192.5 -35.5q-69 2 -132 28t-114 75t-81 126.5t-30 173.5v16h736q30 0 47 11.5t17 28.5 q-21 491 -443 491q-145 0 -254.5 -73.5t-164.5 -192t-55 -261.5zM224 558q5 75 31 141.5t70.5 119t112.5 83t150 30.5q156 0 236.5 -102.5t89.5 -271.5h-690zM483 1250q0 -33 23.5 -56t66.5 -23t66.5 23t23.5 56q0 31 -24 55t-66 24q-43 0 -66.5 -24t-23.5 -55z" />
<glyph unicode="&#x118;" horiz-adv-x="1230" d="M181 60q0 -22 20 -41t42 -19h783q28 0 42.5 14t14.5 37q0 22 -14.5 35t-42.5 13h-720v585h660q28 0 43 13.5t15 35.5q0 48 -58 48h-660v539h688q28 0 43 13.5t15 36.5q0 22 -15 35.5t-43 13.5h-756q-24 0 -40.5 -19t-16.5 -41v-1299zM640 -278q0 -71 53 -110t147 -39 q65 0 136 17v59q-215 0 -215 146q0 82 71 214h-48q-144 -168 -144 -287z" />
<glyph unicode="&#x119;" horiz-adv-x="1126" d="M102 486q0 -115 38.5 -212.5t103 -162t149.5 -100.5t178 -36q80 0 148 15t117 42t79 50t60 54q21 21 21 44q0 16 -10 26t-26 10q-19 0 -39 -17q-75 -65 -152.5 -100.5t-192.5 -35.5q-69 2 -132 28t-114 75t-81 126.5t-30 173.5v16h736q30 0 47 11.5t17 28.5 q-21 491 -443 491q-145 0 -254.5 -73.5t-164.5 -192t-55 -261.5zM224 558q5 75 31 141.5t70.5 119t112.5 83t150 30.5q156 0 236.5 -102.5t89.5 -271.5h-690zM554 -263q0 -71 53 -110t147 -39q65 0 136 17v59q-215 0 -215 146q0 82 71 214h-48q-144 -168 -144 -287z" />
<glyph unicode="&#x11a;" horiz-adv-x="1230" d="M181 60q0 -22 20 -41t42 -19h783q28 0 42.5 14t14.5 37q0 22 -14.5 35t-42.5 13h-720v585h660q28 0 43 13.5t15 35.5q0 48 -58 48h-660v539h688q28 0 43 13.5t15 36.5q0 22 -15 35.5t-43 13.5h-756q-24 0 -40.5 -19t-16.5 -41v-1299zM351 1869q0 -21 12 -40l188 -273 q27 -45 76 -45q43 0 75 45l187 274q13 17 13 40q0 20 -14 34t-33 14q-26 0 -48 -28l-180 -243l-182 243q-21 28 -47 28q-20 0 -33.5 -14.5t-13.5 -34.5z" />
<glyph unicode="&#x11b;" horiz-adv-x="1126" d="M102 486q0 -115 38.5 -212.5t103 -162t149.5 -100.5t178 -36q80 0 148 15t117 42t79 50t60 54q21 21 21 44q0 16 -10 26t-26 10q-19 0 -39 -17q-75 -65 -152.5 -100.5t-192.5 -35.5q-69 2 -132 28t-114 75t-81 126.5t-30 173.5v16h736q30 0 47 11.5t17 28.5 q-21 491 -443 491q-145 0 -254.5 -73.5t-164.5 -192t-55 -261.5zM224 558q5 75 31 141.5t70.5 119t112.5 83t150 30.5q156 0 236.5 -102.5t89.5 -271.5h-690zM287 1432q0 -21 12 -40l188 -273q27 -45 76 -45q43 0 75 45l187 274q13 17 13 40q0 20 -14 34t-33 14 q-26 0 -48 -28l-180 -243l-182 243q-21 28 -47 28q-20 0 -33.5 -14.5t-13.5 -34.5z" />
<glyph unicode="&#x11c;" horiz-adv-x="1424" d="M139 702q0 -181 50.5 -322t139 -227.5t202.5 -130.5t247 -44q132 0 258.5 21.5t215.5 60.5q14 8 27 30.5t13 41.5v534q0 25 -15 40t-40 15h-383q-26 0 -41 -15.5t-15 -35.5q0 -18 15.5 -32.5t40.5 -14.5h316v-490q-79 -23 -183 -39t-186 -16q-114 0 -205.5 34t-151 92 t-99.5 137.5t-57 166.5t-17 184q0 281 147 450.5t415 169.5q157 0 350 -65h10q19 0 31.5 15t12.5 36q0 31 -25 42q-173 72 -386 72q-167 0 -301 -60t-216.5 -160.5t-126 -226t-43.5 -263.5zM593 1624q0 -20 12.5 -33t32.5 -13q32 0 50 28l181 243l181 -243q24 -27 50 -27 q20 0 33 12.5t13 32.5q0 17 -14 40l-187 274q-35 45 -77 45q-47 0 -74 -45l-188 -273q-11 -16 -13 -41z" />
<glyph unicode="&#x11d;" horiz-adv-x="1138" d="M90 489q0 -72 15.5 -141t50 -132.5t84.5 -111t123.5 -76t162.5 -28.5q132 0 222.5 73t122.5 178v-251q0 -157 -76.5 -233.5t-257.5 -76.5q-160 0 -293 55q-8 2 -12 2q-18 0 -30.5 -14.5t-12.5 -32.5q0 -31 37 -45q156 -54 317 -54q212 0 327.5 99t115.5 288v945 q0 25 -15 38.5t-38 13.5q-22 0 -38.5 -14.5t-16.5 -39.5v-158q-43 113 -135 176.5t-220 63.5q-106 0 -190 -43.5t-136 -117t-79.5 -166.5t-27.5 -197zM205 495q0 128 36 224.5t113 154.5t187 58q91 0 158 -40t102.5 -106t52 -137t16.5 -148q0 -180 -94 -300t-231 -120 q-153 0 -246.5 105.5t-93.5 308.5zM243 1193q0 -20 12.5 -33t32.5 -13q32 0 50 28l181 243l181 -243q24 -27 50 -27q20 0 33 12.5t13 32.5q0 17 -14 40l-187 274q-35 45 -77 45q-47 0 -74 -45l-188 -273q-11 -16 -13 -41z" />
<glyph unicode="&#x11e;" horiz-adv-x="1424" d="M139 702q0 -181 50.5 -322t139 -227.5t202.5 -130.5t247 -44q132 0 258.5 21.5t215.5 60.5q14 8 27 30.5t13 41.5v534q0 25 -15 40t-40 15h-383q-26 0 -41 -15.5t-15 -35.5q0 -18 15.5 -32.5t40.5 -14.5h316v-490q-79 -23 -183 -39t-186 -16q-114 0 -205.5 34t-151 92 t-99.5 137.5t-57 166.5t-17 184q0 281 147 450.5t415 169.5q157 0 350 -65h10q19 0 31.5 15t12.5 36q0 31 -25 42q-173 72 -386 72q-167 0 -301 -60t-216.5 -160.5t-126 -226t-43.5 -263.5zM620 1809q0 -9 4 -17q31 -68 95 -105t154 -37t154 37t95 105q4 8 4 15q0 35 -39 35 q-17 0 -36 -17q-37 -48 -74.5 -66.5t-103.5 -18.5q-68 0 -106 18.5t-72 66.5q-15 17 -36 17q-17 0 -28 -9t-11 -24z" />
<glyph unicode="&#x11f;" horiz-adv-x="1138" d="M90 489q0 -72 15.5 -141t50 -132.5t84.5 -111t123.5 -76t162.5 -28.5q132 0 222.5 73t122.5 178v-251q0 -157 -76.5 -233.5t-257.5 -76.5q-160 0 -293 55q-8 2 -12 2q-18 0 -30.5 -14.5t-12.5 -32.5q0 -31 37 -45q156 -54 317 -54q212 0 327.5 99t115.5 288v945 q0 25 -15 38.5t-38 13.5q-22 0 -38.5 -14.5t-16.5 -39.5v-158q-43 113 -135 176.5t-220 63.5q-106 0 -190 -43.5t-136 -117t-79.5 -166.5t-27.5 -197zM205 495q0 128 36 224.5t113 154.5t187 58q91 0 158 -40t102.5 -106t52 -137t16.5 -148q0 -180 -94 -300t-231 -120 q-153 0 -246.5 105.5t-93.5 308.5zM271 1378q0 -9 4 -17q31 -68 95 -105t154 -37t154 37t95 105q4 8 4 15q0 35 -39 35q-17 0 -36 -17q-37 -48 -74.5 -66.5t-103.5 -18.5q-68 0 -106 18.5t-72 66.5q-15 17 -36 17q-17 0 -28 -9t-11 -24z" />
<glyph unicode="&#x120;" horiz-adv-x="1424" d="M139 702q0 -181 50.5 -322t139 -227.5t202.5 -130.5t247 -44q132 0 258.5 21.5t215.5 60.5q14 8 27 30.5t13 41.5v534q0 25 -15 40t-40 15h-383q-26 0 -41 -15.5t-15 -35.5q0 -18 15.5 -32.5t40.5 -14.5h316v-490q-79 -23 -183 -39t-186 -16q-114 0 -205.5 34t-151 92 t-99.5 137.5t-57 166.5t-17 184q0 281 147 450.5t415 169.5q157 0 350 -65h10q19 0 31.5 15t12.5 36q0 31 -25 42q-173 72 -386 72q-167 0 -301 -60t-216.5 -160.5t-126 -226t-43.5 -263.5zM781 1671q0 -33 23.5 -56t66.5 -23t66.5 23t23.5 56q0 31 -24 55t-66 24 q-43 0 -66.5 -24t-23.5 -55z" />
<glyph unicode="&#x121;" horiz-adv-x="1138" d="M90 489q0 -72 15.5 -141t50 -132.5t84.5 -111t123.5 -76t162.5 -28.5q132 0 222.5 73t122.5 178v-251q0 -157 -76.5 -233.5t-257.5 -76.5q-160 0 -293 55q-8 2 -12 2q-18 0 -30.5 -14.5t-12.5 -32.5q0 -31 37 -45q156 -54 317 -54q212 0 327.5 99t115.5 288v945 q0 25 -15 38.5t-38 13.5q-22 0 -38.5 -14.5t-16.5 -39.5v-158q-43 113 -135 176.5t-220 63.5q-106 0 -190 -43.5t-136 -117t-79.5 -166.5t-27.5 -197zM205 495q0 128 36 224.5t113 154.5t187 58q91 0 158 -40t102.5 -106t52 -137t16.5 -148q0 -180 -94 -300t-231 -120 q-153 0 -246.5 105.5t-93.5 308.5zM431 1240q0 -33 23.5 -56t66.5 -23t66.5 23t23.5 56q0 31 -24 55t-66 24q-43 0 -66.5 -24t-23.5 -55z" />
<glyph unicode="&#x122;" horiz-adv-x="1424" d="M139 702q0 -181 50.5 -322t139 -227.5t202.5 -130.5t247 -44q132 0 258.5 21.5t215.5 60.5q14 8 27 30.5t13 41.5v534q0 25 -15 40t-40 15h-383q-26 0 -41 -15.5t-15 -35.5q0 -18 15.5 -32.5t40.5 -14.5h316v-490q-79 -23 -183 -39t-186 -16q-114 0 -205.5 34t-151 92 t-99.5 137.5t-57 166.5t-17 184q0 281 147 450.5t415 169.5q157 0 350 -65h10q19 0 31.5 15t12.5 36q0 31 -25 42q-173 72 -386 72q-167 0 -301 -60t-216.5 -160.5t-126 -226t-43.5 -263.5zM665 -541q0 -30 25 -31q35 1 49 43l116 369q3 12 3 18q0 35 -37 38h-24 q-64 -2 -73 -56l-58 -369q-1 -3 -1 -12z" />
<glyph unicode="&#x123;" horiz-adv-x="1138" d="M90 489q0 -72 15.5 -141t50 -132.5t84.5 -111t123.5 -76t162.5 -28.5q132 0 222.5 73t122.5 178v-251q0 -157 -76.5 -233.5t-257.5 -76.5q-160 0 -293 55q-8 2 -12 2q-18 0 -30.5 -14.5t-12.5 -32.5q0 -31 37 -45q156 -54 317 -54q212 0 327.5 99t115.5 288v945 q0 25 -15 38.5t-38 13.5q-22 0 -38.5 -14.5t-16.5 -39.5v-158q-43 113 -135 176.5t-220 63.5q-106 0 -190 -43.5t-136 -117t-79.5 -166.5t-27.5 -197zM205 495q0 128 36 224.5t113 154.5t187 58q91 0 158 -40t102.5 -106t52 -137t16.5 -148q0 -180 -94 -300t-231 -120 q-153 0 -246.5 105.5t-93.5 308.5zM458 1252q0 -35 37 -38h62q64 2 73 56l84 460q1 3 1 12q0 30 -25 31h-18h-3q-38 0 -53 -43l-155 -460q-3 -12 -3 -18z" />
<glyph unicode="&#x124;" horiz-adv-x="1436" d="M181 56q0 -27 18.5 -42t43.5 -15q26 0 44.5 14.5t18.5 42.5v631h816v-631q0 -27 18 -42t43 -15q26 0 45 14.5t19 42.5v1307q0 27 -18.5 42t-44.5 15q-25 0 -43.5 -15.5t-18.5 -41.5v-576h-816v576q0 27 -18 42t-43 15t-44.5 -15.5t-19.5 -41.5v-1307zM474 1640 q0 -20 12.5 -33t32.5 -13q32 0 50 28l181 243l181 -243q24 -27 50 -27q20 0 33 12.5t13 32.5q0 17 -14 40l-187 274q-35 45 -77 45q-47 0 -74 -45l-188 -273q-11 -16 -13 -41z" />
<glyph unicode="&#x125;" horiz-adv-x="1121" d="M171 54q0 -26 16.5 -40t39.5 -14t41 14t18 40v530q0 85 25.5 149t72 102t104.5 56t129 18q243 0 243 -257v-598q0 -26 16.5 -40t40.5 -14q23 0 40.5 14t17.5 40v580q0 101 -27 176t-76 118.5t-110.5 64t-136.5 20.5q-68 0 -134.5 -22.5t-124 -73t-80.5 -119.5v569 q0 25 -16 38t-40 13q-23 0 -41 -14t-18 -37v-1313zM404 1387q0 -20 12.5 -33t32.5 -13q32 0 50 28l181 243l181 -243q24 -27 50 -27q20 0 33 12.5t13 32.5q0 17 -14 40l-187 274q-35 45 -77 45q-47 0 -74 -45l-188 -273q-11 -16 -13 -41z" />
<glyph unicode="&#x126;" horiz-adv-x="1436" d="M66 1076q0 -21 16.5 -32.5t44.5 -11.5h1186q62 0 62 44q0 45 -62 45h-1186q-61 0 -61 -45zM181 56q0 -27 18.5 -42t43.5 -15q26 0 44.5 14.5t18.5 42.5v631h816v-631q0 -27 18 -42t43 -15q26 0 45 14.5t19 42.5v1307q0 27 -18.5 42t-44.5 15q-25 0 -43.5 -15.5 t-18.5 -41.5v-576h-816v576q0 27 -18 42t-43 15t-44.5 -15.5t-19.5 -41.5v-1307z" />
<glyph unicode="&#x127;" horiz-adv-x="1121" d="M171 54q0 -26 16.5 -40t39.5 -14t41 14t18 40v530q0 85 25.5 149t72 102t104.5 56t129 18q243 0 243 -257v-598q0 -26 16.5 -40t40.5 -14q23 0 40.5 14t17.5 40v580q0 101 -27 176t-76 118.5t-110.5 64t-136.5 20.5q-68 0 -134.5 -22.5t-124 -73t-80.5 -119.5v569 q0 25 -16 38t-40 13q-23 0 -41 -14t-18 -37v-1313z" />
<glyph unicode="&#x128;" horiz-adv-x="563" d="M9 1594q0 -12 8.5 -19t21.5 -7q24 0 47 25q30 33 77 33q35 0 111.5 -29t109.5 -29q108 0 163 108q1 -2 8.5 -2t15.5 3q2 23 -9.5 36t-33.5 13h-2l-2 1q-12 0 -53 -30.5t-65 -30.5q-30 0 -107.5 27t-120.5 27q-108 0 -164 -105q-5 -12 -5 -21zM221 56q0 -27 18.5 -42 t43.5 -15q26 0 44.5 14.5t18.5 42.5v1303q0 28 -18 43.5t-43 15.5t-44.5 -16t-19.5 -43v-1303z" />
<glyph unicode="&#x129;" horiz-adv-x="450" d="M-56 1147q0 -12 8.5 -19t21.5 -7q24 0 47 25q30 33 77 33q35 0 111.5 -29t109.5 -29q108 0 163 108q1 -2 8.5 -2t15.5 3q2 23 -9.5 36t-33.5 13h-2l-2 1q-12 0 -53 -30.5t-65 -30.5q-30 0 -107.5 27t-120.5 27q-108 0 -164 -105q-5 -12 -5 -21zM168 60q0 -30 16 -45 t40 -15q23 0 41 16t18 44v867q0 27 -17 42t-39 15q-23 0 -41 -15t-18 -42v-867z" />
<glyph unicode="&#x12a;" horiz-adv-x="563" d="M2 1669q0 -47 61 -47h457q58 0 58 47t-58 47h-457q-61 0 -61 -47zM221 56q0 -27 18.5 -42t43.5 -15q26 0 44.5 14.5t18.5 42.5v1303q0 28 -18 43.5t-43 15.5t-44.5 -16t-19.5 -43v-1303z" />
<glyph unicode="&#x12b;" horiz-adv-x="450" d="M-63 1222q0 -47 61 -47h457q58 0 58 47t-58 47h-457q-61 0 -61 -47zM168 60q0 -30 16 -45t40 -15q23 0 41 16t18 44v867q0 27 -17 42t-39 15q-23 0 -41 -15t-18 -42v-867z" />
<glyph unicode="&#x12c;" horiz-adv-x="563" d="M39 1825q0 -9 4 -17q31 -68 95 -105t154 -37t154 37t95 105q4 8 4 15q0 35 -39 35q-17 0 -36 -17q-37 -48 -74.5 -66.5t-103.5 -18.5q-68 0 -106 18.5t-72 66.5q-15 17 -36 17q-17 0 -28 -9t-11 -24zM221 56q0 -27 18.5 -42t43.5 -15q26 0 44.5 14.5t18.5 42.5v1303 q0 28 -18 43.5t-43 15.5t-44.5 -16t-19.5 -43v-1303z" />
<glyph unicode="&#x12d;" horiz-adv-x="450" d="M-27 1378q0 -9 4 -17q31 -68 95 -105t154 -37t154 37t95 105q4 8 4 15q0 35 -39 35q-17 0 -36 -17q-37 -48 -74.5 -66.5t-103.5 -18.5q-68 0 -106 18.5t-72 66.5q-15 17 -36 17q-17 0 -28 -9t-11 -24zM168 60q0 -30 16 -45t40 -15q23 0 41 16t18 44v867q0 27 -17 42 t-39 15q-23 0 -41 -15t-18 -42v-867z" />
<glyph unicode="&#x12e;" horiz-adv-x="563" d="M111 -264q0 -71 53 -110t147 -39q65 0 136 17v59q-215 0 -215 146q0 82 71 214h-48q-144 -168 -144 -287zM221 56q0 -27 18.5 -42t43.5 -15q26 0 44.5 14.5t18.5 42.5v1303q0 28 -18 43.5t-43 15.5t-44.5 -16t-19.5 -43v-1303z" />
<glyph unicode="&#x12f;" horiz-adv-x="450" d="M75 -287q0 -71 53 -110t147 -39q65 0 136 17v59q-215 0 -215 146q0 82 71 214h-48q-144 -168 -144 -287zM134 1240q0 -33 23.5 -56t66.5 -23t66.5 23t23.5 56q0 31 -24 55t-66 24q-43 0 -66.5 -24t-23.5 -55zM168 60q0 -30 16 -45t40 -15q23 0 41 16t18 44v867 q0 27 -17 42t-39 15q-23 0 -41 -15t-18 -42v-867z" />
<glyph unicode="&#x130;" horiz-adv-x="563" d="M200 1687q0 -33 23.5 -56t66.5 -23t66.5 23t23.5 56q0 31 -24 55t-66 24q-43 0 -66.5 -24t-23.5 -55zM221 56q0 -27 18.5 -42t43.5 -15q26 0 44.5 14.5t18.5 42.5v1303q0 28 -18 43.5t-43 15.5t-44.5 -16t-19.5 -43v-1303z" />
<glyph unicode="&#x131;" horiz-adv-x="452" d="M168 60q0 -30 16 -45t40 -15q23 0 41 16t18 44v867q0 27 -17 42t-39 15q-23 0 -41 -15t-18 -42v-867z" />
<glyph unicode="&#x132;" horiz-adv-x="1515" d="M221 56q0 -27 18.5 -42t43.5 -15q26 0 44.5 14.5t18.5 42.5v1303q0 28 -18 43.5t-43 15.5t-44.5 -16t-19.5 -43v-1303zM643 130q19 -44 117 -95.5t209 -51.5q63 0 122.5 15t115 49.5t97 86t66.5 130.5t25 176v923q0 27 -18.5 41.5t-44.5 14.5t-45 -14.5t-19 -41.5v-910 q0 -184 -73.5 -274.5t-210.5 -90.5q-74 0 -128 25t-78 57q-46 40 -83 40q-23 0 -35 -15.5t-12 -37.5q0 -4 0.5 -7.5t1 -5.5t0 -4.5t-2 -4.5t-4.5 -5z" />
<glyph unicode="&#x133;" horiz-adv-x="929" d="M161 1338q0 -38 24.5 -61t64.5 -23q41 0 66 23.5t25 60.5q0 38 -25 61t-65 23t-65 -23.5t-25 -60.5zM194 60q0 -30 16 -45t39 -15q24 0 42 16t18 44v867q0 27 -17 42.5t-39 15.5q-23 0 -41 -15.5t-18 -42.5v-867zM442 -326q0 -20 12.5 -34.5t33.5 -14.5q44 0 78.5 2 t62.5 9t49 13t37 20.5t26.5 25.5t18 34.5t11 40t5.5 49.5t2.5 56t0.5 66v14v972q0 27 -17 42.5t-39 15.5q-24 0 -42 -15.5t-18 -42.5v-1018q0 -46 -1.5 -73t-9 -49.5t-17 -33t-31.5 -17.5t-45.5 -8.5t-65.5 -1.5q-24 0 -37.5 -15.5t-13.5 -36.5zM631 1338q0 -38 24.5 -61 t65.5 -23t66 23.5t25 60.5q0 38 -25 61t-65 23q-41 0 -66 -23.5t-25 -60.5z" />
<glyph unicode="&#x134;" horiz-adv-x="952" d="M80 130q19 -44 117 -95.5t209 -51.5q63 0 122.5 15t115 49.5t97 86t66.5 130.5t25 176v923q0 27 -18.5 41.5t-44.5 14.5t-45 -14.5t-19 -41.5v-910q0 -184 -73.5 -274.5t-210.5 -90.5q-74 0 -128 25t-78 57q-46 40 -83 40q-23 0 -35 -15.5t-12 -37.5q0 -4 0.5 -7.5 t1 -5.5t0 -4.5t-2 -4.5t-4.5 -5zM466 1640q0 -20 12.5 -33t32.5 -13q32 0 50 28l181 243l181 -243q24 -27 50 -27q20 0 33 12.5t13 32.5q0 17 -14 40l-187 274q-35 45 -77 45q-47 0 -74 -45l-188 -273q-11 -16 -13 -41z" />
<glyph unicode="&#x135;" horiz-adv-x="448" d="M-54 1193q0 -20 12.5 -33t32.5 -13q32 0 50 28l181 243l181 -243q24 -27 50 -27q20 0 33 12.5t13 32.5q0 17 -14 40l-187 274q-35 45 -77 45q-47 0 -74 -45l-188 -273q-11 -16 -13 -41zM-38 -327q0 -19 11.5 -32.5t32.5 -13.5q59 0 101.5 6.5t73 14.5t49 32t29.5 42 t15.5 62.5t5.5 75t1 96.5v982q0 21 -20 35t-35 14q-19 0 -39 -13t-20 -34v-1041q0 -44 -1 -68.5t-7 -47t-14 -32t-26 -17t-39 -9t-58 -1.5h-14q-21 0 -33.5 -15.5t-12.5 -35.5z" />
<glyph unicode="&#x136;" horiz-adv-x="1191" d="M180 57q0 -27 17.5 -42t40.5 -15q26 0 44 14.5t18 42.5v651l728 -688q28 -21 48 -21q26 0 40.5 14.5t14.5 38.5q0 27 -20 44l-683 633l629 602q18 17 18 41q0 21 -12.5 34.5t-35.5 13.5q-24 0 -43 -16l-684 -664v621q0 26 -18 42t-41 16q-25 0 -43 -15.5t-18 -42.5v-1304 zM471 -541q0 -30 25 -31q35 1 49 43l116 369q3 12 3 18q0 35 -37 38h-24q-64 -2 -73 -56l-58 -369q-1 -3 -1 -12z" />
<glyph unicode="&#x137;" horiz-adv-x="941" d="M170 59q0 -30 16 -44.5t40 -14.5t42 16t18 43v497l491 -532q16 -19 39 -19q21 0 36.5 16t15.5 37q0 18 -15 35l-439 468l420 355q21 17 21 38q0 20 -17.5 34.5t-38.5 14.5q-14 0 -25 -8l-488 -418v782q0 28 -17.5 43.5t-39.5 15.5q-23 0 -41 -15.5t-18 -43.5v-1300z M347 -541q0 -30 25 -31q35 1 49 43l116 369q3 12 3 18q0 35 -37 38h-24q-64 -2 -73 -56l-58 -369q-1 -3 -1 -12z" />
<glyph unicode="&#x138;" horiz-adv-x="946" d="M165 59q0 -30 16 -44.5t40 -14.5t42 16t18 43v462l491 -497q18 -18 39 -18t37 16.5t16 36.5t-15 34l-440 433l420 390q20 19 20 39t-17 34.5t-37 14.5q-16 0 -26 -9l-488 -453v399q0 28 -17 43t-40 15t-41 -15.5t-18 -42.5v-882z" />
<glyph unicode="&#x139;" horiz-adv-x="1067" d="M181 59q0 -25 18.5 -42t44.5 -17h749q27 0 42.5 14t15.5 35q0 50 -58 50h-687v1264q0 27 -18 42t-43 15q-26 0 -45 -15.5t-19 -41.5v-1304zM278 1647q0 -30 27 -30q13 0 37 16l330 246q15 10 15 33q0 26 -23.5 50.5t-52.5 24.5q-23 0 -35 -10l-290 -305q-8 -8 -8 -25z " />
<glyph unicode="&#x13a;" horiz-adv-x="468" d="M199 60q0 -30 15.5 -45t39.5 -15t42 16t18 44v1299q0 28 -17 43.5t-39 15.5q-23 0 -41 -15.5t-18 -43.5v-1299zM248 1612q0 -30 27 -30q13 0 37 16l330 246q15 10 15 33q0 26 -23.5 50.5t-52.5 24.5q-23 0 -35 -10l-290 -305q-8 -8 -8 -25z" />
<glyph unicode="&#x13b;" horiz-adv-x="1067" d="M181 59q0 -25 18.5 -42t44.5 -17h749q27 0 42.5 14t15.5 35q0 50 -58 50h-687v1264q0 27 -18 42t-43 15q-26 0 -45 -15.5t-19 -41.5v-1304zM497 -541q0 -30 25 -31q35 1 49 43l116 369q3 12 3 18q0 35 -37 38h-24q-64 -2 -73 -56l-58 -369q-1 -3 -1 -12z" />
<glyph unicode="&#x13c;" horiz-adv-x="468" d="M88 -541q0 -30 25 -31q35 1 49 43l116 369q3 12 3 18q0 35 -37 38h-24q-64 -2 -73 -56l-58 -369q-1 -3 -1 -12zM199 60q0 -30 15.5 -45t39.5 -15t42 16t18 44v1299q0 28 -17 43.5t-39 15.5q-23 0 -41 -15.5t-18 -43.5v-1299z" />
<glyph unicode="&#x13d;" horiz-adv-x="1067" d="M181 59q0 -25 18.5 -42t44.5 -17h749q27 0 42.5 14t15.5 35q0 50 -58 50h-687v1264q0 27 -18 42t-43 15q-26 0 -45 -15.5t-19 -41.5v-1304zM719 1017q0 -30 25 -31q35 1 49 43l116 369q3 12 3 18q0 35 -37 38h-24q-64 -2 -73 -56l-58 -369q-1 -3 -1 -12z" />
<glyph unicode="&#x13e;" horiz-adv-x="468" d="M199 60q0 -30 15.5 -45t39.5 -15t42 16t18 44v1299q0 28 -17 43.5t-39 15.5q-23 0 -41 -15.5t-18 -43.5v-1299zM522 1017q0 -30 25 -31q35 1 49 43l116 369q3 12 3 18q0 35 -37 38h-24q-64 -2 -73 -56l-58 -369q-1 -3 -1 -12z" />
<glyph unicode="&#x13f;" horiz-adv-x="1067" d="M181 59q0 -25 18.5 -42t44.5 -17h749q27 0 42.5 14t15.5 35q0 50 -58 50h-687v1264q0 27 -18 42t-43 15q-26 0 -45 -15.5t-19 -41.5v-1304z" />
<glyph unicode="&#x140;" horiz-adv-x="468" d="M199 60q0 -30 15.5 -45t39.5 -15t42 16t18 44v1299q0 28 -17 43.5t-39 15.5q-23 0 -41 -15.5t-18 -43.5v-1299z" />
<glyph unicode="&#x141;" horiz-adv-x="1136" d="M53 678q0 -20 13.5 -36t32.5 -16q12 0 23 7l59 39v-613q0 -25 18.5 -42t44.5 -17h749q27 0 42.5 14t15.5 35q0 50 -58 50h-687v656l162 108q18 11 18 33q0 20 -14.5 38t-33.5 18q-10 0 -20 -6l-112 -75v492q0 27 -18 42t-43 15q-26 0 -45 -15.5t-19 -41.5v-575l-106 -71 q-22 -14 -22 -39z" />
<glyph unicode="&#x142;" horiz-adv-x="478" d="M83 708q0 -20 13.5 -36t32.5 -16q12 0 23 7l51 34v-637q0 -30 15.5 -45t39.5 -15t42 16t18 44v714l119 79q18 11 18 33q0 20 -14.5 38t-33.5 18q-10 0 -20 -6l-69 -46v469q0 28 -17 43.5t-39 15.5q-23 0 -41 -15.5t-18 -43.5v-546l-98 -66q-22 -14 -22 -39z" />
<glyph unicode="&#x143;" horiz-adv-x="1466" d="M184 59q0 -29 16 -44t43 -15q24 0 40.5 15.5t16.5 43.5v1183l809 -1202q16 -24 33 -32t43 -8q42 0 68.5 24.5t26.5 68.5v1266q0 28 -17 44t-41 16q-26 0 -42 -15.5t-16 -44.5v-1204l-794 1183q-56 81 -107 81q-37 0 -58 -24.5t-21 -68.5v-1267zM706 1628q0 -30 27 -30 q13 0 37 16l330 246q15 10 15 33q0 26 -23.5 50.5t-52.5 24.5q-23 0 -35 -10l-290 -305q-8 -8 -8 -25z" />
<glyph unicode="&#x144;" d="M171 52q0 -25 16.5 -38.5t39.5 -13.5t41.5 14.5t18.5 37.5v575q15 149 97.5 227t212.5 78q137 0 200 -79t63 -231v-570q0 -25 17 -38.5t41 -13.5q23 0 40 13.5t17 38.5v568q0 204 -89.5 298.5t-269.5 94.5q-116 0 -207.5 -58t-121.5 -163v138q0 25 -17.5 39t-39.5 14 q-24 0 -41.5 -14t-17.5 -40v-877zM544 1185q0 -30 27 -30q13 0 37 16l330 246q15 10 15 33q0 26 -23.5 50.5t-52.5 24.5q-23 0 -35 -10l-290 -305q-8 -8 -8 -25z" />
<glyph unicode="&#x145;" horiz-adv-x="1466" d="M184 59q0 -29 16 -44t43 -15q24 0 40.5 15.5t16.5 43.5v1183l809 -1202q16 -24 33 -32t43 -8q42 0 68.5 24.5t26.5 68.5v1266q0 28 -17 44t-41 16q-26 0 -42 -15.5t-16 -44.5v-1204l-794 1183q-56 81 -107 81q-37 0 -58 -24.5t-21 -68.5v-1267zM600 -541q0 -30 25 -31 q35 1 49 43l116 369q3 12 3 18q0 35 -37 38h-24q-64 -2 -73 -56l-58 -369q-1 -3 -1 -12z" />
<glyph unicode="&#x146;" d="M171 52q0 -25 16.5 -38.5t39.5 -13.5t41.5 14.5t18.5 37.5v575q15 149 97.5 227t212.5 78q137 0 200 -79t63 -231v-570q0 -25 17 -38.5t41 -13.5q23 0 40 13.5t17 38.5v568q0 204 -89.5 298.5t-269.5 94.5q-116 0 -207.5 -58t-121.5 -163v138q0 25 -17.5 39t-39.5 14 q-24 0 -41.5 -14t-17.5 -40v-877zM411 -541q0 -30 25 -31q35 1 49 43l116 369q3 12 3 18q0 35 -37 38h-24q-64 -2 -73 -56l-58 -369q-1 -3 -1 -12z" />
<glyph unicode="&#x147;" horiz-adv-x="1466" d="M184 59q0 -29 16 -44t43 -15q24 0 40.5 15.5t16.5 43.5v1183l809 -1202q16 -24 33 -32t43 -8q42 0 68.5 24.5t26.5 68.5v1266q0 28 -17 44t-41 16q-26 0 -42 -15.5t-16 -44.5v-1204l-794 1183q-56 81 -107 81q-37 0 -58 -24.5t-21 -68.5v-1267zM482 1865q0 -21 12 -40 l188 -273q27 -45 76 -45q43 0 75 45l187 274q13 17 13 40q0 20 -14 34t-33 14q-26 0 -48 -28l-180 -243l-182 243q-21 28 -47 28q-20 0 -33.5 -14.5t-13.5 -34.5z" />
<glyph unicode="&#x148;" d="M171 52q0 -25 16.5 -38.5t39.5 -13.5t41.5 14.5t18.5 37.5v575q15 149 97.5 227t212.5 78q137 0 200 -79t63 -231v-570q0 -25 17 -38.5t41 -13.5q23 0 40 13.5t17 38.5v568q0 204 -89.5 298.5t-269.5 94.5q-116 0 -207.5 -58t-121.5 -163v138q0 25 -17.5 39t-39.5 14 q-24 0 -41.5 -14t-17.5 -40v-877zM321 1422q0 -21 12 -40l188 -273q27 -45 76 -45q43 0 75 45l187 274q13 17 13 40q0 20 -14 34t-33 14q-26 0 -48 -28l-180 -243l-182 243q-21 28 -47 28q-20 0 -33.5 -14.5t-13.5 -34.5z" />
<glyph unicode="&#x149;" d="M157 1225q0 -30 25 -31h18h3q38 0 53 43l155 460q3 12 3 18q0 35 -37 38h-62q-64 -2 -73 -56l-84 -460q-1 -3 -1 -12zM171 52q0 -25 16.5 -38.5t39.5 -13.5t41.5 14.5t18.5 37.5v575q15 149 97.5 227t212.5 78q137 0 200 -79t63 -231v-570q0 -25 17 -38.5t41 -13.5 q23 0 40 13.5t17 38.5v568q0 204 -89.5 298.5t-269.5 94.5q-116 0 -207.5 -58t-121.5 -163v138q0 25 -17.5 39t-39.5 14q-24 0 -41.5 -14t-17.5 -40v-877z" />
<glyph unicode="&#x14a;" horiz-adv-x="1458" d="M187 59q0 -29 16 -44t43 -15q24 0 40.5 15.5t16.5 43.5v1183l864 -1249q0 -167 -47 -241.5t-176 -74.5q-102 0 -290 50q-10 3 -20 3q-27 0 -43.5 -14t-16.5 -36q0 -44 64 -59q184 -44 303 -44q117 0 189.5 41t112.5 146t40 285v1310q0 28 -17 44t-41 16q-26 0 -42 -15.5 t-16 -44.5v-1184l-794 1163q-56 81 -107 81q-37 0 -58 -24.5t-21 -68.5v-1267z" />
<glyph unicode="&#x14b;" horiz-adv-x="1136" d="M171 52q0 -25 16.5 -38.5t39.5 -13.5t41.5 14.5t18.5 37.5v575q15 149 97.5 227t212.5 78q137 0 200 -79t63 -231v-560q0 -73 -14.5 -123.5t-42.5 -78t-62.5 -38.5t-81.5 -11q-24 0 -56 3.5t-48 6t-65 11t-56 9.5q-17 3 -18 3q-20 0 -31.5 -14t-11.5 -33q0 -35 29 -43 q146 -41 259 -41q71 0 127.5 17t99 52.5t65 95t22.5 140.5v602q0 204 -89.5 298.5t-269.5 94.5q-116 0 -207.5 -58t-121.5 -163v138q0 25 -17.5 39t-39.5 14q-24 0 -41.5 -14t-17.5 -40v-877z" />
<glyph unicode="&#x14c;" horiz-adv-x="1586" d="M146 695q0 -333 177.5 -525t473.5 -192q294 0 472 192.5t178 524.5t-178 524.5t-472 192.5q-296 0 -473.5 -192t-177.5 -525zM278 695q0 291 142 454t377 163t376.5 -162.5t141.5 -454.5q0 -290 -141.5 -453.5t-376.5 -163.5t-377 163.5t-142 453.5zM505 1665 q0 -47 61 -47h457q58 0 58 47t-58 47h-457q-61 0 -61 -47z" />
<glyph unicode="&#x14d;" horiz-adv-x="1108" d="M90 494q0 -126 38.5 -226.5t105.5 -163.5t152.5 -96t183.5 -33t184 33t153 95.5t105.5 163t38.5 227.5q0 123 -38 223t-104 164t-152.5 98t-186.5 34q-99 0 -185 -33.5t-152.5 -97t-104.5 -163.5t-38 -225zM207 494q0 198 97 318t266 120t266.5 -121t97.5 -317 q0 -197 -96 -317.5t-270 -120.5q-168 0 -264.5 121.5t-96.5 316.5zM265 1235q0 -47 61 -47h457q58 0 58 47t-58 47h-457q-61 0 -61 -47z" />
<glyph unicode="&#x14e;" horiz-adv-x="1586" d="M146 695q0 -333 177.5 -525t473.5 -192q294 0 472 192.5t178 524.5t-178 524.5t-472 192.5q-296 0 -473.5 -192t-177.5 -525zM278 695q0 291 142 454t377 163t376.5 -162.5t141.5 -454.5q0 -290 -141.5 -453.5t-376.5 -163.5t-377 163.5t-142 453.5zM542 1821q0 -9 4 -17 q31 -68 95 -105t154 -37t154 37t95 105q4 8 4 15q0 35 -39 35q-17 0 -36 -17q-37 -48 -74.5 -66.5t-103.5 -18.5q-68 0 -106 18.5t-72 66.5q-15 17 -36 17q-17 0 -28 -9t-11 -24z" />
<glyph unicode="&#x14f;" horiz-adv-x="1108" d="M90 494q0 -126 38.5 -226.5t105.5 -163.5t152.5 -96t183.5 -33t184 33t153 95.5t105.5 163t38.5 227.5q0 123 -38 223t-104 164t-152.5 98t-186.5 34q-99 0 -185 -33.5t-152.5 -97t-104.5 -163.5t-38 -225zM207 494q0 198 97 318t266 120t266.5 -121t97.5 -317 q0 -197 -96 -317.5t-270 -120.5q-168 0 -264.5 121.5t-96.5 316.5zM302 1391q0 -9 4 -17q31 -68 95 -105t154 -37t154 37t95 105q4 8 4 15q0 35 -39 35q-17 0 -36 -17q-37 -48 -74.5 -66.5t-103.5 -18.5q-68 0 -106 18.5t-72 66.5q-15 17 -36 17q-17 0 -28 -9t-11 -24z" />
<glyph unicode="&#x150;" horiz-adv-x="1586" d="M146 695q0 -333 177.5 -525t473.5 -192q294 0 472 192.5t178 524.5t-178 524.5t-472 192.5q-296 0 -473.5 -192t-177.5 -525zM278 695q0 291 142 454t377 163t376.5 -162.5t141.5 -454.5q0 -290 -141.5 -453.5t-376.5 -163.5t-377 163.5t-142 453.5zM624 1522 q0 -28 28 -28q20 0 38 15l326 242q18 12 18 36q0 29 -23.5 53t-52.5 24q-20 0 -41 -18l-279 -293q-14 -14 -14 -31zM900 1522q0 -12 7.5 -20t21.5 -8q17 0 35 15l326 242q20 13 20 38q0 28 -24.5 51.5t-53.5 23.5q-20 0 -41 -18l-279 -293q-12 -13 -12 -31z" />
<glyph unicode="&#x151;" horiz-adv-x="1108" d="M90 494q0 -126 38.5 -226.5t105.5 -163.5t152.5 -96t183.5 -33t184 33t153 95.5t105.5 163t38.5 227.5q0 123 -38 223t-104 164t-152.5 98t-186.5 34q-99 0 -185 -33.5t-152.5 -97t-104.5 -163.5t-38 -225zM207 494q0 198 97 318t266 120t266.5 -121t97.5 -317 q0 -197 -96 -317.5t-270 -120.5q-168 0 -264.5 121.5t-96.5 316.5zM384 1092q0 -28 28 -28q20 0 38 15l326 242q18 12 18 36q0 29 -23.5 53t-52.5 24q-20 0 -41 -18l-279 -293q-14 -14 -14 -31zM660 1092q0 -12 7.5 -20t21.5 -8q17 0 35 15l326 242q20 13 20 38 q0 28 -24.5 51.5t-53.5 23.5q-20 0 -41 -18l-279 -293q-12 -13 -12 -31z" />
<glyph unicode="&#x152;" horiz-adv-x="1999" d="M127 708q0 -220 70.5 -387t205 -260t315.5 -93q59 0 154 8t160 16l66 7h704q28 0 44 16t16 39q0 24 -16 40.5t-44 16.5h-580v565h523q31 0 48 16.5t17 39.5q0 24 -17 41t-48 17h-523v517h551q29 0 45.5 16.5t16.5 39.5q0 24 -16.5 40t-45.5 16h-676q-244 30 -379 30 q-181 0 -315.5 -93t-205 -260t-70.5 -388zM255 709q0 95 17 184.5t54 170t90 140.5t131 95.5t171 35.5q68 0 132 -2.5t107 -5.5t75.5 -6.5t48.5 -5.5l16 -2v-1202q-146 -26 -378 -29q-93 0 -171 35.5t-131.5 95.5t-90.5 140.5t-54 170t-17 185.5z" />
<glyph unicode="&#x153;" horiz-adv-x="1820" d="M90 493q0 -79 17 -153.5t54 -142t89.5 -118t129 -80t166.5 -29.5q133 0 229 66.5t152 180.5q48 -114 137 -180.5t211 -66.5q73 0 143.5 18t120.5 46t80.5 61.5t30.5 64.5q0 18 -12 29.5t-31 11.5q-22 0 -44 -18q-49 -45 -116.5 -76.5t-132.5 -31.5q-82 0 -144 30.5 t-99 85.5t-55.5 124t-19.5 152h653q30 0 44 16.5t14 40.5q-4 106 -29.5 193t-75 155t-131 106t-188.5 38q-122 0 -212.5 -65.5t-140.5 -175.5q-56 111 -153 176t-231 65q-112 0 -201.5 -45t-144 -120t-82.5 -166.5t-28 -191.5zM216 493q0 57 11.5 114t37.5 112t63 97 t93.5 68t124.5 26q83 0 147 -38.5t100.5 -101t55 -133t18.5 -142.5v-8q0 -71 -19.5 -141t-56.5 -131.5t-101 -100t-144 -38.5q-68 0 -124.5 26t-93.5 68.5t-63 97.5t-37.5 112t-11.5 113zM1000 574q9 139 84.5 237.5t201.5 98.5q135 0 210.5 -93t86.5 -243h-583z" />
<glyph unicode="&#x154;" horiz-adv-x="1318" d="M181 57q0 -28 18.5 -43t43.5 -15t44 15t19 43v629h404q59 0 96 -4t70 -17.5t51 -34t34 -60t25 -88t18 -125.5l34 -298q4 -29 24.5 -44.5t45.5 -15.5t40 17.5t15 44.5q0 8 -1 13l-42 367q-16 133 -72 205.5t-163 94.5v4q136 32 204 117t68 206q0 88 -30.5 153.5 t-77.5 102.5t-116.5 59t-133 29t-141.5 7h-414q-26 0 -44.5 -17.5t-18.5 -41.5v-1303zM306 783v537h381q349 0 349 -253q0 -284 -347 -284h-383zM604 1632q0 -30 27 -30q13 0 37 16l330 246q15 10 15 33q0 26 -23.5 50.5t-52.5 24.5q-23 0 -35 -10l-290 -305q-8 -8 -8 -25z " />
<glyph unicode="&#x155;" horiz-adv-x="682" d="M175 52q0 -26 16 -39t40 -13t41.5 14t17.5 38v597q0 25 7 56.5t26.5 70.5t49 71t81 53.5t115.5 21.5q30 0 44 13t14 33q0 12 -8 22t-21 19.5t-17 13.5q-120 0 -193 -61.5t-96 -154.5l-2 116q-1 28 -18 43t-41 15q-23 0 -39.5 -14t-16.5 -39v-876zM314 1195q0 -30 27 -30 q13 0 37 16l330 246q15 10 15 33q0 26 -23.5 50.5t-52.5 24.5q-23 0 -35 -10l-290 -305q-8 -8 -8 -25z" />
<glyph unicode="&#x156;" horiz-adv-x="1318" d="M181 57q0 -28 18.5 -43t43.5 -15t44 15t19 43v629h404q59 0 96 -4t70 -17.5t51 -34t34 -60t25 -88t18 -125.5l34 -298q4 -29 24.5 -44.5t45.5 -15.5t40 17.5t15 44.5q0 8 -1 13l-42 367q-16 133 -72 205.5t-163 94.5v4q136 32 204 117t68 206q0 88 -30.5 153.5 t-77.5 102.5t-116.5 59t-133 29t-141.5 7h-414q-26 0 -44.5 -17.5t-18.5 -41.5v-1303zM306 783v537h381q349 0 349 -253q0 -284 -347 -284h-383zM528 -541q0 -30 25 -31q35 1 49 43l116 369q3 12 3 18q0 35 -37 38h-24q-64 -2 -73 -56l-58 -369q-1 -3 -1 -12z" />
<glyph unicode="&#x157;" horiz-adv-x="682" d="M73 -541q0 -30 25 -31q35 1 49 43l116 369q3 12 3 18q0 35 -37 38h-24q-64 -2 -73 -56l-58 -369q-1 -3 -1 -12zM175 52q0 -26 16 -39t40 -13t41.5 14t17.5 38v597q0 25 7 56.5t26.5 70.5t49 71t81 53.5t115.5 21.5q30 0 44 13t14 33q0 12 -8 22t-21 19.5t-17 13.5 q-120 0 -193 -61.5t-96 -154.5l-2 116q-1 28 -18 43t-41 15q-23 0 -39.5 -14t-16.5 -39v-876z" />
<glyph unicode="&#x158;" horiz-adv-x="1318" d="M181 57q0 -28 18.5 -43t43.5 -15t44 15t19 43v629h404q59 0 96 -4t70 -17.5t51 -34t34 -60t25 -88t18 -125.5l34 -298q4 -29 24.5 -44.5t45.5 -15.5t40 17.5t15 44.5q0 8 -1 13l-42 367q-16 133 -72 205.5t-163 94.5v4q136 32 204 117t68 206q0 88 -30.5 153.5 t-77.5 102.5t-116.5 59t-133 29t-141.5 7h-414q-26 0 -44.5 -17.5t-18.5 -41.5v-1303zM306 783v537h381q349 0 349 -253q0 -284 -347 -284h-383zM381 1869q0 -21 12 -40l188 -273q27 -45 76 -45q43 0 75 45l187 274q13 17 13 40q0 20 -14 34t-33 14q-26 0 -48 -28l-180 -243 l-182 243q-21 28 -47 28q-20 0 -33.5 -14.5t-13.5 -34.5z" />
<glyph unicode="&#x159;" horiz-adv-x="682" d="M90 1432q0 -21 12 -40l188 -273q27 -45 76 -45q43 0 75 45l187 274q13 17 13 40q0 20 -14 34t-33 14q-26 0 -48 -28l-180 -243l-182 243q-21 28 -47 28q-20 0 -33.5 -14.5t-13.5 -34.5zM175 52q0 -26 16 -39t40 -13t41.5 14t17.5 38v597q0 25 7 56.5t26.5 70.5t49 71 t81 53.5t115.5 21.5q30 0 44 13t14 33q0 12 -8 22t-21 19.5t-17 13.5q-120 0 -193 -61.5t-96 -154.5l-2 116q-1 28 -18 43t-41 15q-23 0 -39.5 -14t-16.5 -39v-876z" />
<glyph unicode="&#x15a;" horiz-adv-x="1256" d="M156 1056q0 -72 23 -128t68.5 -95.5t97.5 -66.5t124 -51l235 -80q67 -22 107.5 -39t80 -41t59.5 -52t32 -67.5t12 -92.5q0 -126 -103 -195.5t-260 -69.5q-118 0 -216 40.5t-162 100.5q-9 10 -26 10q-23 0 -45.5 -16t-22.5 -34q0 -10 9 -19q177 -182 445 -182 q232 0 366.5 100t134.5 291q0 62 -17 113t-44.5 87t-71.5 66.5t-89 50.5t-106 40l-239 79q-143 46 -207.5 101.5t-64.5 152.5q0 108 95.5 180.5t262.5 72.5q117 0 214 -42.5t141 -81.5q15 -15 37 -15q21 0 36 13t15 31t-16 35q-59 59 -181 109.5t-257 50.5q-199 0 -333 -98 t-134 -258zM574 1632q0 -30 27 -30q13 0 37 16l330 246q15 10 15 33q0 26 -23.5 50.5t-52.5 24.5q-23 0 -35 -10l-290 -305q-8 -8 -8 -25z" />
<glyph unicode="&#x15b;" horiz-adv-x="1010" d="M129 745q0 -50 14 -88t36 -62t61 -43.5t75 -30.5t93 -24l196 -47q104 -24 146 -66t42 -120q0 -98 -72 -150.5t-202 -52.5q-167 0 -306 87q-20 14 -39 14q-18 0 -30 -11.5t-12 -27.5q0 -24 24 -42q50 -39 151.5 -71t196.5 -32q112 0 197 30t137.5 98.5t52.5 168.5 q0 46 -10.5 83.5t-37 74t-78 65t-126.5 46.5l-192 47q-133 32 -169.5 59t-36.5 98q0 178 281 178q35 0 70.5 -5t68.5 -14.5t53 -16.5t49.5 -18.5t33.5 -13.5q11 -4 23 -4q19 0 29.5 11.5t10.5 27.5q0 25 -24 39q-47 27 -137.5 52t-185.5 25q-73 0 -137 -13t-121.5 -41.5 t-91 -82.5t-33.5 -127zM408 1193q0 -30 27 -30q13 0 37 16l330 246q15 10 15 33q0 26 -23.5 50.5t-52.5 24.5q-23 0 -35 -10l-290 -305q-8 -8 -8 -25z" />
<glyph unicode="&#x15c;" horiz-adv-x="1256" d="M156 1056q0 -72 23 -128t68.5 -95.5t97.5 -66.5t124 -51l235 -80q67 -22 107.5 -39t80 -41t59.5 -52t32 -67.5t12 -92.5q0 -126 -103 -195.5t-260 -69.5q-118 0 -216 40.5t-162 100.5q-9 10 -26 10q-23 0 -45.5 -16t-22.5 -34q0 -10 9 -19q177 -182 445 -182 q232 0 366.5 100t134.5 291q0 62 -17 113t-44.5 87t-71.5 66.5t-89 50.5t-106 40l-239 79q-143 46 -207.5 101.5t-64.5 152.5q0 108 95.5 180.5t262.5 72.5q117 0 214 -42.5t141 -81.5q15 -15 37 -15q21 0 36 13t15 31t-16 35q-59 59 -181 109.5t-257 50.5q-199 0 -333 -98 t-134 -258zM358 1640q0 -20 12.5 -33t32.5 -13q32 0 50 28l181 243l181 -243q24 -27 50 -27q20 0 33 12.5t13 32.5q0 17 -14 40l-187 274q-35 45 -77 45q-47 0 -74 -45l-188 -273q-11 -16 -13 -41z" />
<glyph unicode="&#x15d;" horiz-adv-x="1010" d="M129 745q0 -50 14 -88t36 -62t61 -43.5t75 -30.5t93 -24l196 -47q104 -24 146 -66t42 -120q0 -98 -72 -150.5t-202 -52.5q-167 0 -306 87q-20 14 -39 14q-18 0 -30 -11.5t-12 -27.5q0 -24 24 -42q50 -39 151.5 -71t196.5 -32q112 0 197 30t137.5 98.5t52.5 168.5 q0 46 -10.5 83.5t-37 74t-78 65t-126.5 46.5l-192 47q-133 32 -169.5 59t-36.5 98q0 178 281 178q35 0 70.5 -5t68.5 -14.5t53 -16.5t49.5 -18.5t33.5 -13.5q11 -4 23 -4q19 0 29.5 11.5t10.5 27.5q0 25 -24 39q-47 27 -137.5 52t-185.5 25q-73 0 -137 -13t-121.5 -41.5 t-91 -82.5t-33.5 -127zM192 1201q0 -20 12.5 -33t32.5 -13q32 0 50 28l181 243l181 -243q24 -27 50 -27q20 0 33 12.5t13 32.5q0 17 -14 40l-187 274q-35 45 -77 45q-47 0 -74 -45l-188 -273q-11 -16 -13 -41z" />
<glyph unicode="&#x15e;" horiz-adv-x="1256" d="M156 1056q0 -72 23 -128t68.5 -95.5t97.5 -66.5t124 -51l235 -80q67 -22 107.5 -39t80 -41t59.5 -52t32 -67.5t12 -92.5q0 -126 -103 -195.5t-260 -69.5q-118 0 -216 40.5t-162 100.5q-9 10 -26 10q-23 0 -45.5 -16t-22.5 -34q0 -10 9 -19q177 -182 445 -182 q232 0 366.5 100t134.5 291q0 62 -17 113t-44.5 87t-71.5 66.5t-89 50.5t-106 40l-239 79q-143 46 -207.5 101.5t-64.5 152.5q0 108 95.5 180.5t262.5 72.5q117 0 214 -42.5t141 -81.5q15 -15 37 -15q21 0 36 13t15 31t-16 35q-59 59 -181 109.5t-257 50.5q-199 0 -333 -98 t-134 -258zM428 -292q0 -27 71.5 -49t156.5 -22q66 0 118 36.5t52 101.5q0 138 -185 138h-6h-14l29 111h-43l-42 -133q-1 -4 -1 -11q0 -26 28 -26h7q48 0 82 -18.5t34 -56.5q0 -43 -20 -63.5t-71 -20.5q-74 0 -162 35q-8 4 -15 4q-8 0 -13.5 -8t-5.5 -18z" />
<glyph unicode="&#x15f;" horiz-adv-x="1010" d="M129 745q0 -50 14 -88t36 -62t61 -43.5t75 -30.5t93 -24l196 -47q104 -24 146 -66t42 -120q0 -98 -72 -150.5t-202 -52.5q-167 0 -306 87q-20 14 -39 14q-18 0 -30 -11.5t-12 -27.5q0 -24 24 -42q50 -39 151.5 -71t196.5 -32q112 0 197 30t137.5 98.5t52.5 168.5 q0 46 -10.5 83.5t-37 74t-78 65t-126.5 46.5l-192 47q-133 32 -169.5 59t-36.5 98q0 178 281 178q35 0 70.5 -5t68.5 -14.5t53 -16.5t49.5 -18.5t33.5 -13.5q11 -4 23 -4q19 0 29.5 11.5t10.5 27.5q0 25 -24 39q-47 27 -137.5 52t-185.5 25q-73 0 -137 -13t-121.5 -41.5 t-91 -82.5t-33.5 -127zM315 -304q0 -27 71.5 -49t156.5 -22q66 0 118 36.5t52 101.5q0 138 -185 138h-6h-14l29 111h-43l-42 -133q-1 -4 -1 -11q0 -26 28 -26h7q48 0 82 -18.5t34 -56.5q0 -43 -20 -63.5t-71 -20.5q-74 0 -162 35q-8 4 -15 4q-8 0 -13.5 -8t-5.5 -18z" />
<glyph unicode="&#x160;" horiz-adv-x="1256" d="M156 1056q0 -72 23 -128t68.5 -95.5t97.5 -66.5t124 -51l235 -80q67 -22 107.5 -39t80 -41t59.5 -52t32 -67.5t12 -92.5q0 -126 -103 -195.5t-260 -69.5q-118 0 -216 40.5t-162 100.5q-9 10 -26 10q-23 0 -45.5 -16t-22.5 -34q0 -10 9 -19q177 -182 445 -182 q232 0 366.5 100t134.5 291q0 62 -17 113t-44.5 87t-71.5 66.5t-89 50.5t-106 40l-239 79q-143 46 -207.5 101.5t-64.5 152.5q0 108 95.5 180.5t262.5 72.5q117 0 214 -42.5t141 -81.5q15 -15 37 -15q21 0 36 13t15 31t-16 35q-59 59 -181 109.5t-257 50.5q-199 0 -333 -98 t-134 -258zM350 1869q0 -21 12 -40l188 -273q27 -45 76 -45q43 0 75 45l187 274q13 17 13 40q0 20 -14 34t-33 14q-26 0 -48 -28l-180 -243l-182 243q-21 28 -47 28q-20 0 -33.5 -14.5t-13.5 -34.5z" />
<glyph unicode="&#x161;" horiz-adv-x="1251" d="M129 745q0 -50 14 -88t36 -62t61 -43.5t75 -30.5t93 -24l196 -47q104 -24 146 -66t42 -120q0 -98 -72 -150.5t-202 -52.5q-167 0 -306 87q-20 14 -39 14q-18 0 -30 -11.5t-12 -27.5q0 -24 24 -42q50 -39 151.5 -71t196.5 -32q112 0 197 30t137.5 98.5t52.5 168.5 q0 46 -10.5 83.5t-37 74t-78 65t-126.5 46.5l-192 47q-133 32 -169.5 59t-36.5 98q0 178 281 178q35 0 70.5 -5t68.5 -14.5t53 -16.5t49.5 -18.5t33.5 -13.5q11 -4 23 -4q19 0 29.5 11.5t10.5 27.5q0 25 -24 39q-47 27 -137.5 52t-185.5 25q-73 0 -137 -13t-121.5 -41.5 t-91 -82.5t-33.5 -127zM167 1432q0 -21 12 -40l188 -273q27 -45 76 -45q43 0 75 45l187 274q13 17 13 40q0 20 -14 34t-33 14q-26 0 -48 -28l-180 -243l-182 243q-21 28 -47 28q-20 0 -33.5 -14.5t-13.5 -34.5z" />
<glyph unicode="&#x162;" horiz-adv-x="1140" d="M28 1369q0 -21 15 -35t42 -14h424v-1261q0 -27 18 -42.5t44 -15.5q25 0 44 15.5t19 42.5v1261h412q28 0 43.5 13.5t15.5 34.5q0 51 -59 51h-961q-27 0 -42 -14t-15 -36zM375 -292q0 -27 71.5 -49t156.5 -22q66 0 118 36.5t52 101.5q0 138 -185 138h-6h-14l29 111h-43 l-42 -133q-1 -4 -1 -11q0 -26 28 -26h7q48 0 82 -18.5t34 -56.5q0 -43 -20 -63.5t-71 -20.5q-74 0 -162 35q-8 4 -15 4q-8 0 -13.5 -8t-5.5 -18z" />
<glyph unicode="&#x163;" horiz-adv-x="696" d="M47 935q0 -20 11 -28.5t37 -8.5h141v-611q0 -92 17.5 -155.5t49.5 -95.5t67 -45t79 -13q94 0 132 5q17 3 27 15t10 28q0 19 -13.5 32.5t-38.5 13.5h-2l-59 -1h-12q-35 0 -58.5 8t-43.5 30t-29.5 64.5t-9.5 107.5v617h199q26 0 37 8.5t11 28.5q0 40 -48 40h-199v302 q0 24 -15.5 38.5t-35.5 14.5q-10 0 -31.5 -17.5t-20.5 -31.5l-13 -306h-139q-50 0 -50 -40zM225 -292q0 -27 71.5 -49t156.5 -22q66 0 118 36.5t52 101.5q0 138 -185 138h-6h-14l29 111h-43l-42 -133q-1 -4 -1 -11q0 -26 28 -26h7q48 0 82 -18.5t34 -56.5q0 -43 -20 -63.5 t-71 -20.5q-74 0 -162 35q-8 4 -15 4q-8 0 -13.5 -8t-5.5 -18z" />
<glyph unicode="&#x164;" horiz-adv-x="1140" d="M28 1369q0 -21 15 -35t42 -14h424v-1261q0 -27 18 -42.5t44 -15.5q25 0 44 15.5t19 42.5v1261h412q28 0 43.5 13.5t15.5 34.5q0 51 -59 51h-961q-27 0 -42 -14t-15 -36zM300 1864q0 -21 12 -40l188 -273q27 -45 76 -45q43 0 75 45l187 274q13 17 13 40q0 20 -14 34 t-33 14q-26 0 -48 -28l-180 -243l-182 243q-21 28 -47 28q-20 0 -33.5 -14.5t-13.5 -34.5z" />
<glyph unicode="&#x165;" horiz-adv-x="696" d="M47 935q0 -20 11 -28.5t37 -8.5h141v-611q0 -92 17.5 -155.5t49.5 -95.5t67 -45t79 -13q94 0 132 5q17 3 27 15t10 28q0 19 -13.5 32.5t-38.5 13.5h-2l-59 -1h-12q-35 0 -58.5 8t-43.5 30t-29.5 64.5t-9.5 107.5v617h199q26 0 37 8.5t11 28.5q0 40 -48 40h-199v302 q0 24 -15.5 38.5t-35.5 14.5q-10 0 -31.5 -17.5t-20.5 -31.5l-13 -306h-139q-50 0 -50 -40zM591 927q0 -30 25 -31q35 1 49 43l116 369q3 12 3 18q0 35 -37 38h-24q-64 -2 -73 -56l-58 -369q-1 -3 -1 -12z" />
<glyph unicode="&#x166;" horiz-adv-x="1140" d="M28 1369q0 -21 15 -35t42 -14h424v-1261q0 -27 18 -42.5t44 -15.5q25 0 44 15.5t19 42.5v1261h412q28 0 43.5 13.5t15.5 34.5q0 51 -59 51h-961q-27 0 -42 -14t-15 -36zM288 713q0 -47 61 -47h457q58 0 58 47t-58 47h-457q-61 0 -61 -47z" />
<glyph unicode="&#x167;" horiz-adv-x="696" d="M34 534q0 -47 61 -47h457q58 0 58 47t-58 47h-457q-61 0 -61 -47zM47 935q0 -20 11 -28.5t37 -8.5h141v-611q0 -92 17.5 -155.5t49.5 -95.5t67 -45t79 -13q94 0 132 5q17 3 27 15t10 28q0 19 -13.5 32.5t-38.5 13.5h-2l-59 -1h-12q-35 0 -58.5 8t-43.5 30t-29.5 64.5 t-9.5 107.5v617h199q26 0 37 8.5t11 28.5q0 40 -48 40h-199v302q0 24 -15.5 38.5t-35.5 14.5q-10 0 -31.5 -17.5t-20.5 -31.5l-13 -306h-139q-50 0 -50 -40z" />
<glyph unicode="&#x168;" horiz-adv-x="1479" d="M202 494q0 -127 46 -228t122.5 -162.5t170.5 -93.5t197 -32q82 0 159 19.5t146 61.5t120.5 101.5t82 145.5t30.5 188v861q0 28 -18.5 43.5t-43.5 15.5q-26 0 -45 -16t-19 -43v-860q0 -100 -35 -181.5t-94 -131.5t-131.5 -77t-151.5 -27t-151.5 27t-131 77t-93.5 131.5 t-35 181.5v860q0 28 -18 43.5t-43 15.5q-26 0 -45 -16t-19 -43v-861zM470 1594q0 -12 8.5 -19t21.5 -7q24 0 47 25q30 33 77 33q35 0 111.5 -29t109.5 -29q108 0 163 108q1 -2 8.5 -2t15.5 3q2 23 -9.5 36t-33.5 13h-2l-2 1q-12 0 -53 -30.5t-65 -30.5q-30 0 -107.5 27 t-120.5 27q-108 0 -164 -105q-5 -12 -5 -21z" />
<glyph unicode="&#x169;" d="M157 368q0 -393 361 -393q116 0 206.5 58t120.5 163v-143q0 -25 17.5 -39t39.5 -14q24 0 41.5 14t17.5 40v879q0 25 -16.5 38.5t-39.5 13.5t-41.5 -14.5t-18.5 -37.5v-572q-15 -148 -98.5 -226.5t-213.5 -78.5q-136 0 -198.5 79t-62.5 231v567q0 25 -17 38.5t-41 13.5 q-23 0 -40 -13.5t-17 -38.5v-565zM274 1160q0 -12 8.5 -19t21.5 -7q24 0 47 25q30 33 77 33q35 0 111.5 -29t109.5 -29q108 0 163 108q1 -2 8.5 -2t15.5 3q2 23 -9.5 36t-33.5 13h-2l-2 1q-12 0 -53 -30.5t-65 -30.5q-30 0 -107.5 27t-120.5 27q-108 0 -164 -105 q-5 -12 -5 -21z" />
<glyph unicode="&#x16a;" horiz-adv-x="1479" d="M202 494q0 -127 46 -228t122.5 -162.5t170.5 -93.5t197 -32q82 0 159 19.5t146 61.5t120.5 101.5t82 145.5t30.5 188v861q0 28 -18.5 43.5t-43.5 15.5q-26 0 -45 -16t-19 -43v-860q0 -100 -35 -181.5t-94 -131.5t-131.5 -77t-151.5 -27t-151.5 27t-131 77t-93.5 131.5 t-35 181.5v860q0 28 -18 43.5t-43 15.5q-26 0 -45 -16t-19 -43v-861zM463 1669q0 -47 61 -47h457q58 0 58 47t-58 47h-457q-61 0 -61 -47z" />
<glyph unicode="&#x16b;" d="M157 368q0 -393 361 -393q116 0 206.5 58t120.5 163v-143q0 -25 17.5 -39t39.5 -14q24 0 41.5 14t17.5 40v879q0 25 -16.5 38.5t-39.5 13.5t-41.5 -14.5t-18.5 -37.5v-572q-15 -148 -98.5 -226.5t-213.5 -78.5q-136 0 -198.5 79t-62.5 231v567q0 25 -17 38.5t-41 13.5 q-23 0 -40 -13.5t-17 -38.5v-565zM267 1235q0 -47 61 -47h457q58 0 58 47t-58 47h-457q-61 0 -61 -47z" />
<glyph unicode="&#x16c;" horiz-adv-x="1479" d="M202 494q0 -127 46 -228t122.5 -162.5t170.5 -93.5t197 -32q82 0 159 19.5t146 61.5t120.5 101.5t82 145.5t30.5 188v861q0 28 -18.5 43.5t-43.5 15.5q-26 0 -45 -16t-19 -43v-860q0 -100 -35 -181.5t-94 -131.5t-131.5 -77t-151.5 -27t-151.5 27t-131 77t-93.5 131.5 t-35 181.5v860q0 28 -18 43.5t-43 15.5q-26 0 -45 -16t-19 -43v-861zM499 1825q0 -9 4 -17q31 -68 95 -105t154 -37t154 37t95 105q4 8 4 15q0 35 -39 35q-17 0 -36 -17q-37 -48 -74.5 -66.5t-103.5 -18.5q-68 0 -106 18.5t-72 66.5q-15 17 -36 17q-17 0 -28 -9t-11 -24z " />
<glyph unicode="&#x16d;" d="M157 368q0 -393 361 -393q116 0 206.5 58t120.5 163v-143q0 -25 17.5 -39t39.5 -14q24 0 41.5 14t17.5 40v879q0 25 -16.5 38.5t-39.5 13.5t-41.5 -14.5t-18.5 -37.5v-572q-15 -148 -98.5 -226.5t-213.5 -78.5q-136 0 -198.5 79t-62.5 231v567q0 25 -17 38.5t-41 13.5 q-23 0 -40 -13.5t-17 -38.5v-565zM304 1391q0 -9 4 -17q31 -68 95 -105t154 -37t154 37t95 105q4 8 4 15q0 35 -39 35q-17 0 -36 -17q-37 -48 -74.5 -66.5t-103.5 -18.5q-68 0 -106 18.5t-72 66.5q-15 17 -36 17q-17 0 -28 -9t-11 -24z" />
<glyph unicode="&#x16e;" horiz-adv-x="1479" d="M202 494q0 -127 46 -228t122.5 -162.5t170.5 -93.5t197 -32q82 0 159 19.5t146 61.5t120.5 101.5t82 145.5t30.5 188v861q0 28 -18.5 43.5t-43.5 15.5q-26 0 -45 -16t-19 -43v-860q0 -100 -35 -181.5t-94 -131.5t-131.5 -77t-151.5 -27t-151.5 27t-131 77t-93.5 131.5 t-35 181.5v860q0 28 -18 43.5t-43 15.5q-26 0 -45 -16t-19 -43v-861zM572 1756q0 -82 47 -127t133 -45q85 0 132 45t47 127q0 81 -47 125.5t-132 44.5q-86 0 -133 -44.5t-47 -125.5zM639 1756q0 51 29.5 79.5t83.5 28.5t83.5 -28.5t29.5 -79.5t-29.5 -80t-83.5 -29t-83.5 29 t-29.5 80z" />
<glyph unicode="&#x16f;" d="M157 368q0 -393 361 -393q116 0 206.5 58t120.5 163v-143q0 -25 17.5 -39t39.5 -14q24 0 41.5 14t17.5 40v879q0 25 -16.5 38.5t-39.5 13.5t-41.5 -14.5t-18.5 -37.5v-572q-15 -148 -98.5 -226.5t-213.5 -78.5q-136 0 -198.5 79t-62.5 231v567q0 25 -17 38.5t-41 13.5 q-23 0 -40 -13.5t-17 -38.5v-565zM376 1322q0 -82 47 -127t133 -45q85 0 132 45t47 127q0 81 -47 125.5t-132 44.5q-86 0 -133 -44.5t-47 -125.5zM443 1322q0 51 29.5 79.5t83.5 28.5t83.5 -28.5t29.5 -79.5t-29.5 -80t-83.5 -29t-83.5 29t-29.5 80z" />
<glyph unicode="&#x170;" horiz-adv-x="1479" d="M202 494q0 -127 46 -228t122.5 -162.5t170.5 -93.5t197 -32q82 0 159 19.5t146 61.5t120.5 101.5t82 145.5t30.5 188v861q0 28 -18.5 43.5t-43.5 15.5q-26 0 -45 -16t-19 -43v-860q0 -100 -35 -181.5t-94 -131.5t-131.5 -77t-151.5 -27t-151.5 27t-131 77t-93.5 131.5 t-35 181.5v860q0 28 -18 43.5t-43 15.5q-26 0 -45 -16t-19 -43v-861zM582 1526q0 -28 28 -28q20 0 38 15l326 242q18 12 18 36q0 29 -23.5 53t-52.5 24q-20 0 -41 -18l-279 -293q-14 -14 -14 -31zM858 1526q0 -12 7.5 -20t21.5 -8q17 0 35 15l326 242q20 13 20 38 q0 28 -24.5 51.5t-53.5 23.5q-20 0 -41 -18l-279 -293q-12 -13 -12 -31z" />
<glyph unicode="&#x171;" d="M157 368q0 -393 361 -393q116 0 206.5 58t120.5 163v-143q0 -25 17.5 -39t39.5 -14q24 0 41.5 14t17.5 40v879q0 25 -16.5 38.5t-39.5 13.5t-41.5 -14.5t-18.5 -37.5v-572q-15 -148 -98.5 -226.5t-213.5 -78.5q-136 0 -198.5 79t-62.5 231v567q0 25 -17 38.5t-41 13.5 q-23 0 -40 -13.5t-17 -38.5v-565zM386 1092q0 -28 28 -28q20 0 38 15l326 242q18 12 18 36q0 29 -23.5 53t-52.5 24q-20 0 -41 -18l-279 -293q-14 -14 -14 -31zM662 1092q0 -12 7.5 -20t21.5 -8q17 0 35 15l326 242q20 13 20 38q0 28 -24.5 51.5t-53.5 23.5q-20 0 -41 -18 l-279 -293q-12 -13 -12 -31z" />
<glyph unicode="&#x172;" horiz-adv-x="1479" d="M202 494q0 -127 46 -228t122.5 -162.5t170.5 -93.5t197 -32q82 0 159 19.5t146 61.5t120.5 101.5t82 145.5t30.5 188v861q0 28 -18.5 43.5t-43.5 15.5q-26 0 -45 -16t-19 -43v-860q0 -100 -35 -181.5t-94 -131.5t-131.5 -77t-151.5 -27t-151.5 27t-131 77t-93.5 131.5 t-35 181.5v860q0 28 -18 43.5t-43 15.5q-26 0 -45 -16t-19 -43v-861zM665 -278q0 -71 53 -110t147 -39q65 0 136 17v59q-215 0 -215 146q0 82 71 214h-48q-144 -168 -144 -287z" />
<glyph unicode="&#x173;" d="M157 368q0 -393 361 -393q116 0 206.5 58t120.5 163v-143q0 -25 17.5 -39t39.5 -14q24 0 41.5 14t17.5 40v879q0 25 -16.5 38.5t-39.5 13.5t-41.5 -14.5t-18.5 -37.5v-572q-15 -148 -98.5 -226.5t-213.5 -78.5q-136 0 -198.5 79t-62.5 231v567q0 25 -17 38.5t-41 13.5 q-23 0 -40 -13.5t-17 -38.5v-565zM727 -269q0 -71 53 -110t147 -39q65 0 136 17v59q-215 0 -215 146q0 82 71 214h-48q-144 -168 -144 -287z" />
<glyph unicode="&#x174;" horiz-adv-x="2106" d="M95 1368q0 -15 4 -28l350 -1273q11 -38 35 -58.5t54 -20.5q31 0 59.5 21.5t43.5 60.5l434 1206l435 -1206q30 -81 97 -81q31 0 57.5 21t36.5 57l351 1273q4 13 4 27q0 28 -17.5 44.5t-40.5 16.5q-21 0 -38 -12.5t-23 -36.5l-336 -1264l-417 1170q-31 86 -52.5 109.5 t-56.5 23.5q-33 0 -56.5 -27t-51.5 -106l-418 -1170l-336 1264q-6 24 -23 36.5t-38 12.5q-23 0 -40 -16t-17 -44zM766 1640q0 -20 12.5 -33t32.5 -13q32 0 50 28l181 243l181 -243q24 -27 50 -27q20 0 33 12.5t13 32.5q0 17 -14 40l-187 274q-35 45 -77 45q-47 0 -74 -45 l-188 -273q-11 -16 -13 -41z" />
<glyph unicode="&#x175;" horiz-adv-x="1684" d="M76 930q0 -13 6 -28l320 -839q26 -63 77 -63q47 0 75 67l306 809l306 -809q28 -67 75 -67q51 0 77 63l320 839q6 15 6 28q0 23 -16 37.5t-37 14.5q-38 0 -53 -41l-302 -808l-291 777q-28 75 -85 75t-85 -75l-291 -777l-301 808q-16 41 -54 41q-21 0 -37 -14.5t-16 -37.5z M569 1199q0 -20 12.5 -33t32.5 -13q32 0 50 28l181 243l181 -243q24 -27 50 -27q20 0 33 12.5t13 32.5q0 17 -14 40l-187 274q-35 45 -77 45q-47 0 -74 -45l-188 -273q-11 -16 -13 -41z" />
<glyph unicode="&#x176;" horiz-adv-x="1263" d="M82 1362q0 -18 13 -37l480 -711v-556q0 -27 19 -41.5t44 -14.5t43.5 15t18.5 42v557l479 712q11 17 11 33q0 22 -15 38t-35 16q-29 0 -52 -34l-443 -667l-452 679q-17 23 -47 23q-25 0 -44.5 -15.5t-19.5 -38.5zM382 1640q0 -20 12.5 -33t32.5 -13q32 0 50 28l181 243 l181 -243q24 -27 50 -27q20 0 33 12.5t13 32.5q0 17 -14 40l-187 274q-35 45 -77 45q-47 0 -74 -45l-188 -273q-11 -16 -13 -41z" />
<glyph unicode="&#x177;" horiz-adv-x="1005" d="M94 932q0 -15 5 -26l389 -869l-148 -336q-7 -15 -7 -29q0 -20 13 -31t33 -11q49 0 71 52l545 1228q2 10 2 14q0 23 -18.5 40t-40.5 17q-35 0 -50 -37l-339 -768l-349 781q-15 35 -48 35q-23 0 -40.5 -17.5t-17.5 -42.5zM277 1194q0 -20 12.5 -33t32.5 -13q32 0 50 28 l181 243l181 -243q24 -27 50 -27q20 0 33 12.5t13 32.5q0 17 -14 40l-187 274q-35 45 -77 45q-47 0 -74 -45l-188 -273q-11 -16 -13 -41z" />
<glyph unicode="&#x178;" horiz-adv-x="1263" d="M82 1362q0 -18 13 -37l480 -711v-556q0 -27 19 -41.5t44 -14.5t43.5 15t18.5 42v557l479 712q11 17 11 33q0 22 -15 38t-35 16q-29 0 -52 -34l-443 -667l-452 679q-17 23 -47 23q-25 0 -44.5 -15.5t-19.5 -38.5zM394 1698q0 -32 22.5 -56.5t66.5 -24.5q45 0 68 24.5 t23 56.5q0 31 -23 54t-68 23q-43 0 -66 -23t-23 -54zM746 1698q0 -32 23.5 -56.5t67.5 -24.5q43 0 66 24.5t23 56.5q0 31 -22.5 54t-66.5 23t-67.5 -23t-23.5 -54z" />
<glyph unicode="&#x179;" horiz-adv-x="1145" d="M112 79q0 -33 24 -56t72 -23h811q29 0 44 13.5t15 36.5q0 22 -15.5 35.5t-43.5 13.5h-781l829 1187q22 30 22 64q0 31 -20.5 50t-55.5 19h-839q-27 0 -42 -14t-15 -35q0 -23 15 -36.5t42 -13.5h788l-834 -1187q-16 -26 -16 -54zM569 1632q0 -30 27 -30q13 0 37 16 l330 246q15 10 15 33q0 26 -23.5 50.5t-52.5 24.5q-23 0 -35 -10l-290 -305q-8 -8 -8 -25z" />
<glyph unicode="&#x17a;" horiz-adv-x="908" d="M87 66q0 -29 20 -47.5t56 -18.5h580q26 0 41 15t15 35q0 19 -15 33.5t-41 14.5h-524l566 763q23 32 23 57q0 30 -22 48.5t-59 18.5h-579q-23 0 -37 -15t-14 -35q0 -18 13 -31t38 -13h525l-565 -768q-21 -30 -21 -57zM389 1195q0 -30 27 -30q13 0 37 16l330 246 q15 10 15 33q0 26 -23.5 50.5t-52.5 24.5q-23 0 -35 -10l-290 -305q-8 -8 -8 -25z" />
<glyph unicode="&#x17b;" horiz-adv-x="1145" d="M112 79q0 -33 24 -56t72 -23h811q29 0 44 13.5t15 36.5q0 22 -15.5 35.5t-43.5 13.5h-781l829 1187q22 30 22 64q0 31 -20.5 50t-55.5 19h-839q-27 0 -42 -14t-15 -35q0 -23 15 -36.5t42 -13.5h788l-834 -1187q-16 -26 -16 -54zM541 1687q0 -33 23.5 -56t66.5 -23 t66.5 23t23.5 56q0 31 -24 55t-66 24q-43 0 -66.5 -24t-23.5 -55z" />
<glyph unicode="&#x17c;" horiz-adv-x="908" d="M87 66q0 -29 20 -47.5t56 -18.5h580q26 0 41 15t15 35q0 19 -15 33.5t-41 14.5h-524l566 763q23 32 23 57q0 30 -22 48.5t-59 18.5h-579q-23 0 -37 -15t-14 -35q0 -18 13 -31t38 -13h525l-565 -768q-21 -30 -21 -57zM361 1250q0 -33 23.5 -56t66.5 -23t66.5 23t23.5 56 q0 31 -24 55t-66 24q-43 0 -66.5 -24t-23.5 -55z" />
<glyph unicode="&#x17d;" horiz-adv-x="1145" d="M112 79q0 -33 24 -56t72 -23h811q29 0 44 13.5t15 36.5q0 22 -15.5 35.5t-43.5 13.5h-781l829 1187q22 30 22 64q0 31 -20.5 50t-55.5 19h-839q-27 0 -42 -14t-15 -35q0 -23 15 -36.5t42 -13.5h788l-834 -1187q-16 -26 -16 -54zM345 1869q0 -21 12 -40l188 -273 q27 -45 76 -45q43 0 75 45l187 274q13 17 13 40q0 20 -14 34t-33 14q-26 0 -48 -28l-180 -243l-182 243q-21 28 -47 28q-20 0 -33.5 -14.5t-13.5 -34.5z" />
<glyph unicode="&#x17e;" horiz-adv-x="908" d="M87 66q0 -29 20 -47.5t56 -18.5h580q26 0 41 15t15 35q0 19 -15 33.5t-41 14.5h-524l566 763q23 32 23 57q0 30 -22 48.5t-59 18.5h-579q-23 0 -37 -15t-14 -35q0 -18 13 -31t38 -13h525l-565 -768q-21 -30 -21 -57zM165 1432q0 -21 12 -40l188 -273q27 -45 76 -45 q43 0 75 45l187 274q13 17 13 40q0 20 -14 34t-33 14q-26 0 -48 -28l-180 -243l-182 243q-21 28 -47 28q-20 0 -33.5 -14.5t-13.5 -34.5z" />
<glyph unicode="&#x192;" horiz-adv-x="1132" d="M-30 -489q0 -19 16.5 -32t47.5 -13q45 0 85 12t85.5 45.5t84.5 88t78 146.5t69 213q37 149 102 454.5t91 415.5h194q27 0 41.5 17t14.5 40t-14.5 40t-41.5 17h-167q63 257 129 364.5t167 107.5q40 0 61 14t21 34q0 19 -18.5 33.5t-48.5 14.5q-143 0 -257 -137.5 t-170 -430.5h-186q-27 0 -42.5 -16.5t-15.5 -39.5q0 -24 15.5 -41t42.5 -17h160q-19 -83 -85 -398.5t-105 -469.5q-98 -393 -269 -406q-42 -4 -63.5 -19.5t-21.5 -36.5z" />
<glyph unicode="&#x2c6;" horiz-adv-x="569" d="M14 1242q0 -20 12.5 -33t32.5 -13q32 0 50 28l181 243l181 -243q24 -27 50 -27q20 0 33 12.5t13 32.5q0 17 -14 40l-187 274q-35 45 -77 45q-47 0 -74 -45l-188 -273q-11 -16 -13 -41z" />
<glyph unicode="&#x2da;" horiz-adv-x="569" d="M105 1358q0 -82 47 -127t133 -45q85 0 132 45t47 127q0 81 -47 125.5t-132 44.5q-86 0 -133 -44.5t-47 -125.5zM172 1358q0 51 29.5 79.5t83.5 28.5t83.5 -28.5t29.5 -79.5t-29.5 -80t-83.5 -29t-83.5 29t-29.5 80z" />
<glyph unicode="&#x2dc;" horiz-adv-x="569" d="M11 1196q0 -12 8.5 -19t21.5 -7q24 0 47 25q30 33 77 33q35 0 111.5 -29t109.5 -29q108 0 163 108q1 -2 8.5 -2t15.5 3q2 23 -9.5 36t-33.5 13h-2l-2 1q-12 0 -53 -30.5t-65 -30.5q-30 0 -107.5 27t-120.5 27q-108 0 -164 -105q-5 -12 -5 -21z" />
<glyph unicode="&#x3a9;" horiz-adv-x="1473" d="M212 915q0 -184 117.5 -397t299.5 -405h-282q-16 0 -24.5 -16.5t-8.5 -39.5q0 -24 8.5 -40.5t24.5 -16.5h451q-119 167 -196 282.5t-151 244.5t-109.5 233.5t-35.5 190.5q0 191 138 296t432 105q570 0 570 -401q0 -86 -35.5 -191t-109 -233.5t-151 -245t-195.5 -281.5 h451q16 0 24.5 16.5t8.5 40.5q0 23 -8.5 39.5t-24.5 16.5h-282q188 205 302.5 411.5t114.5 390.5q0 131 -33 227.5t-108 170t-206 110.5t-318 37q-323 0 -493.5 -146t-170.5 -399z" />
<glyph unicode="&#x3c0;" horiz-adv-x="1146" d="M129 8q0 -25 13 -40t33 -15q38 0 60 49q56 135 105.5 429t61.5 519h395v-740q0 -239 113 -239q25 0 45.5 9t20.5 21q0 9 -13.5 35.5t-27 75.5t-13.5 110v728h74q29 0 44 15t15 38q0 21 -15.5 37t-43.5 16h-779q-38 0 -58 -15.5t-20 -37.5q0 -23 19.5 -38t58.5 -15h66 q0 -275 -44 -507t-103 -396q-7 -20 -7 -39z" />
<glyph unicode="&#x2000;" horiz-adv-x="999" />
<glyph unicode="&#x2001;" horiz-adv-x="1999" />
<glyph unicode="&#x2002;" horiz-adv-x="999" />
<glyph unicode="&#x2003;" horiz-adv-x="1999" />
<glyph unicode="&#x2004;" horiz-adv-x="666" />
<glyph unicode="&#x2005;" horiz-adv-x="499" />
<glyph unicode="&#x2006;" horiz-adv-x="333" />
<glyph unicode="&#x2007;" horiz-adv-x="333" />
<glyph unicode="&#x2008;" horiz-adv-x="249" />
<glyph unicode="&#x2009;" horiz-adv-x="399" />
<glyph unicode="&#x200a;" horiz-adv-x="111" />
<glyph unicode="&#x2010;" horiz-adv-x="724" d="M42 523q0 -39 61 -39h520q59 0 59 39q0 43 -59 43h-520q-61 0 -61 -43z" />
<glyph unicode="&#x2011;" horiz-adv-x="724" d="M42 523q0 -39 61 -39h520q59 0 59 39q0 43 -59 43h-520q-61 0 -61 -43z" />
<glyph unicode="&#x2012;" horiz-adv-x="724" d="M42 523q0 -39 61 -39h520q59 0 59 39q0 43 -59 43h-520q-61 0 -61 -43z" />
<glyph unicode="&#x2013;" horiz-adv-x="1024" d="M3 526q0 -25 14.5 -41.5t42.5 -16.5h903q28 0 43 17t15 40t-15 40t-43 17h-903q-28 0 -42.5 -16.5t-14.5 -39.5z" />
<glyph unicode="&#x2014;" horiz-adv-x="2048" d="M3 526q0 -25 14.5 -41.5t43.5 -16.5h1927q28 0 43 17t15 40t-15 40t-43 17h-1927q-29 0 -43.5 -16.5t-14.5 -39.5z" />
<glyph unicode="&#x2018;" horiz-adv-x="565" d="M179 1118q0 -15 9 -26.5t29 -11.5h56q30 2 49 13t24 43l42 240q1 3 1 12q0 31 -25 31h-18q-21 0 -33 -9.5t-23 -33.5l-107 -240q-4 -8 -4 -18z" />
<glyph unicode="&#x2019;" horiz-adv-x="565" d="M194 1111q0 -31 25 -31h18q21 0 33 9.5t23 33.5l108 240q3 6 3 18q0 38 -37 38h-56q-30 -2 -49 -13t-24 -43l-43 -240q-1 -3 -1 -12z" />
<glyph unicode="&#x201a;" horiz-adv-x="565" d="M194 -148q0 -30 25 -31h18q23 0 34 9t22 34l108 241q3 6 3 18q0 38 -37 38h-56q-64 -2 -73 -56l-43 -241q-1 -3 -1 -12z" />
<glyph unicode="&#x201c;" horiz-adv-x="1137" d="M283 1118q0 -15 9 -26.5t29 -11.5h56q30 2 49 13t24 43l42 240q1 3 1 12q0 31 -25 31h-18q-21 0 -32.5 -9t-23.5 -34l-107 -240q-4 -8 -4 -18zM611 1118q0 -15 9 -26.5t29 -11.5h56q30 2 49 13t24 43l42 240q1 3 1 12q0 31 -25 31h-18q-21 0 -33 -9.5t-23 -33.5 l-107 -240q-4 -8 -4 -18z" />
<glyph unicode="&#x201d;" horiz-adv-x="1137" d="M285 1110q0 -31 24 -31h1h18q21 0 33 9.5t23 33.5l108 241q3 6 3 19q0 37 -34 37h-3h-56q-64 -2 -73 -56l-43 -241q-1 -3 -1 -12zM621 1122q-7 -43 23 -43h1h18q21 0 33 9.5t23 33.5l107 241q4 8 4 19q0 37 -35 37h-3h-56q-64 -2 -73 -56z" />
<glyph unicode="&#x201e;" horiz-adv-x="1137" d="M287 -181q0 -30 25 -31h18h3q20 0 31.5 9.5t21.5 33.5l107 241q4 8 4 18q0 35 -38 38h-56q-64 -2 -73 -56l-42 -241q-1 -3 -1 -12zM663 -169q-7 -42 24 -43h18h3q20 0 31 9.5t22 33.5l107 241q4 8 4 18q0 35 -38 38h-56q-64 -2 -73 -56z" />
<glyph unicode="&#x2026;" horiz-adv-x="1695" d="M193 79q0 -31 23 -54.5t66 -23.5q42 0 65.5 23t23.5 55q0 29 -23 53t-66 24q-42 0 -65.5 -23.5t-23.5 -53.5zM757 79q0 -31 23.5 -54.5t66.5 -23.5q42 0 65 23t23 55q0 29 -22 53t-66 24q-42 0 -66 -23.5t-24 -53.5zM1323 79q0 -31 22.5 -54.5t65.5 -23.5t66 23t23 55 q0 29 -23 53t-66 24q-42 0 -65 -23.5t-23 -53.5z" />
<glyph unicode="&#x202f;" horiz-adv-x="399" />
<glyph unicode="&#x2030;" horiz-adv-x="2291" d="M51 1018q0 -97 36 -180t112 -136.5t177 -53.5q98 0 173 52.5t113 136t38 181.5q0 151 -88.5 260t-236.5 109t-236 -108.5t-88 -260.5zM157 1018q0 50 12 97.5t36 90.5t68 69.5t101 26.5q58 0 102 -26.5t68.5 -69.5t36 -90.5t11.5 -97.5q0 -38 -6.5 -75.5t-22.5 -76 t-40 -67.5t-62.5 -47.5t-86.5 -18.5q-57 0 -101 26.5t-68.5 69.5t-36 91t-11.5 98zM287 -21q0 -1 1 -2.5t1 -2.5q0 -21 16 -34.5t38 -13.5q3 0 7.5 -0.5t6.5 -0.5q13 0 20 11l819 1421q2 4 2 6q0 1 -0.5 3.5t-0.5 4.5q0 22 -14 37.5t-34 15.5q-33 0 -53 -36l-808 -1406v-1 q-1 -1 -1 -2zM810 340q0 -97 37 -180t113 -136.5t176 -53.5q147 0 235.5 108.5t88.5 260.5q0 98 -37 181t-112.5 136t-175.5 53q-148 0 -236.5 -108.5t-88.5 -260.5zM919 340q0 50 11.5 97.5t35 91t67.5 70t102 26.5q47 0 85 -18t62.5 -47t40.5 -67t23 -76t7 -77 q0 -49 -11 -96t-35 -90.5t-68.5 -70.5t-103.5 -27q-58 0 -101.5 26t-67.5 69t-35.5 90.5t-11.5 98.5zM1554 340q0 -71 21.5 -137t61.5 -118.5t103 -83.5t140 -31q147 0 235 108.5t88 260.5q0 99 -37.5 182t-112.5 135.5t-174 52.5t-174.5 -52.5t-113 -135.5t-37.5 -181z M1661 340q0 48 11 95t35 91.5t68.5 71.5t103.5 27q58 0 102 -26.5t68 -70t35.5 -91t11.5 -97.5q0 -48 -11 -95t-34.5 -91t-68 -71t-103.5 -27q-58 0 -102 26t-68 69t-36 91t-12 98z" />
<glyph unicode="&#x2039;" horiz-adv-x="565" d="M122 548l198 -364q21 -38 53 -38q17 0 28 10.5t11 28.5q0 9 -4 21l-161 342l161 342q4 7 4 19q0 18 -11 29.5t-28 11.5q-34 0 -53 -38z" />
<glyph unicode="&#x203a;" horiz-adv-x="565" d="M152 186q0 -17 12 -28.5t29 -11.5q35 0 53 38l199 364l-199 364q-20 38 -53 38q-17 0 -29 -11.5t-12 -29.5q0 -9 6 -19l163 -342l-163 -342q-6 -13 -6 -20z" />
<glyph unicode="&#x2044;" horiz-adv-x="565" d="M-26 -23q0 -25 17.5 -40.5t41.5 -15.5q45 0 60 45l493 1486q5 18 5 24q0 25 -18.5 40.5t-43.5 15.5q-48 0 -61 -44l-489 -1487q-1 -4 -2 -9.5t-2 -9t-1 -5.5z" />
<glyph unicode="&#x205f;" horiz-adv-x="499" />
<glyph unicode="&#x20ac;" horiz-adv-x="1357" d="M28 569q0 -20 9 -33.5t26 -13.5h129q16 -92 47.5 -171.5t84.5 -149t123 -118.5t165 -77t208 -28q201 0 360 107q46 31 46 62q0 18 -14.5 29.5t-33.5 11.5t-34 -11q-81 -50 -151 -74.5t-166 -24.5q-78 0 -145.5 17t-118.5 48t-91.5 71.5t-69 91.5t-47.5 104t-30 112h549 q20 0 30.5 14t10.5 34t-11 36t-29 16h-562q-3 35 -3 71q0 39 3 78h561q20 0 30.5 14t10.5 34t-11 35.5t-29 15.5h-548q14 71 39 133t66.5 120t95.5 99t130.5 65.5t167.5 24.5t160 -14.5t89 -24.5t50 -29q18 -11 33 -11q18 0 28.5 13.5t10.5 31.5q0 24 -16 36q-3 4 -15 13.5 t-42 24.5t-68.5 28t-99.5 22.5t-130 9.5q-111 0 -206 -29.5t-164.5 -79.5t-123.5 -120t-87 -148t-50 -165h-132q-16 0 -25.5 -16t-9.5 -36q0 -19 9 -33t26 -14h118q-3 -39 -3 -78q0 -36 2 -71h-117q-16 0 -25.5 -16.5t-9.5 -36.5z" />
<glyph unicode="&#x2122;" horiz-adv-x="1922" d="M60 1317q0 -17 10.5 -29t28.5 -12h201v-569q0 -24 16 -37.5t38 -13.5t38.5 13.5t16.5 37.5v569h201q18 0 27.5 12t9.5 28q0 18 -9.5 30.5t-27.5 12.5h-511q-19 0 -29 -12.5t-10 -29.5zM802 706q0 -24 16 -37.5t38 -13.5q23 0 39.5 13.5t16.5 37.5v485l258 -503 q13 -28 47 -28q29 0 47 28l257 503v-485q0 -24 16 -37.5t39 -13.5t39.5 13.5t16.5 37.5v557q0 48 -23 71.5t-60 23.5q-54 0 -90 -68l-240 -465l-242 465q-39 69 -91 69q-37 0 -60.5 -24t-23.5 -72v-557z" />
<glyph unicode="&#x2202;" horiz-adv-x="1098" d="M91 444q0 -72 15 -139t47.5 -127t79 -104.5t113.5 -70.5t146 -26q122 0 218 65.5t157 181t92.5 267t31.5 328.5q0 198 -38 348.5t-107 242.5t-160 137.5t-202 45.5q-150 0 -315 -76q-31 -14 -31 -44q0 -22 15.5 -39t36.5 -17q10 0 20 4q165 63 266 63q67 0 124.5 -20 t108.5 -66t86.5 -116t56 -175t20.5 -237q0 -112 -2 -112l-10 12q-9 11 -26.5 29t-40.5 39.5t-54 43.5t-64.5 40t-74 29.5t-80.5 11.5q-84 0 -161.5 -37t-137 -102.5t-95 -164.5t-35.5 -215zM211 448q0 171 96.5 292t229.5 121q60 0 115.5 -23t94.5 -60t65.5 -76.5 t40.5 -78.5q-15 -147 -59 -267.5t-120.5 -197t-170.5 -76.5h-2q-129 0 -209.5 103t-80.5 263z" />
<glyph unicode="&#x2206;" horiz-adv-x="1135" d="M-5 0h1147l-549 1391q-11 31 -21 31q-11 0 -26 -31zM122 65l448 1183l450 -1183h-898z" />
<glyph unicode="&#x220f;" horiz-adv-x="1410" d="M61 1365q0 -21 16.5 -37t46.5 -16h151v-1255q0 -27 17 -42t41 -15t42 15t18 42v1255h617v-1254q0 -28 17.5 -43t41.5 -15t41 15t17 43l1 1254h154q25 0 38.5 16t13.5 38q0 23 -13.5 38.5t-38.5 15.5h-1160q-28 0 -44.5 -16.5t-16.5 -38.5z" />
<glyph unicode="&#x2211;" horiz-adv-x="1124" d="M36 -146q0 -21 13.5 -36t41.5 -15h986q29 0 45 18t16 42t-16 41.5t-45 17.5h-870l547 706l-509 689h802q27 0 41 14.5t14 37.5q0 21 -14.5 36.5t-40.5 15.5h-924q-33 0 -47.5 -14.5t-14.5 -35.5q0 -18 11 -36l538 -726l-563 -721q-11 -14 -11 -34z" />
<glyph unicode="&#x221a;" horiz-adv-x="1243" d="M76 481q0 -6 3 -12l268 -567v-6q0 -56 94 -56q83 0 99 55l576 1553q3 8 3 17q0 21 -16 35.5t-38 14.5q-17 0 -28.5 -6.5t-16 -13.5t-10.5 -20l-568 -1498l-2 -1l-244 532q-6 18 -21 30t-33 12q-26 0 -46 -20.5t-20 -48.5z" />
<glyph unicode="&#x221e;" horiz-adv-x="1584" d="M104 584q0 -129 90 -219.5t213 -90.5q59 0 113.5 19.5t105 59.5t85 75t84.5 92q118 -130 201 -188t175 -58q124 0 216 89t92 229v1q0 136 -81.5 221t-213.5 85q-35 0 -69.5 -8.5t-61 -18.5t-58.5 -33t-50.5 -37.5t-51 -49t-45.5 -49t-47 -53.5q-64 76 -114 124.5 t-122 86.5t-144 38q-137 0 -227 -89.5t-90 -225.5zM197 586q0 98 56 165.5t151 67.5q51 0 97.5 -17.5t90 -55t71 -67.5t70.5 -81q3 -4 5 -6t4.5 -5t4.5 -6q-13 -13 -44.5 -46.5t-50 -52t-50.5 -46.5t-57.5 -42.5t-59 -26t-65.5 -11.5h-2q-101 0 -161 66t-60 164zM847 589 q9 9 46.5 50.5t61.5 64t62.5 54t78.5 46.5t80 15h3q91 0 151 -63t60 -170q0 -92 -57 -161t-152 -69q-79 0 -147 51.5t-187 181.5z" />
<glyph unicode="&#x222b;" horiz-adv-x="708" d="M63 -270q0 -21 23 -37t65 -16q45 0 82.5 12t74.5 45.5t62.5 88.5t41 147t15.5 214q0 162 -13 521t-13 516q0 223 42 320.5t135 97.5q33 0 53 14t20 35q0 19 -21 32.5t-61 13.5q-138 0 -211.5 -119.5t-73.5 -382.5q0 -155 14 -519t14 -527q0 -108 -11.5 -185.5 t-28.5 -119.5t-43 -66t-47.5 -30t-50.5 -6q-30 0 -49 -14.5t-19 -34.5z" />
<glyph unicode="&#x2248;" horiz-adv-x="1157" d="M178 382q0 -18 13.5 -30t32.5 -12q22 0 30 7q12 9 21 20t13 18.5t11.5 13t19.5 5.5q7 -1 236.5 -34t273.5 -33q53 0 88 35t35 99q0 19 -15 31.5t-33 12.5q-21 0 -33.5 -10.5t-16.5 -22.5t-11.5 -22.5t-19.5 -10.5q-16 0 -244.5 33t-273.5 33q-46 0 -86.5 -33.5 t-40.5 -99.5zM178 693q0 -18 13.5 -30.5t32.5 -12.5q20 0 30 8q12 9 21 21t13 19.5t11.5 12.5t19.5 5q13 -1 240 -34t270 -33q53 0 88 34.5t35 98.5q0 19 -15 32.5t-33 13.5q-21 0 -33.5 -10.5t-16.5 -23.5t-11.5 -23.5t-19.5 -10.5q-16 0 -244.5 34t-273.5 34 q-46 0 -86.5 -34t-40.5 -101z" />
<glyph unicode="&#x2260;" horiz-adv-x="1158" d="M76 363q0 -24 15.5 -41.5t42.5 -17.5h245l-101 -213q-8 -10 -8 -31q0 -24 18 -39.5t41 -15.5q39 0 57 37l127 262h525q27 0 43 17.5t16 41.5q0 22 -16 39t-43 17h-469l128 265h341q28 0 43 16.5t15 39.5q0 24 -15.5 41.5t-42.5 17.5h-285l95 194q8 20 8 31q0 24 -19 40 t-43 16q-42 0 -59 -37l-117 -244h-484q-27 0 -42 -17t-15 -39q0 -24 15.5 -41.5t41.5 -17.5h428l-127 -265h-301q-27 0 -42.5 -17t-15.5 -39z" />
<glyph unicode="&#x2264;" horiz-adv-x="1157" d="M46 673q0 -44 51 -65l906 -409q11 -7 26 -7q24 0 39 18.5t15 40.5q0 34 -32 48l-828 373l826 351q34 16 34 49q0 24 -16 42t-42 18q-11 0 -24 -5l-900 -387q-55 -26 -55 -67zM106 64q0 -18 13 -32t35 -14h849q22 0 34.5 14t12.5 33t-12 32.5t-35 13.5h-849 q-23 0 -35.5 -14t-12.5 -33z" />
<glyph unicode="&#x2265;" horiz-adv-x="1157" d="M91 1087q0 -32 33 -48l829 -373l-827 -352q-34 -14 -34 -49q0 -24 17 -42t40 -18q8 0 25 5l901 387q54 26 54 68q0 43 -52 65l-905 408q-14 6 -26 6q-23 0 -39 -17.5t-16 -39.5zM104 64q0 -18 13.5 -32t34.5 -14h849q23 0 35.5 13.5t12.5 33.5q0 18 -12.5 32t-35.5 14 h-849q-22 0 -35 -14t-13 -33z" />
<glyph unicode="&#x25fc;" horiz-adv-x="985" d="M0 0v985h985v-985h-985z" />
</font>
</defs>
</svg>
