<?xml version="1.0" standalone="no"?>
<!DOCTYPE svg PUBLIC "-//W3C//DTD SVG 1.1//EN" "http://www.w3.org/Graphics/SVG/1.1/DTD/svg11.dtd" >
<svg xmlns="http://www.w3.org/2000/svg" xmlns:xlink="http://www.w3.org/1999/xlink" version="1.1">
<metadata></metadata>
<defs>
<font id="nunitobold_italic" horiz-adv-x="1228" >
<font-face units-per-em="2048" ascent="1638" descent="-410" />
<missing-glyph horiz-adv-x="555" />
<glyph horiz-adv-x="0" />
<glyph unicode="&#xd;" horiz-adv-x="555" />
<glyph horiz-adv-x="0" />
<glyph horiz-adv-x="0" />
<glyph unicode=" "  horiz-adv-x="555" />
<glyph unicode="&#x09;" horiz-adv-x="555" />
<glyph unicode="&#xa0;" horiz-adv-x="555" />
<glyph unicode="!" horiz-adv-x="507" d="M74 141q0 66 43 110t108 44q66 0 109 -44t43 -110t-43 -109.5t-109 -43.5q-65 0 -108 44t-43 109zM164 1294q-2 82 43 121t121 39q66 0 106.5 -34t40.5 -93q0 -10 -4 -35l-139 -794q-6 -39 -28.5 -59.5t-55.5 -20.5q-31 0 -50.5 20.5t-21.5 59.5z" />
<glyph unicode="&#x22;" horiz-adv-x="923" d="M176 1296q-6 76 33 117t110 41q59 0 95.5 -31.5t36.5 -89.5q0 -23 -7 -51l-75 -362q-10 -41 -31 -61.5t-57 -20.5q-35 0 -57.5 21.5t-24.5 60.5zM604 1296q-6 76 33 117t110 41q59 0 95.5 -31.5t36.5 -89.5q0 -23 -7 -51l-75 -362q-10 -41 -31 -61.5t-57 -20.5 q-35 0 -57.5 21.5t-24.5 60.5z" />
<glyph unicode="#" d="M72 436q0 35 24.5 57.5t61.5 22.5h262l84 428h-305q-37 0 -61.5 24.5t-24.5 61.5q0 35 24.5 57.5t61.5 22.5h338l55 285q4 29 26.5 47t53.5 18q51 0 78 -41q10 18 29.5 29.5t43.5 11.5q39 0 63.5 -24.5t24.5 -61.5q0 -14 -2 -22l-47 -242h221q35 0 59.5 -24.5t24.5 -61.5 q0 -33 -24.5 -56.5t-59.5 -23.5h-254l-81 -428h294q35 0 59.5 -24.5t24.5 -61.5q0 -33 -24.5 -56.5t-59.5 -23.5h-327l-58 -295q-6 -29 -27.5 -47t-54.5 -18q-57 0 -79 45q-8 -20 -29 -32.5t-43 -12.5q-39 0 -63.5 24.5t-24.5 61.5q0 14 2 22l49 252h-229q-37 0 -61.5 24.5 t-24.5 61.5z" />
<glyph unicode="$" d="M49 209q0 45 27.5 77.5t68.5 32.5q27 0 56 -14q88 -55 181 -83.5t208 -28.5q145 0 222 52t77 152q0 53 -38 90t-95.5 60.5t-161.5 58.5q-143 45 -234.5 87t-156 122t-64.5 205q0 119 59.5 214t166 154.5t241.5 71.5l10 123q4 49 34 78t75 29q47 0 75.5 -30t24.5 -77 l-10 -129q225 -33 356 -141q41 -33 41 -80q0 -43 -30.5 -78t-75.5 -35q-29 0 -64 19q-172 113 -370 112q-123 0 -196 -56t-73 -151q0 -63 41 -105t100.5 -66.5t172.5 -61.5q139 -43 226 -83t148.5 -114.5t61.5 -195.5q0 -178 -124 -294t-333 -138l-10 -125q-2 -49 -30.5 -78 t-75.5 -29t-76 31t-25 76l10 125q-233 23 -383 120q-29 18 -43 45t-14 58z" />
<glyph unicode="%" horiz-adv-x="1935" d="M129 981q0 225 100.5 355t274.5 130q172 0 265 -103t93 -296q0 -229 -99 -356t-276 -127q-172 0 -265 102t-93 295zM344 956q0 -109 34 -157.5t107 -48.5q80 0 121 88t41 254q0 106 -33.5 157t-107.5 51q-162 0 -162 -344zM449 45q0 35 18 61l876 1330q35 53 89 53 q37 0 64.5 -26.5t27.5 -63.5q0 -35 -19 -62l-876 -1329q-35 -53 -88 -53q-37 0 -64.5 26.5t-27.5 63.5zM1110 383q0 227 99.5 356t275.5 129q172 0 264 -102t92 -295q0 -231 -98 -358t-277 -127q-172 0 -264 102t-92 295zM1325 358q0 -109 34 -157.5t107 -48.5q80 0 121 88 t41 254q0 106 -34.5 157t-106.5 51q-162 0 -162 -344z" />
<glyph unicode="&#x26;" horiz-adv-x="1394" d="M74 375q0 143 83 245.5t244 188.5q-72 84 -103.5 156.5t-31.5 148.5q0 154 107.5 248t281.5 94q164 0 264.5 -84t100.5 -221q0 -119 -68.5 -209t-220.5 -174l275 -293q68 131 92 311q8 49 43 77t76 28q39 0 67.5 -24.5t28.5 -67.5q0 -14 -2 -23q-33 -258 -160 -459 l143 -153q33 -33 33 -74q0 -45 -35 -77.5t-82 -32.5q-45 0 -82 38l-120 132q-193 -166 -439 -166q-143 0 -255.5 50t-176 139t-63.5 202zM324 391q0 -96 69.5 -152.5t186.5 -56.5q165 0 292 115l-342 371q-104 -57 -155 -123t-51 -154zM496 1116q0 -47 22.5 -93t83.5 -116 q117 59 162 111.5t45 120.5q0 63 -40 102t-105 39q-74 0 -121 -45t-47 -119z" />
<glyph unicode="'" horiz-adv-x="495" d="M176 1296q-6 76 33 117t110 41q59 0 95.5 -31.5t36.5 -89.5q0 -23 -7 -51l-75 -362q-10 -41 -31 -61.5t-57 -20.5q-35 0 -57.5 21.5t-24.5 60.5z" />
<glyph unicode="(" horiz-adv-x="720" d="M205 391q0 569 309 1018q39 53 102 53q37 0 63 -21.5t26 -56.5q0 -25 -15 -53q-225 -457 -225 -940q0 -176 23.5 -331.5t72.5 -311.5q6 -23 6 -41q0 -43 -27.5 -68.5t-66.5 -25.5q-31 0 -59.5 18.5t-46.5 53.5q-162 339 -162 706z" />
<glyph unicode=")" horiz-adv-x="720" d="M25 -309q0 25 14 53q223 446 223 942q0 178 -22.5 334t-73.5 307q-6 23 -6 41q0 43 27.5 68.5t66.5 25.5q33 0 60.5 -18.5t45.5 -52.5q164 -340 164 -707q0 -563 -309 -1016q-39 -53 -102 -53q-37 0 -62.5 20.5t-25.5 55.5z" />
<glyph unicode="*" horiz-adv-x="925" d="M92 1081q0 37 22.5 62.5t63.5 23.5l201 -10l-111 166q-14 23 -14 45q0 35 29.5 59.5t64.5 24.5q49 0 70 -43l92 -178l90 178q23 45 70 45q37 0 65.5 -25.5t28.5 -60.5q0 -25 -14 -45l-109 -166l201 10q41 2 63.5 -23.5t22.5 -62.5t-22.5 -63.5t-63.5 -24.5l-201 11 l109 -166q14 -23 14 -45q0 -35 -29.5 -60.5t-66.5 -25.5q-47 0 -68 43l-90 180l-92 -180q-10 -23 -28.5 -34t-39.5 -11q-37 0 -66.5 25.5t-29.5 60.5q0 25 14 45l111 168l-201 -11q-41 -2 -63.5 24.5t-22.5 63.5z" />
<glyph unicode="+" d="M123 582q0 39 27.5 66.5t68.5 27.5h320l26 319q2 39 30 64.5t67 25.5t62.5 -25.5t18.5 -64.5l-24 -319h319q37 0 60.5 -25.5t23.5 -62.5q0 -39 -27.5 -65.5t-68.5 -26.5h-321l-25 -318q-2 -39 -30.5 -65.5t-67.5 -26.5t-61.5 26.5t-20.5 65.5l24 318h-317 q-37 0 -60.5 24.5t-23.5 61.5z" />
<glyph unicode="," horiz-adv-x="507" d="M74 141q0 74 43 114t108 40q70 0 109 -46t39 -134q0 -100 -43 -192.5t-119 -164.5q-27 -27 -59 -26q-29 0 -49.5 19.5t-20.5 45.5q0 27 24 51q66 66 93 150q-59 8 -92 46t-33 97z" />
<glyph unicode="-" horiz-adv-x="888" d="M119 541q0 51 31.5 79.5t95.5 28.5h420q55 0 83.5 -26.5t28.5 -69.5q0 -106 -127 -107h-420q-53 0 -82.5 26t-29.5 69z" />
<glyph unicode="." horiz-adv-x="507" d="M74 141q0 66 43 110t108 44q66 0 109 -44t43 -110t-43 -109.5t-109 -43.5q-65 0 -108 44t-43 109z" />
<glyph unicode="/" horiz-adv-x="641" d="M-70 -59q0 16 7 34l608 1520q12 33 37.5 48.5t56.5 15.5q41 0 72.5 -25t31.5 -64q0 -20 -8 -38l-606 -1518q-26 -64 -94 -64q-41 0 -73 26t-32 65z" />
<glyph unicode="0" d="M102 623q0 262 67 450.5t191.5 287.5t301.5 99q246 0 373.5 -163.5t127.5 -475.5q0 -262 -66.5 -450.5t-192.5 -287.5t-302 -99q-244 0 -372 163.5t-128 475.5zM360 586q0 -203 60.5 -299.5t187.5 -96.5q146 0 221.5 169t75.5 499q0 205 -60.5 300t-187.5 95 q-145 0 -221 -171t-76 -496z" />
<glyph unicode="1" d="M178 100q0 113 131 113h217l74 924l-178 -103q-27 -16 -60 -16q-45 0 -75.5 34.5t-30.5 80.5q0 57 53 90l336 196q61 35 119 35q53 0 85 -32.5t28 -92.5l-89 -1116h213q60 0 88.5 -26.5t28.5 -73.5q0 -113 -129 -113h-694q-59 0 -88 26.5t-29 73.5z" />
<glyph unicode="2" horiz-adv-x="1230" d="M94 98q0 66 60 123l505 500q102 102 148.5 184t46.5 162q0 88 -55.5 136t-153.5 48q-166 0 -326 -110q-37 -23 -71 -23q-39 0 -63.5 26.5t-24.5 65.5q0 68 67 117q84 63 200 98t239 37q209 0 328.5 -105.5t119.5 -287.5q0 -123 -61.5 -233.5t-210.5 -253.5l-381 -369h538 q58 0 86.5 -24.5t28.5 -71.5q0 -117 -131 -117h-780q-51 0 -80 27.5t-29 70.5z" />
<glyph unicode="3" d="M61 207q0 45 29 77.5t72 32.5q33 0 59 -16q88 -53 170 -79.5t178 -26.5q133 0 204 59t71 170q0 104 -66.5 153.5t-202.5 49.5h-114q-41 0 -65.5 28.5t-24.5 75.5q0 45 30.5 75t77.5 30h88q139 0 215 60t76 171q0 86 -58.5 135t-162.5 49q-158 0 -318 -110 q-37 -23 -71 -23q-39 0 -63.5 26.5t-24.5 65.5q0 68 67 117q84 63 200 98t239 37q131 0 233 -45t158.5 -127t56.5 -190q0 -129 -68.5 -223.5t-193.5 -139.5q113 -32 178.5 -113t65.5 -200q0 -129 -63.5 -229.5t-183.5 -155.5t-284 -55q-141 0 -260 36.5t-192 92.5 q-51 35 -52 94z" />
<glyph unicode="4" d="M53 387q0 53 39 105l701 905q23 29 55.5 44t64.5 15q53 0 90 -35t33 -96l-67 -838h106q115 0 115 -102q0 -49 -33 -75.5t-96 -26.5h-109l-12 -164q-4 -63 -42 -97t-95 -34t-91 34.5t-28 98.5l12 162h-534q-51 0 -80 29.5t-29 74.5zM336 487h377l43 545z" />
<glyph unicode="5" d="M102 225q0 43 32 74t77 31q39 0 76 -23q170 -113 317 -112q135 0 213 74.5t78 203.5q0 113 -69.5 178.5t-190.5 65.5q-80 0 -139.5 -22.5t-133.5 -78.5q-39 -25 -77 -24q-43 0 -70 26.5t-22 69.5l49 631q4 59 39.5 92t95.5 33h680q117 0 117 -96q0 -51 -35 -80t-97 -29 h-548l-29 -379q109 63 244 64q129 0 228 -53.5t154.5 -149.5t55.5 -221q0 -156 -66.5 -272.5t-190.5 -180t-288 -63.5q-127 0 -246.5 41t-205.5 110q-47 39 -48 90z" />
<glyph unicode="6" d="M102 616q0 258 77 448.5t221.5 294t342.5 103.5q123 0 237 -36.5t175 -94.5q53 -39 53 -102q0 -43 -25.5 -74t-66.5 -31q-31 0 -65 21q-70 49 -151 77.5t-161 28.5q-161 0 -255.5 -132t-114.5 -382q51 86 142 136.5t198 50.5q127 0 225 -55.5t152.5 -156t54.5 -229.5 q0 -143 -62.5 -257.5t-174 -179t-253.5 -64.5q-262 0 -405.5 165.5t-143.5 468.5zM389 442q0 -113 70.5 -182.5t183.5 -69.5q111 0 179.5 78t68.5 203q0 113 -66.5 179.5t-177.5 66.5q-115 0 -186.5 -77t-71.5 -198z" />
<glyph unicode="7" d="M158 1331q0 55 33.5 84t95.5 29h815q51 0 76.5 -26.5t25.5 -71.5q0 -53 -33 -107l-696 -1180q-23 -39 -56.5 -59t-68.5 -20q-45 0 -78.5 31.5t-33.5 78.5q0 39 22 78l631 1063h-615q-119 0 -118 100z" />
<glyph unicode="8" d="M63 381q0 133 78 230.5t213 133.5q-98 41 -150 121t-52 189q0 123 63.5 215t181 142t275.5 50q236 0 364.5 -98t128.5 -272q0 -123 -69.5 -218.5t-184.5 -134.5q238 -80 238 -336q0 -125 -68.5 -219t-193.5 -146t-291 -52q-252 0 -392.5 104.5t-140.5 290.5zM311 397 q0 -98 72 -152.5t213 -54.5q147 0 225 58.5t78 169.5q0 106 -67.5 158.5t-213.5 52.5q-152 0 -229.5 -58.5t-77.5 -173.5zM401 1036q0 -96 65.5 -149t184.5 -53q129 0 196.5 59t67.5 168q0 195 -245 194q-131 0 -200 -56t-69 -163z" />
<glyph unicode="9" d="M57 215q0 43 26 73.5t67 30.5q31 0 65 -20q70 -49 149.5 -77.5t159.5 -28.5q162 0 258.5 132t114.5 382q-51 -86 -142 -136.5t-200 -50.5q-127 0 -225.5 55.5t-152.5 155.5t-54 230q0 143 63.5 257.5t175 179t252.5 64.5q263 0 405 -166t142 -469q0 -258 -76.5 -448.5 t-221 -293.5t-341.5 -103q-125 0 -238.5 36.5t-174.5 94.5q-51 37 -52 102zM373 973q0 -113 66.5 -179.5t176.5 -66.5q115 0 188 77t73 197q0 113 -71 182.5t-183 69.5q-113 0 -181.5 -77.5t-68.5 -202.5z" />
<glyph unicode=":" horiz-adv-x="507" d="M74 141q0 66 43 110t108 44q66 0 109 -44t43 -110t-43 -109.5t-109 -43.5q-65 0 -108 44t-43 109zM133 870q0 66 43 109t109 43t108.5 -43t42.5 -109t-43 -109.5t-108 -43.5q-66 0 -109 44t-43 109z" />
<glyph unicode=";" horiz-adv-x="507" d="M74 141q0 74 43 114t108 40q70 0 109 -46t39 -134q0 -100 -43 -192.5t-119 -164.5q-27 -27 -59 -26q-29 0 -49.5 19.5t-20.5 45.5q0 27 24 51q66 66 93 150q-59 8 -92 46t-33 97zM133 870q0 66 43 109t109 43q65 0 108 -43t43 -109t-43 -109.5t-108 -43.5q-66 0 -109 44 t-43 109z" />
<glyph unicode="&#x3c;" d="M121 580q2 47 30.5 86t71.5 55l789 326q22 10 53 10q39 0 62.5 -23.5t23.5 -64.5q0 -25 -16.5 -47.5t-40.5 -32.5l-748 -303l701 -303q23 -8 34 -31t11 -49q-2 -39 -31 -64.5t-70 -25.5q-25 0 -53 12l-735 324q-82 37 -82 131z" />
<glyph unicode="=" d="M104 377q0 39 28 66.5t69 27.5h819q37 0 60.5 -25.5t23.5 -62.5q0 -39 -28.5 -65.5t-69.5 -26.5h-818q-36 0 -60 24.5t-24 61.5zM137 786q0 41 28 68t68 27h818q37 0 60.5 -26t23.5 -62q0 -39 -28 -66t-69 -27h-817q-37 0 -60.5 25t-23.5 61z" />
<glyph unicode="&#x3e;" d="M92 199q0 27 15.5 50t42.5 34l747 303l-700 303q-45 20 -45 80q2 41 30.5 64.5t71.5 23.5q31 0 51 -10l735 -326q82 -33 82 -129q-2 -47 -30.5 -86t-71.5 -57l-789 -324q-27 -12 -53 -12q-37 0 -61.5 23.5t-24.5 62.5z" />
<glyph unicode="?" horiz-adv-x="940" d="M43 1214q0 63 55 105q92 70 208 106.5t241 36.5q188 0 301 -87t113 -230q0 -80 -31 -145.5t-76 -115.5t-119 -118q-88 -80 -137 -141.5t-66 -139.5q-8 -33 -29.5 -50t-51.5 -17q-39 0 -59.5 24.5t-16.5 67.5q8 111 55 187.5t131 170.5q68 72 101.5 125.5t33.5 118.5 q0 66 -48 102.5t-134 36.5q-78 0 -156.5 -28.5t-171.5 -87.5q-31 -18 -59 -19q-37 0 -60.5 29t-23.5 69zM274 141q0 66 43 110t109 44q63 0 106 -44t43 -110t-43 -109.5t-106 -43.5q-66 0 -109 44t-43 109z" />
<glyph unicode="@" horiz-adv-x="1912" d="M100 549q0 279 116 483.5t317.5 314t455.5 109.5q266 0 457.5 -102.5t290 -274.5t98.5 -379q0 -186 -57.5 -315t-152.5 -192.5t-212 -63.5q-109 0 -174 47t-78 129h-4q-115 -176 -301 -176q-145 0 -230 99.5t-85 267.5q0 143 54 264t153.5 191.5t224.5 70.5 q88 0 154.5 -39t91.5 -106h4l10 51q12 72 94 71q41 0 64.5 -22.5t23.5 -61.5q0 -18 -2 -26l-70 -395q-8 -43 -8 -88q0 -63 27 -94t86 -31q47 0 94 42t80 136t33 241q0 168 -75 302.5t-225.5 212t-365.5 77.5q-201 0 -359.5 -88t-249.5 -256t-91 -399q0 -213 84 -372 t241.5 -246t372.5 -87q141 0 247.5 34t197.5 102q29 23 61 22q35 0 57.5 -24.5t22.5 -59.5q0 -45 -39 -76q-84 -72 -228.5 -116.5t-318.5 -44.5q-268 0 -469 109.5t-309.5 306t-108.5 452.5zM731 498q0 -100 46 -158.5t120 -58.5q88 0 152.5 55t98.5 143t34 185 q0 100 -47.5 152t-130.5 52q-84 0 -146.5 -54t-94.5 -139t-32 -177z" />
<glyph unicode="A" horiz-adv-x="1519" d="M29 100q0 35 16 62l643 1208q23 41 61.5 63.5t84.5 22.5q45 0 82.5 -23.5t54.5 -64.5l459 -1218q8 -19 8 -44q0 -51 -40 -83.5t-89 -32.5q-35 0 -63.5 18.5t-41.5 57.5l-96 272h-709l-139 -277q-18 -35 -47 -53t-63 -18q-47 0 -84 31.5t-37 78.5zM504 543h530l-217 616z " />
<glyph unicode="B" horiz-adv-x="1398" d="M127 129l94 1190q4 59 40 92t95 33h488q231 0 353 -96.5t122 -262.5q0 -123 -64.5 -211t-191.5 -135q115 -30 176 -117t61 -208q0 -197 -138 -305.5t-378 -108.5h-538q-59 0 -91 34q-28 30 -28 82v13zM391 205h375q143 0 215 53t72 168q0 102 -64.5 153.5t-197.5 51.5 h-367zM440 836h340q143 0 213 52t70 163q0 188 -258 188h-332z" />
<glyph unicode="C" horiz-adv-x="1388" d="M127 670q0 238 90 418t256 277t387 97q143 0 263 -38t198 -99q59 -39 59 -104q0 -45 -27.5 -77t-70.5 -32q-37 0 -68 23q-146 112 -343 112h-3q-223 0 -348 -154.5t-125 -424.5q0 -227 105.5 -349t300.5 -122q176 0 346 112q35 20 65 21q39 0 63.5 -29t24.5 -70 q0 -61 -53 -102q-78 -66 -199.5 -106.5t-263.5 -40.5q-200 0 -348.5 82.5t-228.5 238.5t-80 367z" />
<glyph unicode="D" horiz-adv-x="1544" d="M127 129l94 1190q4 59 40 92t95 33h402q217 0 372.5 -80t238.5 -231.5t83 -358.5q0 -244 -90 -417t-263 -265t-417 -92h-436q-60 0 -92 34q-28 30 -27 82v13zM397 215h265q526 0 526 561q0 221 -117 337t-344 116h-250z" />
<glyph unicode="E" horiz-adv-x="1206" d="M127 125l94 1196q4 57 39 90t94 33h744q55 0 84.5 -26.5t29.5 -71.5q0 -111 -129 -111h-610l-31 -397h566q55 0 85.5 -27t30.5 -72q0 -108 -127 -108h-2h-571l-33 -422h608q55 0 86 -27.5t31 -72.5q0 -53 -33.5 -81t-97.5 -28h-741q-61 0 -91 33q-26 29 -26 78v14z" />
<glyph unicode="F" horiz-adv-x="1159" d="M127 121l94 1200q4 59 40 91t95 32h721q55 0 85 -25.5t30 -75.5q0 -110 -127 -110h-2h-588l-31 -393h545q115 0 115 -99q0 -57 -33 -84.5t-98 -27.5h-545l-41 -510q-4 -59 -42 -95t-97 -36q-57 0 -91 36q-30 33 -30 85v12z" />
<glyph unicode="G" horiz-adv-x="1501" d="M127 664q0 242 92 421t261 277t397 98q147 0 268 -37t196 -94q63 -43 64 -108q0 -43 -28.5 -76t-71.5 -33q-33 0 -68 23q-76 57 -159 84.5t-199 27.5q-227 0 -356.5 -155.5t-129.5 -425.5q0 -229 110.5 -352.5t334.5 -123.5q131 0 266 41l29 361h-222q-51 0 -78.5 23.5 t-27.5 68.5t30.5 70.5t79.5 25.5h357q49 0 76 -28q26 -27 26 -71v-7l-33 -436q-8 -94 -35.5 -133t-105.5 -62q-84 -29 -191.5 -45t-201.5 -16q-213 0 -365.5 81.5t-233.5 235.5t-81 365z" />
<glyph unicode="H" horiz-adv-x="1568" d="M127 121l96 1204q4 59 41 94t96 35t92 -36q29 -32 29 -83v-12l-39 -483h738l39 485q4 59 40.5 94t96.5 35q59 0 92 -36q29 -32 29 -83v-12l-95 -1204q-4 -59 -41.5 -95t-97.5 -36q-59 0 -92 36q-29 32 -29 84v13l41 506h-737l-41 -508q-4 -59 -42 -95t-95 -36 q-59 0 -92 36q-29 32 -29 84v13z" />
<glyph unicode="I" horiz-adv-x="575" d="M127 121l96 1204q4 59 42 94t97 35t93 -36q30 -32 31 -83q0 -6 -1 -12l-94 -1204q-6 -59 -44 -95t-97 -36q-60 0 -94 36q-30 32 -29 84v13z" />
<glyph unicode="J" horiz-adv-x="733" d="M-59 94q0 96 112 107l66 4q84 4 131 55t55 148l74 917q4 59 43 94t98 35q61 0 94 -35q29 -31 29 -82v-12l-72 -917q-14 -193 -120.5 -298.5t-298.5 -117.5l-66 -4q-11 -1 -20 -1q-125 0 -125 107z" />
<glyph unicode="K" horiz-adv-x="1351" d="M127 121l96 1204q4 59 42 94t97 35t93 -36q30 -32 30 -83v-12l-41 -524l666 616q41 39 88 39q43 0 75 -32.5t32 -78.5q0 -53 -45 -96l-564 -508l529 -561q24 -26 24 -62q0 -50 -36.5 -88t-86.5 -38q-45 0 -88 45l-604 637l-43 -553q-6 -59 -44 -95t-97 -36t-93 36 q-30 33 -30 85v12z" />
<glyph unicode="L" horiz-adv-x="1136" d="M127 125l96 1200q4 59 42 94t97 35q61 0 94 -36q29 -32 29 -83v-12l-88 -1106h574q55 0 85.5 -26.5t30.5 -73.5q0 -117 -131 -117h-712q-62 0 -92 33q-26 29 -25 78v14z" />
<glyph unicode="M" horiz-adv-x="1722" d="M129 111l96 1214q4 57 41 93t92 36q80 0 121 -88l381 -858l524 862q53 86 134 86q54 0 84 -35q27 -31 26 -79v-13l-96 -1223q-4 -55 -38 -86.5t-85 -31.5t-83 34q-28 30 -28 77v12l66 837l-397 -653q-29 -43 -58.5 -63.5t-66.5 -20.5q-39 0 -66.5 20.5t-50.5 65.5 l-297 639l-66 -830q-4 -53 -38.5 -85.5t-85.5 -32.5t-82 34q-27 30 -27 76v13z" />
<glyph unicode="N" horiz-adv-x="1529" d="M127 121l94 1204q4 57 42 93t91 36q68 0 101 -49l667 -963l70 885q4 57 41 92t90 35q55 0 88 -36q28 -30 28 -76q0 -8 -1 -17l-95 -1206q-4 -59 -39.5 -95t-91.5 -36q-66 0 -102 49l-666 962l-71 -882q-4 -59 -40 -94t-93 -35q-53 0 -85 36q-28 32 -28 84v13z" />
<glyph unicode="O" horiz-adv-x="1595" d="M127 670q0 238 87 417t244.5 277t368.5 98q207 0 359.5 -83t234.5 -237.5t82 -367.5q0 -238 -87 -417t-244.5 -277t-368.5 -98q-207 0 -359.5 82.5t-234.5 237.5t-82 368zM391 668q0 -229 106.5 -352t303.5 -123q203 0 319.5 154.5t116.5 426.5q0 229 -106.5 353 t-301.5 124q-205 0 -321.5 -155.5t-116.5 -427.5z" />
<glyph unicode="P" horiz-adv-x="1351" d="M127 121l94 1200q4 57 39 90t94 33h488q227 0 351 -110.5t124 -303.5q0 -227 -135 -348t-385 -121h-373l-35 -442q-4 -59 -42 -95t-99 -36q-59 0 -92 36q-29 32 -29 84v13zM440 764h334q293 0 293 254q0 221 -256 221h-334z" />
<glyph unicode="Q" horiz-adv-x="1595" d="M127 670q0 238 87 417t244.5 277t368.5 98q209 0 361.5 -82t233.5 -237.5t81 -368.5q0 -266 -107.5 -458.5t-303.5 -276.5q76 -29 129 -127l59 -113q18 -35 18 -65q0 -49 -39.5 -81t-91.5 -32q-35 0 -66.5 16.5t-49.5 51.5l-107 198q-45 90 -180 97q-193 4 -337 88 t-222 237.5t-78 360.5zM391 668q0 -229 106.5 -352t303.5 -123q205 0 320.5 154.5t115.5 426.5q0 229 -106.5 353t-301.5 124q-205 0 -321.5 -155.5t-116.5 -427.5z" />
<glyph unicode="R" horiz-adv-x="1423" d="M127 121l94 1198q4 59 40 92t95 33h516q223 0 345 -106.5t122 -297.5q0 -383 -389 -440q51 -14 88 -50t70 -101l152 -291q14 -27 14 -56q0 -49 -41 -83.5t-94 -34.5q-35 0 -67 18t-50 57l-203 402q-33 66 -78 92.5t-120 26.5h-199l-35 -461q-4 -59 -42 -95t-97 -36 t-92 36q-29 32 -29 84v13zM438 782h369q285 0 285 244q0 109 -61.5 161t-188.5 52h-369z" />
<glyph unicode="S" horiz-adv-x="1306" d="M57 227q0 43 26 75t67 32q29 0 67 -23q80 -57 187.5 -89t236.5 -32q150 0 228.5 50.5t78.5 142.5q0 59 -42 99t-105.5 65.5t-171.5 56.5q-150 43 -245 85t-162.5 124t-67.5 215q0 131 70.5 229.5t201.5 151.5t305 53q150 0 279 -41t211 -110q45 -37 45 -90q0 -43 -28 -75 t-71 -32q-37 0 -77 27q-68 49 -164.5 80.5t-200.5 31.5q-147 0 -228 -54t-81 -150q0 -63 44 -106.5t107.5 -68t180.5 -59.5q150 -43 241.5 -83t157 -118.5t65.5 -203.5q0 -201 -153.5 -314.5t-425.5 -113.5q-164 0 -295 36.5t-221 100.5q-59 41 -60 108z" />
<glyph unicode="T" horiz-adv-x="1255" d="M68 1327q0 117 131 117h1007q57 0 87 -26.5t30 -76.5q0 -114 -129 -114h-2h-373l-88 -1108q-4 -59 -43 -94t-98 -35q-60 0 -94 36q-30 32 -29 82v13l88 1106h-371q-57 0 -86.5 25.5t-29.5 74.5z" />
<glyph unicode="U" horiz-adv-x="1501" d="M150 518q0 27 4 80l59 727q4 59 42 94t95 35q59 0 92 -36q29 -32 29 -83v-12l-57 -729q-2 -23 -2 -66q0 -170 81.5 -252.5t251.5 -82.5q160 0 250 87t105 279l59 766q6 59 44 94t95 35q59 0 92 -36q29 -32 29 -83v-12l-59 -743q-25 -297 -182.5 -447.5t-444.5 -150.5 q-289 0 -436 136t-147 400z" />
<glyph unicode="V" horiz-adv-x="1462" d="M104 1331q0 51 44.5 88t97.5 37q35 0 62.5 -18.5t39.5 -55.5l373 -1052l534 1056q19 35 47.5 52.5t63.5 17.5q49 0 87 -30.5t38 -77.5q0 -31 -16 -62l-639 -1216q-20 -41 -60.5 -62.5t-85.5 -21.5t-81 22.5t-52 65.5l-444 1214q-8 18 -9 43z" />
<glyph unicode="W" horiz-adv-x="2273" d="M158 1333q0 55 41 90t94 35q39 0 70.5 -21.5t42.5 -64.5l258 -1003l426 999q18 43 53 65.5t74 22.5t69.5 -23.5t42.5 -64.5l260 -1006l424 1012q19 41 51.5 61.5t71.5 20.5q45 0 78 -27.5t33 -74.5q0 -27 -17 -66l-524 -1216q-18 -41 -57 -63.5t-82 -22.5t-78 22.5 t-47 65.5l-264 964l-414 -966q-18 -41 -57 -64.5t-82 -23.5t-78 23.5t-49 66.5l-334 1216q-6 23 -6 43z" />
<glyph unicode="X" horiz-adv-x="1359" d="M37 102q0 49 37 88l473 549l-369 516q-24 34 -24 69q0 54 41 93t92 39t86 -47l342 -487l418 489q39 45 92 45q45 0 79.5 -33.5t34.5 -81.5q0 -45 -34 -86l-453 -522l397 -545q25 -33 25 -71q0 -51 -41 -90t-90 -39q-55 0 -86 45l-371 522l-444 -524q-37 -45 -90 -45 q-45 0 -80 33.5t-35 82.5z" />
<glyph unicode="Y" horiz-adv-x="1275" d="M86 1327q0 49 41 88t90 39q53 0 90 -51l357 -526l440 530q45 51 98 51q47 0 82 -33.5t35 -81.5q0 -45 -35 -86l-500 -593l-45 -545q-4 -63 -43 -97t-96 -34t-92 34q-31 31 -31 86v13l43 543l-411 598q-23 35 -23 65z" />
<glyph unicode="Z" horiz-adv-x="1232" d="M45 102q0 55 39 103l807 1028h-633q-57 0 -86 24.5t-29 71.5q0 59 32 87t97 28h848q49 0 78 -29t29 -72q0 -51 -41 -104l-805 -1028h659q57 0 86 -25.5t29 -72.5q0 -113 -129 -113h-874q-51 0 -79 28.5t-28 73.5z" />
<glyph unicode="[" horiz-adv-x="718" d="M168 -121l104 1317q10 117 80 182.5t189 65.5h149q41 0 68.5 -23.5t27.5 -64.5q0 -53 -30.5 -79t-75.5 -26h-66q-43 0 -66.5 -21.5t-27.5 -68.5l-98 -1247q-2 -47 16.5 -68.5t61.5 -21.5h65q39 0 65.5 -23.5t26.5 -64.5q0 -53 -30.5 -79t-79.5 -26h-150 q-116 0 -176.5 65.5t-52.5 182.5z" />
<glyph unicode="\" horiz-adv-x="638" d="M49 1454q0 43 36 72.5t79 29.5q33 0 58.5 -18t33.5 -57l362 -1510q2 -8 3 -22q0 -39 -36 -66.5t-79 -27.5q-33 0 -58.5 18t-33.5 55l-363 1506q-2 8 -2 20z" />
<glyph unicode="]" horiz-adv-x="718" d="M-61 -281q0 53 30.5 79t75.5 26h66q43 0 66.5 20.5t27.5 69.5l98 1247q4 47 -15.5 68.5t-62.5 21.5h-65q-39 0 -65.5 23.5t-26.5 64.5q0 53 30.5 79t79.5 26h150q118 0 178.5 -65.5t50.5 -182.5l-104 -1317q-10 -117 -81 -182.5t-188 -65.5h-147q-41 0 -69.5 23.5 t-28.5 64.5z" />
<glyph unicode="^" d="M129 375q0 25 10 43l400 782q20 41 57 65.5t82 24.5t79 -24.5t48 -65.5l274 -797q4 -16 4 -24q0 -39 -31.5 -64.5t-70.5 -25.5q-25 0 -44 13t-28 38l-247 723l-361 -723q-23 -49 -78 -49q-37 0 -65.5 23.5t-28.5 60.5z" />
<glyph unicode="_" horiz-adv-x="1024" d="M-45 -78q0 35 28.5 56.5t75.5 21.5h828q41 0 66.5 -20.5t25.5 -51.5q0 -37 -28.5 -59.5t-76.5 -22.5h-827q-43 0 -67.5 21.5t-24.5 54.5z" />
<glyph unicode="`" horiz-adv-x="614" d="M88 1470q0 41 30.5 68t71.5 27q31 0 57.5 -18.5t40.5 -55.5l109 -266q8 -25 8 -35q0 -29 -20.5 -46.5t-49.5 -17.5q-49 0 -75 41l-148 234q-25 37 -24 69z" />
<glyph unicode="a" horiz-adv-x="1105" d="M80 276q0 115 58.5 183.5t187.5 100.5t344 32h73l2 39q1 15 1 29q0 81 -40 122q-47 49 -149 49q-121 0 -276 -79q-27 -12 -52 -13q-37 0 -61.5 26t-24.5 62q0 27 16.5 54.5t47.5 46.5q74 45 174 71.5t205 26.5q202 0 302.5 -92t100.5 -279q0 -39 -2 -59l-39 -490 q-4 -57 -37.5 -87.5t-91.5 -30.5q-53 0 -85 34q-28 29 -28 73q0 7 1 14l2 38q-41 -78 -115 -120.5t-168 -42.5q-98 0 -177 37.5t-124 104.5t-45 150zM330 303q0 -61 44 -98t118 -37q96 0 162.5 68.5t74.5 175.5l4 45h-57q-131 0 -206 -14.5t-107.5 -48.5t-32.5 -91z" />
<glyph unicode="b" horiz-adv-x="1230" d="M100 111l99 1226q2 53 42 85t97 32t88 -30q29 -29 29 -77v-6l-39 -469q49 74 132 114t181 40q125 0 222.5 -58.5t150.5 -168t53 -256.5q0 -164 -59.5 -291t-168 -197.5t-247.5 -70.5q-111 0 -192.5 45t-129.5 129l-4 -47q-4 -57 -41 -90t-94 -33t-89 32q-30 31 -30 84v7z M385 481q0 -147 64.5 -223t185.5 -76q123 0 193.5 93.5t70.5 254.5q0 143 -65.5 221t-186.5 78t-191.5 -94t-70.5 -254z" />
<glyph unicode="c" horiz-adv-x="999" d="M78 471q0 168 65.5 294t188.5 193.5t289 67.5q98 0 185 -23.5t142 -62.5q45 -29 45 -90q0 -43 -23.5 -75t-60.5 -32q-20 0 -45 13q-109 69 -230 69h-3q-137 0 -213 -92t-76 -258q0 -137 68.5 -214t191.5 -77q61 0 112.5 16.5t108.5 51.5q27 14 49 14q35 0 55.5 -26.5 t20.5 -63.5q0 -27 -12 -52.5t-37 -43.5q-57 -43 -143 -69.5t-174 -26.5q-152 0 -265.5 60t-176 171t-62.5 256z" />
<glyph unicode="d" horiz-adv-x="1230" d="M78 467q0 164 59.5 291t168 197.5t249.5 70.5q106 0 187 -43t128 -123l37 481q4 51 41 82t92 31q60 0 94 -32q30 -28 29 -74v-11l-96 -1226q-4 -57 -40 -90t-93 -33t-89 32q-30 31 -30 84v7l2 26q-49 -72 -131 -112.5t-180 -40.5q-127 0 -224.5 58t-150.5 167.5 t-53 257.5zM334 481q0 -143 65.5 -221t186.5 -78q123 0 192.5 93.5t69.5 252.5q0 147 -63.5 224t-184.5 77q-125 0 -195.5 -93t-70.5 -255z" />
<glyph unicode="e" horiz-adv-x="1087" d="M78 473q0 160 63.5 286t178 196.5t262.5 70.5q209 0 322.5 -125t113.5 -356q0 -43 -23.5 -66.5t-60.5 -23.5h-608q6 -135 76.5 -205t199.5 -70q72 0 130.5 17.5t115.5 52.5q27 14 51 14q35 0 54.5 -25.5t19.5 -62.5q0 -59 -51 -98q-55 -41 -146.5 -67.5t-189.5 -26.5 q-154 0 -268.5 60t-177 171t-62.5 258zM334 592h467v9q1 119 -53 181q-56 64 -156 64q-217 0 -258 -254z" />
<glyph unicode="f" horiz-adv-x="733" d="M18 899q0 102 121 102h103l2 15q16 199 127.5 306.5t304.5 119.5l49 4q12 1 23 1q49 0 78 -15q36 -19 36 -70q0 -94 -106 -105l-56 -4q-96 -6 -143 -58t-55 -151l-4 -43h174q106 0 106 -90q0 -102 -119 -102h-176l-55 -698q-4 -59 -42 -90t-93 -31t-90 30q-31 28 -31 79 v12l55 698h-100q-53 0 -81 23.5t-28 66.5z" />
<glyph unicode="g" horiz-adv-x="1239" d="M80 492q0 154 60.5 275.5t169 190t249.5 68.5q113 0 196 -44t128 -126l4 47q4 55 42 87t95 32t88 -32q29 -30 29 -82v-7l-66 -809q-18 -236 -157.5 -356.5t-393.5 -120.5q-106 0 -206.5 24.5t-174.5 69.5q-57 35 -57 92q0 41 26.5 72t63.5 31q18 0 39 -10 q156 -82 315 -82q272 0 291 264l8 100q-49 -70 -132 -108.5t-185 -38.5q-129 0 -226.5 57t-151.5 161.5t-54 244.5zM336 500q0 -131 66.5 -202t187.5 -71q125 0 196.5 87t71.5 237q0 135 -65.5 206.5t-188.5 71.5q-125 0 -196.5 -88t-71.5 -241z" />
<glyph unicode="h" horiz-adv-x="1198" d="M100 111l99 1226q2 53 41 85t98 32q55 0 87 -30q30 -29 30 -77v-6l-37 -462q53 72 137 109.5t186 37.5q168 0 255 -91t87 -269q0 -39 -2 -60l-41 -495q-4 -57 -40.5 -90t-94.5 -33q-59 0 -92 32q-29 29 -29 79v12l41 485q1 17 1 33q0 194 -181 194q-113 0 -176 -67.5 t-74 -188.5l-39 -456q-2 -57 -39.5 -90t-95.5 -33q-59 0 -92 32q-29 29 -29 79v12z" />
<glyph unicode="i" horiz-adv-x="520" d="M100 111l66 792q4 59 43 89t94 30t89 -30q30 -26 30 -77v-12l-66 -792q-4 -61 -43 -92t-92 -31q-55 0 -90 30q-31 27 -31 81v12zM176 1341q0 61 41 98.5t110 37.5q68 0 110 -37t42 -99q0 -61 -41 -99t-111 -38q-69 0 -110 38t-41 99z" />
<glyph unicode="j" horiz-adv-x="520" d="M-236 -285q0 92 107 99l59 4q150 12 162 174l74 909q4 59 43 90t92 31q55 0 90 -30q31 -28 31 -79v-12l-72 -889q-14 -178 -110.5 -273t-282.5 -110l-51 -2q-10 -1 -20 -1q-54 0 -85 20q-37 22 -37 69zM174 1341q0 61 41 98.5t110 37.5q68 0 110 -37t42 -99 q0 -61 -41 -99t-111 -38q-69 0 -110 38t-41 99z" />
<glyph unicode="k" horiz-adv-x="1097" d="M102 113l97 1222q4 57 43 88t92 31q55 0 90 -32q31 -28 31 -79v-12l-60 -766l447 418q41 37 82 37q47 0 81.5 -35t34.5 -80t-36 -80l-342 -309l319 -334q29 -31 29 -69q0 -49 -40 -88t-89 -39q-45 0 -82 39l-414 432l-27 -348q-4 -57 -41.5 -88t-93.5 -31q-55 0 -90 32 q-31 28 -31 79v12z" />
<glyph unicode="l" horiz-adv-x="520" d="M100 111l99 1224q4 59 43 89t92 30q55 0 90 -30q31 -26 32 -77q0 -6 -1 -12l-99 -1224q-4 -61 -43 -92t-92 -31q-55 0 -90 30q-31 27 -31 81v12z" />
<glyph unicode="m" horiz-adv-x="1787" d="M100 111l66 794q4 55 45 86t92 31q53 0 85 -28q27 -24 27 -68q0 -8 -1 -17l-2 -32q105 149 304 149h3q109 0 182.5 -45t108.5 -131q57 86 145 131t197 45q157 0 238 -89t81 -263q0 -43 -2 -66l-39 -497q-4 -61 -43 -92t-94 -31q-53 0 -88 30q-31 27 -31 81v12l39 489 q2 14 2 41q0 182 -158 182q-207 0 -227 -268l-37 -444q-4 -61 -42 -92t-93 -31t-90 30q-31 27 -31 81v12l41 487q1 20 1 39q-1 86 -31 131q-38 55 -125 55q-205 0 -230 -268l-37 -444q-4 -61 -43 -92t-92 -31q-55 0 -90 30q-31 27 -31 81v12z" />
<glyph unicode="n" horiz-adv-x="1198" d="M100 111l66 794q2 53 41 85t96 32q55 0 86 -30q26 -26 26 -67q0 -8 -1 -16l-2 -39q51 74 137 115t192 41q168 0 255 -91t87 -269q0 -39 -2 -60l-41 -495q-4 -57 -40.5 -90t-94.5 -33q-59 0 -92 32q-29 29 -29 79v12l41 485q1 17 1 33q0 194 -181 194q-113 0 -176 -67.5 t-74 -188.5l-39 -456q-4 -57 -40.5 -90t-94.5 -33q-59 0 -91 32q-30 31 -30 84v7z" />
<glyph unicode="o" horiz-adv-x="1177" d="M78 475q0 168 64.5 293t182 191.5t273.5 66.5q154 0 267.5 -60.5t175 -172t61.5 -258.5q0 -168 -64.5 -293t-182.5 -191.5t-273 -66.5q-154 0 -267.5 60t-175 172t-61.5 259zM334 469q0 -287 248 -287q131 0 197.5 99.5t66.5 261.5q0 141 -62.5 213.5t-183.5 72.5 q-131 0 -198.5 -99t-67.5 -261z" />
<glyph unicode="p" horiz-adv-x="1230" d="M72 -266l92 1167q4 57 40 89t93 32t89 -32q30 -30 30 -82v-7l-2 -29q49 74 131 114t180 40q127 0 223 -58.5t150.5 -168t54.5 -254.5q0 -166 -59.5 -293t-168 -197.5t-249.5 -70.5q-106 0 -187 43t-129 123l-32 -420q-4 -51 -42 -82t-93 -31q-57 0 -91 32q-30 29 -30 74 v11zM383 481q0 -147 63.5 -223t184.5 -76q125 0 195.5 93.5t70.5 254.5q0 141 -66.5 220t-185.5 79q-123 0 -192.5 -94t-69.5 -254z" />
<glyph unicode="q" horiz-adv-x="1230" d="M78 467q0 164 59.5 291t168 197.5t247.5 70.5q111 0 193.5 -45t127.5 -129l5 49q4 57 40.5 89t94.5 32q57 0 89 -32q30 -30 30 -82v-7l-93 -1167q-4 -53 -44 -85t-97 -32q-55 0 -87 31q-28 27 -28 71v11l33 407q-49 -72 -131 -112.5t-182 -40.5q-125 0 -222.5 58 t-150.5 167.5t-53 257.5zM334 479q0 -143 65.5 -220t186.5 -77t191.5 94.5t70.5 251.5q0 147 -64.5 224t-185.5 77q-123 0 -193.5 -93t-70.5 -257z" />
<glyph unicode="r" horiz-adv-x="784" d="M100 111l66 794q4 57 44 87t91 30q53 0 83 -28q26 -25 26 -72v-13l-4 -55q53 76 135 118t178 48l22 2q7 1 13 1q36 -1 60 -21q28 -24 28 -68q0 -61 -29 -92t-100 -39l-56 -6q-133 -14 -194.5 -74.5t-71.5 -181.5l-35 -430q-4 -61 -43 -92t-92 -31q-55 0 -90 30 q-31 27 -31 81v12z" />
<glyph unicode="s" horiz-adv-x="993" d="M43 174q0 39 24.5 67.5t61.5 28.5q25 0 53 -16q141 -82 301 -82q186 0 187 107q0 51 -51.5 78.5t-159.5 58.5q-106 29 -175 58.5t-118 86.5t-49 150q0 141 118.5 228t319.5 87q82 0 169 -23.5t142 -62.5q55 -35 56 -96q0 -39 -24 -66.5t-58 -27.5q-25 0 -54 16 q-127 74 -249 74q-90 0 -138.5 -29t-48.5 -84q0 -51 51.5 -78.5t159.5 -58.5q109 -31 176.5 -60.5t116.5 -87t49 -149.5q0 -145 -116.5 -227t-323.5 -82q-94 0 -187.5 22.5t-164.5 63.5q-68 35 -68 104z" />
<glyph unicode="t" horiz-adv-x="755" d="M18 901q0 100 121 100h105l14 189q4 55 41 87t96 32t91 -32q28 -28 28 -77v-12l-14 -187h172q51 0 78.5 -23.5t27.5 -66.5q0 -102 -119 -102h-176l-32 -428q-2 -12 -2 -37q0 -82 37.5 -125t107.5 -43q18 0 44 3t42 3q29 0 45 -22.5t16 -61.5q0 -63 -45 -87.5t-157 -24.5 q-166 0 -256 88t-90 250q0 37 2 55l32 430h-100q-51 0 -80 23.5t-29 68.5z" />
<glyph unicode="u" horiz-adv-x="1185" d="M117 336q0 41 2 63l39 502q4 57 42 89t97 32q57 0 89 -32q28 -28 28 -77v-12l-39 -485q-2 -12 -2 -37q0 -193 176 -193q106 0 168.5 69t73.5 189l36 457q6 57 44 89t96 32q59 0 91 -32q26 -26 26 -69q0 -9 -1 -20l-63 -797q-2 -51 -41 -83.5t-96 -32.5q-53 0 -84 30 q-29 29 -29 76v6l4 39q-53 -74 -137 -114.5t-184 -40.5q-164 0 -250 90t-86 262z" />
<glyph unicode="v" horiz-adv-x="1077" d="M68 901q0 49 42 83t93 34q35 0 62.5 -18.5t39.5 -55.5l221 -647l324 649q18 37 47 54.5t61 17.5q45 0 81 -31t36 -74q0 -27 -14 -53l-410 -780q-25 -45 -65.5 -69.5t-85.5 -24.5q-47 0 -85 25.5t-57 72.5l-284 782q-6 18 -6 35z" />
<glyph unicode="w" horiz-adv-x="1753" d="M94 899q0 53 41 87t92 34q37 0 66 -19.5t39 -58.5l182 -635l283 627q18 39 52 61.5t69 22.5q39 0 67.5 -21.5t40.5 -62.5l182 -627l285 637q18 37 48 55.5t65 18.5q47 0 82.5 -30t35.5 -75q0 -27 -14 -55l-377 -788q-18 -39 -58 -59.5t-85 -20.5t-83 22.5t-50 61.5 l-174 571l-258 -575q-18 -39 -57.5 -59.5t-84.5 -20.5q-47 0 -85 21.5t-50 62.5l-248 786q-6 23 -6 39z" />
<glyph unicode="x" horiz-adv-x="1089" d="M25 96q0 47 41 88l325 332l-254 305q-31 37 -31 76q0 49 38 86t87 37q51 0 91 -45l237 -293l287 291q43 43 94 43q45 0 76 -31t31 -74q0 -45 -41 -86l-306 -311l273 -328q28 -34 28 -72q0 -52 -37.5 -89t-86.5 -37q-51 0 -89 43l-256 319l-311 -323q-41 -41 -88 -41 q-45 0 -76.5 32.5t-31.5 77.5z" />
<glyph unicode="y" horiz-adv-x="1077" d="M68 901q0 49 42 83t93 34q35 0 62.5 -18.5t39.5 -55.5l221 -647l324 649q18 37 47 54.5t61 17.5q45 0 81 -31t36 -74q0 -27 -14 -53l-615 -1169q-18 -37 -47.5 -54.5t-60.5 -17.5q-43 0 -75 29.5t-32 72.5q0 29 15 58l129 252l-301 835q-6 18 -6 35z" />
<glyph unicode="z" horiz-adv-x="1044" d="M47 100q0 53 41 95l571 614h-442q-53 0 -80.5 23.5t-27.5 66.5q0 102 120 102h662q47 0 74.5 -29.5t27.5 -70.5q0 -51 -41 -96l-569 -612h471q53 0 81 -24t28 -65q0 -104 -121 -104h-692q-47 0 -75 28.5t-28 71.5z" />
<glyph unicode="{" horiz-adv-x="794" d="M68 532q0 45 26.5 74t79.5 31q74 6 105.5 43t37.5 119l31 397q8 119 71.5 183.5t180.5 64.5h170q39 0 65.5 -23.5t26.5 -66.5q0 -53 -29.5 -78t-74.5 -25h-68q-43 0 -66.5 -21.5t-27.5 -68.5l-31 -393q-8 -92 -61 -152.5t-119 -74.5q63 -16 107.5 -79t35.5 -155l-30 -393 q-2 -47 16 -68.5t61 -21.5h66q39 0 65.5 -23.5t26.5 -64.5q0 -53 -29.5 -79t-74.5 -26h-135q-123 0 -190.5 65.5t-59.5 182.5l32 397q6 82 -20.5 119t-97.5 43q-45 2 -67.5 28t-22.5 66z" />
<glyph unicode="|" horiz-adv-x="571" d="M106 -258l127 1591q4 53 41 87t88 34t82 -35t29 -86l-127 -1591q-4 -53 -41 -87t-88 -34t-82 35t-29 86z" />
<glyph unicode="}" horiz-adv-x="794" d="M-61 -279q0 53 29.5 78t76.5 25h66q43 0 66.5 21.5t27.5 68.5l31 393q8 92 61 153.5t119 76.5q-63 14 -107.5 77.5t-36.5 155.5l31 391q4 47 -15.5 68.5t-64.5 21.5h-65q-37 0 -63.5 23.5t-26.5 64.5q0 53 29.5 79t74.5 26h135q123 0 190.5 -65.5t59.5 -182.5l-33 -397 q-6 -82 20.5 -119t98.5 -41q90 -8 90 -96q0 -45 -26.5 -73t-79.5 -32q-72 -4 -105 -41t-39 -118l-30 -400q-10 -119 -73 -183.5t-179 -64.5h-170q-39 0 -65.5 23.5t-26.5 66.5z" />
<glyph unicode="~" d="M137 549q0 27 19 53q47 70 112.5 106.5t139.5 36.5q63 0 121.5 -22.5t134.5 -63.5q57 -31 95 -46t70 -15q74 0 115 53q41 43 86 43q31 0 52.5 -20.5t21.5 -50.5q0 -31 -19 -56q-47 -68 -112.5 -104.5t-141.5 -36.5q-61 0 -119.5 22.5t-133.5 63.5q-63 33 -98.5 48 t-67.5 15q-70 0 -117 -53q-41 -43 -86 -43q-31 0 -51.5 19.5t-20.5 50.5z" />
<glyph unicode="&#xa2;" d="M166 471q0 221 110.5 364.5t307.5 180.5l10 135q4 47 34.5 75.5t76.5 28.5q47 0 73.5 -29.5t24.5 -74.5l-10 -129q143 -18 243 -82q45 -29 45 -90q0 -43 -23.5 -75t-60.5 -32q-20 0 -45 13q-111 70 -233 69q-137 0 -213 -92t-76 -258q0 -137 68.5 -214t191.5 -77 q61 0 112.5 16.5t108.5 51.5q27 14 50 14q35 0 55 -26.5t20 -63.5q0 -61 -49 -96q-51 -39 -125 -64.5t-153 -29.5l-11 -125q-4 -47 -32.5 -77t-73.5 -30q-47 0 -76 30t-24 77l12 143q-158 45 -248 168t-90 299z" />
<glyph unicode="&#xa3;" d="M35 102q0 111 131 111h70l32 428h-108q-33 0 -54.5 22.5t-21.5 57.5t25.5 59.5t64.5 24.5h109l18 250q16 188 142 297.5t333 109.5q123 0 231.5 -36.5t194.5 -106.5q47 -39 47 -90q0 -43 -30.5 -75t-73.5 -32q-39 0 -78 27q-63 47 -139 74.5t-148 27.5q-98 0 -154.5 -54 t-64.5 -157l-18 -235h286q33 0 55.5 -22.5t22.5 -57.5t-26.5 -59.5t-65.5 -24.5h-285l-34 -428h542q55 0 85 -24.5t30 -71.5q0 -117 -131 -117h-872q-115 0 -115 102z" />
<glyph unicode="&#xa5;" d="M109 414q0 39 26.5 61.5t63.5 22.5h284l13 151h-285q-33 0 -55.5 22.5t-22.5 55.5q0 39 26.5 61.5t63.5 22.5h203l-297 465q-18 27 -18 61q0 49 39.5 84t89.5 35q61 0 96 -57l307 -496l395 502q42 53 101 53q47 0 82.5 -32.5t35.5 -75.5q0 -35 -26 -70l-379 -469h203 q33 0 55.5 -21.5t22.5 -56.5q0 -39 -27 -61.5t-64 -22.5h-284l-13 -151h285q35 0 56.5 -21.5t21.5 -56.5q0 -39 -26.5 -61.5t-63.5 -22.5h-285l-16 -215q-4 -63 -43 -98t-96 -35q-59 0 -94 34.5t-31 98.5l16 215h-283q-35 0 -56 21.5t-21 56.5z" />
<glyph unicode="&#xa8;" horiz-adv-x="614" d="M53 1341q0 57 37 92t96 35t97 -34.5t38 -92.5q0 -57 -38 -92t-97 -35t-96 35t-37 92zM430 1341q0 57 36.5 92t96.5 35q57 0 95 -34.5t38 -92.5q0 -57 -37 -92t-96 -35q-60 0 -96.5 35t-36.5 92z" />
<glyph unicode="&#xa9;" horiz-adv-x="1669" d="M121 723q0 205 96 372t264 263t373 96t372 -96t263 -263t96 -372t-96 -372t-264 -264t-371 -97q-205 0 -373 97t-264 264t-96 372zM242 723q0 -174 78.5 -316.5t219 -223.5t314.5 -81t313.5 81t218 223.5t78.5 316.5t-78.5 315.5t-218 222t-313.5 80.5t-314.5 -80.5 t-219 -222t-78.5 -315.5zM444 723q0 201 117 320.5t311 119.5q166 0 271 -80q23 -18 31 -35.5t8 -43.5q0 -33 -21.5 -63t-56.5 -30q-16 0 -32.5 6.5t-35.5 16.5q-41 23 -73.5 35t-75.5 12q-102 0 -154.5 -62.5t-52.5 -195.5q0 -135 52 -197.5t155 -62.5q43 0 75.5 12 t73.5 35q18 10 34.5 16t33.5 6q35 0 56.5 -29.5t21.5 -62.5q0 -27 -8.5 -45t-30.5 -35q-113 -80 -271 -79q-194 0 -311 119.5t-117 322.5z" />
<glyph unicode="&#xaa;" horiz-adv-x="688" d="M84 1010q0 96 80 139t260 43h55l2 27q4 41 -19.5 60t-76.5 19q-33 0 -77 -10t-85 -26q-16 -4 -24 -5q-31 0 -49.5 20.5t-18.5 51.5q0 20 13.5 42t37.5 34q45 23 110.5 36t129.5 13q133 0 197.5 -60.5t64.5 -185.5q0 -27 -2 -41l-18 -237q-2 -47 -31 -76t-70 -29 q-51 0 -78.5 28t-23.5 77v6q-55 -111 -178 -111q-84 0 -141.5 53.5t-57.5 131.5zM281 1026q0 -27 20.5 -43t52.5 -16q47 0 80 29.5t35 76.5l2 21h-61q-68 0 -98.5 -16.5t-30.5 -51.5z" />
<glyph unicode="&#xab;" horiz-adv-x="1011" d="M113 539q0 43 32 84l181 256q18 29 44.5 42t55.5 13q37 0 63.5 -22.5t26.5 -57.5q0 -29 -18 -59l-144 -250l101 -248q8 -23 8 -45q0 -43 -30 -69.5t-68 -26.5q-59 0 -93 57l-139 256q-20 41 -20 70zM537 539q0 43 32 84l181 256q18 29 44.5 42t55.5 13q37 0 63.5 -22.5 t26.5 -57.5q0 -29 -18 -59l-144 -250l101 -248q8 -23 8 -45q0 -43 -30 -69.5t-68 -26.5q-59 0 -93 57l-139 256q-20 41 -20 70z" />
<glyph unicode="&#xac;" d="M139 793q0 39 29 64.5t70 25.5h817q39 0 62.5 -26t21.5 -64l-33 -414q-4 -39 -33 -65.5t-67 -26.5q-41 0 -63.5 26.5t-20.5 65.5l26 326h-725q-37 0 -60.5 25.5t-23.5 62.5z" />
<glyph unicode="&#xad;" horiz-adv-x="888" d="M119 541q0 51 31.5 79.5t95.5 28.5h420q55 0 83.5 -26.5t28.5 -69.5q0 -106 -127 -107h-420q-53 0 -82.5 26t-29.5 69z" />
<glyph unicode="&#xae;" horiz-adv-x="1669" d="M121 723q0 205 96 372t264 263t373 96t372 -96t263 -263t96 -372t-96 -372t-264 -264t-371 -97q-205 0 -372 97t-264 264t-97 372zM242 723q0 -174 79.5 -316.5t220 -223.5t312.5 -81t311.5 81t219 223.5t79.5 316.5t-79.5 315.5t-219 222t-311.5 80.5 q-174 0 -313.5 -80.5t-219 -222t-79.5 -315.5zM489 395l54 654q2 51 31.5 78.5t80.5 27.5h269q154 0 235.5 -65.5t81.5 -188.5q0 -104 -58.5 -176t-162.5 -94q35 -8 61.5 -28.5t55.5 -61.5l65 -105q20 -29 21 -57q0 -41 -38 -69.5t-85 -28.5q-66 0 -96 51l-142 235 q-25 47 -74 47h-55l-18 -219q-2 -55 -36 -84.5t-83 -29.5q-51 0 -81 29.5t-26 84.5zM743 776h152q127 0 127 113q0 49 -32 71.5t-99 22.5h-131z" />
<glyph unicode="&#xb1;" d="M82 86q0 39 28.5 66.5t69.5 27.5h817q37 0 60.5 -25.5t23.5 -62.5q0 -39 -27.5 -65.5t-68.5 -26.5h-819q-35 0 -59.5 25.5t-24.5 60.5zM131 680q0 39 27.5 65.5t68.5 26.5h320l18 223q2 39 30 64.5t69 25.5q37 0 59 -25.5t20 -64.5l-18 -223h319q37 0 61.5 -26.5 t22.5 -63.5q0 -39 -27.5 -64.5t-68.5 -25.5h-319l-19 -223q-4 -39 -31.5 -66t-66.5 -27t-61.5 27t-18.5 66l19 223h-320q-37 0 -61.5 25.5t-22.5 62.5z" />
<glyph unicode="&#xb4;" horiz-adv-x="614" d="M319 1186q0 18 12 43l177 272q18 31 42.5 46.5t53.5 15.5q41 0 72.5 -29t31.5 -68q0 -41 -35 -77l-221 -230q-32 -35 -71 -35q-27 0 -44.5 17.5t-17.5 44.5z" />
<glyph unicode="&#xb5;" horiz-adv-x="1185" d="M66 -266l94 1167q4 57 41 89t96 32q57 0 90 -32t29 -89l-41 -485q-2 -12 -2 -35q0 -94 45 -144.5t131 -50.5q104 0 168.5 70t75.5 188l36 457q4 57 42 89t96 32q59 0 91 -32t27 -89l-63 -797q-4 -51 -43 -83.5t-96 -32.5q-53 0 -84 30.5t-27 81.5l4 43 q-51 -76 -135 -117.5t-182 -41.5q-59 0 -115 20l-22 -266q-2 -53 -42 -85t-98 -32q-57 0 -89 31t-27 82z" />
<glyph unicode="&#xb8;" horiz-adv-x="614" d="M43 -326q0 29 19.5 48.5t48.5 11.5q57 -18 112 -19q106 0 107 62q0 45 -64 45q-23 0 -48 -7.5t-34 -7.5q-20 0 -30.5 12.5t-6.5 28.5l39 193h148l-27 -125q8 2 25 2q76 0 119 -37t43 -102q0 -82 -72 -130t-191 -48q-88 0 -149 20q-18 6 -28.5 20.5t-10.5 32.5z" />
<glyph unicode="&#xba;" horiz-adv-x="741" d="M86 1114q0 156 96.5 248t257.5 92q145 0 231.5 -79t86.5 -210q0 -156 -97.5 -248t-259.5 -92q-145 0 -230 79t-85 210zM299 1124q0 -61 29.5 -96t83.5 -35q63 0 99 44t36 120q0 61 -31 95t-84 34q-63 0 -98 -43t-35 -119z" />
<glyph unicode="&#xbb;" horiz-adv-x="1001" d="M78 238q0 31 16 57l146 250l-101 250q-10 27 -10 45q0 41 29.5 67.5t70.5 26.5q29 0 53.5 -13.5t39.5 -41.5l139 -258q20 -41 20 -70q0 -39 -30 -82l-183 -258q-18 -29 -44.5 -42t-55.5 -13q-39 0 -64.5 22.5t-25.5 59.5zM502 238q0 31 16 57l146 250l-101 250 q-10 27 -10 45q0 41 29.5 67.5t70.5 26.5q29 0 53.5 -13.5t39.5 -41.5l139 -258q20 -41 20 -70q0 -39 -30 -82l-183 -258q-18 -29 -44.5 -42t-55.5 -13q-39 0 -64.5 22.5t-25.5 59.5z" />
<glyph unicode="&#xc0;" horiz-adv-x="1519" d="M29 100q0 35 16 62l643 1208q23 41 61.5 63.5t84.5 22.5q45 0 82.5 -23.5t54.5 -64.5l459 -1218q8 -19 8 -44q0 -51 -40 -83.5t-89 -32.5q-35 0 -63.5 18.5t-41.5 57.5l-96 272h-709l-139 -277q-18 -35 -47 -53t-63 -18q-47 0 -84 31.5t-37 78.5zM504 543h530l-217 616z M584 1812q0 35 27.5 59.5t64.5 24.5q51 0 80 -49l114 -196q10 -20 11 -35q0 -27 -19.5 -43.5t-48.5 -16.5q-35 0 -61 29l-144 168q-25 27 -24 59z" />
<glyph unicode="&#xc1;" horiz-adv-x="1519" d="M29 100q0 35 16 62l643 1208q23 41 61.5 63.5t84.5 22.5q45 0 82.5 -23.5t54.5 -64.5l459 -1218q8 -19 8 -44q0 -51 -40 -83.5t-89 -32.5q-35 0 -63.5 18.5t-41.5 57.5l-96 272h-709l-139 -277q-18 -35 -47 -53t-63 -18q-47 0 -84 31.5t-37 78.5zM504 543h530l-217 616z M817 1614q0 25 17 47l133 188q33 47 80 47q37 0 64.5 -25.5t27.5 -60.5q0 -37 -35 -69l-166 -158q-26 -24 -59 -24q-27 0 -44.5 15t-17.5 40z" />
<glyph unicode="&#xc2;" horiz-adv-x="1519" d="M29 100q0 35 16 62l643 1208q23 41 61.5 63.5t84.5 22.5q45 0 82.5 -23.5t54.5 -64.5l459 -1218q8 -19 8 -44q0 -51 -40 -83.5t-89 -32.5q-35 0 -63.5 18.5t-41.5 57.5l-96 272h-709l-139 -277q-18 -35 -47 -53t-63 -18q-47 0 -84 31.5t-37 78.5zM504 543h530l-217 616z M580 1622q0 29 26 57l160 174q39 41 106 41q66 0 95 -41l131 -172q18 -25 18 -49q0 -31 -24.5 -52t-57.5 -21q-49 0 -78 47l-92 149l-129 -156q-35 -43 -82 -43q-31 0 -52 19.5t-21 46.5z" />
<glyph unicode="&#xc3;" horiz-adv-x="1519" d="M29 100q0 35 16 62l643 1208q23 41 61.5 63.5t84.5 22.5q45 0 82.5 -23.5t54.5 -64.5l459 -1218q8 -19 8 -44q0 -51 -40 -83.5t-89 -32.5q-35 0 -63.5 18.5t-41.5 57.5l-96 272h-709l-139 -277q-18 -35 -47 -53t-63 -18q-47 0 -84 31.5t-37 78.5zM504 543h530l-217 616z M514 1667q0 43 25.5 88t71.5 75t108 30q35 0 71.5 -13.5t86.5 -38.5q43 -20 71.5 -31.5t55.5 -11.5q31 0 50 12.5t40 37.5q16 18 27.5 26t29.5 8q51 0 51 -61q0 -43 -25.5 -88t-71.5 -75t-108 -30q-34 0 -69 12.5t-88 37.5q-43 20 -72 31.5t-55 11.5q-31 0 -50.5 -12.5 t-39.5 -37.5q-16 -18 -27.5 -26t-30.5 -8q-51 0 -51 63z" />
<glyph unicode="&#xc4;" horiz-adv-x="1519" d="M29 100q0 35 16 62l643 1208q23 41 61.5 63.5t84.5 22.5q45 0 82.5 -23.5t54.5 -64.5l459 -1218q8 -19 8 -44q0 -51 -40 -83.5t-89 -32.5q-35 0 -63.5 18.5t-41.5 57.5l-96 272h-709l-139 -277q-18 -35 -47 -53t-63 -18q-47 0 -84 31.5t-37 78.5zM504 543h530l-217 616z M537 1726q0 57 36.5 92t96.5 35q59 0 97 -34.5t38 -92.5q0 -57 -38 -93t-97 -36q-60 0 -96.5 36t-36.5 93zM913 1726q0 57 37 92t97 35q57 0 95 -34.5t38 -92.5q0 -57 -37 -93t-96 -36q-60 0 -97 36t-37 93z" />
<glyph unicode="&#xc5;" horiz-adv-x="1519" d="M29 100q0 31 16 62l668 1257q-39 31 -62.5 75t-23.5 95q0 90 63.5 151.5t155.5 61.5q90 0 153.5 -61.5t63.5 -151.5q0 -59 -28.5 -107t-78.5 -77l474 -1255q8 -19 8 -44q0 -51 -40 -83.5t-89 -32.5q-35 0 -63.5 18.5t-41.5 57.5l-96 272h-709l-139 -277q-18 -37 -47 -54 t-63 -17q-47 0 -84 31.5t-37 78.5zM504 543h530l-217 616zM752 1589q0 -41 26.5 -68.5t67.5 -27.5q39 0 65.5 27.5t26.5 68.5t-26.5 69t-65.5 28q-41 0 -67.5 -28t-26.5 -69z" />
<glyph unicode="&#xc6;" horiz-adv-x="2041" d="M12 86q0 47 35 96l830 1188q27 35 67.5 54.5t87.5 19.5h899q57 0 87 -26.5t30 -71.5q0 -55 -34 -83t-97 -28h-727l55 -397h598q55 0 86 -27t31 -72q0 -109 -129 -108h-557l59 -422h502q55 0 86 -26.5t31 -73.5q0 -109 -131 -109h-592q-47 0 -79 21.5t-36 58.5l-37 258 h-641l-184 -277q-27 -39 -60.5 -58t-70.5 -19q-45 0 -77 28.5t-32 73.5zM573 543h476l-82 587z" />
<glyph unicode="&#xc7;" horiz-adv-x="1388" d="M127 670q0 238 90 418t256 277t387 97q143 0 263 -38t198 -99q59 -39 59 -104q0 -45 -27.5 -77t-70.5 -32q-37 0 -68 23q-147 113 -346 112q-223 0 -348 -154.5t-125 -424.5q0 -227 105.5 -349t300.5 -122q176 0 346 112q35 20 65 21q39 0 63.5 -29t24.5 -70 q0 -61 -53 -102q-76 -61 -188.5 -102t-245.5 -45l-14 -66q8 2 24 2q76 0 119 -37t43 -102q0 -82 -71.5 -130t-190.5 -48q-88 0 -150 20q-18 6 -28 20.5t-10 32.5q0 29 19 48.5t48 11.5q57 -18 113 -19q106 0 106 62q0 45 -63 45q-23 0 -48.5 -7.5t-33.5 -7.5 q-20 0 -30.5 12.5t-6.5 28.5l29 142q-254 35 -397.5 214t-143.5 466z" />
<glyph unicode="&#xc8;" horiz-adv-x="1206" d="M127 125l94 1196q4 57 39 90t94 33h744q55 0 84.5 -26.5t29.5 -71.5q0 -111 -129 -111h-610l-31 -397h566q55 0 85.5 -27t30.5 -72q0 -109 -129 -108h-571l-33 -422h608q55 0 86 -27.5t31 -72.5q0 -53 -33.5 -81t-97.5 -28h-741q-61 0 -91 33t-26 92zM496 1812 q0 35 27.5 59.5t64.5 24.5q51 0 80 -49l114 -196q10 -20 11 -35q0 -27 -19.5 -43.5t-48.5 -16.5q-35 0 -61 29l-144 168q-25 27 -24 59z" />
<glyph unicode="&#xc9;" horiz-adv-x="1206" d="M127 125l94 1196q4 57 39 90t94 33h744q55 0 84.5 -26.5t29.5 -71.5q0 -111 -129 -111h-610l-31 -397h566q55 0 85.5 -27t30.5 -72q0 -109 -129 -108h-571l-33 -422h608q55 0 86 -27.5t31 -72.5q0 -53 -33.5 -81t-97.5 -28h-741q-61 0 -91 33t-26 92zM729 1614 q0 25 17 47l133 188q33 47 80 47q37 0 64.5 -25.5t27.5 -60.5q0 -37 -35 -69l-166 -158q-26 -24 -59 -24q-27 0 -44.5 15t-17.5 40z" />
<glyph unicode="&#xca;" horiz-adv-x="1206" d="M127 125l94 1196q4 57 39 90t94 33h744q55 0 84.5 -26.5t29.5 -71.5q0 -111 -129 -111h-610l-31 -397h566q55 0 85.5 -27t30.5 -72q0 -109 -129 -108h-571l-33 -422h608q55 0 86 -27.5t31 -72.5q0 -53 -33.5 -81t-97.5 -28h-741q-61 0 -91 33t-26 92zM492 1622 q0 29 26 57l160 174q39 41 106 41q66 0 95 -41l131 -172q18 -25 18 -49q0 -31 -24.5 -52t-57.5 -21q-49 0 -78 47l-92 149l-129 -156q-35 -43 -82 -43q-31 0 -52 19.5t-21 46.5z" />
<glyph unicode="&#xcb;" horiz-adv-x="1206" d="M127 125l94 1196q4 57 39 90t94 33h744q55 0 84.5 -26.5t29.5 -71.5q0 -111 -129 -111h-610l-31 -397h566q55 0 85.5 -27t30.5 -72q0 -109 -129 -108h-571l-33 -422h608q55 0 86 -27.5t31 -72.5q0 -53 -33.5 -81t-97.5 -28h-741q-61 0 -91 33t-26 92zM449 1726 q0 57 36.5 92t96.5 35q59 0 97 -34.5t38 -92.5q0 -57 -38 -93t-97 -36q-60 0 -96.5 36t-36.5 93zM825 1726q0 57 37 92t97 35q57 0 95 -34.5t38 -92.5q0 -57 -37 -93t-96 -36q-60 0 -97 36t-37 93z" />
<glyph unicode="&#xcc;" horiz-adv-x="575" d="M113 1812q0 35 27.5 59.5t64.5 24.5q51 0 80 -49l114 -196q10 -20 11 -35q0 -27 -19.5 -43.5t-48.5 -16.5q-35 0 -61 29l-144 168q-25 27 -24 59zM127 121l96 1204q4 59 42 94t97 35t93 -36t30 -95l-94 -1204q-6 -59 -44 -95t-97 -36q-60 0 -93.5 35.5t-29.5 97.5z" />
<glyph unicode="&#xcd;" horiz-adv-x="575" d="M127 121l96 1204q4 59 42 94t97 35t93 -36t30 -95l-94 -1204q-6 -59 -44 -95t-97 -36q-60 0 -93.5 35.5t-29.5 97.5zM346 1614q0 25 17 47l133 188q33 47 80 47q37 0 64.5 -25.5t27.5 -60.5q0 -37 -35 -69l-166 -158q-26 -24 -59 -24q-27 0 -44.5 15t-17.5 40z" />
<glyph unicode="&#xce;" horiz-adv-x="575" d="M109 1622q0 29 26 57l160 174q39 41 106 41q66 0 95 -41l131 -172q18 -25 18 -49q0 -31 -24.5 -52t-57.5 -21q-49 0 -78 47l-92 149l-129 -156q-35 -43 -82 -43q-31 0 -52 19.5t-21 46.5zM127 121l96 1204q4 59 42 94t97 35t93 -36t30 -95l-94 -1204q-6 -59 -44 -95 t-97 -36q-60 0 -93.5 35.5t-29.5 97.5z" />
<glyph unicode="&#xcf;" horiz-adv-x="575" d="M66 1726q0 57 36.5 92t96.5 35q59 0 97 -34.5t38 -92.5q0 -57 -38 -93t-97 -36q-60 0 -96.5 36t-36.5 93zM127 121l96 1204q4 59 42 94t97 35t93 -36t30 -95l-94 -1204q-6 -59 -44 -95t-97 -36q-60 0 -93.5 35.5t-29.5 97.5zM442 1726q0 57 37 92t97 35q57 0 95 -34.5 t38 -92.5q0 -57 -37 -93t-96 -36q-60 0 -97 36t-37 93z" />
<glyph unicode="&#xd0;" horiz-adv-x="1593" d="M18 727q0 51 34 77.5t93 26.5h84l39 488q4 59 40 92t95 33h402q217 0 372.5 -80t238.5 -231.5t83 -358.5q0 -244 -90 -417t-263 -265t-417 -92h-436q-59 0 -91 34t-28 95l39 500h-82q-53 0 -83 26.5t-30 71.5zM444 215h265q526 0 526 561q0 221 -117 337t-344 116h-250 l-30 -398h288q53 0 83 -25.5t30 -70.5q0 -51 -33 -78.5t-92 -27.5h-293z" />
<glyph unicode="&#xd1;" horiz-adv-x="1529" d="M127 121l94 1204q4 57 42 93t91 36q68 0 101 -49l667 -963l70 885q4 57 41 92t90 35q55 0 88 -36t27 -93l-95 -1206q-4 -59 -39.5 -95t-91.5 -36q-66 0 -102 49l-666 962l-71 -882q-4 -59 -40 -94t-93 -35q-53 0 -85 36.5t-28 96.5zM518 1667q0 43 25.5 88t71.5 75 t108 30q35 0 71.5 -13.5t86.5 -38.5q43 -20 71.5 -31.5t55.5 -11.5q31 0 50 12.5t40 37.5q16 18 27.5 26t29.5 8q51 0 51 -61q0 -43 -25.5 -88t-71.5 -75t-108 -30q-34 0 -69 12.5t-88 37.5q-43 20 -72 31.5t-55 11.5q-31 0 -50.5 -12.5t-39.5 -37.5q-16 -18 -27.5 -26 t-30.5 -8q-51 0 -51 63z" />
<glyph unicode="&#xd2;" horiz-adv-x="1595" d="M127 670q0 238 87 417t244.5 277t368.5 98q207 0 359.5 -83t234.5 -237.5t82 -367.5q0 -238 -87 -417t-244.5 -277t-368.5 -98q-207 0 -359.5 82.5t-234.5 237.5t-82 368zM391 668q0 -229 106.5 -352t303.5 -123q203 0 319.5 154.5t116.5 426.5q0 229 -106.5 353 t-301.5 124q-205 0 -321.5 -155.5t-116.5 -427.5zM621 1812q0 35 27.5 59.5t64.5 24.5q51 0 80 -49l114 -196q10 -20 11 -35q0 -27 -19.5 -43.5t-48.5 -16.5q-35 0 -61 29l-144 168q-25 27 -24 59z" />
<glyph unicode="&#xd3;" horiz-adv-x="1595" d="M127 670q0 238 87 417t244.5 277t368.5 98q207 0 359.5 -83t234.5 -237.5t82 -367.5q0 -238 -87 -417t-244.5 -277t-368.5 -98q-207 0 -359.5 82.5t-234.5 237.5t-82 368zM391 668q0 -229 106.5 -352t303.5 -123q203 0 319.5 154.5t116.5 426.5q0 229 -106.5 353 t-301.5 124q-205 0 -321.5 -155.5t-116.5 -427.5zM854 1614q0 25 17 47l133 188q33 47 80 47q37 0 64.5 -25.5t27.5 -60.5q0 -37 -35 -69l-166 -158q-26 -24 -59 -24q-27 0 -44.5 15t-17.5 40z" />
<glyph unicode="&#xd4;" horiz-adv-x="1595" d="M127 670q0 238 87 417t244.5 277t368.5 98q207 0 359.5 -83t234.5 -237.5t82 -367.5q0 -238 -87 -417t-244.5 -277t-368.5 -98q-207 0 -359.5 82.5t-234.5 237.5t-82 368zM391 668q0 -229 106.5 -352t303.5 -123q203 0 319.5 154.5t116.5 426.5q0 229 -106.5 353 t-301.5 124q-205 0 -321.5 -155.5t-116.5 -427.5zM617 1622q0 29 26 57l160 174q39 41 106 41q66 0 95 -41l131 -172q18 -25 18 -49q0 -31 -24.5 -52t-57.5 -21q-49 0 -78 47l-92 149l-129 -156q-35 -43 -82 -43q-31 0 -52 19.5t-21 46.5z" />
<glyph unicode="&#xd5;" horiz-adv-x="1595" d="M127 670q0 238 87 417t244.5 277t368.5 98q207 0 359.5 -83t234.5 -237.5t82 -367.5q0 -238 -87 -417t-244.5 -277t-368.5 -98q-207 0 -359.5 82.5t-234.5 237.5t-82 368zM391 668q0 -229 106.5 -352t303.5 -123q203 0 319.5 154.5t116.5 426.5q0 229 -106.5 353 t-301.5 124q-205 0 -321.5 -155.5t-116.5 -427.5zM551 1667q0 43 25.5 88t71.5 75t108 30q35 0 71.5 -13.5t86.5 -38.5q43 -20 71.5 -31.5t55.5 -11.5q31 0 50 12.5t40 37.5q16 18 27.5 26t29.5 8q51 0 51 -61q0 -43 -25.5 -88t-71.5 -75t-108 -30q-34 0 -69 12.5t-88 37.5 q-43 20 -72 31.5t-55 11.5q-31 0 -50.5 -12.5t-39.5 -37.5q-16 -18 -27.5 -26t-30.5 -8q-51 0 -51 63z" />
<glyph unicode="&#xd6;" horiz-adv-x="1595" d="M127 670q0 238 87 417t244.5 277t368.5 98q207 0 359.5 -83t234.5 -237.5t82 -367.5q0 -238 -87 -417t-244.5 -277t-368.5 -98q-207 0 -359.5 82.5t-234.5 237.5t-82 368zM391 668q0 -229 106.5 -352t303.5 -123q203 0 319.5 154.5t116.5 426.5q0 229 -106.5 353 t-301.5 124q-205 0 -321.5 -155.5t-116.5 -427.5zM574 1726q0 57 36.5 92t96.5 35q59 0 97 -34.5t38 -92.5q0 -57 -38 -93t-97 -36q-60 0 -96.5 36t-36.5 93zM950 1726q0 57 37 92t97 35q57 0 95 -34.5t38 -92.5q0 -57 -37 -93t-96 -36q-60 0 -97 36t-37 93z" />
<glyph unicode="&#xd8;" horiz-adv-x="1595" d="M127 670q0 238 87 417t244.5 277t368.5 98q178 0 322 -63l65 100q35 53 91 53q39 0 67.5 -26.5t28.5 -65.5q0 -29 -21 -61l-71 -109q94 -90 144 -221t50 -295q0 -238 -87 -417t-244.5 -277t-368.5 -98q-180 0 -320 63l-67 -100q-35 -53 -90 -54q-37 0 -66 27t-29 64 q0 31 21 63l72 107q-96 90 -146.5 221t-50.5 297zM391 668q0 -188 72 -303l561 845q-86 41 -195 41q-205 0 -321.5 -155.5t-116.5 -427.5zM606 233q86 -41 195 -40q203 0 319.5 154.5t116.5 426.5q0 182 -70 303z" />
<glyph unicode="&#xd9;" horiz-adv-x="1501" d="M150 518q0 27 4 80l59 727q4 59 42 94t95 35q59 0 92 -36t29 -95l-57 -729q-2 -23 -2 -66q0 -170 81.5 -252.5t251.5 -82.5q160 0 250 87t105 279l59 766q6 59 44 94t95 35q59 0 92 -36t29 -95l-59 -743q-25 -297 -182.5 -447.5t-444.5 -150.5q-289 0 -436 136t-147 400z M576 1812q0 35 27.5 59.5t64.5 24.5q51 0 80 -49l114 -196q10 -20 11 -35q0 -27 -19.5 -43.5t-48.5 -16.5q-35 0 -61 29l-144 168q-25 27 -24 59z" />
<glyph unicode="&#xda;" horiz-adv-x="1501" d="M150 518q0 27 4 80l59 727q4 59 42 94t95 35q59 0 92 -36t29 -95l-57 -729q-2 -23 -2 -66q0 -170 81.5 -252.5t251.5 -82.5q160 0 250 87t105 279l59 766q6 59 44 94t95 35q59 0 92 -36t29 -95l-59 -743q-25 -297 -182.5 -447.5t-444.5 -150.5q-289 0 -436 136t-147 400z M809 1614q0 25 17 47l133 188q33 47 80 47q37 0 64.5 -25.5t27.5 -60.5q0 -37 -35 -69l-166 -158q-26 -24 -59 -24q-27 0 -44.5 15t-17.5 40z" />
<glyph unicode="&#xdb;" horiz-adv-x="1501" d="M150 518q0 27 4 80l59 727q4 59 42 94t95 35q59 0 92 -36t29 -95l-57 -729q-2 -23 -2 -66q0 -170 81.5 -252.5t251.5 -82.5q160 0 250 87t105 279l59 766q6 59 44 94t95 35q59 0 92 -36t29 -95l-59 -743q-25 -297 -182.5 -447.5t-444.5 -150.5q-289 0 -436 136t-147 400z M572 1622q0 29 26 57l160 174q39 41 106 41q66 0 95 -41l131 -172q18 -25 18 -49q0 -31 -24.5 -52t-57.5 -21q-49 0 -78 47l-92 149l-129 -156q-35 -43 -82 -43q-31 0 -52 19.5t-21 46.5z" />
<glyph unicode="&#xdc;" horiz-adv-x="1501" d="M150 518q0 27 4 80l59 727q4 59 42 94t95 35q59 0 92 -36t29 -95l-57 -729q-2 -23 -2 -66q0 -170 81.5 -252.5t251.5 -82.5q160 0 250 87t105 279l59 766q6 59 44 94t95 35q59 0 92 -36t29 -95l-59 -743q-25 -297 -182.5 -447.5t-444.5 -150.5q-289 0 -436 136t-147 400z M529 1726q0 57 36.5 92t96.5 35q59 0 97 -34.5t38 -92.5q0 -57 -38 -93t-97 -36q-60 0 -96.5 36t-36.5 93zM905 1726q0 57 37 92t97 35q57 0 95 -34.5t38 -92.5q0 -57 -37 -93t-96 -36q-60 0 -97 36t-37 93z" />
<glyph unicode="&#xdd;" horiz-adv-x="1275" d="M86 1327q0 49 41 88t90 39q53 0 90 -51l357 -526l440 530q45 51 98 51q47 0 82 -33.5t35 -81.5q0 -45 -35 -86l-500 -593l-45 -545q-4 -63 -43 -97t-96 -34t-92 34.5t-31 98.5l43 543l-411 598q-23 35 -23 65zM694 1614q0 25 17 47l133 188q33 47 80 47q37 0 64.5 -25.5 t27.5 -60.5q0 -37 -35 -69l-166 -158q-26 -24 -59 -24q-27 0 -44.5 15t-17.5 40z" />
<glyph unicode="&#xde;" horiz-adv-x="1351" d="M127 121l96 1204q4 59 41 94t96 35t92 -36t29 -95l-14 -180h383q211 0 328.5 -100.5t117.5 -284.5q0 -209 -126 -321.5t-361 -112.5h-408l-16 -205q-4 -59 -42 -95t-95 -36q-59 0 -92 35.5t-29 97.5zM418 528h370q259 0 259 217q0 98 -56.5 145.5t-169.5 47.5h-370z" />
<glyph unicode="&#xdf;" horiz-adv-x="1341" d="M100 111l68 827q20 254 160.5 387t388.5 133q182 0 286.5 -71.5t104.5 -196.5q0 -88 -44 -152.5t-126 -136.5q-57 -53 -84 -88t-27 -74q0 -45 41 -71.5t127 -57.5q90 -33 145.5 -62.5t96.5 -85.5t41 -145q0 -152 -115.5 -242.5t-310.5 -90.5q-96 0 -184 25.5t-152 70.5 q-45 31 -45 86q0 41 25.5 70.5t66.5 29.5q29 0 55 -16q66 -41 124.5 -56.5t131.5 -15.5q76 0 121 32t45 85q0 49 -43 75.5t-135 57.5q-88 31 -143 58.5t-95 79.5t-40 134q0 84 43 145.5t121 131.5q61 57 89.5 94t28.5 82q0 57 -41 87t-120 30q-254 0 -279 -299l-70 -860 q-4 -57 -40.5 -90t-94.5 -33q-59 0 -92 32.5t-29 90.5z" />
<glyph unicode="&#xe0;" horiz-adv-x="1105" d="M80 276q0 115 58.5 183.5t187.5 100.5t344 32h73l2 39q8 102 -39 151t-149 49q-121 0 -276 -79q-27 -12 -52 -13q-37 0 -61.5 26t-24.5 62q0 27 16.5 54.5t47.5 46.5q74 45 174 71.5t205 26.5q202 0 302.5 -92t100.5 -279q0 -39 -2 -59l-39 -490q-4 -57 -37.5 -87.5 t-91.5 -30.5q-53 0 -85 33.5t-27 87.5l2 38q-41 -78 -115 -120.5t-168 -42.5q-98 0 -177 37.5t-124 104.5t-45 150zM330 303q0 -61 44 -98t118 -37q96 0 162.5 68.5t74.5 175.5l4 45h-57q-131 0 -206 -14.5t-107.5 -48.5t-32.5 -91zM348 1470q0 41 30.5 68t71.5 27 q31 0 57.5 -18.5t40.5 -55.5l109 -266q8 -25 8 -35q0 -29 -20.5 -46.5t-49.5 -17.5q-49 0 -75 41l-148 234q-25 37 -24 69z" />
<glyph unicode="&#xe1;" horiz-adv-x="1105" d="M80 276q0 115 58.5 183.5t187.5 100.5t344 32h73l2 39q8 102 -39 151t-149 49q-121 0 -276 -79q-27 -12 -52 -13q-37 0 -61.5 26t-24.5 62q0 27 16.5 54.5t47.5 46.5q74 45 174 71.5t205 26.5q202 0 302.5 -92t100.5 -279q0 -39 -2 -59l-39 -490q-4 -57 -37.5 -87.5 t-91.5 -30.5q-53 0 -85 33.5t-27 87.5l2 38q-41 -78 -115 -120.5t-168 -42.5q-98 0 -177 37.5t-124 104.5t-45 150zM330 303q0 -61 44 -98t118 -37q96 0 162.5 68.5t74.5 175.5l4 45h-57q-131 0 -206 -14.5t-107.5 -48.5t-32.5 -91zM579 1186q0 18 12 43l177 272 q18 31 42.5 46.5t53.5 15.5q41 0 72.5 -29t31.5 -68q0 -41 -35 -77l-221 -230q-32 -35 -71 -35q-27 0 -44.5 17.5t-17.5 44.5z" />
<glyph unicode="&#xe2;" horiz-adv-x="1105" d="M80 276q0 115 58.5 183.5t187.5 100.5t344 32h73l2 39q8 102 -39 151t-149 49q-121 0 -276 -79q-27 -12 -52 -13q-37 0 -61.5 26t-24.5 62q0 27 16.5 54.5t47.5 46.5q74 45 174 71.5t205 26.5q202 0 302.5 -92t100.5 -279q0 -39 -2 -59l-39 -490q-4 -57 -37.5 -87.5 t-91.5 -30.5q-53 0 -85 33.5t-27 87.5l2 38q-41 -78 -115 -120.5t-168 -42.5q-98 0 -177 37.5t-124 104.5t-45 150zM330 303q0 -61 44 -98t118 -37q96 0 162.5 68.5t74.5 175.5l4 45h-57q-131 0 -206 -14.5t-107.5 -48.5t-32.5 -91zM346 1202q0 27 20 55l168 240 q23 31 54.5 48.5t64.5 17.5t61.5 -17.5t44.5 -48.5l133 -250q12 -25 13 -45q0 -33 -27 -55.5t-61 -22.5q-63 0 -88 60l-91 207l-120 -213q-29 -54 -86 -54q-35 0 -60.5 22.5t-25.5 55.5z" />
<glyph unicode="&#xe3;" horiz-adv-x="1105" d="M80 276q0 115 58.5 183.5t187.5 100.5t344 32h73l2 39q8 102 -39 151t-149 49q-121 0 -276 -79q-27 -12 -52 -13q-37 0 -61.5 26t-24.5 62q0 27 16.5 54.5t47.5 46.5q74 45 174 71.5t205 26.5q202 0 302.5 -92t100.5 -279q0 -39 -2 -59l-39 -490q-4 -57 -37.5 -87.5 t-91.5 -30.5q-53 0 -85 33.5t-27 87.5l2 38q-41 -78 -115 -120.5t-168 -42.5q-98 0 -177 37.5t-124 104.5t-45 150zM288 1276q0 45 28 95t75 84t102 34q43 0 82 -17.5t88 -50.5q41 -27 64.5 -38t48.5 -11q31 0 49 15.5t43 46.5q16 25 30.5 37t32.5 12q49 0 49 -70 q0 -45 -28.5 -95t-76.5 -84t-103 -34q-43 0 -80 17.5t-86 50.5q-41 27 -64.5 38t-48.5 11q-31 0 -49.5 -15.5t-42.5 -46.5q-16 -25 -30.5 -37t-33.5 -12q-25 0 -37 19.5t-12 50.5zM330 303q0 -61 44 -98t118 -37q96 0 162.5 68.5t74.5 175.5l4 45h-57q-131 0 -206 -14.5 t-107.5 -48.5t-32.5 -91z" />
<glyph unicode="&#xe4;" horiz-adv-x="1105" d="M80 276q0 115 58.5 183.5t187.5 100.5t344 32h73l2 39q8 102 -39 151t-149 49q-121 0 -276 -79q-27 -12 -52 -13q-37 0 -61.5 26t-24.5 62q0 27 16.5 54.5t47.5 46.5q74 45 174 71.5t205 26.5q202 0 302.5 -92t100.5 -279q0 -39 -2 -59l-39 -490q-4 -57 -37.5 -87.5 t-91.5 -30.5q-53 0 -85 33.5t-27 87.5l2 38q-41 -78 -115 -120.5t-168 -42.5q-98 0 -177 37.5t-124 104.5t-45 150zM313 1341q0 57 37 92t96 35t97 -34.5t38 -92.5q0 -57 -38 -92t-97 -35t-96 35t-37 92zM330 303q0 -61 44 -98t118 -37q96 0 162.5 68.5t74.5 175.5l4 45h-57 q-131 0 -206 -14.5t-107.5 -48.5t-32.5 -91zM690 1341q0 57 36.5 92t96.5 35q57 0 95 -34.5t38 -92.5q0 -57 -37 -92t-96 -35q-60 0 -96.5 35t-36.5 92z" />
<glyph unicode="&#xe5;" horiz-adv-x="1105" d="M80 276q0 115 58.5 183.5t187.5 100.5t344 32h73l2 39q8 102 -39 151t-149 49q-121 0 -276 -79q-27 -12 -52 -13q-37 0 -61.5 26t-24.5 62q0 27 16.5 54.5t47.5 46.5q74 45 174 71.5t205 26.5q202 0 302.5 -92t100.5 -279q0 -39 -2 -59l-39 -490q-4 -57 -37.5 -87.5 t-91.5 -30.5q-53 0 -85 33.5t-27 87.5l2 38q-41 -78 -115 -120.5t-168 -42.5q-98 0 -177 37.5t-124 104.5t-45 150zM330 303q0 -61 44 -98t118 -37q96 0 162.5 68.5t74.5 175.5l4 45h-57q-131 0 -206 -14.5t-107.5 -48.5t-32.5 -91zM415 1343q0 88 64.5 150.5t154.5 62.5 t153.5 -62t63.5 -151q0 -90 -63.5 -152.5t-153.5 -62.5t-154.5 62.5t-64.5 152.5zM542 1343q0 -43 25.5 -70.5t66.5 -27.5q39 0 66 29t27 69q0 41 -27 69t-66 28q-41 0 -66.5 -28t-25.5 -69z" />
<glyph unicode="&#xe6;" horiz-adv-x="1726" d="M80 276q0 115 58.5 183.5t187.5 100.5t344 32h73l2 39q8 102 -36.5 151t-151.5 49q-123 0 -276 -79q-27 -12 -52 -13q-37 0 -61.5 26t-24.5 62q0 27 16.5 54.5t47.5 46.5q74 45 176 71.5t217 26.5q227 0 313 -135q129 135 330 135q195 0 303.5 -126t108.5 -355 q0 -43 -22.5 -66.5t-61.5 -23.5h-592q6 -135 74.5 -205t199.5 -70q115 0 234 70q27 14 51 14q33 0 53.5 -25.5t20.5 -62.5q0 -27 -13.5 -53.5t-37.5 -44.5q-55 -41 -146.5 -67.5t-179.5 -26.5q-145 0 -248.5 57t-161.5 162q-55 -104 -156.5 -161.5t-226.5 -57.5 q-162 0 -262 81.5t-100 210.5zM330 299q0 -59 44 -95t115 -36q97 0 164.5 69.5t75.5 180.5l2 39h-55q-137 0 -211 -15.5t-104.5 -49.5t-30.5 -93zM987 592h453q2 123 -51.5 188.5t-149.5 65.5q-102 0 -166.5 -63.5t-85.5 -190.5z" />
<glyph unicode="&#xe7;" horiz-adv-x="999" d="M78 471q0 168 65.5 294t188.5 193.5t289 67.5q98 0 185 -23.5t142 -62.5q45 -29 45 -90q0 -43 -23.5 -75t-60.5 -32q-20 0 -45 13q-111 70 -233 69q-137 0 -213 -92t-76 -258q0 -137 68.5 -214t191.5 -77q61 0 112.5 16.5t108.5 51.5q27 14 49 14q35 0 55.5 -26.5 t20.5 -63.5q0 -27 -12 -52.5t-37 -43.5q-55 -43 -139 -68.5t-170 -27.5l-15 -68q8 2 25 2q76 0 119 -37t43 -102q0 -82 -72 -130t-190 -48q-88 0 -150 20q-18 6 -28.5 20.5t-10.5 32.5q0 29 19.5 48.5t48.5 11.5q57 -18 113 -19q106 0 106 62q0 45 -63 45q-23 0 -48.5 -7.5 t-33.5 -7.5q-20 0 -30.5 12.5t-6.5 28.5l30 150q-172 37 -270 163t-98 310z" />
<glyph unicode="&#xe8;" horiz-adv-x="1087" d="M78 473q0 160 63.5 286t178 196.5t262.5 70.5q209 0 322.5 -125t113.5 -356q0 -43 -23.5 -66.5t-60.5 -23.5h-608q6 -135 76.5 -205t199.5 -70q72 0 130.5 17.5t115.5 52.5q27 14 51 14q35 0 54.5 -25.5t19.5 -62.5q0 -59 -51 -98q-55 -41 -146.5 -67.5t-189.5 -26.5 q-154 0 -268.5 60t-177 171t-62.5 258zM334 592h467q2 125 -53.5 189.5t-155.5 64.5q-217 0 -258 -254zM346 1470q0 41 30.5 68t71.5 27q31 0 57.5 -18.5t40.5 -55.5l109 -266q8 -25 8 -35q0 -29 -20.5 -46.5t-49.5 -17.5q-49 0 -75 41l-148 234q-25 37 -24 69z" />
<glyph unicode="&#xe9;" horiz-adv-x="1087" d="M78 473q0 160 63.5 286t178 196.5t262.5 70.5q209 0 322.5 -125t113.5 -356q0 -43 -23.5 -66.5t-60.5 -23.5h-608q6 -135 76.5 -205t199.5 -70q72 0 130.5 17.5t115.5 52.5q27 14 51 14q35 0 54.5 -25.5t19.5 -62.5q0 -59 -51 -98q-55 -41 -146.5 -67.5t-189.5 -26.5 q-154 0 -268.5 60t-177 171t-62.5 258zM334 592h467q2 125 -53.5 189.5t-155.5 64.5q-217 0 -258 -254zM577 1186q0 18 12 43l177 272q18 31 42.5 46.5t53.5 15.5q41 0 72.5 -29t31.5 -68q0 -41 -35 -77l-221 -230q-32 -35 -71 -35q-27 0 -44.5 17.5t-17.5 44.5z" />
<glyph unicode="&#xea;" horiz-adv-x="1087" d="M78 473q0 160 63.5 286t178 196.5t262.5 70.5q209 0 322.5 -125t113.5 -356q0 -43 -23.5 -66.5t-60.5 -23.5h-608q6 -135 76.5 -205t199.5 -70q72 0 130.5 17.5t115.5 52.5q27 14 51 14q35 0 54.5 -25.5t19.5 -62.5q0 -59 -51 -98q-55 -41 -146.5 -67.5t-189.5 -26.5 q-154 0 -268.5 60t-177 171t-62.5 258zM334 592h467q2 125 -53.5 189.5t-155.5 64.5q-217 0 -258 -254zM344 1202q0 27 20 55l168 240q23 31 54.5 48.5t64.5 17.5t61.5 -17.5t44.5 -48.5l133 -250q12 -25 13 -45q0 -33 -27 -55.5t-61 -22.5q-63 0 -88 60l-91 207l-120 -213 q-29 -54 -86 -54q-35 0 -60.5 22.5t-25.5 55.5z" />
<glyph unicode="&#xeb;" horiz-adv-x="1087" d="M78 473q0 160 63.5 286t178 196.5t262.5 70.5q209 0 322.5 -125t113.5 -356q0 -43 -23.5 -66.5t-60.5 -23.5h-608q6 -135 76.5 -205t199.5 -70q72 0 130.5 17.5t115.5 52.5q27 14 51 14q35 0 54.5 -25.5t19.5 -62.5q0 -59 -51 -98q-55 -41 -146.5 -67.5t-189.5 -26.5 q-154 0 -268.5 60t-177 171t-62.5 258zM311 1341q0 57 37 92t96 35t97 -34.5t38 -92.5q0 -57 -38 -92t-97 -35t-96 35t-37 92zM334 592h467q2 125 -53.5 189.5t-155.5 64.5q-217 0 -258 -254zM688 1341q0 57 36.5 92t96.5 35q57 0 95 -34.5t38 -92.5q0 -57 -37 -92t-96 -35 q-60 0 -96.5 35t-36.5 92z" />
<glyph unicode="&#xec;" horiz-adv-x="520" d="M41 1470q0 41 30.5 68t71.5 27q31 0 57.5 -18.5t40.5 -55.5l109 -266q8 -25 8 -35q0 -29 -20.5 -46.5t-49.5 -17.5q-49 0 -75 41l-148 234q-25 37 -24 69zM100 111l66 792q4 59 43 89t94 30t89 -29.5t30 -89.5l-66 -792q-4 -61 -43 -92t-92 -31q-55 0 -90 30.5t-31 92.5z " />
<glyph unicode="&#xed;" horiz-adv-x="520" d="M100 111l66 792q4 59 43 89t94 30t89 -29.5t30 -89.5l-66 -792q-4 -61 -43 -92t-92 -31q-55 0 -90 30.5t-31 92.5zM272 1186q0 18 12 43l177 272q18 31 42.5 46.5t53.5 15.5q41 0 72.5 -29t31.5 -68q0 -41 -35 -77l-221 -230q-32 -35 -71 -35q-27 0 -44.5 17.5 t-17.5 44.5z" />
<glyph unicode="&#xee;" horiz-adv-x="520" d="M39 1202q0 27 20 55l168 240q23 31 54.5 48.5t64.5 17.5t61.5 -17.5t44.5 -48.5l133 -250q12 -25 13 -45q0 -33 -27 -55.5t-61 -22.5q-63 0 -88 60l-91 207l-120 -213q-29 -54 -86 -54q-35 0 -60.5 22.5t-25.5 55.5zM100 111l66 792q4 59 43 89t94 30t89 -29.5t30 -89.5 l-66 -792q-4 -61 -43 -92t-92 -31q-55 0 -90 30.5t-31 92.5z" />
<glyph unicode="&#xef;" horiz-adv-x="520" d="M6 1341q0 57 37 92t96 35t97 -34.5t38 -92.5q0 -57 -38 -92t-97 -35t-96 35t-37 92zM100 111l66 792q4 59 43 89t94 30t89 -29.5t30 -89.5l-66 -792q-4 -61 -43 -92t-92 -31q-55 0 -90 30.5t-31 92.5zM383 1341q0 57 36.5 92t96.5 35q57 0 95 -34.5t38 -92.5 q0 -57 -37 -92t-96 -35q-60 0 -96.5 35t-36.5 92z" />
<glyph unicode="&#xf0;" horiz-adv-x="1189" d="M74 434q0 150 64.5 262.5t178 174t256.5 61.5q203 0 306 -123q-27 158 -134 276l-292 -88q-20 -4 -27 -4q-31 0 -49.5 20.5t-18.5 49.5q0 23 13.5 41t40.5 26l209 62q-86 55 -189 86q-37 8 -56.5 33.5t-19.5 54.5q0 37 29 64.5t76 27.5q10 0 35 -4q217 -51 370 -188 l205 61q21 4 27 4q31 0 49 -20.5t18 -48.5q0 -23 -13 -41.5t-40 -26.5l-143 -43q76 -102 114.5 -230t38.5 -268q0 -342 -147.5 -505.5t-396.5 -163.5q-154 0 -267.5 55t-175 156.5t-61.5 238.5zM330 436q0 -117 63.5 -185.5t184.5 -68.5q131 0 197.5 85t66.5 225 q0 115 -63.5 180t-182.5 65q-131 0 -198.5 -83t-67.5 -218z" />
<glyph unicode="&#xf1;" horiz-adv-x="1198" d="M100 111l66 794q2 53 41 85t96 32q55 0 86 -30.5t25 -82.5l-2 -39q51 74 137 115t192 41q168 0 255 -91t87 -269q0 -39 -2 -60l-41 -495q-4 -57 -40.5 -90t-94.5 -33q-59 0 -92 32.5t-29 90.5l41 485q16 227 -180 227q-113 0 -176 -67.5t-74 -188.5l-39 -456 q-4 -57 -40.5 -90t-94.5 -33q-59 0 -91 32.5t-30 90.5zM323 1276q0 45 28 95t75 84t102 34q43 0 82 -17.5t88 -50.5q41 -27 64.5 -38t48.5 -11q31 0 49 15.5t43 46.5q16 25 30.5 37t32.5 12q49 0 49 -70q0 -45 -28.5 -95t-76.5 -84t-103 -34q-43 0 -80 17.5t-86 50.5 q-41 27 -64.5 38t-48.5 11q-31 0 -49.5 -15.5t-42.5 -46.5q-16 -25 -30.5 -37t-33.5 -12q-25 0 -37 19.5t-12 50.5z" />
<glyph unicode="&#xf2;" horiz-adv-x="1177" d="M78 475q0 168 64.5 293t182 191.5t273.5 66.5q154 0 267.5 -60.5t175 -172t61.5 -258.5q0 -168 -64.5 -293t-182.5 -191.5t-273 -66.5q-154 0 -267.5 60t-175 172t-61.5 259zM334 469q0 -287 248 -287q131 0 197.5 99.5t66.5 261.5q0 141 -62.5 213.5t-183.5 72.5 q-131 0 -198.5 -99t-67.5 -261zM371 1470q0 41 30.5 68t71.5 27q31 0 57.5 -18.5t40.5 -55.5l109 -266q8 -25 8 -35q0 -29 -20.5 -46.5t-49.5 -17.5q-49 0 -75 41l-148 234q-25 37 -24 69z" />
<glyph unicode="&#xf3;" horiz-adv-x="1177" d="M78 475q0 168 64.5 293t182 191.5t273.5 66.5q154 0 267.5 -60.5t175 -172t61.5 -258.5q0 -168 -64.5 -293t-182.5 -191.5t-273 -66.5q-154 0 -267.5 60t-175 172t-61.5 259zM334 469q0 -287 248 -287q131 0 197.5 99.5t66.5 261.5q0 141 -62.5 213.5t-183.5 72.5 q-131 0 -198.5 -99t-67.5 -261zM602 1186q0 18 12 43l177 272q18 31 42.5 46.5t53.5 15.5q41 0 72.5 -29t31.5 -68q0 -41 -35 -77l-221 -230q-32 -35 -71 -35q-27 0 -44.5 17.5t-17.5 44.5z" />
<glyph unicode="&#xf4;" horiz-adv-x="1177" d="M78 475q0 168 64.5 293t182 191.5t273.5 66.5q154 0 267.5 -60.5t175 -172t61.5 -258.5q0 -168 -64.5 -293t-182.5 -191.5t-273 -66.5q-154 0 -267.5 60t-175 172t-61.5 259zM334 469q0 -287 248 -287q131 0 197.5 99.5t66.5 261.5q0 141 -62.5 213.5t-183.5 72.5 q-131 0 -198.5 -99t-67.5 -261zM369 1202q0 27 20 55l168 240q23 31 54.5 48.5t64.5 17.5t61.5 -17.5t44.5 -48.5l133 -250q12 -25 13 -45q0 -33 -27 -55.5t-61 -22.5q-63 0 -88 60l-91 207l-120 -213q-29 -54 -86 -54q-35 0 -60.5 22.5t-25.5 55.5z" />
<glyph unicode="&#xf5;" horiz-adv-x="1177" d="M78 475q0 168 64.5 293t182 191.5t273.5 66.5q154 0 267.5 -60.5t175 -172t61.5 -258.5q0 -168 -64.5 -293t-182.5 -191.5t-273 -66.5q-154 0 -267.5 60t-175 172t-61.5 259zM311 1276q0 45 28 95t75 84t102 34q43 0 82 -17.5t88 -50.5q41 -27 64.5 -38t48.5 -11 q31 0 49 15.5t43 46.5q16 25 30.5 37t32.5 12q49 0 49 -70q0 -45 -28.5 -95t-76.5 -84t-103 -34q-43 0 -80 17.5t-86 50.5q-41 27 -64.5 38t-48.5 11q-31 0 -49.5 -15.5t-42.5 -46.5q-16 -25 -30.5 -37t-33.5 -12q-25 0 -37 19.5t-12 50.5zM334 469q0 -287 248 -287 q131 0 197.5 99.5t66.5 261.5q0 141 -62.5 213.5t-183.5 72.5q-131 0 -198.5 -99t-67.5 -261z" />
<glyph unicode="&#xf6;" horiz-adv-x="1177" d="M78 475q0 168 64.5 293t182 191.5t273.5 66.5q154 0 267.5 -60.5t175 -172t61.5 -258.5q0 -168 -64.5 -293t-182.5 -191.5t-273 -66.5q-154 0 -267.5 60t-175 172t-61.5 259zM334 469q0 -287 248 -287q131 0 197.5 99.5t66.5 261.5q0 141 -62.5 213.5t-183.5 72.5 q-131 0 -198.5 -99t-67.5 -261zM336 1341q0 57 37 92t96 35t97 -34.5t38 -92.5q0 -57 -38 -92t-97 -35t-96 35t-37 92zM713 1341q0 57 36.5 92t96.5 35q57 0 95 -34.5t38 -92.5q0 -57 -37 -92t-96 -35q-60 0 -96.5 35t-36.5 92z" />
<glyph unicode="&#xf7;" d="M121 582q0 39 28.5 66.5t69.5 27.5h307q-18 29 -18 63q0 49 32.5 82t80.5 33q47 0 79.5 -33t32.5 -82q0 -35 -18 -63h321q37 0 60.5 -25.5t23.5 -62.5q0 -39 -27.5 -65.5t-68.5 -26.5h-332q18 -27 19 -64q0 -47 -33 -81t-80 -34q-49 0 -81 33t-32 82q0 35 17 64h-297 q-35 0 -59.5 25.5t-24.5 60.5z" />
<glyph unicode="&#xf8;" horiz-adv-x="1177" d="M78 475q0 168 64.5 293t182 191.5t273.5 66.5q125 0 225 -41l51 78q27 41 70 41q29 0 49.5 -18.5t20.5 -45.5q0 -23 -15 -45l-55 -84q76 -65 117 -161.5t41 -214.5q0 -168 -64.5 -293t-182.5 -191.5t-273 -66.5q-123 0 -224 41l-53 -80q-27 -39 -67 -39q-29 0 -50.5 19.5 t-21.5 45.5q0 23 14 43l56 84q-76 66 -117 162t-41 215zM330 469q0 -106 35 -176l344 520q-47 18 -109 18q-135 0 -202.5 -99t-67.5 -263zM473 199q47 -18 109 -19q135 0 202.5 99.5t67.5 263.5q0 106 -37 174z" />
<glyph unicode="&#xf9;" horiz-adv-x="1185" d="M117 336q0 41 2 63l39 502q4 57 42 89t97 32q57 0 89 -32t28 -89l-39 -485q-2 -12 -2 -37q0 -193 176 -193q106 0 168.5 69t73.5 189l36 457q6 57 44 89t96 32q59 0 91 -32t25 -89l-63 -797q-2 -51 -41 -83.5t-96 -32.5q-53 0 -84 30.5t-29 81.5l4 39 q-53 -74 -137 -114.5t-184 -40.5q-164 0 -250 90t-86 262zM371 1470q0 41 30.5 68t71.5 27q31 0 57.5 -18.5t40.5 -55.5l109 -266q8 -25 8 -35q0 -29 -20.5 -46.5t-49.5 -17.5q-49 0 -75 41l-148 234q-25 37 -24 69z" />
<glyph unicode="&#xfa;" horiz-adv-x="1185" d="M117 336q0 41 2 63l39 502q4 57 42 89t97 32q57 0 89 -32t28 -89l-39 -485q-2 -12 -2 -37q0 -193 176 -193q106 0 168.5 69t73.5 189l36 457q6 57 44 89t96 32q59 0 91 -32t25 -89l-63 -797q-2 -51 -41 -83.5t-96 -32.5q-53 0 -84 30.5t-29 81.5l4 39 q-53 -74 -137 -114.5t-184 -40.5q-164 0 -250 90t-86 262zM602 1186q0 18 12 43l177 272q18 31 42.5 46.5t53.5 15.5q41 0 72.5 -29t31.5 -68q0 -41 -35 -77l-221 -230q-32 -35 -71 -35q-27 0 -44.5 17.5t-17.5 44.5z" />
<glyph unicode="&#xfb;" horiz-adv-x="1185" d="M117 336q0 41 2 63l39 502q4 57 42 89t97 32q57 0 89 -32t28 -89l-39 -485q-2 -12 -2 -37q0 -193 176 -193q106 0 168.5 69t73.5 189l36 457q6 57 44 89t96 32q59 0 91 -32t25 -89l-63 -797q-2 -51 -41 -83.5t-96 -32.5q-53 0 -84 30.5t-29 81.5l4 39 q-53 -74 -137 -114.5t-184 -40.5q-164 0 -250 90t-86 262zM369 1202q0 27 20 55l168 240q23 31 54.5 48.5t64.5 17.5t61.5 -17.5t44.5 -48.5l133 -250q12 -25 13 -45q0 -33 -27 -55.5t-61 -22.5q-63 0 -88 60l-91 207l-120 -213q-29 -54 -86 -54q-35 0 -60.5 22.5 t-25.5 55.5z" />
<glyph unicode="&#xfc;" horiz-adv-x="1185" d="M117 336q0 41 2 63l39 502q4 57 42 89t97 32q57 0 89 -32t28 -89l-39 -485q-2 -12 -2 -37q0 -193 176 -193q106 0 168.5 69t73.5 189l36 457q6 57 44 89t96 32q59 0 91 -32t25 -89l-63 -797q-2 -51 -41 -83.5t-96 -32.5q-53 0 -84 30.5t-29 81.5l4 39 q-53 -74 -137 -114.5t-184 -40.5q-164 0 -250 90t-86 262zM336 1341q0 57 37 92t96 35t97 -34.5t38 -92.5q0 -57 -38 -92t-97 -35t-96 35t-37 92zM713 1341q0 57 36.5 92t96.5 35q57 0 95 -34.5t38 -92.5q0 -57 -37 -92t-96 -35q-60 0 -96.5 35t-36.5 92z" />
<glyph unicode="&#xfd;" horiz-adv-x="1077" d="M68 901q0 49 42 83t93 34q35 0 62.5 -18.5t39.5 -55.5l221 -647l324 649q18 37 47 54.5t61 17.5q45 0 81 -31t36 -74q0 -27 -14 -53l-615 -1169q-18 -37 -47.5 -54.5t-60.5 -17.5q-43 0 -75 29.5t-32 72.5q0 29 15 58l129 252l-301 835q-6 18 -6 35zM553 1186q0 18 12 43 l177 272q18 31 42.5 46.5t53.5 15.5q41 0 72.5 -29t31.5 -68q0 -41 -35 -77l-221 -230q-32 -35 -71 -35q-27 0 -44.5 17.5t-17.5 44.5z" />
<glyph unicode="&#xfe;" horiz-adv-x="1230" d="M72 -266l127 1603q4 57 40.5 89t94.5 32q59 0 93 -32.5t28 -88.5l-35 -454q49 68 129 105.5t176 37.5q127 0 223 -58.5t150.5 -168t54.5 -254.5q0 -166 -59.5 -293t-168 -197.5t-249.5 -70.5q-106 0 -187 43t-129 123l-32 -420q-4 -51 -42 -82t-93 -31q-57 0 -91 32 t-30 85zM383 481q0 -147 63.5 -223t184.5 -76q125 0 195.5 93.5t70.5 254.5q0 141 -66.5 220t-185.5 79q-123 0 -192.5 -94t-69.5 -254z" />
<glyph unicode="&#xff;" horiz-adv-x="1077" d="M68 901q0 49 42 83t93 34q35 0 62.5 -18.5t39.5 -55.5l221 -647l324 649q18 37 47 54.5t61 17.5q45 0 81 -31t36 -74q0 -27 -14 -53l-615 -1169q-18 -37 -47.5 -54.5t-60.5 -17.5q-43 0 -75 29.5t-32 72.5q0 29 15 58l129 252l-301 835q-6 18 -6 35zM287 1341q0 57 37 92 t96 35t97 -34.5t38 -92.5q0 -57 -38 -92t-97 -35t-96 35t-37 92zM664 1341q0 57 36.5 92t96.5 35q57 0 95 -34.5t38 -92.5q0 -57 -37 -92t-96 -35q-60 0 -96.5 35t-36.5 92z" />
<glyph unicode="&#x100;" horiz-adv-x="1519" d="M29 100q0 35 16 62l643 1208q23 41 61.5 63.5t84.5 22.5q45 0 82.5 -23.5t54.5 -64.5l459 -1218q8 -19 8 -44q0 -51 -40 -83.5t-89 -32.5q-35 0 -63.5 18.5t-41.5 57.5l-96 272h-709l-139 -277q-18 -35 -47 -53t-63 -18q-47 0 -84 31.5t-37 78.5zM504 543h530l-217 616z M518 1720q0 43 27.5 65.5t70.5 22.5h496q41 0 63.5 -21.5t22.5 -60.5q0 -41 -27.5 -62.5t-70.5 -21.5h-496q-39 0 -62.5 22t-23.5 56z" />
<glyph unicode="&#x101;" horiz-adv-x="1105" d="M80 276q0 115 58.5 183.5t187.5 100.5t344 32h73l2 39q8 102 -39 151t-149 49q-121 0 -276 -79q-27 -12 -52 -13q-37 0 -61.5 26t-24.5 62q0 27 16.5 54.5t47.5 46.5q74 45 174 71.5t205 26.5q202 0 302.5 -92t100.5 -279q0 -39 -2 -59l-39 -490q-4 -57 -37.5 -87.5 t-91.5 -30.5q-53 0 -85 33.5t-27 87.5l2 38q-41 -78 -115 -120.5t-168 -42.5q-98 0 -177 37.5t-124 104.5t-45 150zM294 1337q0 43 28 64.5t71 21.5h495q39 0 62.5 -20.5t23.5 -56.5q0 -43 -27.5 -66t-70.5 -23h-496q-41 0 -63.5 20.5t-22.5 59.5zM330 303q0 -61 44 -98 t118 -37q96 0 162.5 68.5t74.5 175.5l4 45h-57q-131 0 -206 -14.5t-107.5 -48.5t-32.5 -91z" />
<glyph unicode="&#x102;" horiz-adv-x="1519" d="M29 100q0 35 16 62l643 1208q23 41 61.5 63.5t84.5 22.5q45 0 82.5 -23.5t54.5 -64.5l459 -1218q8 -19 8 -44q0 -51 -40 -83.5t-89 -32.5q-35 0 -63.5 18.5t-41.5 57.5l-96 272h-709l-139 -277q-18 -35 -47 -53t-63 -18q-47 0 -84 31.5t-37 78.5zM504 543h530l-217 616z M522 1794q0 31 22.5 49.5t53.5 18.5q39 0 68 -31q63 -84 194 -84q127 0 203 84q33 33 74 33q27 0 45 -16.5t18 -43.5q0 -25 -18 -55q-51 -76 -136 -119t-192 -43q-111 0 -192.5 43t-124.5 119q-14 23 -15 45z" />
<glyph unicode="&#x103;" horiz-adv-x="1105" d="M80 276q0 115 58.5 183.5t187.5 100.5t344 32h73l2 39q8 102 -39 151t-149 49q-121 0 -276 -79q-27 -12 -52 -13q-37 0 -61.5 26t-24.5 62q0 27 16.5 54.5t47.5 46.5q74 45 174 71.5t205 26.5q202 0 302.5 -92t100.5 -279q0 -39 -2 -59l-39 -490q-4 -57 -37.5 -87.5 t-91.5 -30.5q-53 0 -85 33.5t-27 87.5l2 38q-41 -78 -115 -120.5t-168 -42.5q-98 0 -177 37.5t-124 104.5t-45 150zM292 1442q0 33 22.5 53.5t55.5 20.5q45 0 68 -43q29 -55 82 -88t121 -33q127 0 206 121q31 45 74 45q31 0 51.5 -19.5t20.5 -50.5q0 -16 -10 -41 q-47 -102 -141.5 -161.5t-213.5 -59.5q-116 0 -202.5 59.5t-126.5 161.5q-6 18 -7 35zM330 303q0 -61 44 -98t118 -37q96 0 162.5 68.5t74.5 175.5l4 45h-57q-131 0 -206 -14.5t-107.5 -48.5t-32.5 -91z" />
<glyph unicode="&#x104;" horiz-adv-x="1519" d="M27 100q0 29 18 62l643 1208q23 41 61.5 63.5t84.5 22.5q45 0 82.5 -23.5t54.5 -64.5l450 -1208q10 -23 11 -54q0 -37 -20.5 -64.5t-53.5 -39.5q-55 -16 -95 -55t-40 -97q0 -53 29.5 -80.5t80.5 -27.5q47 0 97 18q16 4 22 4q20 0 32.5 -15t12.5 -38q0 -20 -10 -38.5 t-31 -28.5q-80 -43 -162 -43q-113 0 -179 58t-66 153q0 164 159 237l-102 289h-707l-139 -277q-18 -35 -47 -53t-63 -18q-47 0 -85 31.5t-38 78.5zM504 543h530l-219 614z" />
<glyph unicode="&#x105;" horiz-adv-x="1105" d="M80 276q0 115 58.5 183.5t187.5 100.5t344 32h73l2 39q8 102 -37.5 151t-150.5 49q-123 0 -276 -79q-27 -12 -52 -13q-37 0 -61.5 26t-24.5 62q0 27 16.5 54.5t47.5 46.5q76 47 176 72.5t203 25.5q203 0 303 -92t100 -277q0 -41 -2 -61l-39 -490q-2 -74 -69 -104 q-141 -49 -142 -152q0 -51 31 -79.5t84 -28.5q39 0 90 18q17 4 21 4q20 0 33.5 -15t13.5 -38q0 -18 -11.5 -37.5t-29.5 -29.5q-74 -43 -160 -43q-113 0 -180.5 57t-67.5 154q0 76 41 135t117 96q-16 29 -12 66l2 36q-41 -80 -116 -120.5t-173 -40.5q-96 0 -174 37.5 t-122 104.5t-44 150zM330 299q0 -59 44 -95t118 -36q96 0 162.5 67.5t74.5 176.5l4 45h-57q-135 0 -210 -15.5t-105.5 -49.5t-30.5 -93z" />
<glyph unicode="&#x106;" horiz-adv-x="1388" d="M127 670q0 238 90 418t256 277t387 97q143 0 263 -38t198 -99q59 -39 59 -104q0 -45 -27.5 -77t-70.5 -32q-37 0 -68 23q-147 113 -346 112q-223 0 -348 -154.5t-125 -424.5q0 -227 105.5 -349t300.5 -122q176 0 346 112q35 20 65 21q39 0 63.5 -29t24.5 -70 q0 -61 -53 -102q-78 -66 -199.5 -106.5t-263.5 -40.5q-200 0 -348.5 82.5t-228.5 238.5t-80 367zM858 1614q0 25 17 47l133 188q33 47 80 47q37 0 64.5 -25.5t27.5 -60.5q0 -37 -35 -69l-166 -158q-26 -24 -59 -24q-27 0 -44.5 15t-17.5 40z" />
<glyph unicode="&#x107;" horiz-adv-x="999" d="M78 471q0 168 65.5 294t188.5 193.5t289 67.5q98 0 185 -23.5t142 -62.5q45 -29 45 -90q0 -43 -23.5 -75t-60.5 -32q-20 0 -45 13q-111 70 -233 69q-137 0 -213 -92t-76 -258q0 -137 68.5 -214t191.5 -77q61 0 112.5 16.5t108.5 51.5q27 14 49 14q35 0 55.5 -26.5 t20.5 -63.5q0 -27 -12 -52.5t-37 -43.5q-57 -43 -143 -69.5t-174 -26.5q-152 0 -265.5 60t-176 171t-62.5 256zM604 1186q0 18 12 43l177 272q18 31 42.5 46.5t53.5 15.5q41 0 72.5 -29t31.5 -68q0 -41 -35 -77l-221 -230q-32 -35 -71 -35q-27 0 -44.5 17.5t-17.5 44.5z" />
<glyph unicode="&#x108;" horiz-adv-x="1388" d="M127 670q0 238 90 418t256 277t387 97q143 0 263 -38t198 -99q59 -39 59 -104q0 -45 -27.5 -77t-70.5 -32q-37 0 -68 23q-147 113 -346 112q-223 0 -348 -154.5t-125 -424.5q0 -227 105.5 -349t300.5 -122q176 0 346 112q35 20 65 21q39 0 63.5 -29t24.5 -70 q0 -61 -53 -102q-78 -66 -199.5 -106.5t-263.5 -40.5q-200 0 -348.5 82.5t-228.5 238.5t-80 367zM621 1622q0 29 26 57l160 174q39 41 106 41q66 0 95 -41l131 -172q18 -25 18 -49q0 -31 -24.5 -52t-57.5 -21q-49 0 -78 47l-92 149l-129 -156q-35 -43 -82 -43 q-31 0 -52 19.5t-21 46.5z" />
<glyph unicode="&#x109;" horiz-adv-x="999" d="M78 471q0 168 65.5 294t188.5 193.5t289 67.5q98 0 185 -23.5t142 -62.5q45 -29 45 -90q0 -43 -23.5 -75t-60.5 -32q-20 0 -45 13q-111 70 -233 69q-137 0 -213 -92t-76 -258q0 -137 68.5 -214t191.5 -77q61 0 112.5 16.5t108.5 51.5q27 14 49 14q35 0 55.5 -26.5 t20.5 -63.5q0 -27 -12 -52.5t-37 -43.5q-57 -43 -143 -69.5t-174 -26.5q-152 0 -265.5 60t-176 171t-62.5 256zM371 1202q0 27 20 55l168 240q23 31 54.5 48.5t64.5 17.5t61.5 -17.5t44.5 -48.5l133 -250q12 -25 13 -45q0 -33 -27 -55.5t-61 -22.5q-63 0 -88 60l-91 207 l-120 -213q-29 -54 -86 -54q-35 0 -60.5 22.5t-25.5 55.5z" />
<glyph unicode="&#x10a;" horiz-adv-x="1388" d="M127 670q0 238 90 418t256 277t387 97q143 0 263 -38t198 -99q59 -39 59 -104q0 -45 -27.5 -77t-70.5 -32q-37 0 -68 23q-147 113 -346 112q-223 0 -348 -154.5t-125 -424.5q0 -227 105.5 -349t300.5 -122q176 0 346 112q35 20 65 21q39 0 63.5 -29t24.5 -70 q0 -61 -53 -102q-78 -66 -199.5 -106.5t-263.5 -40.5q-200 0 -348.5 82.5t-228.5 238.5t-80 367zM748 1726q0 61 40.5 98.5t110.5 37.5q68 0 110 -37t42 -99q0 -61 -41 -99t-111 -38t-110.5 38t-40.5 99z" />
<glyph unicode="&#x10b;" horiz-adv-x="999" d="M78 471q0 168 65.5 294t188.5 193.5t289 67.5q98 0 185 -23.5t142 -62.5q45 -29 45 -90q0 -43 -23.5 -75t-60.5 -32q-20 0 -45 13q-111 70 -233 69q-137 0 -213 -92t-76 -258q0 -137 68.5 -214t191.5 -77q61 0 112.5 16.5t108.5 51.5q27 14 49 14q35 0 55.5 -26.5 t20.5 -63.5q0 -27 -12 -52.5t-37 -43.5q-57 -43 -143 -69.5t-174 -26.5q-152 0 -265.5 60t-176 171t-62.5 256zM508 1341q0 61 41 98.5t110 37.5q68 0 110 -37t42 -99q0 -61 -41 -99t-111 -38q-69 0 -110 38t-41 99z" />
<glyph unicode="&#x10c;" horiz-adv-x="1388" d="M127 670q0 238 90 418t256 277t387 97q143 0 263 -38t198 -99q59 -39 59 -104q0 -45 -27.5 -77t-70.5 -32q-37 0 -68 23q-147 113 -346 112q-223 0 -348 -154.5t-125 -424.5q0 -227 105.5 -349t300.5 -122q176 0 346 112q35 20 65 21q39 0 63.5 -29t24.5 -70 q0 -61 -53 -102q-78 -66 -199.5 -106.5t-263.5 -40.5q-200 0 -348.5 82.5t-228.5 238.5t-80 367zM639 1819q0 31 24.5 52t57.5 21q47 0 76 -47l92 -151l129 155q35 43 82 43q31 0 52.5 -19.5t21.5 -45.5q0 -29 -27 -58l-160 -174q-41 -43 -102 -43q-63 0 -99 43l-129 172 q-18 25 -18 52z" />
<glyph unicode="&#x10d;" horiz-adv-x="999" d="M78 471q0 168 65.5 294t188.5 193.5t289 67.5q98 0 185 -23.5t142 -62.5q45 -29 45 -90q0 -43 -23.5 -75t-60.5 -32q-20 0 -45 13q-111 70 -233 69q-137 0 -213 -92t-76 -258q0 -137 68.5 -214t191.5 -77q61 0 112.5 16.5t108.5 51.5q27 14 49 14q35 0 55.5 -26.5 t20.5 -63.5q0 -27 -12 -52.5t-37 -43.5q-57 -43 -143 -69.5t-174 -26.5q-152 0 -265.5 60t-176 171t-62.5 256zM387 1481q0 33 27.5 55.5t62.5 22.5q27 0 50.5 -14.5t35.5 -45.5l92 -207l121 213q29 54 86 54q33 0 58.5 -23t25.5 -53q0 -29 -20 -56l-166 -239 q-23 -31 -54.5 -48.5t-64.5 -17.5t-61.5 16.5t-47.5 49.5l-133 248q-12 25 -12 45z" />
<glyph unicode="&#x10e;" horiz-adv-x="1544" d="M127 129l94 1190q4 59 40 92t95 33h402q217 0 372.5 -80t238.5 -231.5t83 -358.5q0 -244 -90 -417t-263 -265t-417 -92h-436q-60 0 -91.5 34t-27.5 95zM397 215h265q526 0 526 561q0 221 -117 337t-344 116h-250zM610 1819q0 31 24.5 52t57.5 21q47 0 76 -47l92 -151 l129 155q35 43 82 43q31 0 52.5 -19.5t21.5 -45.5q0 -29 -27 -58l-160 -174q-41 -43 -102 -43q-63 0 -99 43l-129 172q-18 25 -18 52z" />
<glyph unicode="&#x10f;" horiz-adv-x="1230" d="M78 467q0 164 59.5 291t168 197.5t249.5 70.5q106 0 187 -43t128 -123l37 481q4 51 41 82t92 31q60 0 93.5 -31.5t29.5 -85.5l-96 -1226q-4 -57 -40 -90t-93 -33t-89 32.5t-30 90.5l2 26q-49 -72 -131 -112.5t-180 -40.5q-127 0 -224.5 58t-150.5 167.5t-53 257.5z M334 481q0 -143 65.5 -221t186.5 -78q123 0 192.5 93.5t69.5 252.5q0 147 -63.5 224t-184.5 77q-125 0 -195.5 -93t-70.5 -255zM1202 1079l25 293q2 41 25.5 62.5t52.5 21.5q27 0 45 -17.5t18 -49.5q0 -14 -2 -23l-66 -295q-4 -23 -19 -36t-32 -13q-20 0 -34.5 15.5 t-12.5 41.5z" />
<glyph unicode="&#x110;" horiz-adv-x="1593" d="M18 727q0 51 34 77.5t93 26.5h84l39 488q4 59 40 92t95 33h402q217 0 372.5 -80t238.5 -231.5t83 -358.5q0 -244 -90 -417t-263 -265t-417 -92h-436q-59 0 -91 34t-28 95l39 500h-82q-53 0 -83 26.5t-30 71.5zM444 215h265q526 0 526 561q0 221 -117 337t-344 116h-250 l-30 -398h288q53 0 83 -25.5t30 -70.5q0 -51 -33 -78.5t-92 -27.5h-293z" />
<glyph unicode="&#x111;" horiz-adv-x="1230" d="M78 467q0 164 59.5 291t168 197.5t249.5 70.5q109 0 189.5 -44t127.5 -124l19 250h-301q-49 0 -75 23.5t-26 62.5q0 43 30 69.5t83 26.5h303l4 51q2 51 40 82t93 31q59 0 92 -31.5t31 -85.5l-4 -47h99q47 0 73.5 -23.5t26.5 -62.5q0 -45 -28.5 -70.5t-84.5 -25.5h-100 l-80 -997q-4 -57 -40 -90t-93 -33t-89 32.5t-30 90.5l2 26q-49 -72 -131 -112.5t-180 -40.5q-127 0 -224.5 58t-150.5 167.5t-53 257.5zM334 481q0 -143 65.5 -221t186.5 -78q123 0 192.5 93.5t69.5 252.5q0 147 -63.5 224t-184.5 77q-125 0 -195.5 -93t-70.5 -255z" />
<glyph unicode="&#x112;" horiz-adv-x="1206" d="M127 125l94 1196q4 57 39 90t94 33h744q55 0 84.5 -26.5t29.5 -71.5q0 -111 -129 -111h-610l-31 -397h566q55 0 85.5 -27t30.5 -72q0 -109 -129 -108h-571l-33 -422h608q55 0 86 -27.5t31 -72.5q0 -53 -33.5 -81t-97.5 -28h-741q-61 0 -91 33t-26 92zM430 1720 q0 43 27.5 65.5t70.5 22.5h496q41 0 63.5 -21.5t22.5 -60.5q0 -41 -27.5 -62.5t-70.5 -21.5h-496q-39 0 -62.5 22t-23.5 56z" />
<glyph unicode="&#x113;" horiz-adv-x="1087" d="M78 473q0 160 63.5 286t178 196.5t262.5 70.5q209 0 322.5 -125t113.5 -356q0 -43 -23.5 -66.5t-60.5 -23.5h-608q6 -135 76.5 -205t199.5 -70q72 0 130.5 17.5t115.5 52.5q27 14 51 14q35 0 54.5 -25.5t19.5 -62.5q0 -59 -51 -98q-55 -41 -146.5 -67.5t-189.5 -26.5 q-154 0 -268.5 60t-177 171t-62.5 258zM292 1337q0 43 28 64.5t71 21.5h495q39 0 62.5 -20.5t23.5 -56.5q0 -43 -27.5 -66t-70.5 -23h-496q-41 0 -63.5 20.5t-22.5 59.5zM334 592h467q2 125 -53.5 189.5t-155.5 64.5q-217 0 -258 -254z" />
<glyph unicode="&#x114;" horiz-adv-x="1206" d="M127 125l94 1196q4 57 39 90t94 33h744q55 0 84.5 -26.5t29.5 -71.5q0 -111 -129 -111h-610l-31 -397h566q55 0 85.5 -27t30.5 -72q0 -109 -129 -108h-571l-33 -422h608q55 0 86 -27.5t31 -72.5q0 -53 -33.5 -81t-97.5 -28h-741q-61 0 -91 33t-26 92zM434 1794 q0 31 22.5 49.5t53.5 18.5q39 0 68 -31q63 -84 194 -84q127 0 203 84q33 33 74 33q27 0 45 -16.5t18 -43.5q0 -25 -18 -55q-51 -76 -136 -119t-192 -43q-111 0 -192.5 43t-124.5 119q-14 23 -15 45z" />
<glyph unicode="&#x115;" horiz-adv-x="1087" d="M78 473q0 160 63.5 286t178 196.5t262.5 70.5q209 0 322.5 -125t113.5 -356q0 -43 -23.5 -66.5t-60.5 -23.5h-608q6 -135 76.5 -205t199.5 -70q72 0 130.5 17.5t115.5 52.5q27 14 51 14q35 0 54.5 -25.5t19.5 -62.5q0 -59 -51 -98q-55 -41 -146.5 -67.5t-189.5 -26.5 q-154 0 -268.5 60t-177 171t-62.5 258zM290 1442q0 33 22.5 53.5t55.5 20.5q45 0 68 -43q29 -55 82 -88t121 -33q127 0 206 121q31 45 74 45q31 0 51.5 -19.5t20.5 -50.5q0 -16 -10 -41q-47 -102 -141.5 -161.5t-213.5 -59.5q-116 0 -202.5 59.5t-126.5 161.5q-6 18 -7 35z M334 592h467q2 125 -53.5 189.5t-155.5 64.5q-217 0 -258 -254z" />
<glyph unicode="&#x116;" horiz-adv-x="1206" d="M127 125l94 1196q4 57 39 90t94 33h744q55 0 84.5 -26.5t29.5 -71.5q0 -111 -129 -111h-610l-31 -397h566q55 0 85.5 -27t30.5 -72q0 -109 -129 -108h-571l-33 -422h608q55 0 86 -27.5t31 -72.5q0 -53 -33.5 -81t-97.5 -28h-741q-61 0 -91 33t-26 92zM619 1726 q0 61 40.5 98.5t110.5 37.5q68 0 110 -37t42 -99q0 -61 -41 -99t-111 -38t-110.5 38t-40.5 99z" />
<glyph unicode="&#x117;" horiz-adv-x="1087" d="M78 473q0 160 63.5 286t178 196.5t262.5 70.5q209 0 322.5 -125t113.5 -356q0 -43 -23.5 -66.5t-60.5 -23.5h-608q6 -135 76.5 -205t199.5 -70q72 0 130.5 17.5t115.5 52.5q27 14 51 14q35 0 54.5 -25.5t19.5 -62.5q0 -59 -51 -98q-55 -41 -146.5 -67.5t-189.5 -26.5 q-154 0 -268.5 60t-177 171t-62.5 258zM334 592h467q2 125 -53.5 189.5t-155.5 64.5q-217 0 -258 -254zM481 1341q0 61 41 98.5t110 37.5q68 0 110 -37t42 -99q0 -61 -41 -99t-111 -38q-69 0 -110 38t-41 99z" />
<glyph unicode="&#x118;" horiz-adv-x="1206" d="M127 125l94 1196q4 57 39 90t94 33h744q55 0 84.5 -26.5t29.5 -71.5q0 -111 -129 -111h-610l-31 -397h566q55 0 85.5 -27t30.5 -72q0 -109 -129 -108h-571l-33 -422h608q55 0 86 -27.5t31 -72.5q0 -47 -24.5 -73t-75.5 -36q-68 -8 -106 -50t-38 -100q0 -53 30 -80.5 t79 -27.5q43 0 98 18q16 4 21 4q20 0 32.5 -16t12.5 -39q0 -20 -10.5 -37.5t-28.5 -27.5q-74 -43 -164 -43q-111 0 -178.5 58t-67.5 153q0 115 90 188h-542q-61 0 -91 33t-26 92z" />
<glyph unicode="&#x119;" horiz-adv-x="1087" d="M78 473q0 160 63.5 286t178 196.5t262.5 70.5q209 0 322.5 -125t113.5 -356q0 -43 -23.5 -66.5t-60.5 -23.5h-608q6 -135 76.5 -205t199.5 -70q72 0 130.5 17.5t115.5 52.5q27 14 51 14q35 0 54.5 -25.5t19.5 -62.5q0 -59 -51 -98q-31 -25 -99 -51q-154 -66 -153 -181 q0 -49 28.5 -76.5t77.5 -27.5q55 0 101 18q16 4 20 4q20 0 32.5 -16t12.5 -39q0 -20 -10 -37.5t-29 -27.5q-78 -43 -174 -43q-106 0 -170.5 56t-64.5 150q0 106 79 177q-150 2 -261 63.5t-172.5 172t-61.5 253.5zM334 592h467q2 125 -53.5 189.5t-155.5 64.5 q-217 0 -258 -254z" />
<glyph unicode="&#x11a;" horiz-adv-x="1206" d="M127 125l94 1196q4 57 39 90t94 33h744q55 0 84.5 -26.5t29.5 -71.5q0 -111 -129 -111h-610l-31 -397h566q55 0 85.5 -27t30.5 -72q0 -109 -129 -108h-571l-33 -422h608q55 0 86 -27.5t31 -72.5q0 -53 -33.5 -81t-97.5 -28h-741q-61 0 -91 33t-26 92zM510 1819 q0 31 24.5 52t57.5 21q47 0 76 -47l92 -151l129 155q35 43 82 43q31 0 52.5 -19.5t21.5 -45.5q0 -29 -27 -58l-160 -174q-41 -43 -102 -43q-63 0 -99 43l-129 172q-18 25 -18 52z" />
<glyph unicode="&#x11b;" horiz-adv-x="1087" d="M78 473q0 160 63.5 286t178 196.5t262.5 70.5q209 0 322.5 -125t113.5 -356q0 -43 -23.5 -66.5t-60.5 -23.5h-608q6 -135 76.5 -205t199.5 -70q72 0 130.5 17.5t115.5 52.5q27 14 51 14q35 0 54.5 -25.5t19.5 -62.5q0 -59 -51 -98q-55 -41 -146.5 -67.5t-189.5 -26.5 q-154 0 -268.5 60t-177 171t-62.5 258zM334 592h467q2 125 -53.5 189.5t-155.5 64.5q-217 0 -258 -254zM360 1481q0 33 27.5 55.5t62.5 22.5q27 0 50.5 -14.5t35.5 -45.5l92 -207l121 213q29 54 86 54q33 0 58.5 -23t25.5 -53q0 -29 -20 -56l-166 -239q-23 -31 -54.5 -48.5 t-64.5 -17.5t-61.5 16.5t-47.5 49.5l-133 248q-12 25 -12 45z" />
<glyph unicode="&#x11c;" horiz-adv-x="1501" d="M127 664q0 242 92 421t261 277t397 98q147 0 268 -37t196 -94q63 -43 64 -108q0 -43 -28.5 -76t-71.5 -33q-33 0 -68 23q-76 57 -159 84.5t-199 27.5q-227 0 -356.5 -155.5t-129.5 -425.5q0 -229 110.5 -352.5t334.5 -123.5q131 0 266 41l29 361h-222q-51 0 -78.5 23.5 t-27.5 68.5t30.5 70.5t79.5 25.5h357q49 0 76.5 -28.5t25.5 -77.5l-33 -436q-8 -94 -35.5 -133t-105.5 -62q-84 -29 -191.5 -45t-201.5 -16q-213 0 -365.5 81.5t-233.5 235.5t-81 365zM641 1622q0 29 26 57l160 174q39 41 106 41q66 0 95 -41l131 -172q18 -25 18 -49 q0 -31 -24.5 -52t-57.5 -21q-49 0 -78 47l-92 149l-129 -156q-35 -43 -82 -43q-31 0 -52 19.5t-21 46.5z" />
<glyph unicode="&#x11d;" horiz-adv-x="1239" d="M80 492q0 154 60.5 275.5t169 190t249.5 68.5q113 0 196 -44t128 -126l4 47q4 55 42 87t95 32t88 -32t29 -89l-66 -809q-18 -236 -157.5 -356.5t-393.5 -120.5q-106 0 -206.5 24.5t-174.5 69.5q-57 35 -57 92q0 41 26.5 72t63.5 31q18 0 39 -10q156 -82 315 -82 q272 0 291 264l8 100q-49 -70 -132 -108.5t-185 -38.5q-129 0 -226.5 57t-151.5 161.5t-54 244.5zM336 500q0 -131 66.5 -202t187.5 -71q125 0 196.5 87t71.5 237q0 135 -65.5 206.5t-188.5 71.5q-125 0 -196.5 -88t-71.5 -241zM402 1202q0 27 20 55l168 240 q23 31 54.5 48.5t64.5 17.5t61.5 -17.5t44.5 -48.5l133 -250q12 -25 13 -45q0 -33 -27 -55.5t-61 -22.5q-63 0 -88 60l-91 207l-120 -213q-29 -54 -86 -54q-35 0 -60.5 22.5t-25.5 55.5z" />
<glyph unicode="&#x11e;" horiz-adv-x="1501" d="M127 664q0 242 92 421t261 277t397 98q147 0 268 -37t196 -94q63 -43 64 -108q0 -43 -28.5 -76t-71.5 -33q-33 0 -68 23q-76 57 -159 84.5t-199 27.5q-227 0 -356.5 -155.5t-129.5 -425.5q0 -229 110.5 -352.5t334.5 -123.5q131 0 266 41l29 361h-222q-51 0 -78.5 23.5 t-27.5 68.5t30.5 70.5t79.5 25.5h357q49 0 76.5 -28.5t25.5 -77.5l-33 -436q-8 -94 -35.5 -133t-105.5 -62q-84 -29 -191.5 -45t-201.5 -16q-213 0 -365.5 81.5t-233.5 235.5t-81 365zM583 1794q0 31 22.5 49.5t53.5 18.5q39 0 68 -31q63 -84 194 -84q127 0 203 84 q33 33 74 33q27 0 45 -16.5t18 -43.5q0 -25 -18 -55q-51 -76 -136 -119t-192 -43q-111 0 -192.5 43t-124.5 119q-14 23 -15 45z" />
<glyph unicode="&#x11f;" horiz-adv-x="1239" d="M80 492q0 154 60.5 275.5t169 190t249.5 68.5q113 0 196 -44t128 -126l4 47q4 55 42 87t95 32t88 -32t29 -89l-66 -809q-18 -236 -157.5 -356.5t-393.5 -120.5q-106 0 -206.5 24.5t-174.5 69.5q-57 35 -57 92q0 41 26.5 72t63.5 31q18 0 39 -10q156 -82 315 -82 q272 0 291 264l8 100q-49 -70 -132 -108.5t-185 -38.5q-129 0 -226.5 57t-151.5 161.5t-54 244.5zM336 500q0 -131 66.5 -202t187.5 -71q125 0 196.5 87t71.5 237q0 135 -65.5 206.5t-188.5 71.5q-125 0 -196.5 -88t-71.5 -241zM348 1442q0 33 22.5 53.5t55.5 20.5 q45 0 68 -43q29 -55 82 -88t121 -33q127 0 206 121q31 45 74 45q31 0 51.5 -19.5t20.5 -50.5q0 -16 -10 -41q-47 -102 -141.5 -161.5t-213.5 -59.5q-116 0 -202.5 59.5t-126.5 161.5q-6 18 -7 35z" />
<glyph unicode="&#x120;" horiz-adv-x="1501" d="M127 664q0 242 92 421t261 277t397 98q147 0 268 -37t196 -94q63 -43 64 -108q0 -43 -28.5 -76t-71.5 -33q-33 0 -68 23q-76 57 -159 84.5t-199 27.5q-227 0 -356.5 -155.5t-129.5 -425.5q0 -229 110.5 -352.5t334.5 -123.5q131 0 266 41l29 361h-222q-51 0 -78.5 23.5 t-27.5 68.5t30.5 70.5t79.5 25.5h357q49 0 76.5 -28.5t25.5 -77.5l-33 -436q-8 -94 -35.5 -133t-105.5 -62q-84 -29 -191.5 -45t-201.5 -16q-213 0 -365.5 81.5t-233.5 235.5t-81 365zM768 1726q0 61 40.5 98.5t110.5 37.5q68 0 110 -37t42 -99q0 -61 -41 -99t-111 -38 t-110.5 38t-40.5 99z" />
<glyph unicode="&#x121;" horiz-adv-x="1239" d="M80 492q0 154 60.5 275.5t169 190t249.5 68.5q113 0 196 -44t128 -126l4 47q4 55 42 87t95 32t88 -32t29 -89l-66 -809q-18 -236 -157.5 -356.5t-393.5 -120.5q-106 0 -206.5 24.5t-174.5 69.5q-57 35 -57 92q0 41 26.5 72t63.5 31q18 0 39 -10q156 -82 315 -82 q272 0 291 264l8 100q-49 -70 -132 -108.5t-185 -38.5q-129 0 -226.5 57t-151.5 161.5t-54 244.5zM336 500q0 -131 66.5 -202t187.5 -71q125 0 196.5 87t71.5 237q0 135 -65.5 206.5t-188.5 71.5q-125 0 -196.5 -88t-71.5 -241zM539 1341q0 61 41 98.5t110 37.5 q68 0 110 -37t42 -99q0 -61 -41 -99t-111 -38q-69 0 -110 38t-41 99z" />
<glyph unicode="&#x122;" horiz-adv-x="1501" d="M127 664q0 242 92 421t261 277t397 98q147 0 268 -37t196 -94q63 -43 64 -108q0 -43 -28.5 -76t-71.5 -33q-33 0 -68 23q-76 57 -159 84.5t-199 27.5q-227 0 -356.5 -155.5t-129.5 -425.5q0 -229 110.5 -352.5t334.5 -123.5q131 0 266 41l29 361h-222q-51 0 -78.5 23.5 t-27.5 68.5t30.5 70.5t79.5 25.5h357q49 0 76.5 -28.5t25.5 -77.5l-33 -436q-8 -94 -35.5 -133t-105.5 -62q-84 -29 -191.5 -45t-201.5 -16q-213 0 -365.5 81.5t-233.5 235.5t-81 365zM643 -254q0 53 39 89t92 36q70 0 109 -40t39 -105q0 -68 -26.5 -129.5t-71.5 -110.5 q-31 -33 -70 -33q-25 0 -42.5 13.5t-17.5 33.5q0 23 17 41q41 47 57 99h-8q-49 0 -83 27.5t-34 78.5z" />
<glyph unicode="&#x123;" horiz-adv-x="1239" d="M80 492q0 154 60.5 275.5t169 190t249.5 68.5q113 0 196 -44t128 -126l4 47q4 55 42 87t95 32t88 -32t29 -89l-66 -809q-18 -236 -157.5 -356.5t-393.5 -120.5q-106 0 -206.5 24.5t-174.5 69.5q-57 35 -57 92q0 41 26.5 72t63.5 31q18 0 39 -10q156 -82 315 -82 q272 0 291 264l8 100q-49 -70 -132 -108.5t-185 -38.5q-129 0 -226.5 57t-151.5 161.5t-54 244.5zM336 500q0 -131 66.5 -202t187.5 -71q125 0 196.5 87t71.5 237q0 135 -65.5 206.5t-188.5 71.5q-125 0 -196.5 -88t-71.5 -241zM545 1327q0 68 26.5 130.5t71.5 109.5 q29 35 72 35q25 0 41 -13.5t16 -34.5q0 -23 -16 -41q-41 -47 -57 -100h8q49 0 83 -26.5t34 -77.5q0 -55 -37 -91t-93 -36q-68 0 -108.5 40t-40.5 105z" />
<glyph unicode="&#x124;" horiz-adv-x="1568" d="M127 121l96 1204q4 59 41 94t96 35t92 -36t29 -95l-39 -483h738l39 485q4 59 40.5 94t96.5 35q59 0 92 -36t29 -95l-95 -1204q-4 -59 -41.5 -95t-97.5 -36q-59 0 -92 35.5t-29 97.5l41 506h-737l-41 -508q-4 -59 -42 -95t-95 -36q-59 0 -92 35.5t-29 97.5zM605 1622 q0 29 26 57l160 174q39 41 106 41q66 0 95 -41l131 -172q18 -25 18 -49q0 -31 -24.5 -52t-57.5 -21q-49 0 -78 47l-92 149l-129 -156q-35 -43 -82 -43q-31 0 -52 19.5t-21 46.5z" />
<glyph unicode="&#x125;" horiz-adv-x="1198" d="M82 1622q0 29 26 57l160 174q39 41 106 41q66 0 95 -41l131 -172q18 -25 18 -49q0 -31 -24.5 -52t-57.5 -21q-49 0 -78 47l-92 149l-129 -156q-35 -43 -82 -43q-31 0 -52 19.5t-21 46.5zM100 111l99 1226q2 53 41 85t98 32q55 0 87 -30.5t30 -82.5l-37 -462 q53 72 137 109.5t186 37.5q168 0 255 -91t87 -269q0 -39 -2 -60l-41 -495q-4 -57 -40.5 -90t-94.5 -33q-59 0 -92 32.5t-29 90.5l41 485q16 227 -180 227q-113 0 -176 -67.5t-74 -188.5l-39 -456q-2 -57 -39.5 -90t-95.5 -33q-59 0 -92 32.5t-29 90.5z" />
<glyph unicode="&#x126;" horiz-adv-x="1667" d="M51 1141q0 47 32 74.5t91 27.5h92l6 82q4 59 41 94t97 35q59 0 92 -36t28 -95l-6 -80h738l6 82q4 59 41 94t96 35t92 -36t29 -95l-6 -80h88q51 0 80.5 -26.5t29.5 -67.5q0 -47 -32.5 -74.5t-92.5 -27.5h-90l-71 -928q-4 -59 -42 -95t-98 -36q-59 0 -92 35.5t-29 97.5 l41 506h-737l-41 -508q-4 -59 -42 -95t-95 -36q-59 0 -92 35.5t-29 97.5l74 926h-88q-51 0 -81 26.5t-30 67.5zM492 840h737l16 207h-737z" />
<glyph unicode="&#x127;" horiz-adv-x="1198" d="M-16 1198q0 43 29.5 67.5t82.5 24.5h99l4 47q2 53 41 85t98 32q55 0 87 -30.5t30 -82.5l-4 -51h303q47 0 73.5 -24.5t26.5 -63.5q0 -45 -28.5 -69.5t-84.5 -24.5h-305l-18 -229q53 72 137 109.5t186 37.5q168 0 255 -91t87 -269q0 -39 -2 -60l-41 -495q-4 -57 -40.5 -90 t-94.5 -33q-59 0 -92 32.5t-29 90.5l41 485q16 227 -180 227q-113 0 -176 -67.5t-74 -188.5l-39 -456q-2 -57 -39.5 -90t-95.5 -33q-59 0 -92 32.5t-29 90.5l80 997h-96q-49 0 -74.5 24.5t-25.5 65.5z" />
<glyph unicode="&#x128;" horiz-adv-x="575" d="M43 1667q0 43 25.5 88t71.5 75t108 30q35 0 71.5 -13.5t86.5 -38.5q43 -20 71.5 -31.5t55.5 -11.5q31 0 50 12.5t40 37.5q16 18 27.5 26t29.5 8q51 0 51 -61q0 -43 -25.5 -88t-71.5 -75t-108 -30q-34 0 -69 12.5t-88 37.5q-43 20 -72 31.5t-55 11.5q-31 0 -50.5 -12.5 t-39.5 -37.5q-16 -18 -27.5 -26t-30.5 -8q-51 0 -51 63zM127 121l96 1204q4 59 42 94t97 35t93 -36t30 -95l-94 -1204q-6 -59 -44 -95t-97 -36q-60 0 -93.5 35.5t-29.5 97.5z" />
<glyph unicode="&#x129;" horiz-adv-x="520" d="M-19 1276q0 45 28 95t75 84t102 34q43 0 82 -17.5t88 -50.5q41 -27 64.5 -38t48.5 -11q31 0 49 15.5t43 46.5q16 25 30.5 37t32.5 12q49 0 49 -70q0 -45 -28.5 -95t-76.5 -84t-103 -34q-43 0 -80 17.5t-86 50.5q-41 27 -64.5 38t-48.5 11q-31 0 -49.5 -15.5t-42.5 -46.5 q-16 -25 -30.5 -37t-33.5 -12q-25 0 -37 19.5t-12 50.5zM100 111l66 792q4 59 43 89t94 30t89 -29.5t30 -89.5l-66 -792q-4 -61 -43 -92t-92 -31q-55 0 -90 30.5t-31 92.5z" />
<glyph unicode="&#x12a;" horiz-adv-x="575" d="M47 1720q0 43 27.5 65.5t70.5 22.5h496q41 0 63.5 -21.5t22.5 -60.5q0 -41 -27.5 -62.5t-70.5 -21.5h-496q-39 0 -62.5 22t-23.5 56zM127 121l96 1204q4 59 42 94t97 35t93 -36t30 -95l-94 -1204q-6 -59 -44 -95t-97 -36q-60 0 -93.5 35.5t-29.5 97.5z" />
<glyph unicode="&#x12b;" horiz-adv-x="520" d="M-13 1337q0 43 28 64.5t71 21.5h495q39 0 62.5 -20.5t23.5 -56.5q0 -43 -27.5 -66t-70.5 -23h-496q-41 0 -63.5 20.5t-22.5 59.5zM100 111l66 792q4 59 43 89t94 30t89 -29.5t30 -89.5l-66 -792q-4 -61 -43 -92t-92 -31q-55 0 -90 30.5t-31 92.5z" />
<glyph unicode="&#x12c;" horiz-adv-x="575" d="M51 1794q0 31 22.5 49.5t53.5 18.5q39 0 68 -31q63 -84 194 -84q127 0 203 84q33 33 74 33q27 0 45 -16.5t18 -43.5q0 -25 -18 -55q-51 -76 -136 -119t-192 -43q-111 0 -192.5 43t-124.5 119q-14 23 -15 45zM127 121l96 1204q4 59 42 94t97 35t93 -36t30 -95l-94 -1204 q-6 -59 -44 -95t-97 -36q-60 0 -93.5 35.5t-29.5 97.5z" />
<glyph unicode="&#x12d;" horiz-adv-x="520" d="M-15 1442q0 33 22.5 53.5t55.5 20.5q45 0 68 -43q29 -55 82 -88t121 -33q127 0 206 121q31 45 74 45q31 0 51.5 -19.5t20.5 -50.5q0 -16 -10 -41q-47 -102 -141.5 -161.5t-213.5 -59.5q-116 0 -202.5 59.5t-126.5 161.5q-6 18 -7 35zM100 111l66 792q4 59 43 89t94 30 t89 -29.5t30 -89.5l-66 -792q-4 -61 -43 -92t-92 -31q-55 0 -90 30.5t-31 92.5z" />
<glyph unicode="&#x12e;" horiz-adv-x="575" d="M-6 -186q0 158 147 231q-18 29 -14 76l96 1204q4 59 42 94t97 35t93 -36t30 -95l-94 -1204q-4 -43 -25.5 -73t-52.5 -40q-69 -22 -106 -59t-37 -97q0 -53 30.5 -80.5t84.5 -27.5q49 0 98 18q16 4 23 4q20 0 31.5 -14t11.5 -37q0 -43 -39 -69q-70 -43 -168 -43 q-113 0 -180.5 58t-67.5 155z" />
<glyph unicode="&#x12f;" horiz-adv-x="520" d="M-31 -193q0 74 37 134.5t109 99.5q-16 31 -15 70l66 792q4 59 43 89t94 30t89 -29.5t30 -89.5l-66 -792q-4 -80 -75 -109q-59 -16 -97.5 -55t-38.5 -101q0 -51 30 -77.5t77 -26.5q51 0 100 18q16 4 21 4q20 0 32.5 -16t12.5 -39q0 -20 -10.5 -37.5t-28.5 -27.5 q-80 -43 -174 -43q-104 0 -170 56t-66 150zM174 1341q0 61 42 98.5t110 37.5q69 0 111 -37t42 -99q0 -61 -42 -99t-111 -38q-68 0 -110 38t-42 99z" />
<glyph unicode="&#x130;" horiz-adv-x="575" d="M127 121l96 1204q4 59 42 94t97 35t93 -36t30 -95l-94 -1204q-6 -59 -44 -95t-97 -36q-60 0 -93.5 35.5t-29.5 97.5zM236 1726q0 61 40.5 98.5t110.5 37.5q68 0 110 -37t42 -99q0 -61 -41 -99t-111 -38t-110.5 38t-40.5 99z" />
<glyph unicode="&#x131;" horiz-adv-x="520" d="M100 111l66 792q4 59 43 89t94 30t89 -29.5t30 -89.5l-66 -792q-4 -61 -43 -92t-92 -31q-55 0 -90 30.5t-31 92.5z" />
<glyph unicode="&#x134;" horiz-adv-x="733" d="M-59 94q0 96 112 107l66 4q84 4 131 55t55 148l74 917q4 59 43 94t98 35q61 0 94 -35t29 -94l-72 -917q-14 -193 -120.5 -298.5t-298.5 -117.5l-66 -4q-145 -9 -145 106zM265 1622q0 29 26 57l160 174q39 41 106 41q66 0 95 -41l131 -172q18 -25 18 -49q0 -31 -24.5 -52 t-57.5 -21q-49 0 -78 47l-92 149l-129 -156q-35 -43 -82 -43q-31 0 -52 19.5t-21 46.5z" />
<glyph unicode="&#x135;" horiz-adv-x="520" d="M-236 -285q0 92 107 99l59 4q150 12 162 174l74 909q4 59 43 90t92 31q55 0 90 -30.5t31 -90.5l-72 -889q-14 -178 -110.5 -273t-282.5 -110l-51 -2q-68 -4 -105 18.5t-37 69.5zM37 1202q0 27 20 55l168 240q23 31 54.5 48.5t64.5 17.5t61.5 -17.5t44.5 -48.5l133 -250 q12 -25 13 -45q0 -33 -27 -55.5t-61 -22.5q-63 0 -88 60l-91 207l-120 -213q-29 -54 -86 -54q-35 0 -60.5 22.5t-25.5 55.5z" />
<glyph unicode="&#x136;" horiz-adv-x="1351" d="M127 121l96 1204q4 59 42 94t97 35t93 -36t30 -95l-41 -524l666 616q41 39 88 39q43 0 75 -32.5t32 -78.5q0 -53 -45 -96l-564 -508l529 -561q25 -27 24 -65q0 -47 -36.5 -85t-86.5 -38q-45 0 -88 45l-604 637l-43 -553q-6 -59 -44 -95t-97 -36t-93 36.5t-30 96.5z M487 -254q0 53 39 89t92 36q70 0 109 -40t39 -105q0 -68 -26.5 -129.5t-71.5 -110.5q-31 -33 -70 -33q-25 0 -42.5 13.5t-17.5 33.5q0 23 17 41q41 47 57 99h-8q-49 0 -83 27.5t-34 78.5z" />
<glyph unicode="&#x137;" horiz-adv-x="1097" d="M102 113l97 1222q4 57 43 88t92 31q55 0 90 -31.5t31 -91.5l-60 -766l447 418q41 37 82 37q47 0 81.5 -35t34.5 -80t-36 -80l-342 -309l319 -334q29 -31 29 -69q0 -49 -40 -88t-89 -39q-45 0 -82 39l-414 432l-27 -348q-4 -57 -41.5 -88t-93.5 -31q-55 0 -90 31.5 t-31 91.5zM356 -254q0 53 39 89t92 36q70 0 109 -40t39 -105q0 -68 -26.5 -129.5t-71.5 -110.5q-31 -33 -70 -33q-25 0 -42.5 13.5t-17.5 33.5q0 23 17 41q41 47 57 99h-8q-49 0 -83 27.5t-34 78.5z" />
<glyph unicode="&#x138;" horiz-adv-x="1097" d="M100 111l66 792q4 59 43 89t94 30t89 -29.5t30 -89.5l-29 -340l449 420q41 37 82 37q47 0 81.5 -35t34.5 -80t-36 -80l-342 -309l319 -334q29 -31 29 -69q0 -49 -40 -88t-89 -39q-45 0 -82 39l-414 434l-29 -348q-4 -61 -43 -91t-92 -30q-55 0 -90 29.5t-31 91.5z" />
<glyph unicode="&#x139;" horiz-adv-x="1136" d="M127 125l96 1200q4 59 42 94t97 35q61 0 94 -36t29 -95l-88 -1106h574q55 0 85.5 -26.5t30.5 -73.5q0 -117 -131 -117h-712q-62 0 -91.5 33t-25.5 92zM344 1614q0 25 17 47l133 188q33 47 80 47q37 0 64.5 -25.5t27.5 -60.5q0 -37 -35 -69l-166 -158q-26 -24 -59 -24 q-27 0 -44.5 15t-17.5 40z" />
<glyph unicode="&#x13a;" horiz-adv-x="520" d="M100 111l99 1224q4 59 43 89t92 30q55 0 90 -29.5t31 -89.5l-99 -1224q-4 -61 -43 -92t-92 -31q-55 0 -90 30.5t-31 92.5zM317 1614q0 25 17 47l133 188q33 47 80 47q37 0 64.5 -25.5t27.5 -60.5q0 -37 -35 -69l-166 -158q-26 -24 -59 -24q-27 0 -44.5 15t-17.5 40z" />
<glyph unicode="&#x13b;" horiz-adv-x="1136" d="M127 125l96 1200q4 59 42 94t97 35q61 0 94 -36t29 -95l-88 -1106h574q55 0 85.5 -26.5t30.5 -73.5q0 -117 -131 -117h-712q-62 0 -91.5 33t-25.5 92zM444 -254q0 53 39 89t92 36q70 0 109 -40t39 -105q0 -68 -26.5 -129.5t-71.5 -110.5q-31 -33 -70 -33 q-25 0 -42.5 13.5t-17.5 33.5q0 23 17 41q41 47 57 99h-8q-49 0 -83 27.5t-34 78.5z" />
<glyph unicode="&#x13c;" horiz-adv-x="520" d="M67 -254q0 53 39 89t92 36q70 0 109 -40t39 -105q0 -68 -26.5 -129.5t-71.5 -110.5q-31 -33 -70 -33q-25 0 -42.5 13.5t-17.5 33.5q0 23 17 41q41 47 57 99h-8q-49 0 -83 27.5t-34 78.5zM100 111l99 1224q4 59 43 89t92 30q55 0 90 -29.5t31 -89.5l-99 -1224 q-4 -61 -43 -92t-92 -31q-55 0 -90 30.5t-31 92.5z" />
<glyph unicode="&#x13d;" horiz-adv-x="1136" d="M127 125l96 1200q4 59 42 94t97 35q61 0 94 -36t29 -95l-88 -1106h574q55 0 85.5 -26.5t30.5 -73.5q0 -117 -131 -117h-712q-62 0 -91.5 33t-25.5 92zM643 1083l22 299q2 37 27 57.5t57 20.5q33 0 57.5 -20.5t24.5 -55.5q0 -14 -2 -22l-63 -287q-6 -24 -23.5 -37.5 t-40.5 -13.5q-25 0 -43 16.5t-16 42.5z" />
<glyph unicode="&#x13e;" horiz-adv-x="520" d="M100 111l99 1224q4 59 43 89t92 30q55 0 90 -29.5t31 -89.5l-99 -1224q-4 -61 -43 -92t-92 -31q-55 0 -90 30.5t-31 92.5zM494 1079l22 293q2 41 26.5 62.5t55.5 21.5q25 0 44.5 -17.5t19.5 -47.5q0 -8 -5 -25l-67 -295q-6 -24 -20.5 -36.5t-32.5 -12.5q-20 0 -32.5 15.5 t-10.5 41.5z" />
<glyph unicode="&#x13f;" horiz-adv-x="1136" d="M127 125l96 1200q4 59 42 94t97 35q61 0 94 -36t29 -95l-88 -1106h574q55 0 85.5 -26.5t30.5 -73.5q0 -117 -131 -117h-712q-62 0 -91.5 33t-25.5 92zM637 725q0 61 41 98t110 37q68 0 110 -36.5t42 -98.5q0 -63 -41 -100t-111 -37q-69 0 -110 37t-41 100z" />
<glyph unicode="&#x140;" horiz-adv-x="679" d="M100 111l99 1224q4 59 43 89t92 30q55 0 90 -29.5t31 -89.5l-99 -1224q-4 -61 -43 -92t-92 -31q-55 0 -90 30.5t-31 92.5zM451 723q0 61 41 98t110 37q68 0 110 -36.5t42 -98.5q0 -63 -41 -100t-111 -37q-69 0 -110 37t-41 100z" />
<glyph unicode="&#x141;" horiz-adv-x="1183" d="M6 586q0 61 60 92l161 88l43 559q4 59 43 94t99 35q59 0 93 -36t30 -95l-33 -403l262 143q27 14 53 14q37 0 62.5 -28.5t25.5 -65.5q0 -57 -57 -88l-365 -203l-37 -475h574q55 0 86 -26.5t31 -73.5q0 -117 -131 -117h-715q-59 0 -90 33t-25 92l33 414l-59 -33 q-27 -14 -56 -14q-37 0 -62.5 28.5t-25.5 65.5z" />
<glyph unicode="&#x142;" horiz-adv-x="667" d="M4 588q0 59 57 90l166 90l45 567q4 59 43 89t93 30q55 0 89.5 -29.5t30.5 -89.5l-32 -420l61 35q26 15 53 15q39 0 64.5 -29t25.5 -68q0 -27 -14 -50t-43 -38l-166 -92l-47 -577q-4 -61 -43 -92t-92 -31q-55 0 -90 30.5t-31 92.5l35 430l-62 -35q-27 -14 -53 -14 q-39 0 -64.5 28.5t-25.5 67.5z" />
<glyph unicode="&#x143;" horiz-adv-x="1529" d="M127 121l94 1204q4 57 42 93t91 36q68 0 101 -49l667 -963l70 885q4 57 41 92t90 35q55 0 88 -36t27 -93l-95 -1206q-4 -59 -39.5 -95t-91.5 -36q-66 0 -102 49l-666 962l-71 -882q-4 -59 -40 -94t-93 -35q-53 0 -85 36.5t-28 96.5zM821 1614q0 25 17 47l133 188 q33 47 80 47q37 0 64.5 -25.5t27.5 -60.5q0 -37 -35 -69l-166 -158q-26 -24 -59 -24q-27 0 -44.5 15t-17.5 40z" />
<glyph unicode="&#x144;" horiz-adv-x="1198" d="M100 111l66 794q2 53 41 85t96 32q55 0 86 -30.5t25 -82.5l-2 -39q51 74 137 115t192 41q168 0 255 -91t87 -269q0 -39 -2 -60l-41 -495q-4 -57 -40.5 -90t-94.5 -33q-59 0 -92 32.5t-29 90.5l41 485q16 227 -180 227q-113 0 -176 -67.5t-74 -188.5l-39 -456 q-4 -57 -40.5 -90t-94.5 -33q-59 0 -91 32.5t-30 90.5zM614 1186q0 18 12 43l177 272q18 31 42.5 46.5t53.5 15.5q41 0 72.5 -29t31.5 -68q0 -41 -35 -77l-221 -230q-32 -35 -71 -35q-27 0 -44.5 17.5t-17.5 44.5z" />
<glyph unicode="&#x145;" horiz-adv-x="1529" d="M127 121l94 1204q4 57 42 93t91 36q68 0 101 -49l667 -963l70 885q4 57 41 92t90 35q55 0 88 -36t27 -93l-95 -1206q-4 -59 -39.5 -95t-91.5 -36q-66 0 -102 49l-666 962l-71 -882q-4 -59 -40 -94t-93 -35q-53 0 -85 36.5t-28 96.5zM573 -254q0 53 39 89t92 36 q70 0 109 -40t39 -105q0 -68 -26.5 -129.5t-71.5 -110.5q-31 -33 -70 -33q-25 0 -42.5 13.5t-17.5 33.5q0 23 17 41q41 47 57 99h-8q-49 0 -83 27.5t-34 78.5z" />
<glyph unicode="&#x146;" horiz-adv-x="1198" d="M100 111l66 794q2 53 41 85t96 32q55 0 86 -30.5t25 -82.5l-2 -39q51 74 137 115t192 41q168 0 255 -91t87 -269q0 -39 -2 -60l-41 -495q-4 -57 -40.5 -90t-94.5 -33q-59 0 -92 32.5t-29 90.5l41 485q16 227 -180 227q-113 0 -176 -67.5t-74 -188.5l-39 -456 q-4 -57 -40.5 -90t-94.5 -33q-59 0 -91 32.5t-30 90.5zM409 -254q0 53 39 89t92 36q70 0 109 -40t39 -105q0 -68 -26.5 -129.5t-71.5 -110.5q-31 -33 -70 -33q-25 0 -42.5 13.5t-17.5 33.5q0 23 17 41q41 47 57 99h-8q-49 0 -83 27.5t-34 78.5z" />
<glyph unicode="&#x147;" horiz-adv-x="1529" d="M127 121l94 1204q4 57 42 93t91 36q68 0 101 -49l667 -963l70 885q4 57 41 92t90 35q55 0 88 -36t27 -93l-95 -1206q-4 -59 -39.5 -95t-91.5 -36q-66 0 -102 49l-666 962l-71 -882q-4 -59 -40 -94t-93 -35q-53 0 -85 36.5t-28 96.5zM602 1819q0 31 24.5 52t57.5 21 q47 0 76 -47l92 -151l129 155q35 43 82 43q31 0 52.5 -19.5t21.5 -45.5q0 -29 -27 -58l-160 -174q-41 -43 -102 -43q-63 0 -99 43l-129 172q-18 25 -18 52z" />
<glyph unicode="&#x148;" horiz-adv-x="1198" d="M100 111l66 794q2 53 41 85t96 32q55 0 86 -30.5t25 -82.5l-2 -39q51 74 137 115t192 41q168 0 255 -91t87 -269q0 -39 -2 -60l-41 -495q-4 -57 -40.5 -90t-94.5 -33q-59 0 -92 32.5t-29 90.5l41 485q16 227 -180 227q-113 0 -176 -67.5t-74 -188.5l-39 -456 q-4 -57 -40.5 -90t-94.5 -33q-59 0 -91 32.5t-30 90.5zM397 1481q0 33 27.5 55.5t62.5 22.5q27 0 50.5 -14.5t35.5 -45.5l92 -207l121 213q29 54 86 54q33 0 58.5 -23t25.5 -53q0 -29 -20 -56l-166 -239q-23 -31 -54.5 -48.5t-64.5 -17.5t-61.5 16.5t-47.5 49.5l-133 248 q-12 25 -12 45z" />
<glyph unicode="&#x149;" horiz-adv-x="1198" d="M100 111l66 794q2 53 41 85t96 32q55 0 86 -30.5t25 -82.5l-2 -39q51 74 137 115t192 41q168 0 255 -91t87 -269q0 -39 -2 -60l-41 -495q-4 -57 -40.5 -90t-94.5 -33q-59 0 -92 32.5t-29 90.5l41 485q16 227 -180 227q-113 0 -176 -67.5t-74 -188.5l-39 -456 q-4 -57 -40.5 -90t-94.5 -33q-59 0 -91 32.5t-30 90.5zM236 1436q0 55 38.5 87.5t98.5 32.5q65 0 102 -35.5t37 -109.5q0 -68 -26.5 -130t-69.5 -107q-31 -33 -72 -33q-25 0 -42 13t-17 34q0 18 18 39q43 55 55 100h-6q-49 0 -82.5 28.5t-33.5 80.5z" />
<glyph unicode="&#x14a;" horiz-adv-x="1529" d="M127 121l94 1204q4 57 42 93t91 36q68 0 101 -49l667 -963l70 885q4 57 41 92t90 35q55 0 88 -36t27 -93l-101 -1282q-14 -193 -119.5 -298t-297.5 -118l-68 -4q-72 -4 -108.5 22.5t-36.5 80.5q2 88 110 98l74 4q86 4 138 57.5t61 145.5l2 32l-648 936l-71 -882 q-4 -57 -41 -93t-92 -36q-53 0 -85 36.5t-28 96.5z" />
<glyph unicode="&#x14b;" horiz-adv-x="1198" d="M100 111l66 794q2 53 41 85t96 32q55 0 86 -30.5t25 -82.5l-4 -39q53 74 139 115t192 41q166 0 254 -92t88 -270q0 -37 -2 -58l-47 -594q-14 -180 -112.5 -274t-282.5 -109l-51 -2q-68 -4 -103.5 19.5t-35.5 68.5q0 92 104 99l59 4q76 6 116 48t48 126l49 604 q16 227 -180 227q-113 0 -176 -67.5t-74 -188.5l-39 -456q-4 -57 -40.5 -90t-94.5 -33q-59 0 -91 32.5t-30 90.5z" />
<glyph unicode="&#x14c;" horiz-adv-x="1595" d="M127 670q0 238 87 417t244.5 277t368.5 98q207 0 359.5 -83t234.5 -237.5t82 -367.5q0 -238 -87 -417t-244.5 -277t-368.5 -98q-207 0 -359.5 82.5t-234.5 237.5t-82 368zM391 668q0 -229 106.5 -352t303.5 -123q203 0 319.5 154.5t116.5 426.5q0 229 -106.5 353 t-301.5 124q-205 0 -321.5 -155.5t-116.5 -427.5zM555 1720q0 43 27.5 65.5t70.5 22.5h496q41 0 63.5 -21.5t22.5 -60.5q0 -41 -27.5 -62.5t-70.5 -21.5h-496q-39 0 -62.5 22t-23.5 56z" />
<glyph unicode="&#x14d;" horiz-adv-x="1177" d="M78 475q0 168 64.5 293t182 191.5t273.5 66.5q154 0 267.5 -60.5t175 -172t61.5 -258.5q0 -168 -64.5 -293t-182.5 -191.5t-273 -66.5q-154 0 -267.5 60t-175 172t-61.5 259zM317 1337q0 43 28 64.5t71 21.5h495q39 0 62.5 -20.5t23.5 -56.5q0 -43 -27.5 -66t-70.5 -23 h-496q-41 0 -63.5 20.5t-22.5 59.5zM334 469q0 -287 248 -287q131 0 197.5 99.5t66.5 261.5q0 141 -62.5 213.5t-183.5 72.5q-131 0 -198.5 -99t-67.5 -261z" />
<glyph unicode="&#x14e;" horiz-adv-x="1595" d="M127 670q0 238 87 417t244.5 277t368.5 98q207 0 359.5 -83t234.5 -237.5t82 -367.5q0 -238 -87 -417t-244.5 -277t-368.5 -98q-207 0 -359.5 82.5t-234.5 237.5t-82 368zM391 668q0 -229 106.5 -352t303.5 -123q203 0 319.5 154.5t116.5 426.5q0 229 -106.5 353 t-301.5 124q-205 0 -321.5 -155.5t-116.5 -427.5zM559 1794q0 31 22.5 49.5t53.5 18.5q39 0 68 -31q63 -84 194 -84q127 0 203 84q33 33 74 33q27 0 45 -16.5t18 -43.5q0 -25 -18 -55q-51 -76 -136 -119t-192 -43q-111 0 -192.5 43t-124.5 119q-14 23 -15 45z" />
<glyph unicode="&#x14f;" horiz-adv-x="1177" d="M78 475q0 168 64.5 293t182 191.5t273.5 66.5q154 0 267.5 -60.5t175 -172t61.5 -258.5q0 -168 -64.5 -293t-182.5 -191.5t-273 -66.5q-154 0 -267.5 60t-175 172t-61.5 259zM315 1442q0 33 22.5 53.5t55.5 20.5q45 0 68 -43q29 -55 82 -88t121 -33q127 0 206 121 q31 45 74 45q31 0 51.5 -19.5t20.5 -50.5q0 -16 -10 -41q-47 -102 -141.5 -161.5t-213.5 -59.5q-116 0 -202.5 59.5t-126.5 161.5q-6 18 -7 35zM334 469q0 -287 248 -287q131 0 197.5 99.5t66.5 261.5q0 141 -62.5 213.5t-183.5 72.5q-131 0 -198.5 -99t-67.5 -261z" />
<glyph unicode="&#x150;" horiz-adv-x="1595" d="M127 670q0 238 87 417t244.5 277t368.5 98q207 0 359.5 -83t234.5 -237.5t82 -367.5q0 -238 -87 -417t-244.5 -277t-368.5 -98q-207 0 -359.5 82.5t-234.5 237.5t-82 368zM391 668q0 -229 106.5 -352t303.5 -123q203 0 319.5 154.5t116.5 426.5q0 229 -106.5 353 t-301.5 124q-205 0 -321.5 -155.5t-116.5 -427.5zM717 1602q0 16 8 30l103 209q27 53 75 53q31 0 53.5 -20.5t22.5 -50.5q0 -29 -22 -58l-140 -178q-24 -31 -53 -31q-20 0 -33.5 12.5t-13.5 33.5zM987 1602q0 16 8 30l103 209q27 53 76 53q31 0 53 -20.5t22 -50.5 q0 -25 -22 -58l-139 -178q-25 -31 -56 -31q-18 0 -31.5 12.5t-13.5 33.5z" />
<glyph unicode="&#x151;" horiz-adv-x="1177" d="M78 475q0 168 64.5 293t182 191.5t273.5 66.5q154 0 267.5 -60.5t175 -172t61.5 -258.5q0 -168 -64.5 -293t-182.5 -191.5t-273 -66.5q-154 0 -267.5 60t-175 172t-61.5 259zM334 469q0 -287 248 -287q131 0 197.5 99.5t66.5 261.5q0 141 -62.5 213.5t-183.5 72.5 q-131 0 -198.5 -99t-67.5 -261zM465 1176q0 12 2 20l72 283q10 43 36.5 64.5t57.5 21.5q33 0 57.5 -22.5t24.5 -59.5q0 -25 -17 -62l-131 -264q-16 -37 -53 -37q-20 0 -34.5 14.5t-14.5 41.5zM735 1176q0 12 2 20l72 283q10 43 36.5 64.5t57.5 21.5q33 0 57.5 -22.5 t24.5 -59.5q0 -25 -16 -62l-131 -264q-17 -37 -54 -37q-20 0 -34.5 14.5t-14.5 41.5z" />
<glyph unicode="&#x152;" horiz-adv-x="2140" d="M127 670q0 244 90 417t263 265t417 92h1133q57 0 86.5 -26.5t29.5 -71.5q0 -111 -131 -111h-610l-31 -397h568q55 0 84.5 -27t29.5 -72q0 -109 -129 -108h-571l-33 -422h610q55 0 85 -27.5t30 -72.5q0 -109 -129 -109h-1098q-217 0 -372.5 80t-238.5 231.5t-83 358.5z M391 668q0 -223 117 -341t342 -118h217l82 1026h-231q-262 0 -394.5 -143.5t-132.5 -423.5z" />
<glyph unicode="&#x153;" horiz-adv-x="1843" d="M78 475q0 168 64.5 293t181 191.5t268.5 66.5q274 0 391 -182q63 88 158.5 135t218.5 47q195 0 304.5 -126t109.5 -355q0 -43 -24 -66.5t-60 -23.5h-596q6 -135 75.5 -205t198.5 -70q119 0 236 70q27 14 51 14q35 0 54.5 -25.5t19.5 -62.5q0 -63 -52 -98 q-53 -41 -144 -67.5t-181 -26.5q-133 0 -231.5 49t-157.5 141q-61 -92 -159.5 -141t-232.5 -49q-147 0 -258.5 60t-173 172t-61.5 259zM334 469q0 -287 248 -287q127 0 193.5 99.5t66.5 261.5q0 141 -62.5 213.5t-179.5 72.5q-131 0 -198.5 -99t-67.5 -261zM1102 592h457 q2 127 -53.5 190.5t-149.5 63.5q-105 0 -169.5 -63.5t-84.5 -190.5z" />
<glyph unicode="&#x154;" horiz-adv-x="1423" d="M127 121l94 1198q4 59 40 92t95 33h516q223 0 345 -106.5t122 -297.5q0 -383 -389 -440q51 -14 88 -50t70 -101l152 -291q14 -27 14 -56q0 -49 -41 -83.5t-94 -34.5q-35 0 -67 18t-50 57l-203 402q-33 66 -78 92.5t-120 26.5h-199l-35 -461q-4 -59 -42 -95t-97 -36 t-92 35.5t-29 97.5zM438 782h369q285 0 285 244q0 109 -61.5 161t-188.5 52h-369zM770 1614q0 25 17 47l133 188q33 47 80 47q37 0 64.5 -25.5t27.5 -60.5q0 -37 -35 -69l-166 -158q-26 -24 -59 -24q-27 0 -44.5 15t-17.5 40z" />
<glyph unicode="&#x155;" horiz-adv-x="784" d="M100 111l66 794q4 57 44 87t91 30q53 0 83 -28.5t26 -84.5l-4 -55q53 76 135 118t178 48l22 2q45 4 73 -19.5t28 -68.5q0 -61 -29 -92t-100 -39l-56 -6q-133 -14 -194.5 -74.5t-71.5 -181.5l-35 -430q-4 -61 -43 -92t-92 -31q-55 0 -90 30.5t-31 92.5zM475 1186 q0 18 12 43l177 272q18 31 42.5 46.5t53.5 15.5q41 0 72.5 -29t31.5 -68q0 -41 -35 -77l-221 -230q-32 -35 -71 -35q-27 0 -44.5 17.5t-17.5 44.5z" />
<glyph unicode="&#x156;" horiz-adv-x="1423" d="M127 121l94 1198q4 59 40 92t95 33h516q223 0 345 -106.5t122 -297.5q0 -383 -389 -440q51 -14 88 -50t70 -101l152 -291q14 -27 14 -56q0 -49 -41 -83.5t-94 -34.5q-35 0 -67 18t-50 57l-203 402q-33 66 -78 92.5t-120 26.5h-199l-35 -461q-4 -59 -42 -95t-97 -36 t-92 35.5t-29 97.5zM438 782h369q285 0 285 244q0 109 -61.5 161t-188.5 52h-369zM522 -254q0 53 39 89t92 36q70 0 109 -40t39 -105q0 -68 -26.5 -129.5t-71.5 -110.5q-31 -33 -70 -33q-25 0 -42.5 13.5t-17.5 33.5q0 23 17 41q41 47 57 99h-8q-49 0 -83 27.5t-34 78.5z " />
<glyph unicode="&#x157;" horiz-adv-x="784" d="M67 -254q0 53 39 89t92 36q70 0 109 -40t39 -105q0 -68 -26.5 -129.5t-71.5 -110.5q-31 -33 -70 -33q-25 0 -42.5 13.5t-17.5 33.5q0 23 17 41q41 47 57 99h-8q-49 0 -83 27.5t-34 78.5zM100 111l66 794q4 57 44 87t91 30q53 0 83 -28.5t26 -84.5l-4 -55q53 76 135 118 t178 48l22 2q45 4 73 -19.5t28 -68.5q0 -61 -29 -92t-100 -39l-56 -6q-133 -14 -194.5 -74.5t-71.5 -181.5l-35 -430q-4 -61 -43 -92t-92 -31q-55 0 -90 30.5t-31 92.5z" />
<glyph unicode="&#x158;" horiz-adv-x="1423" d="M127 121l94 1198q4 59 40 92t95 33h516q223 0 345 -106.5t122 -297.5q0 -383 -389 -440q51 -14 88 -50t70 -101l152 -291q14 -27 14 -56q0 -49 -41 -83.5t-94 -34.5q-35 0 -67 18t-50 57l-203 402q-33 66 -78 92.5t-120 26.5h-199l-35 -461q-4 -59 -42 -95t-97 -36 t-92 35.5t-29 97.5zM438 782h369q285 0 285 244q0 109 -61.5 161t-188.5 52h-369zM551 1819q0 31 24.5 52t57.5 21q47 0 76 -47l92 -151l129 155q35 43 82 43q31 0 52.5 -19.5t21.5 -45.5q0 -29 -27 -58l-160 -174q-41 -43 -102 -43q-63 0 -99 43l-129 172q-18 25 -18 52z " />
<glyph unicode="&#x159;" horiz-adv-x="784" d="M100 111l66 794q4 57 44 87t91 30q53 0 83 -28.5t26 -84.5l-4 -55q53 76 135 118t178 48l22 2q45 4 73 -19.5t28 -68.5q0 -61 -29 -92t-100 -39l-56 -6q-133 -14 -194.5 -74.5t-71.5 -181.5l-35 -430q-4 -61 -43 -92t-92 -31q-55 0 -90 30.5t-31 92.5zM258 1481 q0 33 27.5 55.5t62.5 22.5q27 0 50.5 -14.5t35.5 -45.5l92 -207l121 213q29 54 86 54q33 0 58.5 -23t25.5 -53q0 -29 -20 -56l-166 -239q-23 -31 -54.5 -48.5t-64.5 -17.5t-61.5 16.5t-47.5 49.5l-133 248q-12 25 -12 45z" />
<glyph unicode="&#x15a;" horiz-adv-x="1306" d="M57 227q0 43 26 75t67 32q29 0 67 -23q80 -57 187.5 -89t236.5 -32q150 0 228.5 50.5t78.5 142.5q0 59 -42 99t-105.5 65.5t-171.5 56.5q-150 43 -245 85t-162.5 124t-67.5 215q0 131 70.5 229.5t201.5 151.5t305 53q150 0 279 -41t211 -110q45 -37 45 -90q0 -43 -28 -75 t-71 -32q-37 0 -77 27q-68 49 -164.5 80.5t-200.5 31.5q-147 0 -228 -54t-81 -150q0 -63 44 -106.5t107.5 -68t180.5 -59.5q150 -43 241.5 -83t157 -118.5t65.5 -203.5q0 -201 -153.5 -314.5t-425.5 -113.5q-164 0 -295 36.5t-221 100.5q-59 41 -60 108zM715 1614 q0 25 17 47l133 188q33 47 80 47q37 0 64.5 -25.5t27.5 -60.5q0 -37 -35 -69l-166 -158q-26 -24 -59 -24q-27 0 -44.5 15t-17.5 40z" />
<glyph unicode="&#x15b;" horiz-adv-x="993" d="M43 174q0 39 24.5 67.5t61.5 28.5q25 0 53 -16q141 -82 301 -82q186 0 187 107q0 51 -51.5 78.5t-159.5 58.5q-106 29 -175 58.5t-118 86.5t-49 150q0 141 118.5 228t319.5 87q82 0 169 -23.5t142 -62.5q55 -35 56 -96q0 -39 -24 -66.5t-58 -27.5q-25 0 -54 16 q-127 74 -249 74q-90 0 -138.5 -29t-48.5 -84q0 -51 51.5 -78.5t159.5 -58.5q109 -31 176.5 -60.5t116.5 -87t49 -149.5q0 -145 -116.5 -227t-323.5 -82q-94 0 -187.5 22.5t-164.5 63.5q-68 35 -68 104zM526 1186q0 18 12 43l177 272q18 31 42.5 46.5t53.5 15.5 q41 0 72.5 -29t31.5 -68q0 -41 -35 -77l-221 -230q-32 -35 -71 -35q-27 0 -44.5 17.5t-17.5 44.5z" />
<glyph unicode="&#x15c;" horiz-adv-x="1306" d="M57 227q0 43 26 75t67 32q29 0 67 -23q80 -57 187.5 -89t236.5 -32q150 0 228.5 50.5t78.5 142.5q0 59 -42 99t-105.5 65.5t-171.5 56.5q-150 43 -245 85t-162.5 124t-67.5 215q0 131 70.5 229.5t201.5 151.5t305 53q150 0 279 -41t211 -110q45 -37 45 -90q0 -43 -28 -75 t-71 -32q-37 0 -77 27q-68 49 -164.5 80.5t-200.5 31.5q-147 0 -228 -54t-81 -150q0 -63 44 -106.5t107.5 -68t180.5 -59.5q150 -43 241.5 -83t157 -118.5t65.5 -203.5q0 -201 -153.5 -314.5t-425.5 -113.5q-164 0 -295 36.5t-221 100.5q-59 41 -60 108zM478 1622 q0 29 26 57l160 174q39 41 106 41q66 0 95 -41l131 -172q18 -25 18 -49q0 -31 -24.5 -52t-57.5 -21q-49 0 -78 47l-92 149l-129 -156q-35 -43 -82 -43q-31 0 -52 19.5t-21 46.5z" />
<glyph unicode="&#x15d;" horiz-adv-x="993" d="M43 174q0 39 24.5 67.5t61.5 28.5q25 0 53 -16q141 -82 301 -82q186 0 187 107q0 51 -51.5 78.5t-159.5 58.5q-106 29 -175 58.5t-118 86.5t-49 150q0 141 118.5 228t319.5 87q82 0 169 -23.5t142 -62.5q55 -35 56 -96q0 -39 -24 -66.5t-58 -27.5q-25 0 -54 16 q-127 74 -249 74q-90 0 -138.5 -29t-48.5 -84q0 -51 51.5 -78.5t159.5 -58.5q109 -31 176.5 -60.5t116.5 -87t49 -149.5q0 -145 -116.5 -227t-323.5 -82q-94 0 -187.5 22.5t-164.5 63.5q-68 35 -68 104zM293 1202q0 27 20 55l168 240q23 31 54.5 48.5t64.5 17.5t61.5 -17.5 t44.5 -48.5l133 -250q12 -25 13 -45q0 -33 -27 -55.5t-61 -22.5q-63 0 -88 60l-91 207l-120 -213q-29 -54 -86 -54q-35 0 -60.5 22.5t-25.5 55.5z" />
<glyph unicode="&#x15e;" horiz-adv-x="1306" d="M57 227q0 43 26 75t67 32q29 0 67 -23q80 -57 187.5 -89t236.5 -32q150 0 228.5 50.5t78.5 142.5q0 59 -42 99t-105.5 65.5t-171.5 56.5q-150 43 -245 85t-162.5 124t-67.5 215q0 131 70.5 229.5t201.5 151.5t305 53q150 0 279 -41t211 -110q45 -37 45 -90q0 -43 -28 -75 t-71 -32q-37 0 -77 27q-68 49 -164.5 80.5t-200.5 31.5q-147 0 -228 -54t-81 -150q0 -63 44 -106.5t107.5 -68t180.5 -59.5q150 -43 241.5 -83t157 -118.5t65.5 -203.5q0 -195 -144 -307.5t-400 -120.5l-15 -66q8 2 25 2q76 0 119 -37t43 -102q0 -82 -72 -130t-190 -48 q-88 0 -150 20q-18 6 -28.5 20.5t-10.5 32.5q0 29 19.5 48.5t48.5 11.5q57 -18 112 -19q106 0 107 62q0 45 -64 45q-23 0 -48 -7.5t-34 -7.5q-20 0 -30.5 12.5t-5.5 28.5l28 138q-254 25 -405 133q-59 41 -60 108z" />
<glyph unicode="&#x15f;" horiz-adv-x="993" d="M43 174q0 39 24.5 67.5t61.5 28.5q25 0 53 -16q141 -82 301 -82q186 0 187 107q0 51 -51.5 78.5t-159.5 58.5q-106 29 -175 58.5t-118 86.5t-49 150q0 141 118.5 228t319.5 87q82 0 169 -23.5t142 -62.5q55 -35 56 -96q0 -39 -24 -66.5t-58 -27.5q-25 0 -54 16 q-127 74 -249 74q-90 0 -138.5 -29t-48.5 -84q0 -51 51.5 -78.5t159.5 -58.5q109 -31 176.5 -60.5t116.5 -87t49 -149.5q0 -137 -104.5 -218t-290.5 -89l-14 -70q8 2 24 2q76 0 119 -37t43 -102q0 -82 -71.5 -130t-190.5 -48q-88 0 -150 20q-18 6 -28.5 20.5t-10.5 32.5 q0 29 19.5 48.5t48.5 11.5q57 -18 113 -19q106 0 106 62q0 45 -63 45q-23 0 -48.5 -7.5t-33.5 -7.5q-20 0 -30.5 12.5t-6.5 28.5l28 142q-143 18 -251 80q-68 35 -68 104z" />
<glyph unicode="&#x160;" horiz-adv-x="1306" d="M57 227q0 43 26 75t67 32q29 0 67 -23q80 -57 187.5 -89t236.5 -32q150 0 228.5 50.5t78.5 142.5q0 59 -42 99t-105.5 65.5t-171.5 56.5q-150 43 -245 85t-162.5 124t-67.5 215q0 131 70.5 229.5t201.5 151.5t305 53q150 0 279 -41t211 -110q45 -37 45 -90q0 -43 -28 -75 t-71 -32q-37 0 -77 27q-68 49 -164.5 80.5t-200.5 31.5q-147 0 -228 -54t-81 -150q0 -63 44 -106.5t107.5 -68t180.5 -59.5q150 -43 241.5 -83t157 -118.5t65.5 -203.5q0 -201 -153.5 -314.5t-425.5 -113.5q-164 0 -295 36.5t-221 100.5q-59 41 -60 108zM496 1819 q0 31 24.5 52t57.5 21q47 0 76 -47l92 -151l129 155q35 43 82 43q31 0 52.5 -19.5t21.5 -45.5q0 -29 -27 -58l-160 -174q-41 -43 -102 -43q-63 0 -99 43l-129 172q-18 25 -18 52z" />
<glyph unicode="&#x161;" horiz-adv-x="993" d="M43 174q0 39 24.5 67.5t61.5 28.5q25 0 53 -16q141 -82 301 -82q186 0 187 107q0 51 -51.5 78.5t-159.5 58.5q-106 29 -175 58.5t-118 86.5t-49 150q0 141 118.5 228t319.5 87q82 0 169 -23.5t142 -62.5q55 -35 56 -96q0 -39 -24 -66.5t-58 -27.5q-25 0 -54 16 q-127 74 -249 74q-90 0 -138.5 -29t-48.5 -84q0 -51 51.5 -78.5t159.5 -58.5q109 -31 176.5 -60.5t116.5 -87t49 -149.5q0 -145 -116.5 -227t-323.5 -82q-94 0 -187.5 22.5t-164.5 63.5q-68 35 -68 104zM309 1481q0 33 27.5 55.5t62.5 22.5q27 0 50.5 -14.5t35.5 -45.5 l92 -207l121 213q29 54 86 54q33 0 58.5 -23t25.5 -53q0 -29 -20 -56l-166 -239q-23 -31 -54.5 -48.5t-64.5 -17.5t-61.5 16.5t-47.5 49.5l-133 248q-12 25 -12 45z" />
<glyph unicode="&#x162;" horiz-adv-x="1255" d="M68 1327q0 117 131 117h1007q58 0 87.5 -26.5t29.5 -76.5q0 -115 -131 -114h-373l-88 -1108q-2 -43 -25.5 -75t-60.5 -46l-18 -82q8 2 24 2q76 0 119 -37t43 -102q0 -82 -71.5 -130t-190.5 -48q-88 0 -150 20q-18 6 -28.5 20.5t-10.5 32.5q0 29 19.5 48.5t48.5 11.5 q57 -18 113 -19q106 0 106 62q0 45 -63 45q-23 0 -48.5 -7.5t-33.5 -7.5q-20 0 -30.5 12.5t-6.5 28.5l35 172q-41 37 -35 101l88 1106h-371q-57 0 -86.5 25.5t-29.5 74.5z" />
<glyph unicode="&#x163;" horiz-adv-x="755" d="M18 901q0 100 121 100h105l14 189q4 55 41 87t96 32t91 -32t28 -89l-14 -187h172q51 0 78.5 -23.5t27.5 -66.5q0 -102 -119 -102h-176l-32 -428q-2 -12 -2 -37q0 -82 37.5 -125t107.5 -43q18 0 44 3t42 3q29 0 45 -22.5t16 -61.5q0 -63 -45 -87.5t-157 -24.5q-31 0 -47 2 l-15 -72q8 2 25 2q76 0 119 -37t43 -102q0 -82 -72 -130t-191 -48q-88 0 -149 20q-18 6 -28.5 20.5t-10.5 32.5q0 29 19.5 48.5t48.5 11.5q57 -18 112 -19q106 0 107 62q0 45 -64 45q-23 0 -48.5 -7.5t-33.5 -7.5q-20 0 -30.5 12.5t-6.5 28.5l35 177q-160 78 -159 297 q0 37 2 57l32 430h-100q-51 0 -80 23.5t-29 68.5z" />
<glyph unicode="&#x164;" horiz-adv-x="1255" d="M68 1327q0 117 131 117h1007q57 0 87 -26.5t30 -76.5q0 -115 -131 -114h-373l-88 -1108q-4 -59 -43 -94t-98 -35q-60 0 -93.5 35.5t-29.5 95.5l88 1106h-371q-57 0 -86.5 25.5t-29.5 74.5zM467 1819q0 31 24.5 52t57.5 21q47 0 76 -47l92 -151l129 155q35 43 82 43 q31 0 52.5 -19.5t21.5 -45.5q0 -29 -27 -58l-160 -174q-41 -43 -102 -43q-63 0 -99 43l-129 172q-18 25 -18 52z" />
<glyph unicode="&#x165;" horiz-adv-x="755" d="M18 901q0 100 121 100h105l14 189q4 55 41 87t96 32t91 -32t28 -89l-14 -187h172q51 0 78.5 -23.5t27.5 -66.5q0 -102 -119 -102h-176l-32 -428q-2 -12 -2 -37q0 -82 37.5 -125t107.5 -43q18 0 44 3t42 3q29 0 45 -22.5t16 -61.5q0 -63 -45 -87.5t-157 -24.5 q-166 0 -256 88t-90 250q0 37 2 55l32 430h-100q-51 0 -80 23.5t-29 68.5zM604 1120l27 269q2 34 30.5 52.5t65.5 18.5q39 0 65.5 -18.5t26.5 -50.5q0 -12 -2 -21l-74 -258q-6 -23 -26.5 -34t-44.5 -11q-29 0 -49.5 14.5t-18.5 38.5z" />
<glyph unicode="&#x166;" horiz-adv-x="1255" d="M68 1327q0 117 131 117h1007q58 0 87.5 -26.5t29.5 -76.5q0 -115 -131 -114h-373l-31 -396h187q53 0 81.5 -26.5t28.5 -69.5q0 -51 -32.5 -78.5t-89.5 -27.5h-191l-41 -510q-4 -59 -43 -94t-98 -35t-93 35.5t-30 95.5l41 508h-191q-53 0 -81.5 26.5t-28.5 71.5 q0 51 32.5 77.5t92.5 26.5h192l31 396h-371q-57 0 -86.5 25.5t-29.5 74.5z" />
<glyph unicode="&#x167;" horiz-adv-x="776" d="M29 901q0 100 121 100h104l14 189q4 55 41 87t97 32q59 0 90.5 -32t27.5 -89l-14 -187h172q51 0 78.5 -24.5t27.5 -65.5q0 -102 -118 -102h-176l-11 -143h140q47 0 73.5 -24t26.5 -62q0 -45 -29.5 -71t-83.5 -26h-141l-8 -102q-2 -12 -2 -37q0 -82 39 -125t112 -43 q18 0 40 3t42 3q23 0 38 -18.5t15 -42.5q0 -16 -10 -37q-2 -55 -43 -76.5t-137 -21.5q-170 0 -261 89t-91 253q0 33 2 51l8 104h-68q-49 0 -75.5 23.5t-26.5 64.5q0 45 30.5 70t84.5 25h69l11 143h-101q-51 0 -79.5 24.5t-28.5 67.5z" />
<glyph unicode="&#x168;" horiz-adv-x="1501" d="M150 518q0 27 4 80l59 727q4 59 42 94t95 35q59 0 92 -36t29 -95l-57 -729q-2 -23 -2 -66q0 -170 81.5 -252.5t251.5 -82.5q160 0 250 87t105 279l59 766q6 59 44 94t95 35q59 0 92 -36t29 -95l-59 -743q-25 -297 -182.5 -447.5t-444.5 -150.5q-289 0 -436 136t-147 400z M506 1667q0 43 25.5 88t71.5 75t108 30q35 0 71.5 -13.5t86.5 -38.5q43 -20 71.5 -31.5t55.5 -11.5q31 0 50 12.5t40 37.5q16 18 27.5 26t29.5 8q51 0 51 -61q0 -43 -25.5 -88t-71.5 -75t-108 -30q-34 0 -69 12.5t-88 37.5q-43 20 -72 31.5t-55 11.5q-31 0 -50.5 -12.5 t-39.5 -37.5q-16 -18 -27.5 -26t-30.5 -8q-51 0 -51 63z" />
<glyph unicode="&#x169;" horiz-adv-x="1185" d="M117 336q0 41 2 63l39 502q4 57 42 89t97 32q57 0 89 -32t28 -89l-39 -485q-2 -12 -2 -37q0 -193 176 -193q106 0 168.5 69t73.5 189l36 457q6 57 44 89t96 32q59 0 91 -32t25 -89l-63 -797q-2 -51 -41 -83.5t-96 -32.5q-53 0 -84 30.5t-29 81.5l4 39 q-53 -74 -137 -114.5t-184 -40.5q-164 0 -250 90t-86 262zM311 1276q0 45 28 95t75 84t102 34q43 0 82 -17.5t88 -50.5q41 -27 64.5 -38t48.5 -11q31 0 49 15.5t43 46.5q16 25 30.5 37t32.5 12q49 0 49 -70q0 -45 -28.5 -95t-76.5 -84t-103 -34q-43 0 -80 17.5t-86 50.5 q-41 27 -64.5 38t-48.5 11q-31 0 -49.5 -15.5t-42.5 -46.5q-16 -25 -30.5 -37t-33.5 -12q-25 0 -37 19.5t-12 50.5z" />
<glyph unicode="&#x16a;" horiz-adv-x="1501" d="M150 518q0 27 4 80l59 727q4 59 42 94t95 35q59 0 92 -36t29 -95l-57 -729q-2 -23 -2 -66q0 -170 81.5 -252.5t251.5 -82.5q160 0 250 87t105 279l59 766q6 59 44 94t95 35q59 0 92 -36t29 -95l-59 -743q-25 -297 -182.5 -447.5t-444.5 -150.5q-289 0 -436 136t-147 400z M510 1720q0 43 27.5 65.5t70.5 22.5h496q41 0 63.5 -21.5t22.5 -60.5q0 -41 -27.5 -62.5t-70.5 -21.5h-496q-39 0 -62.5 22t-23.5 56z" />
<glyph unicode="&#x16b;" horiz-adv-x="1185" d="M117 336q0 41 2 63l39 502q4 57 42 89t97 32q57 0 89 -32t28 -89l-39 -485q-2 -12 -2 -37q0 -193 176 -193q106 0 168.5 69t73.5 189l36 457q6 57 44 89t96 32q59 0 91 -32t25 -89l-63 -797q-2 -51 -41 -83.5t-96 -32.5q-53 0 -84 30.5t-29 81.5l4 39 q-53 -74 -137 -114.5t-184 -40.5q-164 0 -250 90t-86 262zM317 1337q0 43 28 64.5t71 21.5h495q39 0 62.5 -20.5t23.5 -56.5q0 -43 -27.5 -66t-70.5 -23h-496q-41 0 -63.5 20.5t-22.5 59.5z" />
<glyph unicode="&#x16c;" horiz-adv-x="1501" d="M150 518q0 27 4 80l59 727q4 59 42 94t95 35q59 0 92 -36t29 -95l-57 -729q-2 -23 -2 -66q0 -170 81.5 -252.5t251.5 -82.5q160 0 250 87t105 279l59 766q6 59 44 94t95 35q59 0 92 -36t29 -95l-59 -743q-25 -297 -182.5 -447.5t-444.5 -150.5q-289 0 -436 136t-147 400z M514 1794q0 31 22.5 49.5t53.5 18.5q39 0 68 -31q63 -84 194 -84q127 0 203 84q33 33 74 33q27 0 45 -16.5t18 -43.5q0 -25 -18 -55q-51 -76 -136 -119t-192 -43q-111 0 -192.5 43t-124.5 119q-14 23 -15 45z" />
<glyph unicode="&#x16d;" horiz-adv-x="1185" d="M117 336q0 41 2 63l39 502q4 57 42 89t97 32q57 0 89 -32t28 -89l-39 -485q-2 -12 -2 -37q0 -193 176 -193q106 0 168.5 69t73.5 189l36 457q6 57 44 89t96 32q59 0 91 -32t25 -89l-63 -797q-2 -51 -41 -83.5t-96 -32.5q-53 0 -84 30.5t-29 81.5l4 39 q-53 -74 -137 -114.5t-184 -40.5q-164 0 -250 90t-86 262zM315 1442q0 33 22.5 53.5t55.5 20.5q45 0 68 -43q29 -55 82 -88t121 -33q127 0 206 121q31 45 74 45q31 0 51.5 -19.5t20.5 -50.5q0 -16 -10 -41q-47 -102 -141.5 -161.5t-213.5 -59.5q-116 0 -202.5 59.5 t-126.5 161.5q-6 18 -7 35z" />
<glyph unicode="&#x16e;" horiz-adv-x="1501" d="M150 518q0 27 4 80l59 727q4 59 42 94t95 35q59 0 92 -36t29 -95l-57 -729q-2 -23 -2 -66q0 -170 81.5 -252.5t251.5 -82.5q160 0 250 87t105 279l59 766q6 59 44 94t95 35q59 0 92 -36t29 -95l-59 -743q-25 -297 -182.5 -447.5t-444.5 -150.5q-289 0 -436 136t-147 400z M633 1769q0 90 64.5 153t154.5 63t153.5 -62.5t63.5 -153.5q0 -90 -63.5 -151.5t-153.5 -61.5q-92 0 -155.5 61.5t-63.5 151.5zM760 1769q0 -41 25.5 -68.5t66.5 -27.5q39 0 65.5 28t26.5 68q0 41 -26.5 69t-65.5 28q-41 0 -66.5 -28t-25.5 -69z" />
<glyph unicode="&#x16f;" horiz-adv-x="1185" d="M117 336q0 41 2 63l39 502q4 57 42 89t97 32q57 0 89 -32t28 -89l-39 -485q-2 -12 -2 -37q0 -193 176 -193q106 0 168.5 69t73.5 189l36 457q6 57 44 89t96 32q59 0 91 -32t25 -89l-63 -797q-2 -51 -41 -83.5t-96 -32.5q-53 0 -84 30.5t-29 81.5l4 39 q-53 -74 -137 -114.5t-184 -40.5q-164 0 -250 90t-86 262zM438 1343q0 88 64.5 150.5t154.5 62.5t153.5 -62t63.5 -151q0 -90 -63.5 -152.5t-153.5 -62.5t-154.5 62.5t-64.5 152.5zM565 1343q0 -43 25.5 -70.5t66.5 -27.5q39 0 66 29t27 69q0 41 -27 69t-66 28 q-41 0 -66.5 -28t-25.5 -69z" />
<glyph unicode="&#x170;" horiz-adv-x="1501" d="M150 518q0 27 4 80l59 727q4 59 42 94t95 35q59 0 92 -36t29 -95l-57 -729q-2 -23 -2 -66q0 -170 81.5 -252.5t251.5 -82.5q160 0 250 87t105 279l59 766q6 59 44 94t95 35q59 0 92 -36t29 -95l-59 -743q-25 -297 -182.5 -447.5t-444.5 -150.5q-289 0 -436 136t-147 400z M672 1602q0 16 8 30l103 209q27 53 75 53q31 0 53.5 -20.5t22.5 -50.5q0 -29 -22 -58l-140 -178q-24 -31 -53 -31q-20 0 -33.5 12.5t-13.5 33.5zM942 1602q0 16 8 30l103 209q27 53 76 53q31 0 53 -20.5t22 -50.5q0 -25 -22 -58l-139 -178q-25 -31 -56 -31q-18 0 -31.5 12.5 t-13.5 33.5z" />
<glyph unicode="&#x171;" horiz-adv-x="1185" d="M117 336q0 41 2 63l39 502q4 57 42 89t97 32q57 0 89 -32t28 -89l-39 -485q-2 -12 -2 -37q0 -193 176 -193q106 0 168.5 69t73.5 189l36 457q6 57 44 89t96 32q59 0 91 -32t25 -89l-63 -797q-2 -51 -41 -83.5t-96 -32.5q-53 0 -84 30.5t-29 81.5l4 39 q-53 -74 -137 -114.5t-184 -40.5q-164 0 -250 90t-86 262zM465 1176q0 12 2 20l72 283q10 43 36.5 64.5t57.5 21.5q33 0 57.5 -22.5t24.5 -59.5q0 -25 -17 -62l-131 -264q-16 -37 -53 -37q-20 0 -34.5 14.5t-14.5 41.5zM735 1176q0 12 2 20l72 283q10 43 36.5 64.5 t57.5 21.5q33 0 57.5 -22.5t24.5 -59.5q0 -25 -16 -62l-131 -264q-17 -37 -54 -37q-20 0 -34.5 14.5t-14.5 41.5z" />
<glyph unicode="&#x172;" horiz-adv-x="1501" d="M150 516q0 25 4 82l59 727q4 59 42 94t95 35q59 0 92 -36t29 -95l-57 -729q-2 -23 -2 -66q0 -170 81.5 -252.5t251.5 -82.5q160 0 250 87t105 279l59 766q6 59 44 94t95 35q60 0 92.5 -36t28.5 -95l-59 -743q-37 -477 -420 -576q-152 -43 -152 -154q0 -53 31 -80.5 t84 -27.5q43 0 92 18q16 4 23 4q20 0 32.5 -15t12.5 -38q0 -20 -10.5 -38.5t-30.5 -28.5q-74 -43 -162 -43q-113 0 -179.5 58t-66.5 153q0 106 76 170q-266 8 -403 144t-137 390z" />
<glyph unicode="&#x173;" horiz-adv-x="1185" d="M117 336q0 41 2 63l39 502q4 57 42 89t95 32q59 0 91 -32t28 -89l-39 -485q-2 -12 -2 -37q0 -193 176 -193q106 0 168.5 69t73.5 189l36 457q6 57 43 89t95 32q59 0 92 -32t26 -89l-63 -795q-2 -74 -74 -104q-65 -22 -101 -57t-36 -95q0 -53 30.5 -80.5t84.5 -27.5 q39 0 92 18q16 4 22 4q20 0 32.5 -15t12.5 -38q0 -20 -10 -38.5t-31 -28.5q-78 -43 -161 -43q-113 0 -180.5 58t-67.5 153q0 72 39 131t108 98q-14 23 -10 59l4 39q-53 -74 -137 -114.5t-184 -40.5q-164 0 -250 90t-86 262z" />
<glyph unicode="&#x174;" horiz-adv-x="2273" d="M158 1333q0 55 41 90t94 35q39 0 70.5 -21.5t42.5 -64.5l258 -1003l426 999q18 43 53 65.5t74 22.5t69.5 -23.5t42.5 -64.5l260 -1006l424 1012q19 41 51.5 61.5t71.5 20.5q45 0 78 -27.5t33 -74.5q0 -27 -17 -66l-524 -1216q-18 -41 -57 -63.5t-82 -22.5t-78 22.5 t-47 65.5l-264 964l-414 -966q-18 -41 -57 -64.5t-82 -23.5t-78 23.5t-49 66.5l-334 1216q-6 23 -6 43zM957 1622q0 29 26 57l160 174q39 41 106 41q66 0 95 -41l131 -172q18 -25 18 -49q0 -31 -24.5 -52t-57.5 -21q-49 0 -78 47l-92 149l-129 -156q-35 -43 -82 -43 q-31 0 -52 19.5t-21 46.5z" />
<glyph unicode="&#x175;" horiz-adv-x="1753" d="M94 899q0 53 41 87t92 34q37 0 66 -19.5t39 -58.5l182 -635l283 627q18 39 52 61.5t69 22.5q39 0 67.5 -21.5t40.5 -62.5l182 -627l285 637q18 37 48 55.5t65 18.5q47 0 82.5 -30t35.5 -75q0 -27 -14 -55l-377 -788q-18 -39 -58 -59.5t-85 -20.5t-83 22.5t-50 61.5 l-174 571l-258 -575q-18 -39 -57.5 -59.5t-84.5 -20.5q-47 0 -85 21.5t-50 62.5l-248 786q-6 23 -6 39zM656 1202q0 27 20 55l168 240q23 31 54.5 48.5t64.5 17.5t61.5 -17.5t44.5 -48.5l133 -250q12 -25 13 -45q0 -33 -27 -55.5t-61 -22.5q-63 0 -88 60l-91 207l-120 -213 q-29 -54 -86 -54q-35 0 -60.5 22.5t-25.5 55.5z" />
<glyph unicode="&#x176;" horiz-adv-x="1275" d="M86 1327q0 49 41 88t90 39q53 0 90 -51l357 -526l440 530q45 51 98 51q47 0 82 -33.5t35 -81.5q0 -45 -35 -86l-500 -593l-45 -545q-4 -63 -43 -97t-96 -34t-92 34.5t-31 98.5l43 543l-411 598q-23 35 -23 65zM457 1622q0 29 26 57l160 174q39 41 106 41q66 0 95 -41 l131 -172q18 -25 18 -49q0 -31 -24.5 -52t-57.5 -21q-49 0 -78 47l-92 149l-129 -156q-35 -43 -82 -43q-31 0 -52 19.5t-21 46.5z" />
<glyph unicode="&#x177;" horiz-adv-x="1077" d="M68 901q0 49 42 83t93 34q35 0 62.5 -18.5t39.5 -55.5l221 -647l324 649q18 37 47 54.5t61 17.5q45 0 81 -31t36 -74q0 -27 -14 -53l-615 -1169q-18 -37 -47.5 -54.5t-60.5 -17.5q-43 0 -75 29.5t-32 72.5q0 29 15 58l129 252l-301 835q-6 18 -6 35zM320 1202q0 27 20 55 l168 240q23 31 54.5 48.5t64.5 17.5t61.5 -17.5t44.5 -48.5l133 -250q12 -25 13 -45q0 -33 -27 -55.5t-61 -22.5q-63 0 -88 60l-91 207l-120 -213q-29 -54 -86 -54q-35 0 -60.5 22.5t-25.5 55.5z" />
<glyph unicode="&#x178;" horiz-adv-x="1275" d="M86 1327q0 49 41 88t90 39q53 0 90 -51l357 -526l440 530q45 51 98 51q47 0 82 -33.5t35 -81.5q0 -45 -35 -86l-500 -593l-45 -545q-4 -63 -43 -97t-96 -34t-92 34.5t-31 98.5l43 543l-411 598q-23 35 -23 65zM414 1726q0 57 36.5 92t96.5 35q59 0 97 -34.5t38 -92.5 q0 -57 -38 -93t-97 -36q-60 0 -96.5 36t-36.5 93zM790 1726q0 57 37 92t97 35q57 0 95 -34.5t38 -92.5q0 -57 -37 -93t-96 -36q-60 0 -97 36t-37 93z" />
<glyph unicode="&#x179;" horiz-adv-x="1232" d="M45 102q0 55 39 103l807 1028h-633q-57 0 -86 24.5t-29 71.5q0 59 32 87t97 28h848q49 0 78 -29t29 -72q0 -51 -41 -104l-805 -1028h659q57 0 86 -25.5t29 -72.5q0 -113 -129 -113h-874q-51 0 -79 28.5t-28 73.5zM676 1614q0 25 17 47l133 188q33 47 80 47 q37 0 64.5 -25.5t27.5 -60.5q0 -37 -35 -69l-166 -158q-26 -24 -59 -24q-27 0 -44.5 15t-17.5 40z" />
<glyph unicode="&#x17a;" horiz-adv-x="1044" d="M47 100q0 53 41 95l571 614h-442q-53 0 -80.5 23.5t-27.5 66.5q0 102 120 102h662q47 0 74.5 -29.5t27.5 -70.5q0 -51 -41 -96l-569 -612h471q53 0 81 -24t28 -65q0 -104 -121 -104h-692q-47 0 -75 28.5t-28 71.5zM549 1186q0 18 12 43l177 272q18 31 42.5 46.5 t53.5 15.5q41 0 72.5 -29t31.5 -68q0 -41 -35 -77l-221 -230q-32 -35 -71 -35q-27 0 -44.5 17.5t-17.5 44.5z" />
<glyph unicode="&#x17b;" horiz-adv-x="1232" d="M45 102q0 55 39 103l807 1028h-633q-57 0 -86 24.5t-29 71.5q0 59 32 87t97 28h848q49 0 78 -29t29 -72q0 -51 -41 -104l-805 -1028h659q57 0 86 -25.5t29 -72.5q0 -113 -129 -113h-874q-51 0 -79 28.5t-28 73.5zM566 1726q0 61 40.5 98.5t110.5 37.5q68 0 110 -37 t42 -99q0 -61 -41 -99t-111 -38t-110.5 38t-40.5 99z" />
<glyph unicode="&#x17c;" horiz-adv-x="1044" d="M47 100q0 53 41 95l571 614h-442q-53 0 -80.5 23.5t-27.5 66.5q0 102 120 102h662q47 0 74.5 -29.5t27.5 -70.5q0 -51 -41 -96l-569 -612h471q53 0 81 -24t28 -65q0 -104 -121 -104h-692q-47 0 -75 28.5t-28 71.5zM453 1341q0 61 41 98.5t110 37.5q68 0 110 -37t42 -99 q0 -61 -41 -99t-111 -38q-69 0 -110 38t-41 99z" />
<glyph unicode="&#x17d;" horiz-adv-x="1232" d="M45 102q0 55 39 103l807 1028h-633q-57 0 -86 24.5t-29 71.5q0 59 32 87t97 28h848q49 0 78 -29t29 -72q0 -51 -41 -104l-805 -1028h659q57 0 86 -25.5t29 -72.5q0 -113 -129 -113h-874q-51 0 -79 28.5t-28 73.5zM457 1819q0 31 24.5 52t57.5 21q47 0 76 -47l92 -151 l129 155q35 43 82 43q31 0 52.5 -19.5t21.5 -45.5q0 -29 -27 -58l-160 -174q-41 -43 -102 -43q-63 0 -99 43l-129 172q-18 25 -18 52z" />
<glyph unicode="&#x17e;" horiz-adv-x="1044" d="M47 100q0 53 41 95l571 614h-442q-53 0 -80.5 23.5t-27.5 66.5q0 102 120 102h662q47 0 74.5 -29.5t27.5 -70.5q0 -51 -41 -96l-569 -612h471q53 0 81 -24t28 -65q0 -104 -121 -104h-692q-47 0 -75 28.5t-28 71.5zM332 1481q0 33 27.5 55.5t62.5 22.5q27 0 50.5 -14.5 t35.5 -45.5l92 -207l121 213q29 54 86 54q33 0 58.5 -23t25.5 -53q0 -29 -20 -56l-166 -239q-23 -31 -54.5 -48.5t-64.5 -17.5t-61.5 16.5t-47.5 49.5l-133 248q-12 25 -12 45z" />
<glyph unicode="&#x192;" d="M-20 -289q0 43 35.5 78t93.5 35h32q145 0 193 176l250 852h-172q-33 0 -55.5 21.5t-22.5 54.5q0 35 26.5 58.5t63.5 23.5h207l20 71q55 193 176 283t277 90h43q53 0 80.5 -25.5t27.5 -64.5q0 -45 -35.5 -80t-93.5 -35h-32q-146 0 -193 -176l-18 -63h174q33 0 55.5 -22.5 t22.5 -55.5q0 -35 -27 -57.5t-64 -22.5h-206l-252 -860q-55 -193 -178 -282t-279 -89h-41q-53 0 -80.5 25.5t-27.5 64.5z" />
<glyph unicode="&#x2c6;" horiz-adv-x="614" d="M86 1202q0 27 20 55l168 240q23 31 54.5 48.5t64.5 17.5t61.5 -17.5t44.5 -48.5l133 -250q12 -25 13 -45q0 -33 -27 -55.5t-61 -22.5q-63 0 -88 60l-91 207l-120 -213q-29 -54 -86 -54q-35 0 -60.5 22.5t-25.5 55.5z" />
<glyph unicode="&#x2da;" horiz-adv-x="614" d="M155 1343q0 88 64.5 150.5t154.5 62.5t153.5 -62t63.5 -151q0 -90 -63.5 -152.5t-153.5 -62.5t-154.5 62.5t-64.5 152.5zM282 1343q0 -43 25.5 -70.5t66.5 -27.5q39 0 66 29t27 69q0 41 -27 69t-66 28q-41 0 -66.5 -28t-25.5 -69z" />
<glyph unicode="&#x2dc;" horiz-adv-x="614" d="M28 1276q0 45 28 95t75 84t102 34q43 0 82 -17.5t88 -50.5q41 -27 64.5 -38t48.5 -11q31 0 49 15.5t43 46.5q16 25 30.5 37t32.5 12q49 0 49 -70q0 -45 -28.5 -95t-76.5 -84t-103 -34q-43 0 -80 17.5t-86 50.5q-41 27 -64.5 38t-48.5 11q-31 0 -49.5 -15.5t-42.5 -46.5 q-16 -25 -30.5 -37t-33.5 -12q-25 0 -37 19.5t-12 50.5z" />
<glyph unicode="&#x3a9;" horiz-adv-x="1636" d="M72 102q0 111 131 111h235q-123 184 -187.5 301t-91 205t-26.5 178q0 170 89 298t257 197.5t398 69.5q213 0 369.5 -61.5t239.5 -178t83 -276.5q0 -102 -45 -206.5t-130 -222.5t-239 -304h234q55 0 85.5 -25.5t30.5 -70.5q0 -117 -131 -117h-383q-51 0 -79.5 28.5 t-28.5 73.5q0 55 39 109q156 219 236.5 351t112.5 217t32 161q0 150 -112 230.5t-317 80.5q-229 0 -353 -95t-124 -267q0 -104 59.5 -246.5t215.5 -429.5q25 -45 24 -90q0 -53 -34.5 -88t-92.5 -35h-381q-57 0 -86.5 26.5t-29.5 75.5z" />
<glyph unicode="&#x3c0;" horiz-adv-x="1234" d="M16 899q0 102 121 102h971q53 0 79.5 -23.5t26.5 -66.5q0 -102 -118 -102h-135l-37 -459q-6 -80 30.5 -122t122.5 -48q45 -2 72 -26.5t27 -59.5q0 -43 -42 -73.5t-120 -30.5q-172 4 -259 85t-87 253q0 35 2 55l35 426h-213q-23 -217 -64 -398.5t-106 -338.5 q-18 -43 -52 -64.5t-75 -21.5q-49 0 -87 31.5t-38 80.5q0 20 6 41q121 330 164 670h-115q-53 0 -81 23.5t-28 66.5z" />
<glyph unicode="&#x2000;" horiz-adv-x="992" />
<glyph unicode="&#x2001;" horiz-adv-x="1985" />
<glyph unicode="&#x2002;" horiz-adv-x="992" />
<glyph unicode="&#x2003;" horiz-adv-x="1985" />
<glyph unicode="&#x2004;" horiz-adv-x="661" />
<glyph unicode="&#x2005;" horiz-adv-x="496" />
<glyph unicode="&#x2006;" horiz-adv-x="330" />
<glyph unicode="&#x2007;" horiz-adv-x="330" />
<glyph unicode="&#x2008;" horiz-adv-x="248" />
<glyph unicode="&#x2009;" horiz-adv-x="397" />
<glyph unicode="&#x200a;" horiz-adv-x="110" />
<glyph unicode="&#x2010;" horiz-adv-x="888" d="M119 541q0 51 31.5 79.5t95.5 28.5h420q55 0 83.5 -26.5t28.5 -69.5q0 -106 -127 -107h-420q-53 0 -82.5 26t-29.5 69z" />
<glyph unicode="&#x2011;" horiz-adv-x="888" d="M119 541q0 51 31.5 79.5t95.5 28.5h420q55 0 83.5 -26.5t28.5 -69.5q0 -106 -127 -107h-420q-53 0 -82.5 26t-29.5 69z" />
<glyph unicode="&#x2012;" horiz-adv-x="888" d="M119 541q0 51 31.5 79.5t95.5 28.5h420q55 0 83.5 -26.5t28.5 -69.5q0 -106 -127 -107h-420q-53 0 -82.5 26t-29.5 69z" />
<glyph unicode="&#x2013;" horiz-adv-x="1024" d="M4 545q0 35 28.5 56.5t76.5 21.5h827q43 0 67.5 -20.5t24.5 -53.5q0 -35 -27.5 -56.5t-74.5 -21.5h-828q-43 0 -68.5 21.5t-25.5 52.5z" />
<glyph unicode="&#x2014;" horiz-adv-x="2048" d="M4 545q0 35 28.5 56.5t76.5 21.5h1851q43 0 67.5 -20.5t24.5 -53.5q0 -35 -27.5 -56.5t-74.5 -21.5h-1852q-43 0 -68.5 21.5t-25.5 52.5z" />
<glyph unicode="&#x2018;" horiz-adv-x="507" d="M150 1071q0 98 44 191.5t117 164.5q29 27 62 27q29 0 48 -18.5t19 -44.5q0 -31 -24 -56q-68 -72 -92 -149q59 -8 92 -46t33 -96q0 -74 -43.5 -114.5t-106.5 -40.5q-70 0 -109.5 46t-39.5 136z" />
<glyph unicode="&#x2019;" horiz-adv-x="507" d="M168 1298q0 74 43 115t106 41q70 0 109 -46t39 -134q0 -100 -43 -193.5t-117 -165.5q-27 -27 -59 -26q-29 0 -49.5 19.5t-20.5 45.5q0 31 23 54q66 66 92 149q-57 8 -90 46t-33 95z" />
<glyph unicode="&#x201a;" horiz-adv-x="507" d="M74 141q0 74 43 114t108 40q70 0 109 -46t39 -134q0 -100 -43 -192.5t-119 -164.5q-27 -27 -59 -26q-29 0 -49.5 19.5t-20.5 45.5q0 27 24 51q66 66 93 150q-59 8 -92 46t-33 97z" />
<glyph unicode="&#x201c;" horiz-adv-x="901" d="M150 1071q0 98 44 191.5t117 164.5q29 27 62 27q29 0 48 -18.5t19 -44.5q0 -31 -24 -56q-68 -72 -92 -149q59 -8 92 -46t33 -96q0 -74 -43.5 -114.5t-106.5 -40.5q-70 0 -109.5 46t-39.5 136zM543 1071q0 98 44 191.5t117 164.5q29 27 62 27q29 0 48 -18.5t19 -44.5 q0 -31 -24 -56q-68 -72 -92 -149q59 -8 92 -46t33 -96q0 -74 -43.5 -114.5t-106.5 -40.5q-70 0 -109.5 46t-39.5 136z" />
<glyph unicode="&#x201d;" horiz-adv-x="901" d="M168 1298q0 74 43 115t106 41q70 0 109 -46t39 -134q0 -100 -43 -193.5t-117 -165.5q-27 -27 -59 -26q-29 0 -49.5 19.5t-20.5 45.5q0 31 23 54q66 66 92 149q-57 8 -90 46t-33 95zM561 1298q0 74 43 115t106 41q70 0 109 -46t39 -134q0 -100 -43 -193.5t-117 -165.5 q-27 -27 -59 -26q-29 0 -49.5 19.5t-20.5 45.5q0 31 23 54q66 66 92 149q-57 8 -90 46t-33 95z" />
<glyph unicode="&#x201e;" horiz-adv-x="901" d="M74 141q0 74 43 114t108 40q70 0 109 -46t39 -134q0 -100 -43 -192.5t-119 -164.5q-27 -27 -59 -26q-29 0 -49.5 19.5t-20.5 45.5q0 27 24 51q66 66 93 150q-59 8 -92 46t-33 97zM467 141q0 74 43 114t108 40q70 0 109 -46t39 -134q0 -100 -43 -192.5t-119 -164.5 q-27 -27 -59 -26q-29 0 -49.5 19.5t-20.5 45.5q0 27 24 51q66 66 93 150q-59 8 -92 46t-33 97z" />
<glyph unicode="&#x2026;" horiz-adv-x="1525" d="M74 141q0 66 43 110t108 44q66 0 109 -44t43 -110t-43 -109.5t-109 -43.5q-65 0 -108 44t-43 109zM584 141q0 66 43 110t108 44q63 0 106.5 -44t43.5 -110t-43 -109.5t-107 -43.5q-65 0 -108 44t-43 109zM1092 141q0 66 43 110t108 44q66 0 109 -44t43 -110t-43 -109.5 t-109 -43.5q-65 0 -108 44t-43 109z" />
<glyph unicode="&#x202f;" horiz-adv-x="397" />
<glyph unicode="&#x2030;" horiz-adv-x="2752" d="M129 981q0 225 100.5 355t274.5 130q172 0 265 -103t93 -296q0 -229 -99 -356t-276 -127q-172 0 -265 102t-93 295zM344 956q0 -109 34 -157.5t107 -48.5q80 0 121 88t41 254q0 106 -33.5 157t-107.5 51q-162 0 -162 -344zM449 45q0 35 18 61l876 1330q35 53 89 53 q37 0 64.5 -26.5t27.5 -63.5q0 -35 -19 -62l-876 -1329q-35 -53 -88 -53q-37 0 -64.5 26.5t-27.5 63.5zM1110 383q0 227 99.5 356t275.5 129q172 0 264 -102t92 -295q0 -231 -98 -358t-277 -127q-172 0 -264 102t-92 295zM1325 358q0 -109 34 -157.5t107 -48.5q80 0 121 88 t41 254q0 106 -34.5 157t-106.5 51q-162 0 -162 -344zM1925 383q0 227 99.5 356t275.5 129q172 0 265 -102t93 -295q0 -229 -99 -357t-275 -128q-173 0 -266 102t-93 295zM2140 358q0 -109 34 -157.5t107 -48.5q80 0 121 88t41 254q0 109 -33.5 158.5t-107.5 49.5 q-162 0 -162 -344z" />
<glyph unicode="&#x2039;" horiz-adv-x="587" d="M113 539q0 43 32 84l181 256q18 29 44.5 42t55.5 13q37 0 63.5 -22.5t26.5 -57.5q0 -29 -18 -59l-144 -250l101 -248q8 -23 8 -45q0 -43 -30 -69.5t-68 -26.5q-59 0 -93 57l-139 256q-20 41 -20 70z" />
<glyph unicode="&#x203a;" horiz-adv-x="579" d="M78 238q0 31 16 57l146 250l-101 250q-10 27 -10 45q0 41 29.5 67.5t70.5 26.5q29 0 53.5 -13.5t39.5 -41.5l139 -258q20 -41 20 -70q0 -39 -30 -82l-183 -258q-18 -29 -44.5 -42t-55.5 -13q-39 0 -64.5 22.5t-25.5 59.5z" />
<glyph unicode="&#x2044;" horiz-adv-x="389" d="M-324 45q0 31 21 64l870 1325q33 53 90 53q37 0 65 -25.5t28 -62.5q0 -29 -23 -64l-868 -1325q-33 -53 -90 -53q-37 0 -65 25.5t-28 62.5z" />
<glyph unicode="&#x205f;" horiz-adv-x="496" />
<glyph unicode="&#x20ac;" d="M20 565q0 37 26 59.5t65 22.5h116q0 86 9 152h-113q-33 0 -55.5 22.5t-22.5 57.5t25.5 58.5t64.5 23.5h127q59 242 204.5 371.5t358.5 129.5q238 0 406 -145q37 -31 37 -82q0 -45 -30 -80t-73 -35q-37 0 -71 27q-127 102 -269 102q-110 0 -186 -72.5t-115 -215.5h267 q35 0 56 -23t21 -57q0 -35 -25.5 -58.5t-64.5 -23.5h-282q-6 -47 -11 -152h281q35 0 56.5 -22.5t21.5 -57.5t-25.5 -58.5t-64.5 -23.5h-262q18 -147 85.5 -218.5t186.5 -71.5q123 0 280 112q29 20 60 21q37 0 61.5 -30t24.5 -71q0 -57 -49 -94q-86 -70 -191.5 -110.5 t-204.5 -40.5q-213 0 -345 131t-162 372h-140q-33 0 -55.5 22.5t-22.5 57.5z" />
<glyph unicode="&#x2122;" horiz-adv-x="1912" d="M68 1346q0 51 28.5 74.5t87.5 23.5h572q104 0 104 -88q0 -100 -119 -101h-170l-45 -571q-2 -53 -38.5 -83t-86.5 -30q-49 0 -80.5 30t-27.5 83l45 571h-168q-102 0 -102 91zM905 686l51 655q4 53 39 82t80 29q66 0 99 -76l188 -424l256 424q47 76 113 76q45 0 74.5 -28.5 t25.5 -82.5l-51 -655q-8 -115 -111 -115q-47 0 -71.5 29t-20.5 86l27 348l-154 -256q-25 -39 -48.5 -56t-55.5 -17q-33 0 -54.5 17t-40.5 56l-112 250l-27 -342q-4 -57 -33.5 -86t-79.5 -29q-47 0 -72.5 29t-21.5 86z" />
<glyph unicode="&#x2202;" d="M72 459q0 172 64.5 304t180 205.5t263.5 73.5q98 0 176 -34.5t127 -106.5q-2 238 -119 354.5t-313 116.5h-37q-47 0 -73 24.5t-26 61.5q0 31 19.5 59.5t50.5 38.5q35 12 64.5 15.5t72.5 3.5q295 0 458 -200.5t163 -567.5q0 -262 -69.5 -451.5t-200 -289t-312.5 -99.5 q-227 0 -358 131t-131 361zM332 465q0 -133 63.5 -212t173.5 -79q125 0 203 101.5t78 279.5q0 127 -63.5 203t-172.5 76q-127 0 -204.5 -97.5t-77.5 -271.5z" />
<glyph unicode="&#x2206;" horiz-adv-x="1636" d="M72 102q0 111 131 111h235q-123 184 -187.5 301t-91 205t-26.5 178q0 170 89 298t257 197.5t398 69.5q213 0 369.5 -61.5t239.5 -178t83 -276.5q0 -102 -45 -206.5t-130 -222.5t-239 -304h234q55 0 85.5 -25.5t30.5 -70.5q0 -117 -131 -117h-383q-51 0 -79.5 28.5 t-28.5 73.5q0 55 39 109q156 219 236.5 351t112.5 217t32 161q0 150 -112 230.5t-317 80.5q-229 0 -353 -95t-124 -267q0 -104 59.5 -246.5t215.5 -429.5q25 -45 24 -90q0 -53 -34.5 -88t-92.5 -35h-381q-57 0 -86.5 26.5t-29.5 75.5z" />
<glyph unicode="&#x220f;" d="M55 -260l125 1585q4 53 41 86t88 33h762q53 0 83 -34t26 -85l-125 -1585q-4 -53 -41 -86t-88 -33t-82 34t-27 85l117 1493h-524l-117 -1493q-4 -53 -41 -86t-88 -33t-82 34t-27 85z" />
<glyph unicode="&#x2211;" horiz-adv-x="1222" d="M8 -268q0 53 39 104l557 715l-446 688q-27 39 -27 82q0 51 36 87t91 36h846q115 0 115 -101q0 -112 -129 -112h-641l366 -576q37 -57 37 -106q0 -55 -55 -127l-451 -578h631q59 0 88 -26.5t29 -73.5q0 -113 -131 -113h-846q-51 0 -80 28t-29 73z" />
<glyph unicode="&#x221a;" d="M20 584q0 39 28 65.5t69 26.5h190q29 0 50.5 -17.5t27.5 -46.5l150 -710l495 1503q12 35 40 52.5t60 17.5q35 0 59.5 -18.5t24.5 -51.5q0 -14 -6 -31l-549 -1640q-25 -74 -57.5 -105.5t-85.5 -31.5t-80.5 31.5t-42.5 101.5l-174 766h-115q-37 0 -60.5 25.5t-23.5 62.5z " />
<glyph unicode="&#x221e;" d="M78 551q0 158 83 258t228 100q72 0 138.5 -37.5t107.5 -119.5q51 84 117.5 120.5t136.5 36.5q125 0 200.5 -80.5t75.5 -212.5q0 -168 -83 -265t-228 -97q-72 0 -138.5 38t-107.5 120q-51 -84 -117.5 -121t-136.5 -37q-127 0 -201.5 81t-74.5 216zM242 565 q0 -70 36.5 -113.5t98.5 -43.5q112 0 182 176q-23 90 -70 131t-102 41q-70 0 -107.5 -54.5t-37.5 -136.5zM682 584q25 -92 72 -134t102 -42q70 0 107.5 55t37.5 141q0 66 -36.5 109t-98.5 43q-113 0 -184 -172z" />
<glyph unicode="&#x222b;" d="M145 -279q0 41 31 73t74 32h29q156 0 170 174l86 1081q14 180 122.5 276.5t300.5 96.5q68 0 100 -24.5t32 -75.5q0 -43 -31 -75t-74 -32h-29q-156 0 -168 -174l-86 -1081q-14 -180 -123.5 -275.5t-304.5 -95.5q-63 0 -96 26.5t-33 73.5z" />
<glyph unicode="&#x2248;" d="M119 344q0 27 18 53q47 70 112.5 107t139.5 37q63 0 121.5 -22.5t134.5 -63.5q57 -31 95 -46.5t71 -15.5q72 0 115 53q41 43 86 43q33 0 54 -20t21 -51q0 -29 -20 -56q-47 -68 -112.5 -104.5t-141.5 -36.5q-63 0 -119.5 22.5t-134.5 63.5q-63 33 -98 48.5t-68 15.5 q-70 0 -117 -54q-37 -45 -83 -45q-31 0 -52.5 20.5t-21.5 51.5zM150 752q0 31 18 55q45 70 110.5 106.5t141.5 36.5q61 0 115.5 -21.5t136.5 -62.5q68 -35 101.5 -49t68.5 -14q72 0 114 53q41 43 86 43q31 0 52.5 -20.5t21.5 -51.5q0 -29 -20 -55q-47 -68 -112.5 -104.5 t-139.5 -36.5q-64 0 -120 22.5t-134 63.5q-63 33 -98 48t-68 15q-70 0 -117 -53q-39 -45 -86 -45q-31 0 -51 20.5t-20 49.5z" />
<glyph unicode="&#x2260;" d="M104 377q0 39 28 66.5t69 27.5h264l113 229h-357q-37 0 -60.5 25t-23.5 61q0 41 28 68t68 27h433l92 186q14 27 36.5 41t49.5 14q23 0 39 -8q20 -8 33.5 -28.5t13.5 -43.5t-12 -45l-58 -116h191q37 0 60.5 -26t23.5 -62q0 -39 -28 -66t-69 -27h-268l-113 -229h363 q37 0 60.5 -25.5t23.5 -62.5q0 -39 -28.5 -65.5t-69.5 -26.5h-437l-92 -187q-14 -27 -35.5 -41t-48.5 -14q-23 0 -39 8q-23 10 -36 29.5t-13 42.5q0 25 12 45l58 117h-187q-37 0 -60.5 24.5t-23.5 61.5z" />
<glyph unicode="&#x2264;" d="M82 86q0 39 28.5 66.5t69.5 27.5h817q37 0 60.5 -25.5t23.5 -62.5q0 -39 -27.5 -65.5t-68.5 -26.5h-819q-35 0 -59.5 25.5t-24.5 60.5zM131 682q2 43 27.5 78t64.5 47l809 258q10 4 31 4q39 0 64.5 -25.5t25.5 -60.5q0 -29 -18.5 -51.5t-44.5 -32.5l-705 -217l655 -211 q29 -10 46.5 -33.5t17.5 -54.5q-2 -39 -25.5 -63.5t-62.5 -24.5q-16 0 -39 6l-758 252q-39 12 -63.5 48t-24.5 81z" />
<glyph unicode="&#x2265;" d="M82 86q0 39 28.5 66.5t69.5 27.5h817q37 0 60.5 -25.5t23.5 -62.5q0 -39 -27.5 -65.5t-68.5 -26.5h-819q-35 0 -59.5 25.5t-24.5 60.5zM109 383q0 29 18 51.5t45 30.5l705 217l-658 213q-27 10 -44 33.5t-17 54.5q0 39 25.5 62.5t66.5 23.5q10 0 35 -4l757 -254 q39 -12 63.5 -48t24.5 -79q-2 -43 -27.5 -79t-64.5 -48l-809 -256q-10 -4 -30 -4q-39 0 -64.5 25.5t-25.5 60.5z" />
<glyph unicode="&#x25fc;" horiz-adv-x="1024" d="M0 0v1024h1024v-1024h-1024z" />
</font>
</defs>
</svg>
