<?xml version="1.0" standalone="no"?>
<!DOCTYPE svg PUBLIC "-//W3C//DTD SVG 1.1//EN" "http://www.w3.org/Graphics/SVG/1.1/DTD/svg11.dtd" >
<svg xmlns="http://www.w3.org/2000/svg" xmlns:xlink="http://www.w3.org/1999/xlink" version="1.1">
<metadata></metadata>
<defs>
<font id="nunitobold" horiz-adv-x="1228" >
<font-face units-per-em="2048" ascent="1638" descent="-410" />
<missing-glyph horiz-adv-x="555" />
<glyph horiz-adv-x="0" />
<glyph unicode="&#xd;" horiz-adv-x="555" />
<glyph horiz-adv-x="0" />
<glyph horiz-adv-x="0" />
<glyph unicode=" "  horiz-adv-x="555" />
<glyph unicode="&#x09;" horiz-adv-x="555" />
<glyph unicode="&#xa0;" horiz-adv-x="555" />
<glyph unicode="!" horiz-adv-x="507" d="M98 1315q0 63 44 101t112 38t112 -38t44 -101l-2 -23l-76 -794q-4 -39 -25.5 -59.5t-52.5 -20.5t-52.5 20.5t-25.5 59.5l-76 796zM102 141q0 66 43 110t109 44t109 -44t43 -110t-43.5 -109.5t-108.5 -43.5q-66 0 -109 44t-43 109z" />
<glyph unicode="&#x22;" horiz-adv-x="923" d="M111 1321q0 63 37.5 98t99.5 35q63 0 100 -35t37 -98q0 -10 -4 -39l-47 -362q-12 -82 -84 -82q-74 0 -86 82l-49 362q-4 29 -4 39zM539 1321q0 63 37.5 98t99.5 35q63 0 100 -35t37 -98q0 -10 -4 -39l-47 -362q-12 -82 -84 -82q-74 0 -86 82l-49 362q-4 29 -4 39z" />
<glyph unicode="#" d="M66 436q0 35 24.5 57.5t61.5 22.5h120l82 428h-161q-37 0 -62 24.5t-25 61.5q0 35 25 57.5t62 22.5h194l55 285q6 29 28 47t54 18q39 0 63.5 -24.5t24.5 -63.5q0 -14 -2 -22l-47 -240h260l56 285q4 29 26.5 47t55.5 18q39 0 63.5 -24.5t24.5 -61.5q0 -14 -2 -22l-48 -242 h78q37 0 61.5 -24.5t24.5 -61.5q0 -35 -24.5 -57.5t-61.5 -22.5h-110l-82 -428h151q37 0 61.5 -24.5t24.5 -61.5q0 -35 -24.5 -57.5t-61.5 -22.5h-184l-57 -295q-6 -29 -28 -47t-54 -18q-39 0 -64.5 24.5t-25.5 61.5q0 14 2 22l49 252h-262l-58 -295q-4 -29 -26.5 -47 t-51.5 -18q-39 0 -63.5 24.5t-24.5 61.5q0 14 2 22l50 252h-88q-37 0 -61.5 24.5t-24.5 61.5zM446 516h261l84 428h-261z" />
<glyph unicode="$" d="M66 233q0 43 25.5 76t58.5 33q20 0 37.5 -7t45.5 -24q94 -61 185.5 -89.5t191.5 -28.5q137 0 212 53t75 153q0 59 -41 96t-102.5 58.5t-171.5 50.5q-154 39 -250 79t-166 122t-70 221q0 166 119 282.5t311 145.5v129q0 47 29 77t76 30t75.5 -30t28.5 -77v-127 q207 -27 357 -149q49 -37 49 -97q0 -43 -25.5 -75.5t-60.5 -32.5q-18 0 -36 6t-46 25q-84 59 -159 88.5t-177 29.5q-127 0 -203 -56t-76 -155q0 -68 43 -109.5t108.5 -64t178.5 -51.5q150 -37 244 -76t160.5 -117.5t66.5 -213.5q0 -164 -113.5 -277t-306.5 -141v-129 q0 -47 -28.5 -77t-75.5 -30t-76 30t-29 77v125q-117 10 -227 49t-190 102q-27 18 -37 41t-10 55z" />
<glyph unicode="%" horiz-adv-x="1935" d="M88 1024q0 215 96.5 327.5t268.5 112.5t269 -112.5t97 -327.5q0 -217 -97 -329.5t-269 -112.5t-268.5 112.5t-96.5 329.5zM305 1024q0 -147 36 -211.5t112 -64.5q77 0 113 64.5t36 211.5q0 143 -37 208.5t-112 65.5q-76 0 -112 -64.5t-36 -209.5zM489 57q0 35 21 70 l745 1288q18 33 45 49.5t54 16.5q37 0 64.5 -27t27.5 -68q0 -35 -21 -69l-745 -1288q-18 -33 -45 -49.5t-53 -16.5q-37 0 -65 26.5t-28 67.5zM1118 430q0 215 97.5 326.5t267.5 111.5q172 0 268 -112.5t96 -327.5q0 -217 -96 -329.5t-268 -112.5t-268.5 112.5t-96.5 331.5z M1333 428q0 -147 37 -211.5t113 -64.5t112.5 64.5t36.5 211.5q0 143 -36.5 208.5t-112.5 65.5t-113 -65.5t-37 -208.5z" />
<glyph unicode="&#x26;" horiz-adv-x="1394" d="M80 379q0 131 74.5 233.5t232.5 192.5q-78 80 -116 155.5t-38 157.5q0 156 110 248t286 92q164 0 261 -85t97 -228q0 -111 -64.5 -198t-201.5 -171l287 -280q57 123 73 286q6 51 39 79t74 28q45 0 75.5 -32t24.5 -85q-20 -238 -131 -426l189 -184q34 -33 34 -74 t-32.5 -72.5t-75.5 -31.5t-76 30l-170 164q-96 -94 -215 -144t-246 -50q-143 0 -254.5 49t-174 139t-62.5 207zM330 391q0 -96 68.5 -152.5t185.5 -56.5q84 0 161.5 35t143.5 100l-363 353q-104 -61 -150 -128t-46 -151zM465 1120q0 -51 27.5 -97t93.5 -114 q104 59 148 110.5t44 115.5q0 66 -40 106.5t-107 40.5q-74 0 -120 -44t-46 -118z" />
<glyph unicode="'" horiz-adv-x="495" d="M111 1321q0 63 37.5 98t99.5 35q63 0 100 -35t37 -98q0 -10 -4 -39l-47 -362q-12 -82 -84 -82q-74 0 -86 82l-49 362q-4 29 -4 39z" />
<glyph unicode="(" horiz-adv-x="720" d="M207 539q0 457 221 839q25 39 56.5 58.5t64.5 19.5q35 0 58.5 -21.5t23.5 -58.5q0 -29 -10 -51q-152 -373 -152 -786q0 -207 37 -398.5t115 -384.5q10 -23 10 -51q0 -37 -23.5 -58.5t-58.5 -21.5q-33 0 -65.5 18.5t-55.5 57.5q-221 387 -221 838z" />
<glyph unicode=")" horiz-adv-x="720" d="M90 -295q0 29 10 51q78 193 115 384.5t37 398.5q0 414 -152 786q-10 23 -10 51q0 37 23.5 58.5t58.5 21.5q33 0 64.5 -19.5t56.5 -58.5q221 -383 221 -839q0 -451 -221 -838q-23 -39 -55.5 -57.5t-65.5 -18.5q-35 0 -58.5 21.5t-23.5 58.5z" />
<glyph unicode="*" horiz-adv-x="925" d="M45 1079q0 37 22.5 63.5t63.5 24.5l201 -10l-111 166q-14 20 -14 45q0 35 29.5 59.5t66.5 24.5q47 0 70 -43l90 -178l90 178q23 45 72 45q35 0 64.5 -25.5t29.5 -60.5q0 -25 -14 -45l-111 -166l201 10q41 2 63.5 -23.5t22.5 -62.5t-22.5 -63.5t-63.5 -24.5l-201 11 l111 -166q14 -23 14 -45q0 -35 -30 -60.5t-66 -25.5q-47 0 -70 43l-90 178l-90 -178q-25 -45 -70 -45q-37 0 -66.5 25.5t-29.5 60.5q0 25 14 45l111 168l-201 -11q-41 -2 -63.5 23.5t-22.5 62.5z" />
<glyph unicode="+" d="M115 586q0 39 25.5 64.5t64.5 25.5h319v319q0 39 25.5 64.5t64.5 25.5t65 -25.5t26 -64.5v-319h319q39 0 64.5 -25.5t25.5 -64.5t-25.5 -64.5t-64.5 -25.5h-319v-318q0 -39 -26 -65.5t-65 -26.5t-64.5 26.5t-25.5 65.5v318h-319q-39 0 -64.5 25.5t-25.5 64.5z" />
<glyph unicode="," horiz-adv-x="507" d="M102 141q0 66 42 110t106 44q69 0 112.5 -51t43.5 -150q0 -195 -136 -336q-27 -27 -57 -26q-31 0 -53.5 20.5t-22.5 48.5q0 25 21 47q61 66 80 148q-59 6 -97.5 46t-38.5 99z" />
<glyph unicode="-" horiz-adv-x="888" d="M115 547q0 47 29.5 74.5t88.5 27.5h422q59 0 89 -27.5t30 -74.5t-29.5 -74t-89.5 -27h-422q-59 0 -88.5 27t-29.5 74z" />
<glyph unicode="." horiz-adv-x="507" d="M102 141q0 66 43 110t109 44t109 -44t43 -110t-43.5 -109.5t-108.5 -43.5q-66 0 -109 44t-43 109z" />
<glyph unicode="/" horiz-adv-x="641" d="M-23 -47q0 18 7 37l475 1489q12 39 38.5 57t59.5 18q41 0 73 -27.5t32 -70.5q0 -18 -7 -37l-475 -1489q-12 -39 -38.5 -57t-59.5 -18q-41 0 -73 27.5t-32 70.5z" />
<glyph unicode="0" d="M88 723q0 360 135 549.5t391 189.5t391.5 -189.5t135.5 -549.5t-135.5 -550.5t-391.5 -190.5t-391 189t-135 552zM348 723q0 -279 63.5 -407t202.5 -128q140 0 203.5 128t63.5 407q0 281 -63.5 406.5t-203.5 125.5q-139 0 -202.5 -127t-63.5 -405z" />
<glyph unicode="1" d="M197 1128q0 59 53 93l317 196q61 37 117 37q57 0 92 -35t35 -96v-1110h215q123 0 123 -104q0 -109 -123 -109h-692q-125 0 -125 109q0 104 125 104h213v934l-197 -121q-29 -16 -51 -16q-43 0 -72.5 36.5t-29.5 81.5z" />
<glyph unicode="2" horiz-adv-x="1230" d="M104 1210q0 31 11.5 53.5t36.5 43.5q90 72 210.5 113.5t241.5 41.5q211 0 337 -106.5t126 -286.5q0 -125 -53 -234.5t-180 -244.5l-355 -377h541q123 0 123 -104q0 -109 -123 -109h-778q-53 0 -84 31.5t-31 79.5q0 61 47 110l467 502q86 94 126 173t40 157 q0 96 -55.5 147t-157.5 51q-84 0 -163 -31.5t-159 -86.5q-20 -14 -40.5 -23.5t-41.5 -9.5q-35 0 -60.5 32.5t-25.5 77.5z" />
<glyph unicode="3" d="M82 236q0 45 25.5 76.5t60.5 31.5q20 0 36.5 -7t45.5 -24q86 -57 164 -87.5t170 -30.5q135 0 200.5 54t65.5 165q0 109 -68.5 161t-212.5 52h-116q-47 0 -73 31.5t-26 72.5q0 43 26 74t73 31h82q281 0 280 211q0 98 -59.5 151t-163.5 53q-150 0 -320 -118 q-29 -16 -45 -23.5t-37 -7.5q-35 0 -60.5 31.5t-25.5 76.5q0 31 11.5 52.5t36.5 44.5q86 72 205.5 113.5t244.5 41.5q213 0 339 -104.5t126 -278.5q-2 -119 -62.5 -208t-168.5 -130q129 -32 197.5 -123.5t68.5 -226.5q0 -186 -137.5 -296.5t-370.5 -110.5q-133 0 -256 41 t-209 114q-47 41 -47 97z" />
<glyph unicode="4" d="M59 393q0 49 33 94l633 910q20 29 51 44t64 15q53 0 92 -35t39 -98v-836h104q62 0 92.5 -26.5t30.5 -75.5q0 -102 -123 -102h-104v-162q0 -63 -36 -98t-93 -35t-93 34.5t-36 98.5v162h-537q-55 0 -86 31.5t-31 78.5zM332 487h381v551z" />
<glyph unicode="5" d="M125 236q0 45 25.5 76.5t60.5 31.5q20 0 38.5 -7t43.5 -24q82 -57 159.5 -87.5t165.5 -30.5q135 0 207 67.5t72 192.5q0 121 -72.5 191.5t-199.5 70.5q-80 0 -142.5 -22.5t-128.5 -76.5q-39 -27 -80 -26q-41 0 -69.5 24.5t-28.5 65.5v639q0 57 33 90t92 33h682 q123 0 123 -103q0 -102 -123 -102h-549v-389q104 74 256 74q135 0 238.5 -58.5t161 -163t57.5 -239.5q0 -141 -64.5 -250t-182.5 -169t-271 -60q-127 0 -249 42t-208 113q-47 41 -47 97z" />
<glyph unicode="6" d="M90 696q0 236 69.5 409t199.5 265t307 92q117 0 234.5 -42t199.5 -113q27 -23 38 -44.5t11 -52.5q0 -45 -25.5 -76.5t-60.5 -31.5q-20 0 -38.5 7t-45.5 24q-170 119 -303 118q-150 0 -236 -138t-90 -388q47 92 141.5 146.5t210.5 54.5q129 0 229.5 -58.5t157 -164 t56.5 -240.5q0 -139 -62.5 -249t-172 -171t-248.5 -61q-274 0 -423 185t-149 529zM391 455q0 -119 70.5 -192t185.5 -73q113 0 180.5 73t67.5 192t-67.5 190.5t-180.5 71.5q-115 0 -185.5 -73t-70.5 -189z" />
<glyph unicode="7" d="M88 1335q0 109 123 109h819q53 0 82 -30t29 -77t-29 -98l-653 -1186q-41 -70 -113 -69q-49 0 -87 33.5t-38 82.5q0 35 21 70l587 1061h-618q-123 0 -123 104z" />
<glyph unicode="8" d="M74 389q0 133 69.5 226.5t196.5 125.5q-109 41 -170 128t-61 204q0 180 135 284.5t370 104.5q236 0 371 -104.5t135 -284.5q0 -119 -61.5 -207t-167.5 -125q127 -34 195.5 -126.5t68.5 -225.5q0 -190 -143.5 -297.5t-397.5 -107.5t-397 107.5t-143 297.5zM322 410 q0 -219 292 -220q293 1 293 220t-293 219t-292 -219zM358 1047q0 -104 64.5 -158.5t191.5 -54.5t191.5 54t64.5 159q0 209 -256 208q-256 1 -256 -208z" />
<glyph unicode="9" d="M80 233q0 45 25.5 77t60.5 32q20 0 38.5 -7t45.5 -24q170 -119 303 -118q150 0 235.5 138t90.5 388q-47 -92 -141.5 -146.5t-211.5 -54.5q-129 0 -229 58.5t-156.5 164t-56.5 240.5q0 139 62.5 248.5t172 171t248.5 61.5q275 0 423.5 -185t148.5 -529q0 -236 -70 -409 t-200 -265t-306 -92q-117 0 -234.5 42t-199.5 113q-27 23 -38 44.5t-11 51.5zM334 989q0 -119 67.5 -190.5t180.5 -71.5q114 0 185 72.5t71 189.5q0 119 -71 191.5t-185 72.5q-113 0 -180.5 -72.5t-67.5 -191.5z" />
<glyph unicode=":" horiz-adv-x="507" d="M102 141q0 66 43 110t109 44t109 -44t43 -110t-43.5 -109.5t-108.5 -43.5q-66 0 -109 44t-43 109zM102 870q0 66 43 109t109 43t109 -43t43 -109t-43.5 -109.5t-108.5 -43.5q-66 0 -109 44t-43 109z" />
<glyph unicode=";" horiz-adv-x="507" d="M102 141q0 66 42 110t106 44q69 0 112.5 -51t43.5 -150q0 -195 -136 -336q-27 -27 -57 -26q-31 0 -53.5 20.5t-22.5 48.5q0 25 21 47q61 66 80 148q-59 6 -97.5 46t-38.5 99zM102 870q0 66 43 109t109 43t109 -43t43 -109t-43.5 -109.5t-108.5 -43.5q-66 0 -109 44 t-43 109z" />
<glyph unicode="&#x3c;" d="M115 586q0 45 24.5 82t67.5 53l760 326q27 10 51 10q41 0 68.5 -25.5t27.5 -66.5q0 -53 -51 -76l-723 -303l723 -303q51 -23 51 -76q0 -41 -27.5 -66.5t-68.5 -25.5q-29 0 -51 10l-760 324q-43 18 -67.5 54t-24.5 83z" />
<glyph unicode="=" d="M127 381q0 39 25.5 64.5t64.5 25.5h819q39 0 64.5 -26.5t25.5 -65.5q0 -37 -25.5 -62.5t-64.5 -25.5h-819q-39 0 -64.5 25.5t-25.5 64.5zM127 791q0 39 25.5 64.5t64.5 25.5h819q39 0 64.5 -26.5t25.5 -65.5q0 -37 -25.5 -62.5t-64.5 -25.5h-819q-39 0 -64.5 25.5 t-25.5 64.5z" />
<glyph unicode="&#x3e;" d="M115 207q0 53 51 76l723 303l-723 303q-51 23 -51 76q0 41 27.5 66.5t68.5 25.5q25 0 51 -10l760 -326q43 -16 67.5 -53t24.5 -82q0 -47 -24.5 -83t-67.5 -54l-760 -324q-23 -10 -51 -10q-41 0 -68.5 25.5t-27.5 66.5z" />
<glyph unicode="?" horiz-adv-x="940" d="M-6 1206q0 59 49 97q86 74 202.5 115.5t235.5 41.5q125 0 222.5 -43t151.5 -118.5t54 -174.5q0 -106 -51 -185t-149 -177q-84 -86 -126 -144.5t-53 -132.5q-6 -33 -27.5 -50t-53.5 -17q-35 0 -56.5 24.5t-21.5 67.5q0 113 41 190.5t118 169.5q61 74 90 123t29 111 q0 68 -50 107.5t-136 39.5q-74 0 -141.5 -31.5t-157.5 -91.5q-51 -29 -84 -28q-35 0 -60.5 31.5t-25.5 74.5zM301 141q0 66 43 110t109 44t108.5 -44t42.5 -110t-44 -109.5t-107 -43.5q-66 0 -109 44t-43 109z" />
<glyph unicode="@" horiz-adv-x="1912" d="M90 549q0 279 116 483.5t317.5 314t455.5 109.5q266 0 457.5 -102.5t290 -274.5t98.5 -379q0 -186 -57.5 -315t-152.5 -192.5t-212 -63.5q-109 0 -174.5 47t-77.5 129h-4q-115 -176 -301 -176q-145 0 -230.5 99.5t-85.5 267.5q0 143 54.5 264t154 191.5t224.5 70.5 q88 0 154.5 -39t90.5 -106h4l11 51q4 35 28.5 53t65.5 18t64.5 -22.5t23.5 -61.5q0 -18 -2 -26l-70 -395q-8 -43 -8 -88q0 -63 26.5 -94t86.5 -31q47 0 94 42t80 136t33 241q0 168 -75 302.5t-225.5 212t-365.5 77.5q-201 0 -359.5 -88t-249.5 -256t-91 -399 q0 -213 83.5 -372t241.5 -246t373 -87q141 0 247.5 34t196.5 102q29 23 62 22q35 0 57.5 -24.5t22.5 -59.5q0 -45 -39 -76q-84 -72 -228.5 -116.5t-318.5 -44.5q-268 0 -469 109.5t-309.5 306t-108.5 452.5zM721 498q0 -100 46 -158.5t120 -58.5q88 0 152.5 55t98 143 t33.5 185q0 100 -47 152t-131 52t-146.5 -54t-94 -139t-31.5 -177z" />
<glyph unicode="A" horiz-adv-x="1519" d="M45 104q0 27 12 54l566 1214q18 41 56 62.5t81 21.5t81 -21.5t56 -62.5l567 -1214q13 -27 13 -54q0 -47 -38 -79.5t-87 -32.5q-33 0 -61.5 17.5t-45.5 53.5l-123 275h-721l-122 -275q-16 -37 -45 -54t-64 -17q-47 0 -86 32.5t-39 79.5zM492 543h540l-270 608z" />
<glyph unicode="B" horiz-adv-x="1398" d="M156 125v1194q0 59 33.5 92t93.5 33h508q225 0 353 -99.5t128 -277.5q0 -115 -60.5 -199t-167.5 -123q125 -34 194 -126.5t69 -225.5q0 -184 -132.5 -288.5t-363.5 -104.5h-528q-59 0 -93 33t-34 92zM414 205h368q144 0 209.5 51t65.5 160t-66.5 162t-208.5 53h-368v-426 zM414 836h334q272 0 272 202q0 102 -67.5 151.5t-204.5 49.5h-334v-403z" />
<glyph unicode="C" horiz-adv-x="1388" d="M111 723q0 225 84 392t240.5 257t365.5 90q135 0 254 -40t211 -115q27 -20 37 -43t10 -56q0 -45 -24.5 -75.5t-59.5 -30.5q-41 0 -84 28q-88 66 -164 91.5t-168 25.5q-213 0 -322.5 -133t-109.5 -391q0 -260 109.5 -393t322.5 -133q88 0 163 26.5t169 89.5 q20 12 40.5 20.5t43.5 8.5q35 0 59.5 -30.5t24.5 -75.5q0 -31 -10.5 -54.5t-36.5 -44.5q-92 -76 -211 -115.5t-254 -39.5q-209 0 -365.5 90t-240.5 258t-84 393z" />
<glyph unicode="D" horiz-adv-x="1544" d="M156 125v1194q0 59 33.5 92t93.5 33h405q354 0 550 -189.5t196 -531.5q0 -344 -196 -533.5t-550 -189.5h-405q-60 0 -93.5 33t-33.5 92zM420 215h252q497 0 497 506q0 508 -497 508h-252v-1014z" />
<glyph unicode="E" horiz-adv-x="1206" d="M156 125v1194q0 59 33.5 92t93.5 33h739q59 0 92 -26.5t33 -76.5q0 -51 -33 -78.5t-92 -27.5h-608v-397h567q59 0 92 -27t33 -78q0 -49 -33 -75.5t-92 -26.5h-567v-422h608q59 0 92 -27.5t33 -79.5q0 -49 -33 -75.5t-92 -26.5h-739q-60 0 -93.5 33t-33.5 92z" />
<glyph unicode="F" horiz-adv-x="1159" d="M156 121v1198q0 59 33.5 92t93.5 33h718q125 0 125 -107q0 -104 -125 -104h-585v-393h545q124 0 124 -105q0 -106 -124 -106h-545v-508q0 -59 -35 -96t-94 -37q-60 0 -95.5 36.5t-35.5 96.5z" />
<glyph unicode="G" horiz-adv-x="1501" d="M111 723q0 227 87 394t246.5 256t376.5 89q289 0 473 -155q25 -23 36 -45.5t11 -53.5q0 -45 -24.5 -75.5t-59.5 -30.5q-23 0 -41 7t-42 24q-90 63 -168 88.5t-177 25.5q-223 0 -336.5 -132t-113.5 -392q0 -532 467 -533q139 0 278 39v363h-231q-49 0 -77 24.5t-28 69.5 t28 69.5t77 24.5h362q48 0 76.5 -27.5t28.5 -72.5v-440q0 -94 -24.5 -133t-100.5 -64q-82 -29 -190.5 -45t-208.5 -16q-223 0 -387 88t-251 255t-87 398z" />
<glyph unicode="H" horiz-adv-x="1568" d="M156 121v1202q0 59 34.5 95t94.5 36q59 0 95 -36t36 -95v-483h739v483q0 59 35 95t94 36t94 -36t35 -95v-1202q0 -59 -36 -96t-93 -37q-59 0 -94 36.5t-35 96.5v506h-739v-506q0 -59 -36 -96t-95 -37q-57 0 -93 36.5t-36 96.5z" />
<glyph unicode="I" horiz-adv-x="575" d="M156 121v1202q0 59 35.5 95t95.5 36q61 0 97 -36t36 -95v-1202q0 -59 -36 -96t-97 -37q-60 0 -95.5 36.5t-35.5 96.5z" />
<glyph unicode="J" horiz-adv-x="733" d="M-29 96q0 49 26 75t81 30l65 4q84 4 127 53t43 150v915q0 59 36 95t95 36q61 0 97.5 -36t36.5 -95v-915q0 -387 -383 -416l-66 -4h-18q-140 0 -140 108z" />
<glyph unicode="K" horiz-adv-x="1351" d="M156 121v1202q0 59 35.5 95t95.5 36q61 0 97 -36t36 -95v-526l659 618q37 37 84 37t83 -36t36 -83t-41 -86l-551 -504l586 -544q41 -39 41 -88q0 -47 -36 -83t-85 -36q-51 0 -94 43l-682 639v-553q0 -59 -36 -96t-97 -37q-59 0 -95 36.5t-36 96.5z" />
<glyph unicode="L" horiz-adv-x="1136" d="M156 123v1200q0 59 35.5 95t95.5 36q61 0 97 -36t36 -95v-1106h575q123 0 123 -108q0 -109 -123 -109h-714q-60 0 -92.5 33t-32.5 90z" />
<glyph unicode="M" horiz-adv-x="1722" d="M160 111v1212q0 59 33.5 95t91.5 36q80 0 125 -88l454 -866l453 866q45 88 121 88q57 0 92 -36t35 -95v-1212q0 -57 -33 -90t-86 -33t-84 32.5t-31 90.5v843l-348 -659q-25 -45 -53.5 -66.5t-67.5 -21.5t-67.5 20.5t-53.5 67.5l-350 649v-833q0 -55 -31.5 -89t-85.5 -34 q-53 0 -83.5 32.5t-30.5 90.5z" />
<glyph unicode="N" horiz-adv-x="1529" d="M156 121v1202q0 59 34.5 95t92.5 36q63 0 98 -47l745 -969v885q0 59 34 95t89 36q58 0 91.5 -36t33.5 -95v-1202q0 -59 -34.5 -96t-90.5 -37q-66 0 -100 47l-748 973v-887q0 -59 -32.5 -96t-89.5 -37t-90 36.5t-33 96.5z" />
<glyph unicode="O" horiz-adv-x="1595" d="M111 723q0 225 82.5 392t238.5 257t367 90t365.5 -90t237.5 -257t83 -392t-84 -393t-238.5 -258t-363.5 -90q-211 0 -365.5 90t-238.5 258t-84 393zM375 723q0 -256 111.5 -393t312.5 -137q198 0 310 137t112 393t-112 392t-310 136q-201 0 -312.5 -136t-111.5 -392z" />
<glyph unicode="P" horiz-adv-x="1351" d="M156 121v1198q0 59 33.5 92t93.5 33h503q231 0 360.5 -116t129.5 -324q0 -209 -129 -326t-361 -117h-366v-440q0 -61 -36 -97t-97 -36q-60 0 -95.5 35.5t-35.5 97.5zM420 764h334q272 0 272 237q0 238 -272 238h-334v-475z" />
<glyph unicode="Q" horiz-adv-x="1595" d="M111 723q0 225 84 392t238.5 257t365.5 90q209 0 363.5 -90t238.5 -257t84 -392q0 -244 -97.5 -419t-277.5 -255q94 -33 156 -135l71 -115q23 -37 23 -71q0 -47 -37 -77t-86 -30q-37 0 -69.5 17.5t-53.5 52.5l-121 198q-29 47 -75 70t-119 23q-211 0 -365.5 90 t-238.5 258t-84 393zM375 723q0 -256 111.5 -393t312.5 -137q198 0 310 137t112 393t-112 392t-310 136q-201 0 -312.5 -136t-111.5 -392z" />
<glyph unicode="R" horiz-adv-x="1423" d="M156 121v1198q0 59 33.5 92t93.5 33h512q246 0 373.5 -109.5t127.5 -316.5q0 -168 -95 -275.5t-269 -138.5q59 -14 104 -51t88 -102l187 -285q24 -37 24 -72q0 -47 -37.5 -77.5t-89.5 -30.5q-33 0 -62.5 15t-49.5 46l-273 414q-41 66 -87 92.5t-120 26.5h-200v-459 q0 -61 -35 -97t-94 -36t-95 35.5t-36 97.5zM414 782h344q149 0 219 56.5t70 173.5q0 119 -70 173t-219 54h-344v-457z" />
<glyph unicode="S" horiz-adv-x="1306" d="M82 236q0 43 25.5 74.5t60.5 31.5q37 0 84 -29q88 -63 184 -91.5t213 -28.5q150 0 229.5 52t79.5 152q0 78 -74.5 120t-248.5 81q-180 39 -293 90t-170 131t-57 203q0 127 71.5 227.5t199.5 156.5t288 56q293 0 477 -155q27 -23 38 -44.5t11 -54.5q0 -43 -25.5 -74.5 t-60.5 -31.5q-20 0 -37.5 6t-46.5 22q-84 61 -163 91t-193 30q-139 0 -220 -56t-81 -157q0 -84 71.5 -129t243.5 -84q182 -41 296 -91t174.5 -128t60.5 -194q0 -127 -71 -224.5t-199 -151.5t-294 -54q-157 0 -297.5 42t-228.5 113q-47 35 -47 99z" />
<glyph unicode="T" horiz-adv-x="1255" d="M0 1335q0 109 123 109h1010q122 0 122 -107q0 -110 -120 -110h-2h-373v-1106q0 -59 -36 -95t-95 -36q-62 0 -97.5 35.5t-35.5 95.5v1106h-373q-123 0 -123 108z" />
<glyph unicode="U" horiz-adv-x="1501" d="M147 584v739q0 59 35 95t94 36t94.5 -36t35.5 -95v-754q0 -186 88 -281t258 -95q168 0 256 96t88 280v754q0 59 34.5 95t94.5 36q59 0 94 -36t35 -95v-739q0 -293 -153.5 -447.5t-448.5 -154.5q-297 0 -451 153.5t-154 448.5z" />
<glyph unicode="V" horiz-adv-x="1462" d="M16 1339q0 51 42 84t96 33q35 0 64.5 -17.5t45.5 -52.5l471 -1046l471 1046q33 70 109 70q51 0 92 -32.5t41 -82.5q0 -23 -12 -51l-568 -1220q-18 -39 -56 -60.5t-81 -21.5t-81 21.5t-56 60.5l-565 1220q-12 29 -13 49z" />
<glyph unicode="W" horiz-adv-x="2273" d="M70 1343q0 51 37.5 82t89.5 31q41 0 73.5 -20.5t46.5 -61.5l349 -1001l358 995q14 41 47 64.5t72 23.5t72.5 -23.5t48.5 -66.5l348 -1006l354 1014q14 41 46 61.5t71 20.5q49 0 85 -30.5t36 -82.5q0 -18 -11 -53l-440 -1218q-16 -41 -54 -63.5t-83 -22.5t-84 22.5 t-53 63.5l-340 964l-346 -964q-16 -41 -54.5 -63.5t-83.5 -22.5t-82.5 22.5t-52.5 63.5l-440 1218q-10 31 -10 53z" />
<glyph unicode="X" horiz-adv-x="1359" d="M49 111q0 41 31 77l446 545l-428 522q-30 32 -30 75q0 52 36.5 88t85.5 36q51 0 91 -45l399 -494l399 494q37 45 88 45q49 0 87 -36t38 -85q0 -45 -30 -78l-428 -522l444 -545q33 -38 33 -77q0 -49 -38 -86t-87 -37q-51 0 -90 45l-416 516l-418 -516q-37 -43 -88 -43 q-49 0 -87 35.5t-38 85.5z" />
<glyph unicode="Y" horiz-adv-x="1275" d="M10 1333q0 49 37 85t84 36q51 0 88 -45l420 -520l418 520q37 45 88 45q47 0 84 -36t37 -85q0 -41 -31 -78l-465 -567v-567q0 -63 -37 -98t-94 -35q-59 0 -96 34.5t-37 98.5v567l-465 567q-31 37 -31 78z" />
<glyph unicode="Z" horiz-adv-x="1232" d="M74 113q0 49 32 94l734 1026h-641q-123 0 -123 104q0 106 123 107h845q53 0 85 -32t32 -79t-35 -94l-733 -1028h670q123 -1 123 -105q0 -106 -123 -106h-873q-53 0 -84.5 31.5t-31.5 81.5z" />
<glyph unicode="[" horiz-adv-x="718" d="M217 -121v1317q0 117 64.5 182.5t183.5 65.5h153q43 0 72 -24.5t29 -71.5t-28.5 -72t-72.5 -25h-65q-43 0 -64.5 -21.5t-21.5 -68.5v-1247q0 -47 21.5 -68.5t64.5 -21.5h65q43 0 72 -24.5t29 -71.5t-28.5 -72t-72.5 -25h-153q-119 0 -183.5 65.5t-64.5 182.5z" />
<glyph unicode="\" horiz-adv-x="638" d="M-23 1456q0 43 32 70.5t73 27.5q33 0 59.5 -18t38.5 -57l475 -1489q6 -18 7 -37q0 -43 -32 -70.5t-73 -27.5q-33 0 -59.5 18t-38.5 57l-475 1489q-6 18 -7 37z" />
<glyph unicode="]" horiz-adv-x="718" d="M0 -272q0 47 28.5 71.5t71.5 24.5h66q43 0 64.5 21.5t21.5 68.5v1247q0 47 -21.5 68.5t-64.5 21.5h-66q-43 0 -71.5 24.5t-28.5 72.5q0 47 28.5 71.5t71.5 24.5h154q119 0 183.5 -65.5t64.5 -182.5v-1317q0 -117 -64.5 -182.5t-183.5 -65.5h-154q-43 0 -71.5 25t-28.5 72 z" />
<glyph unicode="^" d="M141 383q0 18 11 45l329 772q16 41 52 65.5t81 24.5t81 -24.5t53 -65.5l329 -772q10 -27 10 -45q0 -41 -29.5 -66.5t-66.5 -25.5q-55 0 -71 49l-306 723l-305 -723q-16 -49 -71 -49q-37 0 -67 26.5t-30 65.5z" />
<glyph unicode="_" horiz-adv-x="1024" d="M0 -76q0 33 27.5 54.5t70.5 21.5h828q43 0 70.5 -21.5t27.5 -54.5q0 -35 -26.5 -56.5t-71.5 -21.5h-828q-45 0 -71.5 21.5t-26.5 56.5z" />
<glyph unicode="`" horiz-adv-x="614" d="M-64 1452q0 43 33 75t78 32q59 0 106 -62l199 -264q16 -18 16 -45t-19.5 -46.5t-45.5 -19.5q-25 0 -47 17l-265 215q-55 41 -55 98z" />
<glyph unicode="a" horiz-adv-x="1105" d="M94 297q0 111 56.5 174.5t183.5 92t350 28.5h51v47q0 100 -43 146t-139 46q-59 0 -120.5 -17t-145.5 -50q-53 -27 -78 -27q-37 0 -60.5 27t-23.5 70q0 35 17.5 60.5t58.5 47.5q72 39 171 61.5t195 22.5q209 0 310.5 -103.5t101.5 -314.5v-499q0 -55 -33 -87t-90 -32 q-53 0 -87 32.5t-34 86.5v45q-35 -80 -109.5 -125t-172.5 -45q-100 0 -182.5 41t-129.5 112.5t-47 159.5zM344 317q0 -66 46 -107.5t114 -41.5q102 0 166.5 68.5t64.5 177.5v43h-37q-137 0 -212.5 -12.5t-108.5 -43t-33 -84.5z" />
<glyph unicode="b" horiz-adv-x="1230" d="M133 111v1224q0 53 36 86t93 33t92 -30.5t35 -84.5v-483q45 82 129 126t191 44q131 0 231 -63.5t156.5 -180t56.5 -272.5t-56.5 -275.5t-157.5 -185t-230 -65.5q-109 0 -194 47t-130 131v-51q0 -55 -35 -88t-92 -33t-91 32.5t-34 88.5zM385 506q0 -156 66.5 -240 t189.5 -84q121 0 188.5 86t67.5 242q0 154 -66.5 235.5t-189.5 81.5t-189.5 -82.5t-66.5 -238.5z" />
<glyph unicode="c" horiz-adv-x="999" d="M78 500q0 156 64.5 275.5t181 185t268.5 65.5q80 0 161 -22.5t142 -61.5q66 -43 66 -108q0 -45 -21.5 -73t-56.5 -28q-23 0 -47.5 10.5t-49.5 24.5q-45 27 -86 42t-94 15q-127 0 -195.5 -83t-68.5 -238q0 -154 68.5 -237t195.5 -83q51 0 91 15.5t89 42.5q31 18 53.5 27.5 t45.5 9.5q33 0 55.5 -29t22.5 -72q0 -35 -15.5 -60.5t-50.5 -45.5q-63 -41 -147 -64.5t-172 -23.5q-150 0 -263.5 63.5t-175 180t-61.5 272.5z" />
<glyph unicode="d" horiz-adv-x="1230" d="M78 510q0 156 56 272.5t156.5 180t231.5 63.5q109 0 193 -45t129 -127v485q0 51 33.5 83t91.5 32q57 0 94 -32.5t37 -86.5v-1224q0 -55 -35 -88t-92 -33t-92 32.5t-35 88.5v51q-45 -84 -130 -131t-194 -47q-129 0 -230.5 65.5t-157.5 185t-56 275.5zM334 510 q0 -156 67.5 -242t188.5 -86q123 0 189.5 84t66.5 240t-66.5 238.5t-187.5 82.5q-123 0 -190.5 -81.5t-67.5 -235.5z" />
<glyph unicode="e" horiz-adv-x="1087" d="M78 504q0 154 61.5 272.5t173 184t252.5 65.5q135 0 235.5 -59.5t156 -168t55.5 -255.5q0 -88 -78 -88h-604q12 -141 79.5 -208t196.5 -67q66 0 116 16.5t114 45.5q59 32 88 32h2q35 0 56.5 -26.5t21.5 -71.5q0 -63 -76 -106q-70 -39 -158 -62.5t-168 -23.5 q-242 0 -383 139t-141 381zM330 592h463q-4 125 -61.5 189.5t-160.5 64.5q-104 0 -166.5 -65.5t-74.5 -188.5z" />
<glyph unicode="f" horiz-adv-x="733" d="M100 1001h103v15q0 193 101.5 302t285.5 124l53 4q17 1 31 1q58 0 85 -19q34 -23 34 -72q0 -88 -101 -99l-53 -4q-94 -6 -137 -57t-43 -147v-48h174q115 0 115 -96t-115 -96h-174v-698q0 -59 -36 -90t-91 -31t-92 30.5t-37 90.5v698h-103q-114 0 -114 94q0 98 114 98z " />
<glyph unicode="g" horiz-adv-x="1239" d="M78 526q0 147 56 261t158.5 176.5t233.5 62.5q111 0 197 -46t131 -130v53q0 53 35 86t92 33t92 -33t35 -88v-809q0 -236 -131 -356.5t-387 -120.5q-223 0 -373 84q-76 45 -76 108q0 45 21.5 72t56.5 27q18 0 45 -9.5t55 -21.5q74 -31 132.5 -47t134.5 -16q268 0 268 262 v131q-45 -84 -131 -130t-197 -46q-131 0 -232 62.5t-158.5 175t-57.5 259.5zM334 526q0 -139 69.5 -219t190.5 -80q123 0 191.5 80t68.5 219q0 141 -68.5 221t-191.5 80q-121 0 -190.5 -79.5t-69.5 -221.5z" />
<glyph unicode="h" horiz-adv-x="1198" d="M133 111v1224q0 53 36 86t93 33t92 -30.5t35 -84.5v-477q51 80 136 122t194 42q352 0 352 -412v-503q0 -57 -33.5 -90t-93.5 -33q-59 0 -94 32.5t-35 90.5v503q0 109 -44 159t-138 50q-111 0 -177.5 -69.5t-66.5 -186.5v-456q0 -57 -35 -90t-94 -33t-93 32.5t-34 90.5z " />
<glyph unicode="i" horiz-adv-x="520" d="M108 1341q0 61 41 98.5t111 37.5q68 0 109.5 -37t41.5 -99q0 -61 -41 -99t-110 -38q-70 0 -111 38t-41 99zM133 111v790q0 59 36 90t91 31t92 -30.5t37 -90.5v-790q0 -59 -37 -91t-92 -32t-91 31.5t-36 91.5z" />
<glyph unicode="j" horiz-adv-x="520" d="M-164 -276q0 84 103 92l55 4q70 4 104.5 43t34.5 119v919q0 59 36 90t91 31t92 -30.5t37 -90.5v-901q0 -344 -344 -369l-55 -4q-10 -1 -20 -1q-60 0 -94 22q-40 24 -40 76zM106 1341q0 61 41 98.5t111 37.5q68 0 109.5 -37t41.5 -99q0 -61 -41 -99t-110 -38 q-70 0 -111 38t-41 99z" />
<glyph unicode="k" horiz-adv-x="1097" d="M133 111v1222q0 59 36 90t91 31t92 -30.5t37 -90.5v-770l438 420q37 37 84 37t82 -35t35 -82t-39 -86l-321 -299l356 -319q41 -39 41 -88q0 -47 -34 -84t-79 -37t-84 37l-479 434v-350q0 -59 -37 -90t-92 -31t-91 30.5t-36 90.5z" />
<glyph unicode="l" horiz-adv-x="520" d="M133 111v1222q0 59 36 90t91 31t92 -30.5t37 -90.5v-1222q0 -59 -37 -91t-92 -32t-91 31.5t-36 91.5z" />
<glyph unicode="m" horiz-adv-x="1787" d="M133 111v792q0 57 37 88t92 31q53 0 87 -29.5t34 -85.5v-49q47 82 126 125t181 43q225 0 301 -188q45 86 133 137t199 51q164 0 251 -97.5t87 -314.5v-503q0 -59 -36 -91t-93 -32q-55 0 -91 31.5t-36 91.5v503q0 113 -40 161t-122 48q-100 0 -159.5 -68.5t-59.5 -187.5 v-456q0 -59 -36 -91t-91 -32t-92 31.5t-37 91.5v503q0 113 -40 161t-122 48q-100 0 -158.5 -68.5t-58.5 -187.5v-456q0 -59 -37 -91t-92 -32t-91 31.5t-36 91.5z" />
<glyph unicode="n" horiz-adv-x="1198" d="M133 111v792q0 53 35 86t94 33q53 0 87 -32t34 -83v-55q51 84 137 129t195 45q180 0 268 -102.5t88 -309.5v-503q0 -57 -33.5 -90t-93.5 -33q-59 0 -94 32.5t-35 90.5v489q0 117 -44 170t-138 53q-111 0 -177.5 -69.5t-66.5 -186.5v-456q0 -57 -35 -90t-94 -33t-93 32.5 t-34 90.5z" />
<glyph unicode="o" horiz-adv-x="1177" d="M78 506q0 158 63.5 275.5t179 181t269.5 63.5t269.5 -63.5t178 -181t62.5 -275.5t-62.5 -276.5t-178.5 -182t-269 -63.5q-154 0 -269.5 63.5t-179 182t-63.5 276.5zM334 506q0 -160 65.5 -242t188.5 -82q125 0 190.5 82t65.5 242q0 158 -65.5 240.5t-188.5 82.5 t-189.5 -82.5t-66.5 -240.5z" />
<glyph unicode="p" horiz-adv-x="1230" d="M133 -260v1161q0 55 34 88t91 33t92 -33t35 -88v-51q45 84 130 130t194 46q129 0 230 -65.5t157.5 -185.5t56.5 -275q0 -156 -56.5 -272.5t-156.5 -180t-231 -63.5q-106 0 -190.5 45t-129.5 125v-418q0 -53 -35 -84t-92 -31t-93 33t-36 86zM385 504q0 -154 66.5 -238 t189.5 -84q121 0 188.5 83t67.5 235q0 156 -67.5 241.5t-188.5 85.5q-123 0 -189.5 -84t-66.5 -239z" />
<glyph unicode="q" horiz-adv-x="1230" d="M78 500q0 156 56 275.5t157.5 185t230.5 65.5q109 0 194 -46t130 -130v51q0 55 34.5 88t92.5 33q57 0 92 -33t35 -88v-1161q0 -53 -37 -86t-94 -33t-91 32t-34 83v422q-45 -82 -130 -128t-192 -46q-131 0 -231.5 63.5t-156.5 180t-56 272.5zM334 500q0 -152 67.5 -235 t190.5 -83q121 0 187.5 84t66.5 238q0 156 -66.5 239.5t-189.5 83.5q-121 0 -188.5 -86t-67.5 -241z" />
<glyph unicode="r" horiz-adv-x="784" d="M133 111v792q0 57 36 88t89 31t86 -29.5t33 -85.5v-82q39 90 115.5 139.5t171.5 55.5l28 2q7 1 14 1q44 1 70 -23q31 -26 31 -80q0 -55 -26.5 -82t-96.5 -35l-61 -6q-121 -12 -177.5 -82t-56.5 -174v-430q0 -59 -37 -91t-92 -32t-91 31.5t-36 91.5z" />
<glyph unicode="s" horiz-adv-x="993" d="M92.5 248.5q22.5 25.5 54.5 25.5q35 0 97 -32q66 -31 120 -47.5t138 -16.5q86 0 134 29t48 80q0 35 -19.5 55t-69.5 37.5t-153 40.5q-182 37 -261 104.5t-79 186.5q0 90 53.5 162.5t146.5 112.5t212 40q86 0 166 -21.5t143 -62.5q66 -41 66 -108q0 -41 -22.5 -69 t-55.5 -28q-23 0 -44.5 9.5t-53.5 27.5q-59 31 -102.5 46.5t-106.5 15.5q-76 0 -120 -31t-44 -84q0 -51 45 -78t174 -53q137 -29 215 -66t112 -92t34 -141q0 -139 -116 -223t-308 -84q-224 0 -361 88q-65 38 -65 108q0 43 22.5 68.5z" />
<glyph unicode="t" horiz-adv-x="755" d="M-14 905q0 47 29.5 71.5t84.5 24.5h103v189q0 55 34.5 88t94.5 33q57 0 92 -33t35 -88v-189h174q55 0 85 -24.5t30 -71.5t-30 -71.5t-85 -24.5h-174v-465q0 -152 139 -162l55 -4q103 -6 103 -92q0 -48 -40 -74q-35 -22 -95 -23q-9 0 -19 1l-55 4q-344 25 -344 368v447 h-103q-55 0 -84.5 24.5t-29.5 71.5z" />
<glyph unicode="u" horiz-adv-x="1185" d="M127 397v504q0 55 35 88t92 33q59 0 94 -33t35 -88v-506q0 -106 43 -157.5t135 -51.5q106 0 171 71t65 187v457q0 55 34.5 88t92.5 33q59 0 94 -33t35 -88v-795q0 -53 -36 -85.5t-93 -32.5q-55 0 -88 30.5t-33 83.5v52q-47 -82 -127 -126t-180 -44q-369 0 -369 413z" />
<glyph unicode="v" horiz-adv-x="1077" d="M20 909q0 47 40 80t92 33q74 0 108 -72l287 -633l284 631q17 37 44.5 55.5t60.5 18.5q47 0 85 -32t38 -79q0 -25 -12 -49l-379 -792q-18 -39 -52 -59.5t-75 -20.5q-39 0 -75 20.5t-54 59.5l-381 792q-10 20 -11 47z" />
<glyph unicode="w" horiz-adv-x="1753" d="M41 907q0 47 41 81t90 34q35 0 63.5 -18.5t43.5 -55.5l241 -624l248 618q16 39 47 58.5t68 19.5t67.5 -19.5t46.5 -58.5l250 -620l240 624q14 37 41.5 55.5t60.5 18.5q47 0 85 -32t38 -79q0 -27 -10 -47l-338 -792q-16 -39 -50 -59.5t-75 -20.5q-39 0 -72.5 20.5 t-50.5 59.5l-244 585l-235 -585q-16 -39 -50 -59.5t-75 -20.5q-39 0 -74 20.5t-51 59.5l-336 792q-10 27 -10 45z" />
<glyph unicode="x" horiz-adv-x="1089" d="M53 104q0 47 37 84l299 326l-283 307q-36 36 -36 82q0 49 34.5 83t79.5 34q49 0 88 -41l273 -299l272 299q39 41 88 41q47 0 81 -34t34 -81t-37 -84l-283 -307l301 -326q37 -37 37 -84q0 -45 -34.5 -80.5t-81.5 -35.5q-51 0 -88 43l-289 319l-289 -319q-39 -41 -88 -41 q-45 0 -80 34.5t-35 79.5z" />
<glyph unicode="y" horiz-adv-x="1077" d="M20 909q0 47 40 80t92 33q35 0 63.5 -17.5t44.5 -54.5l287 -633l284 631q17 37 44.5 54.5t60.5 17.5q47 0 85 -32t38 -79q0 -23 -12 -47l-560 -1171q-35 -70 -108 -70q-47 0 -83 30t-36 75q0 23 12 51l140 293l-381 792q-10 20 -11 47z" />
<glyph unicode="z" horiz-adv-x="1044" d="M70 905q0 47 28.5 71.5t85.5 24.5h662q53 0 85 -31.5t32 -78.5q0 -49 -35 -90l-529 -608h480q114 -1 114 -97q0 -45 -28.5 -70.5t-85.5 -25.5h-684q-51 0 -84 33t-33 78q0 47 37 90l526 608h-457q-57 0 -85.5 24.5t-28.5 71.5z" />
<glyph unicode="{" horiz-adv-x="794" d="M63 539q0 43 26 69.5t73 28.5q74 6 102.5 43t28.5 119v397q0 117 64.5 182.5t183.5 65.5h153q43 0 72 -24.5t29 -71.5t-29 -72t-72 -25h-65q-43 0 -64.5 -21.5t-21.5 -68.5v-393q0 -92 -48.5 -154.5t-113.5 -76.5q66 -14 114 -76t48 -154v-393q0 -47 21.5 -68.5 t64.5 -21.5h65q43 0 72 -24.5t29 -71.5t-29 -72t-72 -25h-153q-119 0 -183.5 65.5t-64.5 182.5v397q0 82 -28.5 119t-102.5 43q-47 2 -73 30t-26 71z" />
<glyph unicode="|" horiz-adv-x="571" d="M166 -258v1591q0 53 35 87t86 34t85 -35t34 -86v-1591q0 -53 -34 -87t-85 -34t-86 35t-35 86z" />
<glyph unicode="}" horiz-adv-x="794" d="M0 -272q0 47 28.5 71.5t71.5 24.5h66q43 0 64.5 21.5t21.5 68.5v393q0 92 48 153.5t114 76.5q-66 14 -114 76.5t-48 154.5v393q0 47 -21.5 68.5t-64.5 21.5h-66q-43 0 -71.5 24.5t-28.5 72.5q0 47 28.5 71.5t71.5 24.5h154q119 0 183.5 -65.5t64.5 -182.5v-397 q0 -82 28.5 -119t102.5 -43q47 -2 72.5 -28.5t25.5 -69.5t-24.5 -71t-73.5 -30q-74 -6 -102.5 -43t-28.5 -119v-397q0 -117 -64.5 -182.5t-183.5 -65.5h-154q-43 0 -71.5 25t-28.5 72z" />
<glyph unicode="~" d="M137 557q0 25 13 45q41 70 103 106.5t136 36.5q63 0 121.5 -22.5t140.5 -63.5q63 -31 101.5 -46t70.5 -15q68 0 111 53q39 43 78 43q23 0 43 -14q18 -10 28.5 -28.5t10.5 -39.5q0 -25 -15 -45q-41 -68 -103.5 -104.5t-135.5 -36.5q-64 0 -122.5 22.5t-139.5 63.5 q-70 35 -105 49t-67 14q-63 0 -111 -53q-39 -45 -80 -45q-23 0 -43 15q-35 23 -35 65z" />
<glyph unicode="&#xa2;" d="M168 500q0 197 101.5 333t273.5 177v141q0 45 28.5 74.5t73.5 29.5q47 0 76 -28.5t29 -75.5v-129q141 -16 237 -80q66 -45 66 -108q0 -45 -22.5 -73t-57.5 -28q-23 0 -43.5 9.5t-52.5 27.5q-49 27 -88 41t-91 14q-127 0 -196.5 -83t-69.5 -238q0 -154 68.5 -237 t195.5 -83q51 0 91 15.5t90 42.5q31 18 53 27.5t45 9.5q35 0 56.5 -29t21.5 -72q0 -63 -64 -106q-100 -66 -239 -82v-129q0 -47 -29 -77t-76 -30q-45 0 -73.5 30t-28.5 77v135q-174 37 -274.5 170t-100.5 334z" />
<glyph unicode="&#xa3;" d="M66 109q0 104 122 104h70v428h-108q-37 0 -60.5 23.5t-23.5 58.5t23.5 58.5t60.5 23.5h108v254q0 184 119 293.5t321 109.5q119 0 236 -42t203 -113q27 -20 37 -44t10 -55q0 -45 -24.5 -75.5t-61.5 -30.5q-20 0 -41 8t-41 20q-84 59 -158 90t-149 31q-88 0 -139.5 -53 t-51.5 -158v-235h285q37 0 61.5 -23.5t24.5 -58.5t-24.5 -58.5t-61.5 -23.5h-285v-428h543q123 0 123 -104q0 -109 -123 -109h-873q-123 0 -122 109z" />
<glyph unicode="&#xa5;" d="M20 1335q0 49 37 85t84 36q49 0 88 -45l385 -483l383 481q37 45 90 45q47 0 84 -36t37 -85q0 -41 -30 -78l-363 -444h215q35 0 59.5 -22.5t24.5 -59.5q0 -35 -24.5 -57.5t-59.5 -22.5h-285v-151h285q35 0 59.5 -22.5t24.5 -57.5q0 -37 -24.5 -59.5t-59.5 -22.5h-285v-215 q0 -63 -36.5 -98t-94.5 -35q-57 0 -95 34.5t-38 98.5v215h-282q-35 0 -59.5 22.5t-24.5 59.5q0 35 24.5 57.5t59.5 22.5h282v151h-282q-35 0 -59.5 22.5t-24.5 57.5q0 37 24.5 59.5t59.5 22.5h215l-363 444q-31 37 -31 80z" />
<glyph unicode="&#xa8;" horiz-adv-x="614" d="M-15 1341q0 57 37 92t96 35t97.5 -34.5t38.5 -92.5q0 -57 -38 -92t-98 -35q-59 0 -96 35t-37 92zM362 1341q0 57 37 92t96 35q57 0 95 -34.5t38 -92.5q0 -57 -36.5 -92t-96.5 -35q-59 0 -96 35t-37 92z" />
<glyph unicode="&#xa9;" horiz-adv-x="1669" d="M102 723q0 205 96.5 372t264.5 263t373 96t371.5 -96t263 -263t96.5 -372t-96.5 -372t-264.5 -264t-370 -97q-205 0 -373 97t-264.5 264t-96.5 372zM223 723q0 -174 79 -316.5t219.5 -223.5t314.5 -81t313 81t218 223.5t79 316.5t-79 315.5t-218 222t-313 80.5 t-314.5 -80.5t-219.5 -222t-79 -315.5zM426 723q0 201 116.5 320.5t311.5 119.5q166 0 270 -80q23 -18 31 -35.5t8 -43.5q0 -33 -21.5 -63t-56.5 -30q-16 0 -32.5 6.5t-34.5 16.5q-41 23 -74 35t-76 12q-102 0 -154 -62.5t-52 -195.5q0 -135 52 -197.5t154 -62.5q43 0 76 12 t74 35q18 10 34.5 16t32.5 6q35 0 56.5 -29.5t21.5 -62.5q0 -27 -8 -45t-31 -35q-113 -80 -270 -79q-195 0 -311.5 119.5t-116.5 322.5z" />
<glyph unicode="&#xaa;" horiz-adv-x="688" d="M43 1018q0 92 76 133t264 41h41v29q0 43 -20.5 60t-71.5 17q-63 0 -146 -34q-23 -10 -49 -11q-33 0 -51 23.5t-18 52.5q0 51 49 74q43 20 107.5 35.5t127.5 15.5q140 0 208.5 -65.5t68.5 -204.5v-254q0 -53 -29 -79t-76 -26q-41 0 -69.5 26t-28.5 79v2q-23 -51 -69 -79 t-103 -28q-90 0 -150.5 58.5t-60.5 134.5zM238 1028q0 -27 20.5 -44t54.5 -17q47 0 79 28.5t32 77.5v21h-21q-96 0 -130.5 -16.5t-34.5 -49.5z" />
<glyph unicode="&#xab;" horiz-adv-x="1011" d="M109 545q0 37 24 76l160 258q35 55 94 55q39 0 66.5 -24.5t27.5 -63.5q0 -23 -12 -51l-119 -250l119 -250q12 -27 12 -49q0 -39 -28.5 -64.5t-67.5 -25.5q-57 0 -92 55l-160 258q-25 41 -24 76zM533 545q0 37 24 76l160 258q35 55 94 55q39 0 66.5 -24.5t27.5 -63.5 q0 -23 -12 -51l-119 -250l119 -250q12 -27 12 -49q0 -39 -28.5 -64.5t-67.5 -25.5q-57 0 -92 55l-160 258q-25 41 -24 76z" />
<glyph unicode="&#xac;" d="M115 795q0 39 25.5 63.5t64.5 24.5h819q39 0 64.5 -26t25.5 -64v-414q0 -39 -26.5 -65.5t-65.5 -26.5q-41 0 -65.5 26.5t-24.5 65.5v326h-727q-39 0 -64.5 25.5t-25.5 64.5z" />
<glyph unicode="&#xad;" horiz-adv-x="888" d="M115 547q0 47 29.5 74.5t88.5 27.5h422q59 0 89 -27.5t30 -74.5t-29.5 -74t-89.5 -27h-422q-59 0 -88.5 27t-29.5 74z" />
<glyph unicode="&#xae;" horiz-adv-x="1669" d="M102 723q0 205 96.5 372t264.5 263t373 96q204 0 371 -96t263.5 -263t96.5 -372t-96.5 -372t-264.5 -264t-370 -97q-205 0 -373 97t-264.5 264t-96.5 372zM223 723q0 -174 79 -316.5t219.5 -223.5t314.5 -81t313 81t218 223.5t79 316.5t-79 315.5t-218 222t-313 80.5 t-314.5 -80.5t-219.5 -222t-79 -315.5zM498 395v654q0 51 26.5 78.5t77.5 27.5h291q152 0 233.5 -70.5t81.5 -195.5q0 -98 -53 -166t-149 -90q37 -8 66.5 -29.5t60.5 -62.5l73 -105q25 -31 25 -63q0 -39 -35 -65.5t-80 -26.5q-63 0 -98 51l-162 235q-16 25 -33.5 36 t-44.5 11h-55v-219q0 -55 -30.5 -84.5t-80.5 -29.5q-51 0 -82.5 29.5t-31.5 84.5zM721 780h141q70 0 99.5 23.5t29.5 77.5q0 57 -29.5 79.5t-99.5 22.5h-141v-203z" />
<glyph unicode="&#xb1;" d="M115 682q0 39 25.5 64.5t64.5 25.5h319v223q0 39 27 64.5t65 25.5q37 0 63 -25.5t26 -64.5v-223h319q39 0 64.5 -25.5t25.5 -64.5t-25.5 -64.5t-64.5 -25.5h-319v-223q0 -39 -27 -66t-66 -27q-37 0 -62.5 27t-25.5 66v223h-319q-39 0 -64.5 25.5t-25.5 64.5zM127 90 q0 39 25.5 64.5t64.5 25.5h819q39 0 64.5 -26.5t25.5 -65.5q0 -37 -25.5 -62.5t-64.5 -25.5h-819q-39 0 -64.5 25.5t-25.5 64.5z" />
<glyph unicode="&#xb4;" horiz-adv-x="614" d="M245 1188q0 23 17 45l198 264q47 61 109 62q45 0 76.5 -32t31.5 -75q0 -57 -55 -98l-264 -215q-22 -17 -45 -17q-29 0 -48.5 19.5t-19.5 46.5z" />
<glyph unicode="&#xb5;" horiz-adv-x="1185" d="M127 -264v1165q0 57 34 89t93 32t94 -32t35 -89v-506q0 -109 44 -159t134 -50q102 0 169 70t67 188v457q0 57 33.5 89t93.5 32q59 0 94 -32t35 -89v-795q0 -53 -36 -85.5t-93 -32.5q-53 0 -87 31.5t-34 82.5v52q-47 -82 -127 -126t-180 -44q-63 0 -113 18v-262 q0 -53 -36 -86t-95 -33q-57 0 -91 32t-34 83z" />
<glyph unicode="&#xb8;" horiz-adv-x="614" d="M106 -324q0 29 17.5 46.5t46.5 9.5q70 -16 115 -17q102 0 102 62q0 20 -14.5 32.5t-40.5 12.5q-20 0 -53 -7.5t-41 -7.5q-18 0 -29.5 11.5t-9.5 29.5l22 193h148l-17 -127q33 4 47 4q64 0 108 -38t44 -103q0 -78 -68.5 -127t-193.5 -49q-88 0 -144 20q-18 8 -28.5 22.5 t-10.5 32.5z" />
<glyph unicode="&#xba;" horiz-adv-x="741" d="M37 1141q0 137 86 225t248 88q160 0 247 -89t87 -224q0 -137 -87.5 -226.5t-246.5 -89.5q-162 0 -248 89.5t-86 226.5zM250 1141q0 -70 31.5 -109t89.5 -39q59 0 92 39t33 109q0 72 -32 108.5t-93 36.5q-59 0 -90 -37t-31 -108z" />
<glyph unicode="&#xbb;" horiz-adv-x="1001" d="M106 246q0 23 13 49l121 250l-121 250q-12 29 -13 51q0 39 29 63.5t68 24.5q59 0 92 -55l151 -258q23 -37 23 -76t-23 -76l-151 -258q-33 -55 -92 -55q-39 0 -68 25.5t-29 64.5zM530 246q0 23 13 49l121 250l-121 250q-12 29 -13 51q0 39 29 63.5t68 24.5q59 0 92 -55 l151 -258q23 -37 23 -76t-23 -76l-151 -258q-33 -55 -92 -55q-39 0 -68 25.5t-29 64.5z" />
<glyph unicode="&#xc0;" horiz-adv-x="1519" d="M45 104q0 27 12 54l566 1214q18 41 56 62.5t81 21.5t81 -21.5t56 -62.5l567 -1214q13 -27 13 -54q0 -47 -38 -79.5t-87 -32.5q-33 0 -61.5 17.5t-45.5 53.5l-123 275h-721l-122 -275q-16 -37 -45 -54t-64 -17q-47 0 -86 32.5t-39 79.5zM426 1796q0 39 28.5 68.5 t69.5 29.5q47 0 90 -43l187 -192q20 -20 20 -45q0 -23 -17.5 -40.5t-43.5 -17.5q-18 0 -33 9l-231 135q-70 37 -70 96zM492 543h540l-270 608z" />
<glyph unicode="&#xc1;" horiz-adv-x="1519" d="M45 104q0 27 12 54l566 1214q18 41 56 62.5t81 21.5t81 -21.5t56 -62.5l567 -1214q13 -27 13 -54q0 -47 -38 -79.5t-87 -32.5q-33 0 -61.5 17.5t-45.5 53.5l-123 275h-721l-122 -275q-16 -37 -45 -54t-64 -17q-47 0 -86 32.5t-39 79.5zM492 543h540l-270 608zM696 1614 q0 23 23 45l186 192q39 41 88 41q41 0 71 -29.5t30 -68.5q0 -27 -17.5 -51.5t-52.5 -42.5l-231 -135q-17 -9 -33 -9q-27 0 -45.5 17.5t-18.5 40.5z" />
<glyph unicode="&#xc2;" horiz-adv-x="1519" d="M45 104q0 27 12 54l566 1214q18 41 56 62.5t81 21.5t81 -21.5t56 -62.5l567 -1214q13 -27 13 -54q0 -47 -38 -79.5t-87 -32.5q-33 0 -61.5 17.5t-45.5 53.5l-123 275h-721l-122 -275q-16 -37 -45 -54t-64 -17q-47 0 -86 32.5t-39 79.5zM463 1634q0 35 33 62l170 157 q43 37 94 37t94 -37l170 -157q31 -29 31 -64q0 -31 -22.5 -53.5t-55.5 -22.5q-35 0 -64 29l-153 158l-154 -158q-28 -29 -63 -29q-33 0 -56.5 24t-23.5 54zM492 543h540l-270 608z" />
<glyph unicode="&#xc3;" horiz-adv-x="1519" d="M45 104q0 27 12 54l566 1214q18 41 56 62.5t81 21.5t81 -21.5t56 -62.5l567 -1214q13 -27 13 -54q0 -47 -38 -79.5t-87 -32.5q-33 0 -61.5 17.5t-45.5 53.5l-123 275h-721l-122 -275q-16 -37 -45 -54t-64 -17q-47 0 -86 32.5t-39 79.5zM420 1667q0 39 24.5 81t68.5 70.5 t97 28.5q35 0 71 -9t89 -28q37 -12 73 -22t64 -10q27 0 42.5 9t35.5 30q18 18 28.5 25t28.5 7q27 0 42.5 -16t15.5 -45q0 -39 -24.5 -82t-68.5 -71.5t-98 -28.5q-35 0 -70.5 9t-88.5 27q-37 12 -73 22.5t-65 10.5q-27 0 -42 -9t-35 -30q-18 -18 -28.5 -25t-29.5 -7 q-27 0 -42 17t-15 46zM492 543h540l-270 608z" />
<glyph unicode="&#xc4;" horiz-adv-x="1519" d="M45 104q0 27 12 54l566 1214q18 41 56 62.5t81 21.5t81 -21.5t56 -62.5l567 -1214q13 -27 13 -54q0 -47 -38 -79.5t-87 -32.5q-33 0 -61.5 17.5t-45.5 53.5l-123 275h-721l-122 -275q-16 -37 -45 -54t-64 -17q-47 0 -86 32.5t-39 79.5zM438 1726q0 57 37 92t96 35 t97.5 -34.5t38.5 -92.5q0 -57 -38 -93t-98 -36q-59 0 -96 36t-37 93zM492 543h540l-270 608zM815 1726q0 57 37 92t96 35q57 0 95 -34.5t38 -92.5q0 -57 -36.5 -93t-96.5 -36q-59 0 -96 36t-37 93z" />
<glyph unicode="&#xc5;" horiz-adv-x="1519" d="M45 102q0 29 12 56l584 1253q-45 29 -71.5 76t-26.5 102q0 90 63.5 151.5t155.5 61.5q90 0 153.5 -61.5t63.5 -151.5q0 -55 -26.5 -102t-71.5 -76l583 -1253q13 -27 13 -54q0 -49 -37 -80.5t-86 -31.5q-35 0 -63.5 17.5t-45.5 53.5l-123 275h-721l-122 -275 q-16 -37 -45 -54t-64 -17q-49 0 -87 31.5t-38 78.5zM492 543h540l-270 608zM668 1589q0 -41 26.5 -68.5t67.5 -27.5q39 0 65.5 27.5t26.5 68.5t-26.5 69t-65.5 28q-41 0 -67.5 -28t-26.5 -69z" />
<glyph unicode="&#xc6;" horiz-adv-x="2041" d="M14 86q0 35 23 72l772 1214q23 35 61.5 53.5t87.5 18.5h900q59 0 91.5 -25.5t32.5 -77.5q0 -51 -32.5 -78.5t-91.5 -27.5h-728l89 -397h598q59 0 92 -27t33 -78t-33 -76.5t-92 -25.5h-551l92 -422h500q59 0 91.5 -27.5t32.5 -79.5q0 -51 -32.5 -76.5t-91.5 -25.5h-594 q-47 0 -79 22.5t-42 59.5l-56 256h-665l-168 -275q-23 -39 -56.5 -57t-70.5 -18q-47 0 -80 27.5t-33 70.5zM549 543h493l-127 594z" />
<glyph unicode="&#xc7;" horiz-adv-x="1388" d="M111 723q0 225 84 392t240.5 257t365.5 90q135 0 254 -40t211 -115q27 -20 37 -43t10 -56q0 -45 -24.5 -75.5t-59.5 -30.5q-41 0 -84 28q-88 66 -164 91.5t-168 25.5q-213 0 -322.5 -133t-109.5 -391q0 -260 109.5 -393t322.5 -133q88 0 163 26.5t169 89.5 q20 12 40.5 20.5t43.5 8.5q35 0 59.5 -30.5t24.5 -75.5q0 -31 -10.5 -54.5t-36.5 -44.5q-174 -141 -414 -153l-8 -70q33 4 47 4q63 0 107 -38t44 -103q0 -78 -68.5 -127t-193.5 -49q-86 0 -143 20q-18 8 -28.5 22.5t-10.5 32.5q0 29 17.5 46.5t46.5 9.5q70 -16 114 -17 q102 0 103 62q0 20 -14.5 32.5t-41.5 12.5q-20 0 -53 -7.5t-41 -7.5q-18 0 -29.5 11.5t-9.5 29.5l17 138q-182 20 -316.5 115.5t-207 254t-72.5 367.5z" />
<glyph unicode="&#xc8;" horiz-adv-x="1206" d="M156 125v1194q0 59 33.5 92t93.5 33h739q59 0 92 -26.5t33 -76.5q0 -51 -33 -78.5t-92 -27.5h-608v-397h567q59 0 92 -27t33 -78q0 -49 -33 -75.5t-92 -26.5h-567v-422h608q59 0 92 -27.5t33 -79.5q0 -49 -33 -75.5t-92 -26.5h-739q-60 0 -93.5 33t-33.5 92zM338 1796 q0 39 28.5 68.5t69.5 29.5q47 0 90 -43l187 -192q20 -20 20 -45q0 -23 -17.5 -40.5t-43.5 -17.5q-18 0 -33 9l-231 135q-70 37 -70 96z" />
<glyph unicode="&#xc9;" horiz-adv-x="1206" d="M156 125v1194q0 59 33.5 92t93.5 33h739q59 0 92 -26.5t33 -76.5q0 -51 -33 -78.5t-92 -27.5h-608v-397h567q59 0 92 -27t33 -78q0 -49 -33 -75.5t-92 -26.5h-567v-422h608q59 0 92 -27.5t33 -79.5q0 -49 -33 -75.5t-92 -26.5h-739q-60 0 -93.5 33t-33.5 92zM608 1614 q0 23 23 45l186 192q39 41 88 41q41 0 71 -29.5t30 -68.5q0 -27 -17.5 -51.5t-52.5 -42.5l-231 -135q-17 -9 -33 -9q-27 0 -45.5 17.5t-18.5 40.5z" />
<glyph unicode="&#xca;" horiz-adv-x="1206" d="M156 125v1194q0 59 33.5 92t93.5 33h739q59 0 92 -26.5t33 -76.5q0 -51 -33 -78.5t-92 -27.5h-608v-397h567q59 0 92 -27t33 -78q0 -49 -33 -75.5t-92 -26.5h-567v-422h608q59 0 92 -27.5t33 -79.5q0 -49 -33 -75.5t-92 -26.5h-739q-60 0 -93.5 33t-33.5 92zM375 1634 q0 35 33 62l170 157q43 37 94 37t94 -37l170 -157q31 -29 31 -64q0 -31 -22.5 -53.5t-55.5 -22.5q-35 0 -64 29l-153 158l-154 -158q-28 -29 -63 -29q-33 0 -56.5 24t-23.5 54z" />
<glyph unicode="&#xcb;" horiz-adv-x="1206" d="M156 125v1194q0 59 33.5 92t93.5 33h739q59 0 92 -26.5t33 -76.5q0 -51 -33 -78.5t-92 -27.5h-608v-397h567q59 0 92 -27t33 -78q0 -49 -33 -75.5t-92 -26.5h-567v-422h608q59 0 92 -27.5t33 -79.5q0 -49 -33 -75.5t-92 -26.5h-739q-60 0 -93.5 33t-33.5 92zM350 1726 q0 57 37 92t96 35t97.5 -34.5t38.5 -92.5q0 -57 -38 -93t-98 -36q-59 0 -96 36t-37 93zM727 1726q0 57 37 92t96 35q57 0 95 -34.5t38 -92.5q0 -57 -36.5 -93t-96.5 -36q-59 0 -96 36t-37 93z" />
<glyph unicode="&#xcc;" horiz-adv-x="575" d="M-47 1796q0 39 28.5 68.5t69.5 29.5q47 0 90 -43l187 -192q20 -20 20 -45q0 -23 -17.5 -40.5t-43.5 -17.5q-18 0 -33 9l-231 135q-70 37 -70 96zM156 121v1202q0 59 35.5 95t95.5 36q61 0 97 -36t36 -95v-1202q0 -59 -36 -96t-97 -37q-60 0 -95.5 36.5t-35.5 96.5z" />
<glyph unicode="&#xcd;" horiz-adv-x="575" d="M156 121v1202q0 59 35.5 95t95.5 36q61 0 97 -36t36 -95v-1202q0 -59 -36 -96t-97 -37q-60 0 -95.5 36.5t-35.5 96.5zM223 1614q0 23 23 45l186 192q39 41 88 41q41 0 71 -29.5t30 -68.5q0 -27 -17.5 -51.5t-52.5 -42.5l-231 -135q-17 -9 -33 -9q-27 0 -45.5 17.5 t-18.5 40.5z" />
<glyph unicode="&#xce;" horiz-adv-x="575" d="M-10 1634q0 35 33 62l170 157q43 37 94 37t94 -37l170 -157q31 -29 31 -64q0 -31 -22.5 -53.5t-55.5 -22.5q-35 0 -64 29l-153 158l-154 -158q-28 -29 -63 -29q-33 0 -56.5 24t-23.5 54zM156 121v1202q0 59 35.5 95t95.5 36q61 0 97 -36t36 -95v-1202q0 -59 -36 -96 t-97 -37q-60 0 -95.5 36.5t-35.5 96.5z" />
<glyph unicode="&#xcf;" horiz-adv-x="575" d="M-35 1726q0 57 37 92t96 35t97.5 -34.5t38.5 -92.5q0 -57 -38 -93t-98 -36q-59 0 -96 36t-37 93zM156 121v1202q0 59 35.5 95t95.5 36q61 0 97 -36t36 -95v-1202q0 -59 -36 -96t-97 -37q-60 0 -95.5 36.5t-35.5 96.5zM342 1726q0 57 37 92t96 35q57 0 95 -34.5t38 -92.5 q0 -57 -36.5 -93t-96.5 -36q-59 0 -96 36t-37 93z" />
<glyph unicode="&#xd0;" horiz-adv-x="1593" d="M0 731q0 47 30.5 73.5t88.5 26.5h86v488q0 59 32.5 92t92.5 33h407q353 0 549.5 -189.5t196.5 -531.5q0 -344 -195.5 -533.5t-550.5 -189.5h-407q-57 0 -91 34t-34 91v504h-86q-57 0 -88 26.5t-31 75.5zM467 215h254q498 0 498 508q0 506 -498 506h-254v-398h293 q57 0 87 -26.5t30 -73.5q0 -49 -30 -75.5t-87 -26.5h-293v-414z" />
<glyph unicode="&#xd1;" horiz-adv-x="1529" d="M156 121v1202q0 59 34.5 95t92.5 36q63 0 98 -47l745 -969v885q0 59 34 95t89 36q58 0 91.5 -36t33.5 -95v-1202q0 -59 -34.5 -96t-90.5 -37q-66 0 -100 47l-748 973v-887q0 -59 -32.5 -96t-89.5 -37t-90 36.5t-33 96.5zM424 1667q0 39 24.5 81t68.5 70.5t97 28.5 q35 0 71 -9t89 -28q37 -12 73 -22t64 -10q27 0 42.5 9t35.5 30q18 18 28.5 25t28.5 7q27 0 42.5 -16t15.5 -45q0 -39 -24.5 -82t-68.5 -71.5t-98 -28.5q-35 0 -70.5 9t-88.5 27q-37 12 -73 22.5t-65 10.5q-27 0 -42 -9t-35 -30q-18 -18 -28.5 -25t-29.5 -7q-27 0 -42 17 t-15 46z" />
<glyph unicode="&#xd2;" horiz-adv-x="1595" d="M111 723q0 225 82.5 392t238.5 257t367 90t365.5 -90t237.5 -257t83 -392t-84 -393t-238.5 -258t-363.5 -90q-211 0 -365.5 90t-238.5 258t-84 393zM375 723q0 -256 111.5 -393t312.5 -137q198 0 310 137t112 393t-112 392t-310 136q-201 0 -312.5 -136t-111.5 -392z M463 1796q0 39 28.5 68.5t69.5 29.5q47 0 90 -43l187 -192q20 -20 20 -45q0 -23 -17.5 -40.5t-43.5 -17.5q-18 0 -33 9l-231 135q-70 37 -70 96z" />
<glyph unicode="&#xd3;" horiz-adv-x="1595" d="M111 723q0 225 82.5 392t238.5 257t367 90t365.5 -90t237.5 -257t83 -392t-84 -393t-238.5 -258t-363.5 -90q-211 0 -365.5 90t-238.5 258t-84 393zM375 723q0 -256 111.5 -393t312.5 -137q198 0 310 137t112 393t-112 392t-310 136q-201 0 -312.5 -136t-111.5 -392z M733 1614q0 23 23 45l186 192q39 41 88 41q41 0 71 -29.5t30 -68.5q0 -27 -17.5 -51.5t-52.5 -42.5l-231 -135q-17 -9 -33 -9q-27 0 -45.5 17.5t-18.5 40.5z" />
<glyph unicode="&#xd4;" horiz-adv-x="1595" d="M111 723q0 225 82.5 392t238.5 257t367 90t365.5 -90t237.5 -257t83 -392t-84 -393t-238.5 -258t-363.5 -90q-211 0 -365.5 90t-238.5 258t-84 393zM375 723q0 -256 111.5 -393t312.5 -137q198 0 310 137t112 393t-112 392t-310 136q-201 0 -312.5 -136t-111.5 -392z M500 1634q0 35 33 62l170 157q43 37 94 37t94 -37l170 -157q31 -29 31 -64q0 -31 -22.5 -53.5t-55.5 -22.5q-35 0 -64 29l-153 158l-154 -158q-28 -29 -63 -29q-33 0 -56.5 24t-23.5 54z" />
<glyph unicode="&#xd5;" horiz-adv-x="1595" d="M111 723q0 225 82.5 392t238.5 257t367 90t365.5 -90t237.5 -257t83 -392t-84 -393t-238.5 -258t-363.5 -90q-211 0 -365.5 90t-238.5 258t-84 393zM375 723q0 -256 111.5 -393t312.5 -137q198 0 310 137t112 393t-112 392t-310 136q-201 0 -312.5 -136t-111.5 -392z M457 1667q0 39 24.5 81t68.5 70.5t97 28.5q35 0 71 -9t89 -28q37 -12 73 -22t64 -10q27 0 42.5 9t35.5 30q18 18 28.5 25t28.5 7q27 0 42.5 -16t15.5 -45q0 -39 -24.5 -82t-68.5 -71.5t-98 -28.5q-35 0 -70.5 9t-88.5 27q-37 12 -73 22.5t-65 10.5q-27 0 -42 -9t-35 -30 q-18 -18 -28.5 -25t-29.5 -7q-27 0 -42 17t-15 46z" />
<glyph unicode="&#xd6;" horiz-adv-x="1595" d="M111 723q0 225 82.5 392t238.5 257t367 90t365.5 -90t237.5 -257t83 -392t-84 -393t-238.5 -258t-363.5 -90q-211 0 -365.5 90t-238.5 258t-84 393zM375 723q0 -256 111.5 -393t312.5 -137q198 0 310 137t112 393t-112 392t-310 136q-201 0 -312.5 -136t-111.5 -392z M475 1726q0 57 37 92t96 35t97.5 -34.5t38.5 -92.5q0 -57 -38 -93t-98 -36q-59 0 -96 36t-37 93zM852 1726q0 57 37 92t96 35q57 0 95 -34.5t38 -92.5q0 -57 -36.5 -93t-96.5 -36q-59 0 -96 36t-37 93z" />
<glyph unicode="&#xd8;" horiz-adv-x="1595" d="M111 723q0 225 82.5 392t238.5 257t367 90q154 0 284 -51l41 70q39 66 99 65q39 0 66.5 -26.5t27.5 -69.5q0 -35 -21 -70l-43 -71q113 -99 172.5 -247.5t59.5 -338.5q0 -225 -84 -393t-238.5 -258t-363.5 -90q-158 0 -287 53l-41 -70q-18 -33 -45 -49t-55 -16 q-39 0 -65.5 26.5t-26.5 67.5q0 35 20 69l43 74q-113 98 -172 246.5t-59 339.5zM375 723q0 -234 94 -369l504 865q-74 33 -174 32q-201 0 -312.5 -136t-111.5 -392zM623 225q74 -33 176 -32q198 0 310 137t112 393q0 231 -93 369z" />
<glyph unicode="&#xd9;" horiz-adv-x="1501" d="M147 584v739q0 59 35 95t94 36t94.5 -36t35.5 -95v-754q0 -186 88 -281t258 -95q168 0 256 96t88 280v754q0 59 34.5 95t94.5 36q59 0 94 -36t35 -95v-739q0 -293 -153.5 -447.5t-448.5 -154.5q-297 0 -451 153.5t-154 448.5zM418 1796q0 39 28.5 68.5t69.5 29.5 q47 0 90 -43l187 -192q20 -20 20 -45q0 -23 -17.5 -40.5t-43.5 -17.5q-18 0 -33 9l-231 135q-70 37 -70 96z" />
<glyph unicode="&#xda;" horiz-adv-x="1501" d="M147 584v739q0 59 35 95t94 36t94.5 -36t35.5 -95v-754q0 -186 88 -281t258 -95q168 0 256 96t88 280v754q0 59 34.5 95t94.5 36q59 0 94 -36t35 -95v-739q0 -293 -153.5 -447.5t-448.5 -154.5q-297 0 -451 153.5t-154 448.5zM688 1614q0 23 23 45l186 192q39 41 88 41 q41 0 71 -29.5t30 -68.5q0 -27 -17.5 -51.5t-52.5 -42.5l-231 -135q-17 -9 -33 -9q-27 0 -45.5 17.5t-18.5 40.5z" />
<glyph unicode="&#xdb;" horiz-adv-x="1501" d="M147 584v739q0 59 35 95t94 36t94.5 -36t35.5 -95v-754q0 -186 88 -281t258 -95q168 0 256 96t88 280v754q0 59 34.5 95t94.5 36q59 0 94 -36t35 -95v-739q0 -293 -153.5 -447.5t-448.5 -154.5q-297 0 -451 153.5t-154 448.5zM455 1634q0 35 33 62l170 157q43 37 94 37 t94 -37l170 -157q31 -29 31 -64q0 -31 -22.5 -53.5t-55.5 -22.5q-35 0 -64 29l-153 158l-154 -158q-28 -29 -63 -29q-33 0 -56.5 24t-23.5 54z" />
<glyph unicode="&#xdc;" horiz-adv-x="1501" d="M147 584v739q0 59 35 95t94 36t94.5 -36t35.5 -95v-754q0 -186 88 -281t258 -95q168 0 256 96t88 280v754q0 59 34.5 95t94.5 36q59 0 94 -36t35 -95v-739q0 -293 -153.5 -447.5t-448.5 -154.5q-297 0 -451 153.5t-154 448.5zM430 1726q0 57 37 92t96 35t97.5 -34.5 t38.5 -92.5q0 -57 -38 -93t-98 -36q-59 0 -96 36t-37 93zM807 1726q0 57 37 92t96 35q57 0 95 -34.5t38 -92.5q0 -57 -36.5 -93t-96.5 -36q-59 0 -96 36t-37 93z" />
<glyph unicode="&#xdd;" horiz-adv-x="1275" d="M10 1333q0 49 37 85t84 36q51 0 88 -45l420 -520l418 520q37 45 88 45q47 0 84 -36t37 -85q0 -41 -31 -78l-465 -567v-567q0 -63 -37 -98t-94 -35q-59 0 -96 34.5t-37 98.5v567l-465 567q-31 37 -31 78zM573 1614q0 23 23 45l186 192q39 41 88 41q41 0 71 -29.5t30 -68.5 q0 -27 -17.5 -51.5t-52.5 -42.5l-231 -135q-17 -9 -33 -9q-27 0 -45.5 17.5t-18.5 40.5z" />
<glyph unicode="&#xde;" horiz-adv-x="1351" d="M156 121v1202q0 59 34.5 95t94.5 36q59 0 95 -36t36 -95v-180h377q229 0 356 -107.5t127 -300.5q0 -195 -128 -303t-355 -108h-377v-203q0 -59 -36 -96t-95 -37t-94 35.5t-35 97.5zM416 528h338q139 0 205.5 50.5t66.5 156.5q0 104 -66.5 153.5t-205.5 49.5h-338v-410z " />
<glyph unicode="&#xdf;" horiz-adv-x="1341" d="M133 111v823q0 252 137.5 388t388.5 136q186 0 291 -76.5t105 -214.5q0 -80 -38 -138t-110 -130q-51 -49 -75.5 -83t-24.5 -71q0 -49 44 -76.5t138 -58.5q96 -33 155.5 -63.5t103.5 -89t44 -152.5q0 -145 -110.5 -233t-292.5 -88q-88 0 -174 23.5t-152 64.5 q-66 39 -65 110q0 41 22.5 66.5t54.5 25.5q23 0 48.5 -10t52.5 -24q53 -29 102 -45.5t117 -16.5q78 0 120 29t42 80q0 53 -46 81.5t-145 61.5q-94 31 -153.5 59.5t-101.5 85t-42 144.5q0 76 37 133t105 125q53 55 78.5 92t25.5 80q0 57 -43 89t-123 32q-125 0 -192.5 -78 t-67.5 -221v-860q0 -57 -35 -90t-94 -33t-93 32.5t-34 90.5z" />
<glyph unicode="&#xe0;" horiz-adv-x="1105" d="M94 297q0 111 56.5 174.5t183.5 92t350 28.5h51v47q0 100 -43 146t-139 46q-59 0 -120.5 -17t-145.5 -50q-53 -27 -78 -27q-37 0 -60.5 27t-23.5 70q0 35 17.5 60.5t58.5 47.5q72 39 171 61.5t195 22.5q209 0 310.5 -103.5t101.5 -314.5v-499q0 -55 -33 -87t-90 -32 q-53 0 -87 32.5t-34 86.5v45q-35 -80 -109.5 -125t-172.5 -45q-100 0 -182.5 41t-129.5 112.5t-47 159.5zM196 1452q0 43 33 75t78 32q59 0 106 -62l199 -264q16 -18 16 -45t-19.5 -46.5t-45.5 -19.5q-25 0 -47 17l-265 215q-55 41 -55 98zM344 317q0 -66 46 -107.5 t114 -41.5q102 0 166.5 68.5t64.5 177.5v43h-37q-137 0 -212.5 -12.5t-108.5 -43t-33 -84.5z" />
<glyph unicode="&#xe1;" horiz-adv-x="1105" d="M94 297q0 111 56.5 174.5t183.5 92t350 28.5h51v47q0 100 -43 146t-139 46q-59 0 -120.5 -17t-145.5 -50q-53 -27 -78 -27q-37 0 -60.5 27t-23.5 70q0 35 17.5 60.5t58.5 47.5q72 39 171 61.5t195 22.5q209 0 310.5 -103.5t101.5 -314.5v-499q0 -55 -33 -87t-90 -32 q-53 0 -87 32.5t-34 86.5v45q-35 -80 -109.5 -125t-172.5 -45q-100 0 -182.5 41t-129.5 112.5t-47 159.5zM344 317q0 -66 46 -107.5t114 -41.5q102 0 166.5 68.5t64.5 177.5v43h-37q-137 0 -212.5 -12.5t-108.5 -43t-33 -84.5zM505 1188q0 23 17 45l198 264q47 61 109 62 q45 0 76.5 -32t31.5 -75q0 -57 -55 -98l-264 -215q-22 -17 -45 -17q-29 0 -48.5 19.5t-19.5 46.5z" />
<glyph unicode="&#xe2;" horiz-adv-x="1105" d="M94 297q0 111 56.5 174.5t183.5 92t350 28.5h51v47q0 100 -43 146t-139 46q-59 0 -120.5 -17t-145.5 -50q-53 -27 -78 -27q-37 0 -60.5 27t-23.5 70q0 35 17.5 60.5t58.5 47.5q72 39 171 61.5t195 22.5q209 0 310.5 -103.5t101.5 -314.5v-499q0 -55 -33 -87t-90 -32 q-53 0 -87 32.5t-34 86.5v45q-35 -80 -109.5 -125t-172.5 -45q-100 0 -182.5 41t-129.5 112.5t-47 159.5zM266 1204q0 27 18 53l180 244q25 31 47.5 45.5t55.5 14.5q35 0 57.5 -14.5t44.5 -47.5l180 -242q18 -25 19 -53q0 -33 -25.5 -57.5t-58.5 -24.5q-43 0 -72 43 l-145 226l-146 -226q-28 -43 -71 -43q-33 0 -58.5 24.5t-25.5 57.5zM344 317q0 -66 46 -107.5t114 -41.5q102 0 166.5 68.5t64.5 177.5v43h-37q-137 0 -212.5 -12.5t-108.5 -43t-33 -84.5z" />
<glyph unicode="&#xe3;" horiz-adv-x="1105" d="M94 297q0 111 56.5 174.5t183.5 92t350 28.5h51v47q0 100 -43 146t-139 46q-59 0 -120.5 -17t-145.5 -50q-53 -27 -78 -27q-37 0 -60.5 27t-23.5 70q0 35 17.5 60.5t58.5 47.5q72 39 171 61.5t195 22.5q209 0 310.5 -103.5t101.5 -314.5v-499q0 -55 -33 -87t-90 -32 q-53 0 -87 32.5t-34 86.5v45q-35 -80 -109.5 -125t-172.5 -45q-100 0 -182.5 41t-129.5 112.5t-47 159.5zM227 1272q0 41 24.5 91t68.5 86t97 36q37 0 73 -16.5t91 -49.5q45 -27 71.5 -39t49.5 -12q33 0 52.5 16.5t39.5 47.5q16 25 28.5 36t31.5 11q25 0 39 -19.5t14 -50.5 q0 -41 -24.5 -91t-68.5 -86t-98 -36q-37 0 -72.5 16.5t-91.5 49.5q-45 27 -71.5 39t-48.5 12q-33 0 -52.5 -16.5t-40.5 -47.5q-16 -25 -28 -36t-31 -11q-23 0 -38 19.5t-15 50.5zM344 317q0 -66 46 -107.5t114 -41.5q102 0 166.5 68.5t64.5 177.5v43h-37 q-137 0 -212.5 -12.5t-108.5 -43t-33 -84.5z" />
<glyph unicode="&#xe4;" horiz-adv-x="1105" d="M94 297q0 111 56.5 174.5t183.5 92t350 28.5h51v47q0 100 -43 146t-139 46q-59 0 -120.5 -17t-145.5 -50q-53 -27 -78 -27q-37 0 -60.5 27t-23.5 70q0 35 17.5 60.5t58.5 47.5q72 39 171 61.5t195 22.5q209 0 310.5 -103.5t101.5 -314.5v-499q0 -55 -33 -87t-90 -32 q-53 0 -87 32.5t-34 86.5v45q-35 -80 -109.5 -125t-172.5 -45q-100 0 -182.5 41t-129.5 112.5t-47 159.5zM245 1341q0 57 37 92t96 35t97.5 -34.5t38.5 -92.5q0 -57 -38 -92t-98 -35q-59 0 -96 35t-37 92zM344 317q0 -66 46 -107.5t114 -41.5q102 0 166.5 68.5t64.5 177.5 v43h-37q-137 0 -212.5 -12.5t-108.5 -43t-33 -84.5zM622 1341q0 57 37 92t96 35q57 0 95 -34.5t38 -92.5q0 -57 -36.5 -92t-96.5 -35q-59 0 -96 35t-37 92z" />
<glyph unicode="&#xe5;" horiz-adv-x="1105" d="M94 297q0 111 56.5 174.5t183.5 92t350 28.5h51v47q0 100 -43 146t-139 46q-59 0 -120.5 -17t-145.5 -50q-53 -27 -78 -27q-37 0 -60.5 27t-23.5 70q0 35 17.5 60.5t58.5 47.5q72 39 171 61.5t195 22.5q209 0 310.5 -103.5t101.5 -314.5v-499q0 -55 -33 -87t-90 -32 q-53 0 -87 32.5t-34 86.5v45q-35 -80 -109.5 -125t-172.5 -45q-100 0 -182.5 41t-129.5 112.5t-47 159.5zM344 317q0 -66 46 -107.5t114 -41.5q102 0 166.5 68.5t64.5 177.5v43h-37q-137 0 -212.5 -12.5t-108.5 -43t-33 -84.5zM350 1343q0 90 63.5 151.5t153.5 61.5 t153.5 -61t63.5 -152q0 -90 -63.5 -151.5t-153.5 -61.5t-153.5 61.5t-63.5 151.5zM475 1343q0 -41 26.5 -68.5t65.5 -27.5t65.5 28t26.5 68q0 41 -26.5 69t-65.5 28t-65.5 -28t-26.5 -69z" />
<glyph unicode="&#xe6;" horiz-adv-x="1726" d="M94 297q0 111 56.5 174.5t183.5 92t350 28.5h51v45q0 102 -44 148t-138 46q-84 0 -143.5 -17t-118.5 -48q-25 -12 -47.5 -20.5t-40.5 -8.5q-35 0 -56.5 27t-21.5 70q0 66 76 108q74 41 168 62.5t194 21.5q238 0 328 -145q61 70 147 107.5t189 37.5q125 0 221 -60.5 t149.5 -170t53.5 -252.5q0 -88 -78 -88h-590q12 -139 78.5 -207t191.5 -68q63 0 111.5 16.5t110.5 45.5q61 33 92 32q35 0 56.5 -26.5t21.5 -71.5q0 -66 -76 -106q-70 -39 -157 -62.5t-163 -23.5q-145 0 -249.5 56t-163.5 163q-45 -106 -136.5 -162.5t-216.5 -56.5 q-111 0 -199.5 39.5t-139 111.5t-50.5 162zM344 317q0 -68 48 -108.5t122 -40.5q94 0 157.5 70.5t63.5 177.5v41h-37q-137 0 -212.5 -12.5t-108.5 -43t-33 -84.5zM983 592h451q-6 123 -60.5 188.5t-150.5 65.5q-103 0 -165.5 -66.5t-74.5 -187.5z" />
<glyph unicode="&#xe7;" horiz-adv-x="999" d="M78 500q0 156 64.5 275.5t181 185t268.5 65.5q80 0 161 -22.5t142 -61.5q66 -43 66 -108q0 -45 -21.5 -73t-56.5 -28q-23 0 -47.5 10.5t-49.5 24.5q-45 27 -86 42t-94 15q-127 0 -195.5 -83t-68.5 -238q0 -154 68.5 -237t195.5 -83q51 0 91 15.5t89 42.5q31 18 53.5 27.5 t45.5 9.5q33 0 55.5 -29t22.5 -72q0 -35 -15.5 -60.5t-50.5 -45.5q-111 -74 -268 -86l-8 -72q33 4 47 4q63 0 107 -38t44 -103q0 -78 -68.5 -127t-193.5 -49q-86 0 -143 20q-18 8 -28.5 22.5t-10.5 32.5q0 29 17.5 46.5t45.5 9.5q70 -16 115 -17q102 0 102 62q0 20 -14 32.5 t-41 12.5q-20 0 -53 -7.5t-41 -7.5q-18 0 -29.5 11.5t-9.5 29.5l16 142q-188 29 -296.5 165t-108.5 345z" />
<glyph unicode="&#xe8;" horiz-adv-x="1087" d="M78 504q0 154 61.5 272.5t173 184t252.5 65.5q135 0 235.5 -59.5t156 -168t55.5 -255.5q0 -88 -78 -88h-604q12 -141 79.5 -208t196.5 -67q66 0 116 16.5t114 45.5q61 33 90 32q35 0 56.5 -26.5t21.5 -71.5q0 -63 -76 -106q-70 -39 -158 -62.5t-168 -23.5 q-242 0 -383 139t-141 381zM194 1452q0 43 33 75t78 32q59 0 106 -62l199 -264q16 -18 16 -45t-19.5 -46.5t-45.5 -19.5q-25 0 -47 17l-265 215q-55 41 -55 98zM330 592h463q-4 125 -61.5 189.5t-160.5 64.5q-104 0 -166.5 -65.5t-74.5 -188.5z" />
<glyph unicode="&#xe9;" horiz-adv-x="1087" d="M78 504q0 154 61.5 272.5t173 184t252.5 65.5q135 0 235.5 -59.5t156 -168t55.5 -255.5q0 -88 -78 -88h-604q12 -141 79.5 -208t196.5 -67q66 0 116 16.5t114 45.5q61 33 90 32q35 0 56.5 -26.5t21.5 -71.5q0 -63 -76 -106q-70 -39 -158 -62.5t-168 -23.5 q-242 0 -383 139t-141 381zM330 592h463q-4 125 -61.5 189.5t-160.5 64.5q-104 0 -166.5 -65.5t-74.5 -188.5zM503 1188q0 23 17 45l198 264q47 61 109 62q45 0 76.5 -32t31.5 -75q0 -57 -55 -98l-264 -215q-22 -17 -45 -17q-29 0 -48.5 19.5t-19.5 46.5z" />
<glyph unicode="&#xea;" horiz-adv-x="1087" d="M78 504q0 154 61.5 272.5t173 184t252.5 65.5q135 0 235.5 -59.5t156 -168t55.5 -255.5q0 -88 -78 -88h-604q12 -141 79.5 -208t196.5 -67q66 0 116 16.5t114 45.5q61 33 90 32q35 0 56.5 -26.5t21.5 -71.5q0 -63 -76 -106q-70 -39 -158 -62.5t-168 -23.5 q-242 0 -383 139t-141 381zM264 1204q0 27 18 53l180 244q25 31 47.5 45.5t55.5 14.5q35 0 57.5 -14.5t44.5 -47.5l180 -242q18 -25 19 -53q0 -33 -25.5 -57.5t-58.5 -24.5q-43 0 -72 43l-145 226l-146 -226q-28 -43 -71 -43q-33 0 -58.5 24.5t-25.5 57.5zM330 592h463 q-4 125 -61.5 189.5t-160.5 64.5q-104 0 -166.5 -65.5t-74.5 -188.5z" />
<glyph unicode="&#xeb;" horiz-adv-x="1087" d="M78 504q0 154 61.5 272.5t173 184t252.5 65.5q135 0 235.5 -59.5t156 -168t55.5 -255.5q0 -88 -78 -88h-604q12 -141 79.5 -208t196.5 -67q66 0 116 16.5t114 45.5q61 33 90 32q35 0 56.5 -26.5t21.5 -71.5q0 -63 -76 -106q-70 -39 -158 -62.5t-168 -23.5 q-242 0 -383 139t-141 381zM243 1341q0 57 37 92t96 35t97.5 -34.5t38.5 -92.5q0 -57 -38 -92t-98 -35q-59 0 -96 35t-37 92zM330 592h463q-4 125 -61.5 189.5t-160.5 64.5q-104 0 -166.5 -65.5t-74.5 -188.5zM620 1341q0 57 37 92t96 35q57 0 95 -34.5t38 -92.5 q0 -57 -36.5 -92t-96.5 -35q-59 0 -96 35t-37 92z" />
<glyph unicode="&#xec;" horiz-adv-x="520" d="M-111 1452q0 43 33 75t78 32q59 0 106 -62l199 -264q16 -18 16 -45t-19.5 -46.5t-45.5 -19.5q-25 0 -47 17l-265 215q-55 41 -55 98zM133 111v790q0 59 36 90t91 31t92 -30.5t37 -90.5v-790q0 -59 -37 -91t-92 -32t-91 31.5t-36 91.5z" />
<glyph unicode="&#xed;" horiz-adv-x="520" d="M133 111v790q0 59 36 90t91 31t92 -30.5t37 -90.5v-790q0 -59 -37 -91t-92 -32t-91 31.5t-36 91.5zM198 1188q0 23 17 45l198 264q47 61 109 62q45 0 76.5 -32t31.5 -75q0 -57 -55 -98l-264 -215q-22 -17 -45 -17q-29 0 -48.5 19.5t-19.5 46.5z" />
<glyph unicode="&#xee;" horiz-adv-x="520" d="M-41 1204q0 27 18 53l180 244q25 31 47.5 45.5t55.5 14.5q35 0 57.5 -14.5t44.5 -47.5l180 -242q18 -25 19 -53q0 -33 -25.5 -57.5t-58.5 -24.5q-43 0 -72 43l-145 226l-146 -226q-28 -43 -71 -43q-33 0 -58.5 24.5t-25.5 57.5zM133 111v790q0 59 36 90t91 31t92 -30.5 t37 -90.5v-790q0 -59 -37 -91t-92 -32t-91 31.5t-36 91.5z" />
<glyph unicode="&#xef;" horiz-adv-x="520" d="M-62 1341q0 57 37 92t96 35t97.5 -34.5t38.5 -92.5q0 -57 -38 -92t-98 -35q-59 0 -96 35t-37 92zM133 111v790q0 59 36 90t91 31t92 -30.5t37 -90.5v-790q0 -59 -37 -91t-92 -32t-91 31.5t-36 91.5zM315 1341q0 57 37 92t96 35q57 0 95 -34.5t38 -92.5q0 -57 -36.5 -92 t-96.5 -35q-59 0 -96 35t-37 92z" />
<glyph unicode="&#xf0;" horiz-adv-x="1189" d="M78 461q0 137 61.5 244.5t171 167t248.5 59.5q176 0 277 -94q-49 133 -162 239l-262 -80q-20 -4 -27 -4q-31 0 -50.5 21.5t-19.5 48.5q0 25 15.5 45t44.5 29l162 49q-68 43 -152 82q-70 33 -70 92q0 39 30 67.5t77 28.5q29 0 59 -12q170 -66 305 -182l218 65q20 4 26 4 q33 0 52.5 -20.5t19.5 -48.5q0 -25 -15.5 -45.5t-46.5 -28.5l-139 -43q98 -119 154.5 -261.5t56.5 -297.5q0 -289 -138 -445.5t-394 -156.5q-147 0 -262 59t-177.5 167.5t-62.5 250.5zM334 461q0 -137 65.5 -208t188.5 -71t189.5 73t66.5 206t-64.5 204.5t-189.5 71.5 q-123 0 -189.5 -70.5t-66.5 -205.5z" />
<glyph unicode="&#xf1;" horiz-adv-x="1198" d="M133 111v792q0 53 35 86t94 33q53 0 87 -32t34 -83v-55q51 84 137 129t195 45q180 0 268 -102.5t88 -309.5v-503q0 -57 -33.5 -90t-93.5 -33q-59 0 -94 32.5t-35 90.5v489q0 117 -44 170t-138 53q-111 0 -177.5 -69.5t-66.5 -186.5v-456q0 -57 -35 -90t-94 -33t-93 32.5 t-34 90.5zM262 1272q0 41 24.5 91t68.5 86t97 36q37 0 73 -16.5t91 -49.5q45 -27 71.5 -39t49.5 -12q33 0 52.5 16.5t39.5 47.5q16 25 28.5 36t31.5 11q25 0 39 -19.5t14 -50.5q0 -41 -24.5 -91t-68.5 -86t-98 -36q-37 0 -72.5 16.5t-91.5 49.5q-45 27 -71.5 39t-48.5 12 q-33 0 -52.5 -16.5t-40.5 -47.5q-16 -25 -28 -36t-31 -11q-23 0 -38 19.5t-15 50.5z" />
<glyph unicode="&#xf2;" horiz-adv-x="1177" d="M78 506q0 158 63.5 275.5t179 181t269.5 63.5t269.5 -63.5t178 -181t62.5 -275.5t-62.5 -276.5t-178.5 -182t-269 -63.5q-154 0 -269.5 63.5t-179 182t-63.5 276.5zM219 1452q0 43 33 75t78 32q59 0 106 -62l199 -264q16 -18 16 -45t-19.5 -46.5t-45.5 -19.5 q-25 0 -47 17l-265 215q-55 41 -55 98zM334 506q0 -160 65.5 -242t188.5 -82q125 0 190.5 82t65.5 242q0 158 -65.5 240.5t-188.5 82.5t-189.5 -82.5t-66.5 -240.5z" />
<glyph unicode="&#xf3;" horiz-adv-x="1177" d="M78 506q0 158 63.5 275.5t179 181t269.5 63.5t269.5 -63.5t178 -181t62.5 -275.5t-62.5 -276.5t-178.5 -182t-269 -63.5q-154 0 -269.5 63.5t-179 182t-63.5 276.5zM334 506q0 -160 65.5 -242t188.5 -82q125 0 190.5 82t65.5 242q0 158 -65.5 240.5t-188.5 82.5 t-189.5 -82.5t-66.5 -240.5zM528 1188q0 23 17 45l198 264q47 61 109 62q45 0 76.5 -32t31.5 -75q0 -57 -55 -98l-264 -215q-22 -17 -45 -17q-29 0 -48.5 19.5t-19.5 46.5z" />
<glyph unicode="&#xf4;" horiz-adv-x="1177" d="M78 506q0 158 63.5 275.5t179 181t269.5 63.5t269.5 -63.5t178 -181t62.5 -275.5t-62.5 -276.5t-178.5 -182t-269 -63.5q-154 0 -269.5 63.5t-179 182t-63.5 276.5zM289 1204q0 27 18 53l180 244q25 31 47.5 45.5t55.5 14.5q35 0 57.5 -14.5t44.5 -47.5l180 -242 q18 -25 19 -53q0 -33 -25.5 -57.5t-58.5 -24.5q-43 0 -72 43l-145 226l-146 -226q-28 -43 -71 -43q-33 0 -58.5 24.5t-25.5 57.5zM334 506q0 -160 65.5 -242t188.5 -82q125 0 190.5 82t65.5 242q0 158 -65.5 240.5t-188.5 82.5t-189.5 -82.5t-66.5 -240.5z" />
<glyph unicode="&#xf5;" horiz-adv-x="1177" d="M78 506q0 158 63.5 275.5t179 181t269.5 63.5t269.5 -63.5t178 -181t62.5 -275.5t-62.5 -276.5t-178.5 -182t-269 -63.5q-154 0 -269.5 63.5t-179 182t-63.5 276.5zM250 1272q0 41 24.5 91t68.5 86t97 36q37 0 73 -16.5t91 -49.5q45 -27 71.5 -39t49.5 -12 q33 0 52.5 16.5t39.5 47.5q16 25 28.5 36t31.5 11q25 0 39 -19.5t14 -50.5q0 -41 -24.5 -91t-68.5 -86t-98 -36q-37 0 -72.5 16.5t-91.5 49.5q-45 27 -71.5 39t-48.5 12q-33 0 -52.5 -16.5t-40.5 -47.5q-16 -25 -28 -36t-31 -11q-23 0 -38 19.5t-15 50.5zM334 506 q0 -160 65.5 -242t188.5 -82q125 0 190.5 82t65.5 242q0 158 -65.5 240.5t-188.5 82.5t-189.5 -82.5t-66.5 -240.5z" />
<glyph unicode="&#xf6;" horiz-adv-x="1177" d="M78 506q0 158 63.5 275.5t179 181t269.5 63.5t269.5 -63.5t178 -181t62.5 -275.5t-62.5 -276.5t-178.5 -182t-269 -63.5q-154 0 -269.5 63.5t-179 182t-63.5 276.5zM268 1341q0 57 37 92t96 35t97.5 -34.5t38.5 -92.5q0 -57 -38 -92t-98 -35q-59 0 -96 35t-37 92z M334 506q0 -160 65.5 -242t188.5 -82q125 0 190.5 82t65.5 242q0 158 -65.5 240.5t-188.5 82.5t-189.5 -82.5t-66.5 -240.5zM645 1341q0 57 37 92t96 35q57 0 95 -34.5t38 -92.5q0 -57 -36.5 -92t-96.5 -35q-59 0 -96 35t-37 92z" />
<glyph unicode="&#xf7;" d="M127 586q0 39 25.5 64.5t64.5 25.5h819q39 0 64.5 -26.5t25.5 -65.5q0 -37 -25.5 -62.5t-64.5 -25.5h-819q-39 0 -64.5 25.5t-25.5 64.5zM504 182q0 49 31.5 82t80.5 33q47 0 80 -33t33 -82t-32.5 -81.5t-80.5 -32.5q-49 0 -80.5 32.5t-31.5 81.5zM504 991q0 49 31.5 82 t80.5 33q47 0 80 -34t33 -81q0 -49 -32.5 -83t-80.5 -34q-49 0 -80.5 34t-31.5 83z" />
<glyph unicode="&#xf8;" horiz-adv-x="1177" d="M78 506q0 158 63.5 275.5t179 181t269.5 63.5q113 0 198 -33l39 70q23 41 68 41q31 0 54.5 -19.5t23.5 -50.5q0 -18 -12 -41l-41 -69q86 -68 133 -175.5t47 -242.5q0 -158 -62.5 -276.5t-178.5 -182t-269 -63.5q-113 0 -199 32l-39 -67q-27 -41 -69 -41q-31 0 -53.5 19.5 t-22.5 47.5q0 18 12 41l41 72q-88 70 -135 176.5t-47 241.5zM330 506q0 -135 47 -217l307 528q-41 14 -94 14q-127 0 -193.5 -82.5t-66.5 -242.5zM496 195q43 -12 92 -13q260 0 260 324q0 135 -47 213z" />
<glyph unicode="&#xf9;" horiz-adv-x="1185" d="M127 397v504q0 55 35 88t92 33q59 0 94 -33t35 -88v-506q0 -106 43 -157.5t135 -51.5q106 0 171 71t65 187v457q0 55 34.5 88t92.5 33q59 0 94 -33t35 -88v-795q0 -53 -36 -85.5t-93 -32.5q-55 0 -88 30.5t-33 83.5v52q-47 -82 -127 -126t-180 -44q-369 0 -369 413z M221 1452q0 43 33 75t78 32q59 0 106 -62l199 -264q16 -18 16 -45t-19.5 -46.5t-45.5 -19.5q-25 0 -47 17l-265 215q-55 41 -55 98z" />
<glyph unicode="&#xfa;" horiz-adv-x="1185" d="M127 397v504q0 55 35 88t92 33q59 0 94 -33t35 -88v-506q0 -106 43 -157.5t135 -51.5q106 0 171 71t65 187v457q0 55 34.5 88t92.5 33q59 0 94 -33t35 -88v-795q0 -53 -36 -85.5t-93 -32.5q-55 0 -88 30.5t-33 83.5v52q-47 -82 -127 -126t-180 -44q-369 0 -369 413z M530 1188q0 23 17 45l198 264q47 61 109 62q45 0 76.5 -32t31.5 -75q0 -57 -55 -98l-264 -215q-22 -17 -45 -17q-29 0 -48.5 19.5t-19.5 46.5z" />
<glyph unicode="&#xfb;" horiz-adv-x="1185" d="M127 397v504q0 55 35 88t92 33q59 0 94 -33t35 -88v-506q0 -106 43 -157.5t135 -51.5q106 0 171 71t65 187v457q0 55 34.5 88t92.5 33q59 0 94 -33t35 -88v-795q0 -53 -36 -85.5t-93 -32.5q-55 0 -88 30.5t-33 83.5v52q-47 -82 -127 -126t-180 -44q-369 0 -369 413z M291 1204q0 27 18 53l180 244q25 31 47.5 45.5t55.5 14.5q35 0 57.5 -14.5t44.5 -47.5l180 -242q18 -25 19 -53q0 -33 -25.5 -57.5t-58.5 -24.5q-43 0 -72 43l-145 226l-146 -226q-28 -43 -71 -43q-33 0 -58.5 24.5t-25.5 57.5z" />
<glyph unicode="&#xfc;" horiz-adv-x="1185" d="M127 397v504q0 55 35 88t92 33q59 0 94 -33t35 -88v-506q0 -106 43 -157.5t135 -51.5q106 0 171 71t65 187v457q0 55 34.5 88t92.5 33q59 0 94 -33t35 -88v-795q0 -53 -36 -85.5t-93 -32.5q-55 0 -88 30.5t-33 83.5v52q-47 -82 -127 -126t-180 -44q-369 0 -369 413z M270 1341q0 57 37 92t96 35t97.5 -34.5t38.5 -92.5q0 -57 -38 -92t-98 -35q-59 0 -96 35t-37 92zM647 1341q0 57 37 92t96 35q57 0 95 -34.5t38 -92.5q0 -57 -36.5 -92t-96.5 -35q-59 0 -96 35t-37 92z" />
<glyph unicode="&#xfd;" horiz-adv-x="1077" d="M20 909q0 47 40 80t92 33q35 0 63.5 -17.5t44.5 -54.5l287 -633l284 631q17 37 44.5 54.5t60.5 17.5q47 0 85 -32t38 -79q0 -23 -12 -47l-560 -1171q-35 -70 -108 -70q-47 0 -83 30t-36 75q0 23 12 51l140 293l-381 792q-10 20 -11 47zM479 1188q0 23 17 45l198 264 q47 61 109 62q45 0 76.5 -32t31.5 -75q0 -57 -55 -98l-264 -215q-22 -17 -45 -17q-29 0 -48.5 19.5t-19.5 46.5z" />
<glyph unicode="&#xfe;" horiz-adv-x="1230" d="M133 -260v1595q0 53 35 86t94 33q57 0 92 -31.5t35 -83.5v-483q45 82 129 126t191 44q129 0 230 -65.5t157.5 -185.5t56.5 -275q0 -154 -56.5 -271.5t-157.5 -181t-230 -63.5q-106 0 -190.5 45t-129.5 125v-418q0 -51 -35 -83t-92 -32q-59 0 -94 33t-35 86zM385 504 q0 -154 66.5 -238t189.5 -84t189.5 83t66.5 235q0 154 -67.5 240.5t-188.5 86.5q-123 0 -189.5 -84t-66.5 -239z" />
<glyph unicode="&#xff;" horiz-adv-x="1077" d="M20 909q0 47 40 80t92 33q35 0 63.5 -17.5t44.5 -54.5l287 -633l284 631q17 37 44.5 54.5t60.5 17.5q47 0 85 -32t38 -79q0 -23 -12 -47l-560 -1171q-35 -70 -108 -70q-47 0 -83 30t-36 75q0 23 12 51l140 293l-381 792q-10 20 -11 47zM219 1341q0 57 37 92t96 35 t97.5 -34.5t38.5 -92.5q0 -57 -38 -92t-98 -35q-59 0 -96 35t-37 92zM596 1341q0 57 37 92t96 35q57 0 95 -34.5t38 -92.5q0 -57 -36.5 -92t-96.5 -35q-59 0 -96 35t-37 92z" />
<glyph unicode="&#x100;" horiz-adv-x="1519" d="M45 104q0 27 12 54l566 1214q18 41 56 62.5t81 21.5t81 -21.5t56 -62.5l567 -1214q13 -27 13 -54q0 -47 -38 -79.5t-87 -32.5q-33 0 -61.5 17.5t-45.5 53.5l-123 275h-721l-122 -275q-16 -37 -45 -54t-64 -17q-47 0 -86 32.5t-39 79.5zM420 1724q0 41 25.5 62.5 t66.5 21.5h496q41 0 66.5 -21.5t25.5 -62.5q0 -39 -25.5 -60.5t-66.5 -21.5h-496q-41 0 -66.5 22t-25.5 60zM492 543h540l-270 608z" />
<glyph unicode="&#x101;" horiz-adv-x="1105" d="M94 297q0 111 56.5 174.5t183.5 92t350 28.5h51v47q0 100 -43 146t-139 46q-59 0 -120.5 -17t-145.5 -50q-53 -27 -78 -27q-37 0 -60.5 27t-23.5 70q0 35 17.5 60.5t58.5 47.5q72 39 171 61.5t195 22.5q209 0 310.5 -103.5t101.5 -314.5v-499q0 -55 -33 -87t-90 -32 q-53 0 -87 32.5t-34 86.5v45q-35 -80 -109.5 -125t-172.5 -45q-100 0 -182.5 41t-129.5 112.5t-47 159.5zM227 1339q0 41 25.5 62.5t66.5 21.5h496q41 0 66.5 -21.5t25.5 -62.5q0 -39 -25.5 -60.5t-66.5 -21.5h-496q-41 0 -66.5 21.5t-25.5 60.5zM344 317q0 -66 46 -107.5 t114 -41.5q102 0 166.5 68.5t64.5 177.5v43h-37q-137 0 -212.5 -12.5t-108.5 -43t-33 -84.5z" />
<glyph unicode="&#x102;" horiz-adv-x="1519" d="M45 104q0 27 12 54l566 1214q18 41 56 62.5t81 21.5t81 -21.5t56 -62.5l567 -1214q13 -27 13 -54q0 -47 -38 -79.5t-87 -32.5q-33 0 -61.5 17.5t-45.5 53.5l-123 275h-721l-122 -275q-16 -37 -45 -54t-64 -17q-47 0 -86 32.5t-39 79.5zM416 1796q0 31 20.5 49.5 t50.5 18.5q37 0 70 -33q70 -84 203 -84t203 84q33 33 71 33q31 0 50.5 -18.5t19.5 -49.5q0 -23 -12 -47q-41 -76 -129.5 -119t-202.5 -43q-115 0 -203 43t-129 119q-12 25 -12 47zM492 543h540l-270 608z" />
<glyph unicode="&#x103;" horiz-adv-x="1105" d="M94 297q0 111 56.5 174.5t183.5 92t350 28.5h51v47q0 100 -43 146t-139 46q-59 0 -120.5 -17t-145.5 -50q-53 -27 -78 -27q-37 0 -60.5 27t-23.5 70q0 35 17.5 60.5t58.5 47.5q72 39 171 61.5t195 22.5q209 0 310.5 -103.5t101.5 -314.5v-499q0 -55 -33 -87t-90 -32 q-53 0 -87 32.5t-34 86.5v45q-35 -80 -109.5 -125t-172.5 -45q-100 0 -182.5 41t-129.5 112.5t-47 159.5zM221 1434q0 35 22.5 56t52.5 21q45 0 72 -45q66 -117 199 -116q133 0 198 116q27 43 72 43q31 0 53.5 -20.5t22.5 -54.5q0 -16 -6 -35q-39 -100 -132.5 -160.5 t-207.5 -60.5q-115 0 -208 60t-132 161q-6 18 -6 35zM344 317q0 -66 46 -107.5t114 -41.5q102 0 166.5 68.5t64.5 177.5v43h-37q-137 0 -212.5 -12.5t-108.5 -43t-33 -84.5z" />
<glyph unicode="&#x104;" horiz-adv-x="1519" d="M45 104q0 27 12 54l566 1214q18 41 56 62.5t81 21.5t81 -21.5t56 -62.5l567 -1214q12 -27 13 -52q0 -35 -19.5 -62.5t-50.5 -39.5q-129 -45 -129 -145q0 -55 32.5 -86t84.5 -31q49 0 98 18q16 4 20 4q23 0 36.5 -18t13.5 -43q0 -43 -35 -59q-74 -43 -170 -43 q-109 0 -180.5 63.5t-71.5 161.5q0 70 37 128t108 95l-6 14l-123 275h-721l-122 -275q-16 -37 -45 -54t-64 -17q-47 0 -86 32.5t-39 79.5zM492 543h540l-270 608z" />
<glyph unicode="&#x105;" horiz-adv-x="1105" d="M94 297q0 111 56.5 174.5t184.5 92t349 28.5h51v47q0 100 -43 146t-139 46q-59 0 -120.5 -17t-145.5 -50q-57 -27 -78 -27q-37 0 -60.5 27t-23.5 70q0 35 17.5 60.5t58.5 47.5q72 39 171 61.5t195 22.5q209 0 310.5 -103.5t101.5 -314.5v-499q0 -82 -64 -107 q-129 -49 -129 -143q0 -53 32 -85t85 -32q41 0 98 18q17 4 21 4q23 0 37 -17t14 -42q0 -18 -9 -34.5t-28 -26.5q-76 -43 -168 -43q-113 0 -183.5 62.5t-70.5 162.5q0 68 37 125t103 92q-18 29 -19 66v45q-35 -80 -108.5 -125t-171.5 -45q-100 0 -183.5 41t-130.5 112.5 t-47 159.5zM344 317q0 -66 46 -107.5t114 -41.5q102 0 166.5 68.5t64.5 177.5v43h-37q-135 0 -211.5 -13.5t-109.5 -43t-33 -83.5z" />
<glyph unicode="&#x106;" horiz-adv-x="1388" d="M111 723q0 225 84 392t240.5 257t365.5 90q135 0 254 -40t211 -115q27 -20 37 -43t10 -56q0 -45 -24.5 -75.5t-59.5 -30.5q-41 0 -84 28q-88 66 -164 91.5t-168 25.5q-213 0 -322.5 -133t-109.5 -391q0 -260 109.5 -393t322.5 -133q88 0 163 26.5t169 89.5 q20 12 40.5 20.5t43.5 8.5q35 0 59.5 -30.5t24.5 -75.5q0 -31 -10.5 -54.5t-36.5 -44.5q-92 -76 -211 -115.5t-254 -39.5q-209 0 -365.5 90t-240.5 258t-84 393zM737 1614q0 23 23 45l186 192q39 41 88 41q41 0 71 -29.5t30 -68.5q0 -27 -17.5 -51.5t-52.5 -42.5l-231 -135 q-17 -9 -33 -9q-27 0 -45.5 17.5t-18.5 40.5z" />
<glyph unicode="&#x107;" horiz-adv-x="999" d="M78 500q0 156 64.5 275.5t181 185t268.5 65.5q80 0 161 -22.5t142 -61.5q66 -43 66 -108q0 -45 -21.5 -73t-56.5 -28q-23 0 -47.5 10.5t-49.5 24.5q-45 27 -86 42t-94 15q-127 0 -195.5 -83t-68.5 -238q0 -154 68.5 -237t195.5 -83q51 0 91 15.5t89 42.5q31 18 53.5 27.5 t45.5 9.5q33 0 55.5 -29t22.5 -72q0 -35 -15.5 -60.5t-50.5 -45.5q-63 -41 -147 -64.5t-172 -23.5q-150 0 -263.5 63.5t-175 180t-61.5 272.5zM530 1188q0 23 17 45l198 264q47 61 109 62q45 0 76.5 -32t31.5 -75q0 -57 -55 -98l-264 -215q-22 -17 -45 -17q-29 0 -48.5 19.5 t-19.5 46.5z" />
<glyph unicode="&#x108;" horiz-adv-x="1388" d="M111 723q0 225 84 392t240.5 257t365.5 90q135 0 254 -40t211 -115q27 -20 37 -43t10 -56q0 -45 -24.5 -75.5t-59.5 -30.5q-41 0 -84 28q-88 66 -164 91.5t-168 25.5q-213 0 -322.5 -133t-109.5 -391q0 -260 109.5 -393t322.5 -133q88 0 163 26.5t169 89.5 q20 12 40.5 20.5t43.5 8.5q35 0 59.5 -30.5t24.5 -75.5q0 -31 -10.5 -54.5t-36.5 -44.5q-92 -76 -211 -115.5t-254 -39.5q-209 0 -365.5 90t-240.5 258t-84 393zM504 1634q0 35 33 62l170 157q43 37 94 37t94 -37l170 -157q31 -29 31 -64q0 -31 -22.5 -53.5t-55.5 -22.5 q-35 0 -64 29l-153 158l-154 -158q-28 -29 -63 -29q-33 0 -56.5 24t-23.5 54z" />
<glyph unicode="&#x109;" horiz-adv-x="999" d="M78 500q0 156 64.5 275.5t181 185t268.5 65.5q80 0 161 -22.5t142 -61.5q66 -43 66 -108q0 -45 -21.5 -73t-56.5 -28q-23 0 -47.5 10.5t-49.5 24.5q-45 27 -86 42t-94 15q-127 0 -195.5 -83t-68.5 -238q0 -154 68.5 -237t195.5 -83q51 0 91 15.5t89 42.5q31 18 53.5 27.5 t45.5 9.5q33 0 55.5 -29t22.5 -72q0 -35 -15.5 -60.5t-50.5 -45.5q-63 -41 -147 -64.5t-172 -23.5q-150 0 -263.5 63.5t-175 180t-61.5 272.5zM291 1204q0 27 18 53l180 244q25 31 47.5 45.5t55.5 14.5q35 0 57.5 -14.5t44.5 -47.5l180 -242q18 -25 19 -53 q0 -33 -25.5 -57.5t-58.5 -24.5q-43 0 -72 43l-145 226l-146 -226q-28 -43 -71 -43q-33 0 -58.5 24.5t-25.5 57.5z" />
<glyph unicode="&#x10a;" horiz-adv-x="1388" d="M111 723q0 225 84 392t240.5 257t365.5 90q135 0 254 -40t211 -115q27 -20 37 -43t10 -56q0 -45 -24.5 -75.5t-59.5 -30.5q-41 0 -84 28q-88 66 -164 91.5t-168 25.5q-213 0 -322.5 -133t-109.5 -391q0 -260 109.5 -393t322.5 -133q88 0 163 26.5t169 89.5 q20 12 40.5 20.5t43.5 8.5q35 0 59.5 -30.5t24.5 -75.5q0 -31 -10.5 -54.5t-36.5 -44.5q-92 -76 -211 -115.5t-254 -39.5q-209 0 -365.5 90t-240.5 258t-84 393zM649 1726q0 61 41 98.5t111 37.5q68 0 109.5 -37t41.5 -99q0 -61 -41 -99t-110 -38q-70 0 -111 38t-41 99z" />
<glyph unicode="&#x10b;" horiz-adv-x="999" d="M78 500q0 156 64.5 275.5t181 185t268.5 65.5q80 0 161 -22.5t142 -61.5q66 -43 66 -108q0 -45 -21.5 -73t-56.5 -28q-23 0 -47.5 10.5t-49.5 24.5q-45 27 -86 42t-94 15q-127 0 -195.5 -83t-68.5 -238q0 -154 68.5 -237t195.5 -83q51 0 91 15.5t89 42.5q31 18 53.5 27.5 t45.5 9.5q33 0 55.5 -29t22.5 -72q0 -35 -15.5 -60.5t-50.5 -45.5q-63 -41 -147 -64.5t-172 -23.5q-150 0 -263.5 63.5t-175 180t-61.5 272.5zM440 1341q0 61 41 98.5t111 37.5q68 0 109.5 -37t41.5 -99q0 -61 -41 -99t-110 -38q-70 0 -111 38t-41 99z" />
<glyph unicode="&#x10c;" horiz-adv-x="1388" d="M111 723q0 225 84 392t240.5 257t365.5 90q135 0 254 -40t211 -115q27 -20 37 -43t10 -56q0 -45 -24.5 -75.5t-59.5 -30.5q-41 0 -84 28q-88 66 -164 91.5t-168 25.5q-213 0 -322.5 -133t-109.5 -391q0 -260 109.5 -393t322.5 -133q88 0 163 26.5t169 89.5 q20 12 40.5 20.5t43.5 8.5q35 0 59.5 -30.5t24.5 -75.5q0 -31 -10.5 -54.5t-36.5 -44.5q-92 -76 -211 -115.5t-254 -39.5q-209 0 -365.5 90t-240.5 258t-84 393zM506 1815q0 31 22.5 54t55.5 23q35 0 63 -28l154 -158l153 158q29 29 64 28q33 0 56.5 -23.5t23.5 -53.5 q0 -33 -33 -64l-170 -158q-43 -37 -94 -37q-47 0 -94 37l-170 158q-31 29 -31 64z" />
<glyph unicode="&#x10d;" horiz-adv-x="999" d="M78 500q0 156 64.5 275.5t181 185t268.5 65.5q80 0 161 -22.5t142 -61.5q66 -43 66 -108q0 -45 -21.5 -73t-56.5 -28q-23 0 -47.5 10.5t-49.5 24.5q-45 27 -86 42t-94 15q-127 0 -195.5 -83t-68.5 -238q0 -154 68.5 -237t195.5 -83q51 0 91 15.5t89 42.5q31 18 53.5 27.5 t45.5 9.5q33 0 55.5 -29t22.5 -72q0 -35 -15.5 -60.5t-50.5 -45.5q-63 -41 -147 -64.5t-172 -23.5q-150 0 -263.5 63.5t-175 180t-61.5 272.5zM291 1479q0 33 25.5 57.5t58.5 24.5q43 0 71 -43l146 -226l145 226q29 43 72 43q33 0 58.5 -25t25.5 -57q0 -25 -19 -54 l-180 -241q-23 -31 -46 -46.5t-56 -15.5t-56.5 15.5t-46.5 46.5l-180 241q-18 25 -18 54z" />
<glyph unicode="&#x10e;" horiz-adv-x="1544" d="M156 125v1194q0 59 33.5 92t93.5 33h405q354 0 550 -189.5t196 -531.5q0 -344 -196 -533.5t-550 -189.5h-405q-60 0 -93.5 33t-33.5 92zM420 215h252q498 0 497 508q0 506 -497 506h-252v-1014zM477 1815q0 31 22.5 54t55.5 23q35 0 63 -28l154 -158l153 158q29 29 64 28 q33 0 56.5 -23.5t23.5 -53.5q0 -33 -33 -64l-170 -158q-43 -37 -94 -37q-47 0 -94 37l-170 158q-31 29 -31 64z" />
<glyph unicode="&#x10f;" horiz-adv-x="1230" d="M78 510q0 156 56 272.5t156.5 180t231.5 63.5q109 0 193 -45t129 -127v485q0 51 33.5 83t91.5 32q57 0 94 -32.5t37 -86.5v-1224q0 -55 -35 -88t-92 -33t-92 32.5t-35 88.5v51q-45 -84 -130 -131t-194 -47q-129 0 -230.5 65.5t-157.5 185t-56 275.5zM334 510 q0 -156 67.5 -242t188.5 -86q123 0 189.5 84t66.5 240t-66.5 238.5t-187.5 82.5q-123 0 -190.5 -81.5t-67.5 -235.5zM1157 1079v293q0 41 22.5 62.5t53.5 21.5q33 0 54.5 -24.5t15.5 -65.5l-48 -295q-2 -23 -16 -36t-33 -13q-20 0 -34.5 15.5t-14.5 41.5z" />
<glyph unicode="&#x110;" horiz-adv-x="1593" d="M0 731q0 47 30.5 73.5t88.5 26.5h86v488q0 59 32.5 92t92.5 33h407q353 0 549.5 -189.5t196.5 -531.5q0 -344 -195.5 -533.5t-550.5 -189.5h-407q-57 0 -91 34t-34 91v504h-86q-57 0 -88 26.5t-31 75.5zM467 215h254q498 0 498 508q0 506 -498 506h-254v-398h293 q57 0 87 -26.5t30 -73.5q0 -49 -30 -75.5t-87 -26.5h-293v-414z" />
<glyph unicode="&#x111;" horiz-adv-x="1230" d="M78 510q0 156 56 272.5t156.5 180t231.5 63.5q109 0 193 -45t129 -127v254h-303q-51 0 -79 23.5t-28 66.5t27.5 67.5t79.5 24.5h303v49q0 51 33.5 83t91.5 32q57 0 94 -32.5t37 -86.5v-45h96q53 0 81 -24.5t28 -67.5t-28 -66.5t-81 -23.5h-96v-997q0 -55 -35 -88t-92 -33 t-92 32.5t-35 88.5v51q-45 -84 -130 -131t-194 -47q-129 0 -230.5 65.5t-157.5 185t-56 275.5zM334 510q0 -156 67.5 -242t188.5 -86q123 0 189.5 84t66.5 240t-66.5 238.5t-187.5 82.5q-123 0 -190.5 -81.5t-67.5 -235.5z" />
<glyph unicode="&#x112;" horiz-adv-x="1206" d="M156 125v1194q0 59 33.5 92t93.5 33h739q59 0 92 -26.5t33 -76.5q0 -51 -33 -78.5t-92 -27.5h-608v-397h567q59 0 92 -27t33 -78q0 -49 -33 -75.5t-92 -26.5h-567v-422h608q59 0 92 -27.5t33 -79.5q0 -49 -33 -75.5t-92 -26.5h-739q-60 0 -93.5 33t-33.5 92zM332 1724 q0 41 25.5 62.5t66.5 21.5h496q41 0 66.5 -21.5t25.5 -62.5q0 -39 -25.5 -60.5t-66.5 -21.5h-496q-41 0 -66.5 22t-25.5 60z" />
<glyph unicode="&#x113;" horiz-adv-x="1087" d="M78 504q0 154 61.5 272.5t173 184t252.5 65.5q135 0 235.5 -59.5t156 -168t55.5 -255.5q0 -88 -78 -88h-604q12 -141 79.5 -208t196.5 -67q66 0 116 16.5t114 45.5q61 33 90 32q35 0 56.5 -26.5t21.5 -71.5q0 -63 -76 -106q-70 -39 -158 -62.5t-168 -23.5 q-242 0 -383 139t-141 381zM225 1339q0 41 25.5 62.5t66.5 21.5h496q41 0 66.5 -21.5t25.5 -62.5q0 -39 -25.5 -60.5t-66.5 -21.5h-496q-41 0 -66.5 21.5t-25.5 60.5zM330 592h463q-4 125 -61.5 189.5t-160.5 64.5q-104 0 -166.5 -65.5t-74.5 -188.5z" />
<glyph unicode="&#x114;" horiz-adv-x="1206" d="M156 125v1194q0 59 33.5 92t93.5 33h739q59 0 92 -26.5t33 -76.5q0 -51 -33 -78.5t-92 -27.5h-608v-397h567q59 0 92 -27t33 -78q0 -49 -33 -75.5t-92 -26.5h-567v-422h608q59 0 92 -27.5t33 -79.5q0 -49 -33 -75.5t-92 -26.5h-739q-60 0 -93.5 33t-33.5 92zM328 1796 q0 31 20.5 49.5t50.5 18.5q37 0 70 -33q70 -84 203 -84t203 84q33 33 71 33q31 0 50.5 -18.5t19.5 -49.5q0 -23 -12 -47q-41 -76 -129.5 -119t-202.5 -43q-115 0 -203 43t-129 119q-12 25 -12 47z" />
<glyph unicode="&#x115;" horiz-adv-x="1087" d="M78 504q0 154 61.5 272.5t173 184t252.5 65.5q135 0 235.5 -59.5t156 -168t55.5 -255.5q0 -88 -78 -88h-604q12 -141 79.5 -208t196.5 -67q66 0 116 16.5t114 45.5q61 33 90 32q35 0 56.5 -26.5t21.5 -71.5q0 -63 -76 -106q-70 -39 -158 -62.5t-168 -23.5 q-242 0 -383 139t-141 381zM219 1434q0 35 22.5 56t52.5 21q45 0 72 -45q66 -117 199 -116q133 0 198 116q27 43 72 43q31 0 53.5 -20.5t22.5 -54.5q0 -16 -6 -35q-39 -100 -132.5 -160.5t-207.5 -60.5q-115 0 -208 60t-132 161q-6 18 -6 35zM330 592h463 q-4 125 -61.5 189.5t-160.5 64.5q-104 0 -166.5 -65.5t-74.5 -188.5z" />
<glyph unicode="&#x116;" horiz-adv-x="1206" d="M156 125v1194q0 59 33.5 92t93.5 33h739q59 0 92 -26.5t33 -76.5q0 -51 -33 -78.5t-92 -27.5h-608v-397h567q59 0 92 -27t33 -78q0 -49 -33 -75.5t-92 -26.5h-567v-422h608q59 0 92 -27.5t33 -79.5q0 -49 -33 -75.5t-92 -26.5h-739q-60 0 -93.5 33t-33.5 92zM520 1726 q0 61 41 98.5t111 37.5q68 0 109.5 -37t41.5 -99q0 -61 -41 -99t-110 -38q-70 0 -111 38t-41 99z" />
<glyph unicode="&#x117;" horiz-adv-x="1087" d="M78 504q0 154 61.5 272.5t173 184t252.5 65.5q135 0 235.5 -59.5t156 -168t55.5 -255.5q0 -88 -78 -88h-604q12 -141 79.5 -208t196.5 -67q66 0 116 16.5t114 45.5q61 33 90 32q35 0 56.5 -26.5t21.5 -71.5q0 -63 -76 -106q-70 -39 -158 -62.5t-168 -23.5 q-242 0 -383 139t-141 381zM330 592h463q-4 125 -61.5 189.5t-160.5 64.5q-104 0 -166.5 -65.5t-74.5 -188.5zM413 1341q0 61 41 98.5t111 37.5q68 0 109.5 -37t41.5 -99q0 -61 -41 -99t-110 -38q-70 0 -111 38t-41 99z" />
<glyph unicode="&#x118;" horiz-adv-x="1206" d="M156 125v1194q0 59 33.5 92t93.5 33h739q59 0 92 -26.5t33 -76.5q0 -51 -33 -78.5t-92 -27.5h-608v-397h567q59 0 92 -27t33 -78q0 -49 -33 -75.5t-92 -26.5h-567v-422h608q59 0 92 -27.5t33 -79.5q0 -43 -22.5 -67.5t-71.5 -34.5q-63 -10 -96 -47t-33 -94 q0 -55 31.5 -86t82.5 -31q41 0 99 18q16 4 20 4q23 0 37 -18t14 -43q0 -43 -34 -59q-72 -43 -170 -43q-113 0 -183.5 62.5t-70.5 158.5q0 106 79 178h-546q-59 0 -93 33t-34 92z" />
<glyph unicode="&#x119;" horiz-adv-x="1087" d="M78 504q0 154 61.5 272.5t173 184t252.5 65.5q135 0 235.5 -59.5t156 -168t55.5 -255.5q0 -88 -78 -88h-604q12 -141 79.5 -208t196.5 -67q66 0 116 16.5t114 45.5q61 33 90 32q35 0 56.5 -26.5t21.5 -71.5q0 -35 -21.5 -61.5t-67.5 -51.5q-111 -59 -153.5 -104 t-42.5 -100t31.5 -86t85.5 -31q49 0 98 18q16 4 20 4q23 0 36.5 -18t13.5 -43q0 -43 -35 -59q-72 -43 -170 -43q-111 0 -181.5 62.5t-70.5 158.5q0 94 69 162h-12q-244 0 -385 139t-141 381zM330 592h463q-4 125 -61.5 189.5t-160.5 64.5q-104 0 -166.5 -65.5t-74.5 -188.5z " />
<glyph unicode="&#x11a;" horiz-adv-x="1206" d="M156 125v1194q0 59 33.5 92t93.5 33h739q59 0 92 -26.5t33 -76.5q0 -51 -33 -78.5t-92 -27.5h-608v-397h567q59 0 92 -27t33 -78q0 -49 -33 -75.5t-92 -26.5h-567v-422h608q59 0 92 -27.5t33 -79.5q0 -49 -33 -75.5t-92 -26.5h-739q-60 0 -93.5 33t-33.5 92zM377 1815 q0 31 22.5 54t55.5 23q35 0 63 -28l154 -158l153 158q29 29 64 28q33 0 56.5 -23.5t23.5 -53.5q0 -33 -33 -64l-170 -158q-43 -37 -94 -37q-47 0 -94 37l-170 158q-31 29 -31 64z" />
<glyph unicode="&#x11b;" horiz-adv-x="1087" d="M78 504q0 154 61.5 272.5t173 184t252.5 65.5q135 0 235.5 -59.5t156 -168t55.5 -255.5q0 -88 -78 -88h-604q12 -141 79.5 -208t196.5 -67q66 0 116 16.5t114 45.5q61 33 90 32q35 0 56.5 -26.5t21.5 -71.5q0 -63 -76 -106q-70 -39 -158 -62.5t-168 -23.5 q-242 0 -383 139t-141 381zM264 1479q0 33 25.5 57.5t58.5 24.5q43 0 71 -43l146 -226l145 226q29 43 72 43q33 0 58.5 -25t25.5 -57q0 -25 -19 -54l-180 -241q-23 -31 -46 -46.5t-56 -15.5t-56.5 15.5t-46.5 46.5l-180 241q-18 25 -18 54zM330 592h463q-4 125 -61.5 189.5 t-160.5 64.5q-104 0 -166.5 -65.5t-74.5 -188.5z" />
<glyph unicode="&#x11c;" horiz-adv-x="1501" d="M111 723q0 227 87 394t246.5 256t376.5 89q289 0 473 -155q25 -23 36 -45.5t11 -53.5q0 -45 -24.5 -75.5t-59.5 -30.5q-23 0 -41 7t-42 24q-90 63 -168 88.5t-177 25.5q-223 0 -336.5 -132t-113.5 -392q0 -532 467 -533q139 0 278 39v363h-231q-49 0 -77 24.5t-28 69.5 t28 69.5t77 24.5h362q48 0 76.5 -27.5t28.5 -72.5v-440q0 -94 -24.5 -133t-100.5 -64q-82 -29 -190.5 -45t-208.5 -16q-223 0 -387 88t-251 255t-87 398zM524 1634q0 35 33 62l170 157q43 37 94 37t94 -37l170 -157q31 -29 31 -64q0 -31 -22.5 -53.5t-55.5 -22.5 q-35 0 -64 29l-153 158l-154 -158q-28 -29 -63 -29q-33 0 -56.5 24t-23.5 54z" />
<glyph unicode="&#x11d;" horiz-adv-x="1239" d="M78 526q0 147 56 261t158.5 176.5t233.5 62.5q111 0 197 -46t131 -130v53q0 53 35 86t92 33t92 -33t35 -88v-809q0 -236 -131 -356.5t-387 -120.5q-223 0 -373 84q-76 45 -76 108q0 45 21.5 72t56.5 27q18 0 45 -9.5t55 -21.5q74 -31 132.5 -47t134.5 -16q268 0 268 262 v131q-45 -84 -131 -130t-197 -46q-131 0 -232 62.5t-158.5 175t-57.5 259.5zM322 1204q0 27 18 53l180 244q25 31 47.5 45.5t55.5 14.5q35 0 57.5 -14.5t44.5 -47.5l180 -242q18 -25 19 -53q0 -33 -25.5 -57.5t-58.5 -24.5q-43 0 -72 43l-145 226l-146 -226q-28 -43 -71 -43 q-33 0 -58.5 24.5t-25.5 57.5zM334 526q0 -139 69.5 -219t190.5 -80q123 0 191.5 80t68.5 219q0 141 -68.5 221t-191.5 80q-121 0 -190.5 -79.5t-69.5 -221.5z" />
<glyph unicode="&#x11e;" horiz-adv-x="1501" d="M111 723q0 227 87 394t246.5 256t376.5 89q289 0 473 -155q25 -23 36 -45.5t11 -53.5q0 -45 -24.5 -75.5t-59.5 -30.5q-23 0 -41 7t-42 24q-90 63 -168 88.5t-177 25.5q-223 0 -336.5 -132t-113.5 -392q0 -532 467 -533q139 0 278 39v363h-231q-49 0 -77 24.5t-28 69.5 t28 69.5t77 24.5h362q48 0 76.5 -27.5t28.5 -72.5v-440q0 -94 -24.5 -133t-100.5 -64q-82 -29 -190.5 -45t-208.5 -16q-223 0 -387 88t-251 255t-87 398zM477 1796q0 31 20.5 49.5t50.5 18.5q37 0 70 -33q70 -84 203 -84t203 84q33 33 71 33q31 0 50.5 -18.5t19.5 -49.5 q0 -23 -12 -47q-41 -76 -129.5 -119t-202.5 -43q-115 0 -203 43t-129 119q-12 25 -12 47z" />
<glyph unicode="&#x11f;" horiz-adv-x="1239" d="M78 526q0 147 56 261t158.5 176.5t233.5 62.5q111 0 197 -46t131 -130v53q0 53 35 86t92 33t92 -33t35 -88v-809q0 -236 -131 -356.5t-387 -120.5q-223 0 -373 84q-76 45 -76 108q0 45 21.5 72t56.5 27q18 0 45 -9.5t55 -21.5q74 -31 132.5 -47t134.5 -16q268 0 268 262 v131q-45 -84 -131 -130t-197 -46q-131 0 -232 62.5t-158.5 175t-57.5 259.5zM277 1434q0 35 22.5 56t52.5 21q45 0 72 -45q66 -117 199 -116q133 0 198 116q27 43 72 43q31 0 53.5 -20.5t22.5 -54.5q0 -16 -6 -35q-39 -100 -132.5 -160.5t-207.5 -60.5q-115 0 -208 60 t-132 161q-6 18 -6 35zM334 526q0 -139 69.5 -219t190.5 -80q123 0 191.5 80t68.5 219q0 141 -68.5 221t-191.5 80q-121 0 -190.5 -79.5t-69.5 -221.5z" />
<glyph unicode="&#x120;" horiz-adv-x="1501" d="M111 723q0 227 87 394t246.5 256t376.5 89q289 0 473 -155q25 -23 36 -45.5t11 -53.5q0 -45 -24.5 -75.5t-59.5 -30.5q-23 0 -41 7t-42 24q-90 63 -168 88.5t-177 25.5q-223 0 -336.5 -132t-113.5 -392q0 -532 467 -533q139 0 278 39v363h-231q-49 0 -77 24.5t-28 69.5 t28 69.5t77 24.5h362q48 0 76.5 -27.5t28.5 -72.5v-440q0 -94 -24.5 -133t-100.5 -64q-82 -29 -190.5 -45t-208.5 -16q-223 0 -387 88t-251 255t-87 398zM669 1726q0 61 41 98.5t111 37.5q68 0 109.5 -37t41.5 -99q0 -61 -41 -99t-110 -38q-70 0 -111 38t-41 99z" />
<glyph unicode="&#x121;" horiz-adv-x="1239" d="M78 526q0 147 56 261t158.5 176.5t233.5 62.5q111 0 197 -46t131 -130v53q0 53 35 86t92 33t92 -33t35 -88v-809q0 -236 -131 -356.5t-387 -120.5q-223 0 -373 84q-76 45 -76 108q0 45 21.5 72t56.5 27q18 0 45 -9.5t55 -21.5q74 -31 132.5 -47t134.5 -16q268 0 268 262 v131q-45 -84 -131 -130t-197 -46q-131 0 -232 62.5t-158.5 175t-57.5 259.5zM334 526q0 -139 69.5 -219t190.5 -80q123 0 191.5 80t68.5 219q0 141 -68.5 221t-191.5 80q-121 0 -190.5 -79.5t-69.5 -221.5zM471 1341q0 61 41 98.5t111 37.5q68 0 109.5 -37t41.5 -99 q0 -61 -41 -99t-110 -38q-70 0 -111 38t-41 99z" />
<glyph unicode="&#x122;" horiz-adv-x="1501" d="M111 723q0 227 87 394t246.5 256t376.5 89q289 0 473 -155q25 -23 36 -45.5t11 -53.5q0 -45 -24.5 -75.5t-59.5 -30.5q-23 0 -41 7t-42 24q-90 63 -168 88.5t-177 25.5q-223 0 -336.5 -132t-113.5 -392q0 -532 467 -533q139 0 278 39v363h-231q-49 0 -77 24.5t-28 69.5 t28 69.5t77 24.5h362q48 0 76.5 -27.5t28.5 -72.5v-440q0 -94 -24.5 -133t-100.5 -64q-82 -29 -190.5 -45t-208.5 -16q-223 0 -387 88t-251 255t-87 398zM703 -250q0 55 36.5 88t94.5 33q69 0 109 -41t40 -125q0 -63 -20.5 -120.5t-57.5 -98.5q-31 -33 -69 -33 q-25 0 -43.5 14.5t-18.5 34.5q0 18 15 39q41 55 49 99h-8q-53 0 -90 28.5t-37 81.5z" />
<glyph unicode="&#x123;" horiz-adv-x="1239" d="M78 526q0 147 56 261t158.5 176.5t233.5 62.5q111 0 197 -46t131 -130v53q0 53 35 86t92 33t92 -33t35 -88v-809q0 -236 -131 -356.5t-387 -120.5q-223 0 -373 84q-76 45 -76 108q0 45 21.5 72t56.5 27q18 0 45 -9.5t55 -21.5q74 -31 132.5 -47t134.5 -16q268 0 268 262 v131q-45 -84 -131 -130t-197 -46q-131 0 -232 62.5t-158.5 175t-57.5 259.5zM334 526q0 -139 69.5 -219t190.5 -80q123 0 191.5 80t68.5 219q0 141 -68.5 221t-191.5 80q-121 0 -190.5 -79.5t-69.5 -221.5zM475 1350q0 63 20.5 119.5t57.5 97.5q27 33 72 32q25 0 42 -13 t17 -34q0 -18 -14 -39q-41 -55 -49 -100h8q53 0 90 -28.5t37 -79.5q0 -55 -37 -89t-94 -34q-70 0 -110 42t-40 126z" />
<glyph unicode="&#x124;" horiz-adv-x="1568" d="M156 121v1202q0 59 34.5 95t94.5 36q59 0 95 -36t36 -95v-483h739v483q0 59 35 95t94 36t94 -36t35 -95v-1202q0 -59 -36 -96t-93 -37q-59 0 -94 36.5t-35 96.5v506h-739v-506q0 -59 -36 -96t-95 -37q-57 0 -93 36.5t-36 96.5zM488 1634q0 35 33 62l170 157q43 37 94 37 t94 -37l170 -157q31 -29 31 -64q0 -31 -22.5 -53.5t-55.5 -22.5q-35 0 -64 29l-153 158l-154 -158q-28 -29 -63 -29q-33 0 -56.5 24t-23.5 54z" />
<glyph unicode="&#x125;" horiz-adv-x="1198" d="M-35 1634q0 35 33 62l170 157q43 37 94 37t94 -37l170 -157q31 -29 31 -64q0 -31 -22.5 -53.5t-55.5 -22.5q-35 0 -64 29l-153 158l-154 -158q-28 -29 -63 -29q-33 0 -56.5 24t-23.5 54zM133 111v1224q0 53 36 86t93 33t92 -30.5t35 -84.5v-477q51 80 136 122t194 42 q352 0 352 -412v-503q0 -57 -33.5 -90t-93.5 -33q-59 0 -94 32.5t-35 90.5v503q0 109 -44 159t-138 50q-111 0 -177.5 -69.5t-66.5 -186.5v-456q0 -57 -35 -90t-94 -33t-93 32.5t-34 90.5z" />
<glyph unicode="&#x126;" horiz-adv-x="1667" d="M0 1145q0 45 30.5 71.5t88.5 26.5h86v80q0 61 37 96t92 35t92 -35t37 -96v-80h739v80q0 61 37 96t92 35q57 0 94 -35t37 -96v-80h88q56 0 86.5 -26.5t30.5 -71.5t-30.5 -71.5t-86.5 -26.5h-88v-926q0 -63 -36.5 -98t-94.5 -35q-55 0 -92 34.5t-37 98.5v506h-739v-506 q0 -63 -37 -98t-92 -35t-92 34.5t-37 98.5v926h-86q-57 0 -88 26.5t-31 71.5zM463 840h739v207h-739v-207z" />
<glyph unicode="&#x127;" horiz-adv-x="1198" d="M-72 1198q0 43 28 67.5t79 24.5h98v45q0 53 36 86t93 33t92 -30.5t35 -84.5v-49h301q53 0 81 -24.5t28 -67.5t-28 -66.5t-81 -23.5h-301v-246q51 80 136 122t194 42q352 0 352 -412v-503q0 -57 -33.5 -90t-93.5 -33q-59 0 -94 32.5t-35 90.5v503q0 109 -44 159t-138 50 q-111 0 -177.5 -69.5t-66.5 -186.5v-456q0 -57 -35 -90t-94 -33t-93 32.5t-34 90.5v997h-98q-51 0 -79 23.5t-28 66.5z" />
<glyph unicode="&#x128;" horiz-adv-x="575" d="M-53 1667q0 39 24.5 81t68.5 70.5t97 28.5q35 0 71 -9t89 -28q37 -12 73 -22t64 -10q27 0 42.5 9t35.5 30q18 18 28.5 25t28.5 7q27 0 42.5 -16t15.5 -45q0 -39 -24.5 -82t-68.5 -71.5t-98 -28.5q-35 0 -70.5 9t-88.5 27q-37 12 -73 22.5t-65 10.5q-27 0 -42 -9t-35 -30 q-18 -18 -28.5 -25t-29.5 -7q-27 0 -42 17t-15 46zM156 121v1202q0 59 35.5 95t95.5 36q61 0 97 -36t36 -95v-1202q0 -59 -36 -96t-97 -37q-60 0 -95.5 36.5t-35.5 96.5z" />
<glyph unicode="&#x129;" horiz-adv-x="520" d="M-80 1272q0 41 24.5 91t68.5 86t97 36q37 0 73 -16.5t91 -49.5q45 -27 71.5 -39t49.5 -12q33 0 52.5 16.5t39.5 47.5q16 25 28.5 36t31.5 11q25 0 39 -19.5t14 -50.5q0 -41 -24.5 -91t-68.5 -86t-98 -36q-37 0 -72.5 16.5t-91.5 49.5q-45 27 -71.5 39t-48.5 12 q-33 0 -52.5 -16.5t-40.5 -47.5q-16 -25 -28 -36t-31 -11q-23 0 -38 19.5t-15 50.5zM133 111v790q0 59 36 90t91 31t92 -30.5t37 -90.5v-790q0 -59 -37 -91t-92 -32t-91 31.5t-36 91.5z" />
<glyph unicode="&#x12a;" horiz-adv-x="575" d="M-53 1724q0 41 25.5 62.5t66.5 21.5h496q41 0 66.5 -21.5t25.5 -62.5q0 -39 -25.5 -60.5t-66.5 -21.5h-496q-41 0 -66.5 22t-25.5 60zM156 121v1202q0 59 35.5 95t95.5 36q61 0 97 -36t36 -95v-1202q0 -59 -36 -96t-97 -37q-60 0 -95.5 36.5t-35.5 96.5z" />
<glyph unicode="&#x12b;" horiz-adv-x="520" d="M-80 1339q0 41 25.5 62.5t66.5 21.5h496q41 0 66.5 -21.5t25.5 -62.5q0 -39 -25.5 -60.5t-66.5 -21.5h-496q-41 0 -66.5 21.5t-25.5 60.5zM133 111v790q0 59 36 90t91 31t92 -30.5t37 -90.5v-790q0 -59 -37 -91t-92 -32t-91 31.5t-36 91.5z" />
<glyph unicode="&#x12c;" horiz-adv-x="575" d="M-57 1796q0 31 20.5 49.5t50.5 18.5q37 0 70 -33q70 -84 203 -84t203 84q33 33 71 33q31 0 50.5 -18.5t19.5 -49.5q0 -23 -12 -47q-41 -76 -129.5 -119t-202.5 -43q-115 0 -203 43t-129 119q-12 25 -12 47zM156 121v1202q0 59 35.5 95t95.5 36q61 0 97 -36t36 -95v-1202 q0 -59 -36 -96t-97 -37q-60 0 -95.5 36.5t-35.5 96.5z" />
<glyph unicode="&#x12d;" horiz-adv-x="520" d="M-86 1434q0 35 22.5 56t52.5 21q45 0 72 -45q66 -117 199 -116q133 0 198 116q27 43 72 43q31 0 53.5 -20.5t22.5 -54.5q0 -16 -6 -35q-39 -100 -132.5 -160.5t-207.5 -60.5q-115 0 -208 60t-132 161q-6 18 -6 35zM133 111v790q0 59 36 90t91 31t92 -30.5t37 -90.5v-790 q0 -59 -37 -91t-92 -32t-91 31.5t-36 91.5z" />
<glyph unicode="&#x12e;" horiz-adv-x="575" d="M55 -174q0 66 33 120t94 91q-27 33 -26 84v1202q0 59 35.5 95t95.5 36q61 0 97 -36t36 -95v-1202q0 -41 -17.5 -72t-46.5 -41q-63 -23 -96 -61.5t-33 -87.5q0 -55 32 -86t85 -31q45 0 98 18q17 4 21 4q23 0 36 -17t13 -42q0 -45 -35 -61q-72 -43 -170 -43 q-113 0 -182.5 62.5t-69.5 162.5z" />
<glyph unicode="&#x12f;" horiz-adv-x="520" d="M25 -174q0 63 32.5 119.5t96.5 93.5q-20 31 -21 72v790q0 59 36 90t91 31t92 -30.5t37 -90.5v-790q0 -80 -65 -107q-57 -18 -92 -54t-35 -91t32.5 -86t83.5 -31q49 0 99 18q16 4 20 4q23 0 36 -17t13 -42q0 -45 -35 -61q-78 -43 -170 -43q-111 0 -181 61.5t-70 163.5z M109 1341q0 61 40.5 98.5t110.5 37.5q68 0 110 -37t42 -99q0 -61 -41 -99t-111 -38t-110.5 38t-40.5 99z" />
<glyph unicode="&#x130;" horiz-adv-x="575" d="M135 1726q0 61 41 98.5t111 37.5q68 0 109.5 -37t41.5 -99q0 -61 -41 -99t-110 -38q-70 0 -111 38t-41 99zM156 121v1202q0 59 35.5 95t95.5 36q61 0 97 -36t36 -95v-1202q0 -59 -36 -96t-97 -37q-60 0 -95.5 36.5t-35.5 96.5z" />
<glyph unicode="&#x131;" horiz-adv-x="520" d="M133 111v790q0 59 36 90t91 31t92 -30.5t37 -90.5v-790q0 -59 -37 -91t-92 -32t-91 31.5t-36 91.5z" />
<glyph unicode="&#x134;" horiz-adv-x="733" d="M-29 96q0 49 26 75t81 30l65 4q84 4 127 53t43 150v915q0 59 36 95t95 36q61 0 97.5 -36t36.5 -95v-915q0 -387 -383 -416l-66 -4q-158 -7 -158 108zM148 1634q0 35 33 62l170 157q43 37 94 37t94 -37l170 -157q31 -29 31 -64q0 -31 -22.5 -53.5t-55.5 -22.5 q-35 0 -64 29l-153 158l-154 -158q-28 -29 -63 -29q-33 0 -56.5 24t-23.5 54z" />
<glyph unicode="&#x135;" horiz-adv-x="520" d="M-164 -276q0 84 103 92l55 4q70 4 104.5 43t34.5 119v919q0 59 36 90t91 31t92 -30.5t37 -90.5v-901q0 -344 -344 -369l-55 -4q-74 -4 -114 20.5t-40 76.5zM-43 1204q0 27 18 53l180 244q25 31 47.5 45.5t55.5 14.5q35 0 57.5 -14.5t44.5 -47.5l180 -242q18 -25 19 -53 q0 -33 -25.5 -57.5t-58.5 -24.5q-43 0 -72 43l-145 226l-146 -226q-28 -43 -71 -43q-33 0 -58.5 24.5t-25.5 57.5z" />
<glyph unicode="&#x136;" horiz-adv-x="1351" d="M156 121v1202q0 59 35.5 95t95.5 36q61 0 97 -36t36 -95v-526l659 618q37 37 84 37t83 -36t36 -83t-41 -86l-551 -504l586 -544q41 -39 41 -88q0 -47 -36 -83t-85 -36q-51 0 -94 43l-682 639v-553q0 -59 -36 -96t-97 -37q-59 0 -95 36.5t-36 96.5zM547 -250q0 55 36.5 88 t94.5 33q69 0 109 -41t40 -125q0 -63 -20.5 -120.5t-57.5 -98.5q-31 -33 -69 -33q-25 0 -43.5 14.5t-18.5 34.5q0 18 15 39q41 55 49 99h-8q-53 0 -90 28.5t-37 81.5z" />
<glyph unicode="&#x137;" horiz-adv-x="1097" d="M133 111v1222q0 59 36 90t91 31t92 -30.5t37 -90.5v-770l438 420q37 37 84 37t82 -35t35 -82t-39 -86l-321 -299l356 -319q41 -39 41 -88q0 -47 -34 -84t-79 -37t-84 37l-479 434v-350q0 -59 -37 -90t-92 -31t-91 30.5t-36 90.5zM416 -250q0 55 36.5 88t94.5 33 q69 0 109 -41t40 -125q0 -63 -20.5 -120.5t-57.5 -98.5q-31 -33 -69 -33q-25 0 -43.5 14.5t-18.5 34.5q0 18 15 39q41 55 49 99h-8q-53 0 -90 28.5t-37 81.5z" />
<glyph unicode="&#x138;" horiz-adv-x="1097" d="M133 111v790q0 59 36 90t91 31t92 -30.5t37 -90.5v-338l438 420q37 37 84 37t82 -35t35 -82t-39 -86l-321 -299l356 -319q41 -39 41 -88q0 -47 -34 -84t-79 -37t-84 37l-479 434v-350q0 -59 -37 -90t-92 -31t-91 30.5t-36 90.5z" />
<glyph unicode="&#x139;" horiz-adv-x="1136" d="M156 123v1200q0 59 35.5 95t95.5 36q61 0 97 -36t36 -95v-1106h575q123 0 123 -108q0 -109 -123 -109h-714q-60 0 -92.5 33t-32.5 90zM223 1614q0 23 23 45l186 192q39 41 88 41q41 0 71 -29.5t30 -68.5q0 -27 -17.5 -51.5t-52.5 -42.5l-231 -135q-17 -9 -33 -9 q-27 0 -45.5 17.5t-18.5 40.5z" />
<glyph unicode="&#x13a;" horiz-adv-x="520" d="M133 111v1222q0 59 36 90t91 31t92 -30.5t37 -90.5v-1222q0 -59 -37 -91t-92 -32t-91 31.5t-36 91.5zM196 1614q0 23 23 45l186 192q39 41 88 41q41 0 71 -29.5t30 -68.5q0 -27 -17.5 -51.5t-52.5 -42.5l-231 -135q-17 -9 -33 -9q-27 0 -45.5 17.5t-18.5 40.5z" />
<glyph unicode="&#x13b;" horiz-adv-x="1136" d="M156 123v1200q0 59 35.5 95t95.5 36q61 0 97 -36t36 -95v-1106h575q123 0 123 -108q0 -109 -123 -109h-714q-60 0 -92.5 33t-32.5 90zM504 -250q0 55 36.5 88t94.5 33q69 0 109 -41t40 -125q0 -63 -20.5 -120.5t-57.5 -98.5q-31 -33 -69 -33q-25 0 -43.5 14.5t-18.5 34.5 q0 18 15 39q41 55 49 99h-8q-53 0 -90 28.5t-37 81.5z" />
<glyph unicode="&#x13c;" horiz-adv-x="520" d="M127 -250q0 55 36.5 88t94.5 33q69 0 109 -41t40 -125q0 -63 -20.5 -120.5t-57.5 -98.5q-31 -33 -69 -33q-25 0 -43.5 14.5t-18.5 34.5q0 18 15 39q41 55 49 99h-8q-53 0 -90 28.5t-37 81.5zM133 111v1222q0 59 36 90t91 31t92 -30.5t37 -90.5v-1222q0 -59 -37 -91 t-92 -32t-91 31.5t-36 91.5z" />
<glyph unicode="&#x13d;" horiz-adv-x="1136" d="M156 123v1200q0 59 35.5 95t95.5 36q61 0 97 -36t36 -95v-1106h575q123 0 123 -108q0 -109 -123 -109h-714q-60 0 -92.5 33t-32.5 90zM596 1083v277q0 47 28.5 71.5t67.5 24.5t67.5 -22.5t28.5 -61.5q0 -8 -4 -29l-63 -272q-6 -22 -23.5 -34.5t-38.5 -12.5 q-27 0 -45 16.5t-18 42.5z" />
<glyph unicode="&#x13e;" horiz-adv-x="520" d="M133 111v1222q0 59 36 90t91 31t92 -30.5t37 -90.5v-1222q0 -59 -37 -91t-92 -32t-91 31.5t-36 91.5zM449 1079v293q0 41 22.5 62.5t52.5 21.5q33 0 54.5 -24.5t15.5 -65.5l-47 -295q-2 -22 -16.5 -35.5t-32.5 -13.5q-20 0 -34.5 15.5t-14.5 41.5z" />
<glyph unicode="&#x13f;" horiz-adv-x="1136" d="M156 123v1200q0 59 35.5 95t95.5 36q61 0 97 -36t36 -95v-1106h575q123 0 123 -108q0 -109 -123 -109h-714q-60 0 -92.5 33t-32.5 90zM619 725q0 61 41 98t110 37q68 0 110 -36.5t42 -98.5q0 -63 -41 -100t-111 -37q-69 0 -110 37t-41 100z" />
<glyph unicode="&#x140;" horiz-adv-x="679" d="M133 111v1222q0 59 36 90t91 31t92 -30.5t37 -90.5v-1222q0 -59 -37 -91t-92 -32t-91 31.5t-36 91.5zM449 723q0 61 41 98t110 37q68 0 110 -36.5t42 -98.5q0 -63 -41 -100t-111 -37q-69 0 -110 37t-41 100z" />
<glyph unicode="&#x141;" horiz-adv-x="1183" d="M0 592q0 61 59 92l146 84v555q0 59 35.5 95t95.5 36q61 0 96 -36t35 -95v-403l240 137q31 18 61 18q41 0 68.5 -29.5t27.5 -68.5q0 -55 -57 -90l-340 -197v-473h575q123 1 123 -108t-123 -109h-712q-59 0 -92 33t-33 90v416l-47 -27q-31 -18 -62 -18q-41 0 -68.5 29.5 t-27.5 68.5z" />
<glyph unicode="&#x142;" horiz-adv-x="667" d="M0 592q0 57 59 92l146 84v565q0 59 37 90t92 31t91 -30.5t36 -90.5v-415l47 26q34 19 61 19q41 0 69 -30t28 -69q0 -57 -60 -92l-145 -84v-577q0 -59 -36 -91t-91 -32t-92 31.5t-37 91.5v428l-45 -27q-35 -18 -64 -18q-41 0 -68.5 29.5t-27.5 68.5z" />
<glyph unicode="&#x143;" horiz-adv-x="1529" d="M156 121v1202q0 59 34.5 95t92.5 36q63 0 98 -47l745 -969v885q0 59 34 95t89 36q58 0 91.5 -36t33.5 -95v-1202q0 -59 -34.5 -96t-90.5 -37q-66 0 -100 47l-748 973v-887q0 -59 -32.5 -96t-89.5 -37t-90 36.5t-33 96.5zM700 1614q0 23 23 45l186 192q39 41 88 41 q41 0 71 -29.5t30 -68.5q0 -27 -17.5 -51.5t-52.5 -42.5l-231 -135q-17 -9 -33 -9q-27 0 -45.5 17.5t-18.5 40.5z" />
<glyph unicode="&#x144;" horiz-adv-x="1198" d="M133 111v792q0 53 35 86t94 33q53 0 87 -32t34 -83v-55q51 84 137 129t195 45q180 0 268 -102.5t88 -309.5v-503q0 -57 -33.5 -90t-93.5 -33q-59 0 -94 32.5t-35 90.5v489q0 117 -44 170t-138 53q-111 0 -177.5 -69.5t-66.5 -186.5v-456q0 -57 -35 -90t-94 -33t-93 32.5 t-34 90.5zM540 1188q0 23 17 45l198 264q47 61 109 62q45 0 76.5 -32t31.5 -75q0 -57 -55 -98l-264 -215q-22 -17 -45 -17q-29 0 -48.5 19.5t-19.5 46.5z" />
<glyph unicode="&#x145;" horiz-adv-x="1529" d="M156 121v1202q0 59 34.5 95t92.5 36q63 0 98 -47l745 -969v885q0 59 34 95t89 36q58 0 91.5 -36t33.5 -95v-1202q0 -59 -34.5 -96t-90.5 -37q-66 0 -100 47l-748 973v-887q0 -59 -32.5 -96t-89.5 -37t-90 36.5t-33 96.5zM633 -250q0 55 36.5 88t94.5 33q69 0 109 -41 t40 -125q0 -63 -20.5 -120.5t-57.5 -98.5q-31 -33 -69 -33q-25 0 -43.5 14.5t-18.5 34.5q0 18 15 39q41 55 49 99h-8q-53 0 -90 28.5t-37 81.5z" />
<glyph unicode="&#x146;" horiz-adv-x="1198" d="M133 111v792q0 53 35 86t94 33q53 0 87 -32t34 -83v-55q51 84 137 129t195 45q180 0 268 -102.5t88 -309.5v-503q0 -57 -33.5 -90t-93.5 -33q-59 0 -94 32.5t-35 90.5v489q0 117 -44 170t-138 53q-111 0 -177.5 -69.5t-66.5 -186.5v-456q0 -57 -35 -90t-94 -33t-93 32.5 t-34 90.5zM469 -250q0 55 36.5 88t94.5 33q69 0 109 -41t40 -125q0 -63 -20.5 -120.5t-57.5 -98.5q-31 -33 -69 -33q-25 0 -43.5 14.5t-18.5 34.5q0 18 15 39q41 55 49 99h-8q-53 0 -90 28.5t-37 81.5z" />
<glyph unicode="&#x147;" horiz-adv-x="1529" d="M156 121v1202q0 59 34.5 95t92.5 36q63 0 98 -47l745 -969v885q0 59 34 95t89 36q58 0 91.5 -36t33.5 -95v-1202q0 -59 -34.5 -96t-90.5 -37q-66 0 -100 47l-748 973v-887q0 -59 -32.5 -96t-89.5 -37t-90 36.5t-33 96.5zM469 1815q0 31 22.5 54t55.5 23q35 0 63 -28 l154 -158l153 158q29 29 64 28q33 0 56.5 -23.5t23.5 -53.5q0 -33 -33 -64l-170 -158q-43 -37 -94 -37q-47 0 -94 37l-170 158q-31 29 -31 64z" />
<glyph unicode="&#x148;" horiz-adv-x="1198" d="M133 111v792q0 53 35 86t94 33q53 0 87 -32t34 -83v-55q51 84 137 129t195 45q180 0 268 -102.5t88 -309.5v-503q0 -57 -33.5 -90t-93.5 -33q-59 0 -94 32.5t-35 90.5v489q0 117 -44 170t-138 53q-111 0 -177.5 -69.5t-66.5 -186.5v-456q0 -57 -35 -90t-94 -33t-93 32.5 t-34 90.5zM301 1479q0 33 25.5 57.5t58.5 24.5q43 0 71 -43l146 -226l145 226q29 43 72 43q33 0 58.5 -25t25.5 -57q0 -25 -19 -54l-180 -241q-23 -31 -46 -46.5t-56 -15.5t-56.5 15.5t-46.5 46.5l-180 241q-18 25 -18 54z" />
<glyph unicode="&#x149;" horiz-adv-x="1198" d="M133 111v792q0 53 35 86t94 33q53 0 87 -32t34 -83v-55q51 84 137 129t195 45q180 0 268 -102.5t88 -309.5v-503q0 -57 -33.5 -90t-93.5 -33q-59 0 -94 32.5t-35 90.5v489q0 117 -44 170t-138 53q-111 0 -177.5 -69.5t-66.5 -186.5v-456q0 -57 -35 -90t-94 -33t-93 32.5 t-34 90.5zM160 1436q0 55 35.5 87.5t93.5 32.5q69 0 110 -40.5t41 -124.5q0 -63 -21.5 -120t-58.5 -97q-27 -33 -69 -33q-25 0 -43.5 13t-18.5 34q0 20 17 39q39 51 47 100h-6q-53 0 -90 28.5t-37 80.5z" />
<glyph unicode="&#x14a;" horiz-adv-x="1529" d="M156 121v1202q0 59 34.5 95t92.5 36q63 0 98 -47l745 -969v885q0 59 34 95t89 36q58 0 91.5 -36t33.5 -95v-1280q0 -391 -383 -416l-65 -4q-74 -6 -116 20.5t-42 80.5q0 92 106 100l66 4q90 4 138 55t48 148v35l-725 942v-887q0 -59 -33.5 -96t-88.5 -37q-57 0 -90 36.5 t-33 96.5z" />
<glyph unicode="&#x14b;" horiz-adv-x="1198" d="M133 111v792q0 53 35 86t94 33q53 0 87 -32t34 -83v-57q51 86 138 131t194 45q180 0 268 -102.5t88 -309.5v-614q0 -174 -84 -265t-258 -104l-57 -4q-74 -4 -113 20.5t-39 76.5q0 43 24.5 65.5t76.5 26.5l57 4q70 4 103.5 44t33.5 118v632q0 109 -44 159t-138 50 q-111 0 -177.5 -69.5t-66.5 -186.5v-456q0 -57 -35 -90t-94 -33t-93 32.5t-34 90.5z" />
<glyph unicode="&#x14c;" horiz-adv-x="1595" d="M111 723q0 225 82.5 392t238.5 257t367 90t365.5 -90t237.5 -257t83 -392t-84 -393t-238.5 -258t-363.5 -90q-211 0 -365.5 90t-238.5 258t-84 393zM375 723q0 -256 111.5 -393t312.5 -137q198 0 310 137t112 393t-112 392t-310 136q-201 0 -312.5 -136t-111.5 -392z M457 1724q0 41 25.5 62.5t66.5 21.5h496q41 0 66.5 -21.5t25.5 -62.5q0 -39 -25.5 -60.5t-66.5 -21.5h-496q-41 0 -66.5 22t-25.5 60z" />
<glyph unicode="&#x14d;" horiz-adv-x="1177" d="M78 506q0 158 63.5 275.5t179 181t269.5 63.5t269.5 -63.5t178 -181t62.5 -275.5t-62.5 -276.5t-178.5 -182t-269 -63.5q-154 0 -269.5 63.5t-179 182t-63.5 276.5zM250 1339q0 41 25.5 62.5t66.5 21.5h496q41 0 66.5 -21.5t25.5 -62.5q0 -39 -25.5 -60.5t-66.5 -21.5 h-496q-41 0 -66.5 21.5t-25.5 60.5zM334 506q0 -160 65.5 -242t188.5 -82q125 0 190.5 82t65.5 242q0 158 -65.5 240.5t-188.5 82.5t-189.5 -82.5t-66.5 -240.5z" />
<glyph unicode="&#x14e;" horiz-adv-x="1595" d="M111 723q0 225 82.5 392t238.5 257t367 90t365.5 -90t237.5 -257t83 -392t-84 -393t-238.5 -258t-363.5 -90q-211 0 -365.5 90t-238.5 258t-84 393zM375 723q0 -256 111.5 -393t312.5 -137q198 0 310 137t112 393t-112 392t-310 136q-201 0 -312.5 -136t-111.5 -392z M453 1796q0 31 20.5 49.5t50.5 18.5q37 0 70 -33q70 -84 203 -84t203 84q33 33 71 33q31 0 50.5 -18.5t19.5 -49.5q0 -23 -12 -47q-41 -76 -129.5 -119t-202.5 -43q-115 0 -203 43t-129 119q-12 25 -12 47z" />
<glyph unicode="&#x14f;" horiz-adv-x="1177" d="M78 506q0 158 63.5 275.5t179 181t269.5 63.5t269.5 -63.5t178 -181t62.5 -275.5t-62.5 -276.5t-178.5 -182t-269 -63.5q-154 0 -269.5 63.5t-179 182t-63.5 276.5zM244 1434q0 35 22.5 56t52.5 21q45 0 72 -45q66 -117 199 -116q133 0 198 116q27 43 72 43 q31 0 53.5 -20.5t22.5 -54.5q0 -16 -6 -35q-39 -100 -132.5 -160.5t-207.5 -60.5q-115 0 -208 60t-132 161q-6 18 -6 35zM334 506q0 -160 65.5 -242t188.5 -82q125 0 190.5 82t65.5 242q0 158 -65.5 240.5t-188.5 82.5t-189.5 -82.5t-66.5 -240.5z" />
<glyph unicode="&#x150;" horiz-adv-x="1595" d="M111 723q0 225 82.5 392t238.5 257t367 90t365.5 -90t237.5 -257t83 -392t-84 -393t-238.5 -258t-363.5 -90q-211 0 -365.5 90t-238.5 258t-84 393zM375 723q0 -256 111.5 -393t312.5 -137q198 0 310 137t112 393t-112 392t-310 136q-201 0 -312.5 -136t-111.5 -392z M604 1612q0 16 8 30l89 191q25 59 81 59q37 0 67 -27.5t30 -64.5q0 -35 -29 -65l-141 -156q-20 -23 -49 -23q-23 0 -39.5 15.5t-16.5 40.5zM875 1612q0 16 8 30l88 191q25 59 82 59q37 0 66.5 -26.5t29.5 -63.5q0 -33 -31 -67l-139 -156q-20 -23 -49 -23q-23 0 -39 15.5 t-16 40.5z" />
<glyph unicode="&#x151;" horiz-adv-x="1177" d="M78 506q0 158 63.5 275.5t179 181t269.5 63.5t269.5 -63.5t178 -181t62.5 -275.5t-62.5 -276.5t-178.5 -182t-269 -63.5q-154 0 -269.5 63.5t-179 182t-63.5 276.5zM334 506q0 -160 65.5 -242t188.5 -82q125 0 190.5 82t65.5 242q0 158 -65.5 240.5t-188.5 82.5 t-189.5 -82.5t-66.5 -240.5zM399 1194l68 274q10 47 39 71t63 24q37 0 64.5 -26t27.5 -64q0 -31 -16 -62l-137 -256q-8 -16 -23.5 -25.5t-29.5 -9.5q-27 0 -44.5 20.5t-11.5 53.5zM670 1194l67 274q10 47 39 71t64 24q37 0 65.5 -25t28.5 -63q0 -29 -19 -64l-137 -256 q-8 -16 -23.5 -25.5t-29.5 -9.5q-27 0 -44 20.5t-11 53.5z" />
<glyph unicode="&#x152;" horiz-adv-x="2140" d="M111 723q0 342 195.5 531.5t549.5 189.5h1102q59 0 90 -26.5t31 -76.5q0 -51 -32 -78.5t-91 -27.5h-613v-397h572q59 0 91 -27t32 -78q0 -49 -32 -75.5t-91 -26.5h-572v-422h613q59 0 91 -27.5t32 -79.5q0 -49 -31 -75.5t-90 -26.5h-1102q-354 0 -549.5 189.5 t-195.5 533.5zM375 723q0 -514 497 -514h215v1026h-215q-250 0 -373.5 -129t-123.5 -383z" />
<glyph unicode="&#x153;" horiz-adv-x="1843" d="M78 506q0 158 62.5 275.5t177 181t266.5 63.5q129 0 227 -49t160 -141q59 92 155.5 141t216.5 49q125 0 222.5 -60.5t150.5 -170t53 -252.5q0 -88 -77 -88h-594q12 -141 78.5 -208t193.5 -67q63 0 111.5 16.5t109.5 45.5q27 14 50.5 23t41.5 9q35 0 56.5 -26.5 t21.5 -71.5q0 -66 -75 -106q-68 -39 -156 -62.5t-164 -23.5q-133 0 -234.5 48t-162.5 140q-59 -90 -158.5 -139t-226.5 -49q-152 0 -266.5 64.5t-177 182t-62.5 275.5zM334 506q0 -160 64.5 -242t187.5 -82t187.5 82t64.5 242q0 158 -64.5 240.5t-187.5 82.5 q-121 0 -186.5 -82.5t-65.5 -240.5zM1098 592h452q-6 123 -61 188.5t-152 65.5q-102 0 -164.5 -65.5t-74.5 -188.5z" />
<glyph unicode="&#x154;" horiz-adv-x="1423" d="M156 121v1198q0 59 33.5 92t93.5 33h512q246 0 373.5 -109.5t127.5 -316.5q0 -168 -95 -275.5t-269 -138.5q59 -14 104 -51t88 -102l187 -285q24 -37 24 -72q0 -47 -37.5 -77.5t-89.5 -30.5q-33 0 -62.5 15t-49.5 46l-273 414q-41 66 -87 92.5t-120 26.5h-200v-459 q0 -61 -35 -97t-94 -36t-95 35.5t-36 97.5zM414 782h344q149 0 219 56.5t70 173.5q0 119 -70 173t-219 54h-344v-457zM649 1614q0 23 23 45l186 192q39 41 88 41q41 0 71 -29.5t30 -68.5q0 -27 -17.5 -51.5t-52.5 -42.5l-231 -135q-17 -9 -33 -9q-27 0 -45.5 17.5 t-18.5 40.5z" />
<glyph unicode="&#x155;" horiz-adv-x="784" d="M133 111v792q0 57 36 88t89 31t86 -29.5t33 -85.5v-82q39 90 115.5 139.5t171.5 55.5l28 2q53 4 84 -22.5t31 -79.5q0 -55 -26.5 -82t-96.5 -35l-61 -6q-121 -12 -177.5 -82t-56.5 -174v-430q0 -59 -37 -91t-92 -32t-91 31.5t-36 91.5zM401 1188q0 23 17 45l198 264 q47 61 109 62q45 0 76.5 -32t31.5 -75q0 -57 -55 -98l-264 -215q-22 -17 -45 -17q-29 0 -48.5 19.5t-19.5 46.5z" />
<glyph unicode="&#x156;" horiz-adv-x="1423" d="M156 121v1198q0 59 33.5 92t93.5 33h512q246 0 373.5 -109.5t127.5 -316.5q0 -168 -95 -275.5t-269 -138.5q59 -14 104 -51t88 -102l187 -285q24 -37 24 -72q0 -47 -37.5 -77.5t-89.5 -30.5q-33 0 -62.5 15t-49.5 46l-273 414q-41 66 -87 92.5t-120 26.5h-200v-459 q0 -61 -35 -97t-94 -36t-95 35.5t-36 97.5zM414 782h344q149 0 219 56.5t70 173.5q0 119 -70 173t-219 54h-344v-457zM582 -250q0 55 36.5 88t94.5 33q69 0 109 -41t40 -125q0 -63 -20.5 -120.5t-57.5 -98.5q-31 -33 -69 -33q-25 0 -43.5 14.5t-18.5 34.5q0 18 15 39 q41 55 49 99h-8q-53 0 -90 28.5t-37 81.5z" />
<glyph unicode="&#x157;" horiz-adv-x="784" d="M127 -250q0 55 36.5 88t94.5 33q69 0 109 -41t40 -125q0 -63 -20.5 -120.5t-57.5 -98.5q-31 -33 -69 -33q-25 0 -43.5 14.5t-18.5 34.5q0 18 15 39q41 55 49 99h-8q-53 0 -90 28.5t-37 81.5zM133 111v792q0 57 36 88t89 31t86 -29.5t33 -85.5v-82q39 90 115.5 139.5 t171.5 55.5l28 2q53 4 84 -22.5t31 -79.5q0 -55 -26.5 -82t-96.5 -35l-61 -6q-121 -12 -177.5 -82t-56.5 -174v-430q0 -59 -37 -91t-92 -32t-91 31.5t-36 91.5z" />
<glyph unicode="&#x158;" horiz-adv-x="1423" d="M156 121v1198q0 59 33.5 92t93.5 33h512q246 0 373.5 -109.5t127.5 -316.5q0 -168 -95 -275.5t-269 -138.5q59 -14 104 -51t88 -102l187 -285q24 -37 24 -72q0 -47 -37.5 -77.5t-89.5 -30.5q-33 0 -62.5 15t-49.5 46l-273 414q-41 66 -87 92.5t-120 26.5h-200v-459 q0 -61 -35 -97t-94 -36t-95 35.5t-36 97.5zM414 782h344q149 0 219 56.5t70 173.5q0 119 -70 173t-219 54h-344v-457zM418 1815q0 31 22.5 54t55.5 23q35 0 63 -28l154 -158l153 158q29 29 64 28q33 0 56.5 -23.5t23.5 -53.5q0 -33 -33 -64l-170 -158q-43 -37 -94 -37 q-47 0 -94 37l-170 158q-31 29 -31 64z" />
<glyph unicode="&#x159;" horiz-adv-x="784" d="M133 111v792q0 57 36 88t89 31t86 -29.5t33 -85.5v-82q39 90 115.5 139.5t171.5 55.5l28 2q53 4 84 -22.5t31 -79.5q0 -55 -26.5 -82t-96.5 -35l-61 -6q-121 -12 -177.5 -82t-56.5 -174v-430q0 -59 -37 -91t-92 -32t-91 31.5t-36 91.5zM162 1479q0 33 25.5 57.5 t58.5 24.5q43 0 71 -43l146 -226l145 226q29 43 72 43q33 0 58.5 -25t25.5 -57q0 -25 -19 -54l-180 -241q-23 -31 -46 -46.5t-56 -15.5t-56.5 15.5t-46.5 46.5l-180 241q-18 25 -18 54z" />
<glyph unicode="&#x15a;" horiz-adv-x="1306" d="M82 236q0 43 25.5 74.5t60.5 31.5q37 0 84 -29q88 -63 184 -91.5t213 -28.5q150 0 229.5 52t79.5 152q0 78 -74.5 120t-248.5 81q-180 39 -293 90t-170 131t-57 203q0 127 71.5 227.5t199.5 156.5t288 56q293 0 477 -155q27 -23 38 -44.5t11 -54.5q0 -43 -25.5 -74.5 t-60.5 -31.5q-20 0 -37.5 6t-46.5 22q-84 61 -163 91t-193 30q-139 0 -220 -56t-81 -157q0 -84 71.5 -129t243.5 -84q182 -41 296 -91t174.5 -128t60.5 -194q0 -127 -71 -224.5t-199 -151.5t-294 -54q-157 0 -297.5 42t-228.5 113q-47 35 -47 99zM594 1614q0 23 23 45 l186 192q39 41 88 41q41 0 71 -29.5t30 -68.5q0 -27 -17.5 -51.5t-52.5 -42.5l-231 -135q-17 -9 -33 -9q-27 0 -45.5 17.5t-18.5 40.5z" />
<glyph unicode="&#x15b;" horiz-adv-x="993" d="M70 182q0 41 22.5 66.5t54.5 25.5q35 0 97 -32q66 -31 120 -47.5t138 -16.5q86 0 134 29t48 80q0 35 -19.5 55t-69.5 37.5t-153 40.5q-182 37 -261 104.5t-79 186.5q0 90 53.5 162.5t146.5 112.5t212 40q86 0 166 -21.5t143 -62.5q66 -41 66 -108q0 -41 -22.5 -69 t-55.5 -28q-23 0 -44.5 9.5t-53.5 27.5q-59 31 -102.5 46.5t-106.5 15.5q-76 0 -120 -31t-44 -84q0 -51 45 -78t174 -53q137 -29 215 -66t112 -92t34 -141q0 -139 -116 -223t-308 -84q-224 0 -361 88q-66 39 -65 110zM452 1188q0 23 17 45l198 264q47 61 109 62 q45 0 76.5 -32t31.5 -75q0 -57 -55 -98l-264 -215q-22 -17 -45 -17q-29 0 -48.5 19.5t-19.5 46.5z" />
<glyph unicode="&#x15c;" horiz-adv-x="1306" d="M82 236q0 43 25.5 74.5t60.5 31.5q37 0 84 -29q88 -63 184 -91.5t213 -28.5q150 0 229.5 52t79.5 152q0 78 -74.5 120t-248.5 81q-180 39 -293 90t-170 131t-57 203q0 127 71.5 227.5t199.5 156.5t288 56q293 0 477 -155q27 -23 38 -44.5t11 -54.5q0 -43 -25.5 -74.5 t-60.5 -31.5q-20 0 -37.5 6t-46.5 22q-84 61 -163 91t-193 30q-139 0 -220 -56t-81 -157q0 -84 71.5 -129t243.5 -84q182 -41 296 -91t174.5 -128t60.5 -194q0 -127 -71 -224.5t-199 -151.5t-294 -54q-157 0 -297.5 42t-228.5 113q-47 35 -47 99zM361 1634q0 35 33 62 l170 157q43 37 94 37t94 -37l170 -157q31 -29 31 -64q0 -31 -22.5 -53.5t-55.5 -22.5q-35 0 -64 29l-153 158l-154 -158q-28 -29 -63 -29q-33 0 -56.5 24t-23.5 54z" />
<glyph unicode="&#x15d;" horiz-adv-x="993" d="M70 182q0 41 22.5 66.5t54.5 25.5q35 0 97 -32q66 -31 120 -47.5t138 -16.5q86 0 134 29t48 80q0 35 -19.5 55t-69.5 37.5t-153 40.5q-182 37 -261 104.5t-79 186.5q0 90 53.5 162.5t146.5 112.5t212 40q86 0 166 -21.5t143 -62.5q66 -41 66 -108q0 -41 -22.5 -69 t-55.5 -28q-23 0 -44.5 9.5t-53.5 27.5q-59 31 -102.5 46.5t-106.5 15.5q-76 0 -120 -31t-44 -84q0 -51 45 -78t174 -53q137 -29 215 -66t112 -92t34 -141q0 -139 -116 -223t-308 -84q-224 0 -361 88q-66 39 -65 110zM213 1204q0 27 18 53l180 244q25 31 47.5 45.5 t55.5 14.5q35 0 57.5 -14.5t44.5 -47.5l180 -242q18 -25 19 -53q0 -33 -25.5 -57.5t-58.5 -24.5q-43 0 -72 43l-145 226l-146 -226q-28 -43 -71 -43q-33 0 -58.5 24.5t-25.5 57.5z" />
<glyph unicode="&#x15e;" horiz-adv-x="1306" d="M82 236q0 43 25.5 74.5t60.5 31.5q37 0 84 -29q88 -63 184 -91.5t213 -28.5q150 0 229.5 52t79.5 152q0 78 -74.5 120t-248.5 81q-180 39 -293 90t-170 131t-57 203q0 127 71.5 227.5t199.5 156.5t288 56q293 0 477 -155q27 -23 38 -44.5t11 -54.5q0 -43 -25.5 -74.5 t-60.5 -31.5q-20 0 -37.5 6t-46.5 22q-84 61 -163 91t-193 30q-139 0 -220 -56t-81 -157q0 -84 71.5 -129t243.5 -84q182 -41 296 -91t174.5 -128t60.5 -194q0 -119 -63.5 -213.5t-180.5 -150.5t-268 -64l-9 -70q33 4 47 4q63 0 107.5 -38t44.5 -103q0 -78 -68.5 -127 t-193.5 -49q-86 0 -143 20q-18 8 -28.5 22.5t-10.5 32.5q0 29 17 46.5t46 9.5q70 -16 115 -17q102 0 102 62q0 20 -14 32.5t-41 12.5q-20 0 -53 -7.5t-41 -7.5q-18 0 -29.5 11.5t-9.5 29.5l16 138q-131 10 -244.5 50t-187.5 101q-47 35 -47 99z" />
<glyph unicode="&#x15f;" horiz-adv-x="993" d="M70 182q0 41 22.5 66.5t54.5 25.5q35 0 97 -32q66 -31 120 -47.5t138 -16.5q86 0 134 29t48 80q0 35 -19.5 55t-69.5 37.5t-153 40.5q-182 37 -261 104.5t-79 186.5q0 90 53.5 162.5t146.5 112.5t212 40q86 0 166 -21.5t143 -62.5q66 -41 66 -108q0 -41 -22.5 -69 t-55.5 -28q-23 0 -44.5 9.5t-53.5 27.5q-59 31 -102.5 46.5t-106.5 15.5q-76 0 -120 -31t-44 -84q0 -51 45 -78t174 -53q137 -29 215 -66t112 -92t34 -141q0 -131 -100.5 -213t-272.5 -92l-8 -72q33 4 47 4q63 0 107 -38t44 -103q0 -78 -68.5 -127t-193.5 -49q-86 0 -143 20 q-18 8 -28.5 22.5t-10.5 32.5q0 29 17.5 46.5t45.5 9.5q70 -16 115 -17q102 0 102 62q0 20 -14 32.5t-41 12.5q-20 0 -53 -7.5t-41 -7.5q-18 0 -29.5 11.5t-9.5 29.5l16 140q-162 16 -266 84q-66 39 -65 110z" />
<glyph unicode="&#x160;" horiz-adv-x="1306" d="M82 236q0 43 25.5 74.5t60.5 31.5q37 0 84 -29q88 -63 184 -91.5t213 -28.5q150 0 229.5 52t79.5 152q0 78 -74.5 120t-248.5 81q-180 39 -293 90t-170 131t-57 203q0 127 71.5 227.5t199.5 156.5t288 56q293 0 477 -155q27 -23 38 -44.5t11 -54.5q0 -43 -25.5 -74.5 t-60.5 -31.5q-20 0 -37.5 6t-46.5 22q-84 61 -163 91t-193 30q-139 0 -220 -56t-81 -157q0 -84 71.5 -129t243.5 -84q182 -41 296 -91t174.5 -128t60.5 -194q0 -127 -71 -224.5t-199 -151.5t-294 -54q-157 0 -297.5 42t-228.5 113q-47 35 -47 99zM363 1815q0 31 22.5 54 t55.5 23q35 0 63 -28l154 -158l153 158q29 29 64 28q33 0 56.5 -23.5t23.5 -53.5q0 -33 -33 -64l-170 -158q-43 -37 -94 -37q-47 0 -94 37l-170 158q-31 29 -31 64z" />
<glyph unicode="&#x161;" horiz-adv-x="993" d="M70 182q0 41 22.5 66.5t54.5 25.5q35 0 97 -32q66 -31 120 -47.5t138 -16.5q86 0 134 29t48 80q0 35 -19.5 55t-69.5 37.5t-153 40.5q-182 37 -261 104.5t-79 186.5q0 90 53.5 162.5t146.5 112.5t212 40q86 0 166 -21.5t143 -62.5q66 -41 66 -108q0 -41 -22.5 -69 t-55.5 -28q-23 0 -44.5 9.5t-53.5 27.5q-59 31 -102.5 46.5t-106.5 15.5q-76 0 -120 -31t-44 -84q0 -51 45 -78t174 -53q137 -29 215 -66t112 -92t34 -141q0 -139 -116 -223t-308 -84q-224 0 -361 88q-66 39 -65 110zM213 1479q0 33 25.5 57.5t58.5 24.5q43 0 71 -43 l146 -226l145 226q29 43 72 43q33 0 58.5 -25t25.5 -57q0 -25 -19 -54l-180 -241q-23 -31 -46 -46.5t-56 -15.5t-56.5 15.5t-46.5 46.5l-180 241q-18 25 -18 54z" />
<glyph unicode="&#x162;" horiz-adv-x="1255" d="M0 1335q0 109 123 109h1010q122 0 122 -109t-122 -108h-373v-1106q0 -45 -20.5 -77t-57.5 -46l-10 -84q33 4 47 4q63 0 107 -38t44 -103q0 -78 -68.5 -127t-193.5 -49q-86 0 -143 20q-18 8 -28.5 22.5t-10.5 32.5q0 29 17.5 46.5t45.5 9.5q70 -16 115 -17q102 0 103 62 q0 20 -14.5 32.5t-41.5 12.5q-20 0 -53 -7.5t-41 -7.5q-18 0 -29.5 11.5t-9.5 29.5l21 170q-43 37 -43 103v1106h-373q-123 0 -123 108z" />
<glyph unicode="&#x163;" horiz-adv-x="755" d="M-14 905q0 47 29.5 71.5t84.5 24.5h103v189q0 55 34.5 88t94.5 33q57 0 92 -33t35 -88v-189h174q55 0 85 -24.5t30 -71.5t-30 -71.5t-85 -24.5h-174v-465q0 -152 139 -162l55 -4q102 -6 103 -92q0 -49 -40 -74.5t-114 -21.5l-55 4q-11 0 -15 2l-10 -82q33 4 47 4 q63 0 107.5 -38t44.5 -103q0 -78 -68.5 -127t-193.5 -49q-86 0 -144 20q-18 8 -28.5 22.5t-10.5 32.5q0 29 17.5 46.5t46.5 9.5q70 -16 115 -17q102 0 102 62q0 20 -14.5 32.5t-40.5 12.5q-20 0 -53 -7.5t-41 -7.5q-18 0 -29.5 11.5t-9.5 29.5l20 181q-186 80 -186 333v447 h-103q-55 0 -84.5 24.5t-29.5 71.5z" />
<glyph unicode="&#x164;" horiz-adv-x="1255" d="M0 1335q0 109 123 109h1010q123 0 122 -109q0 -109 -122 -108h-373v-1106q0 -59 -36 -95t-95 -36q-62 0 -97.5 35.5t-35.5 95.5v1106h-373q-123 0 -123 108zM334 1815q0 31 22.5 54t55.5 23q35 0 63 -28l154 -158l153 158q29 29 64 28q33 0 56.5 -23.5t23.5 -53.5 q0 -33 -33 -64l-170 -158q-43 -37 -94 -37q-47 0 -94 37l-170 158q-31 29 -31 64z" />
<glyph unicode="&#x165;" horiz-adv-x="755" d="M-14 905q0 47 29.5 71.5t84.5 24.5h103v189q0 55 34.5 88t94.5 33q57 0 92 -33t35 -88v-189h174q55 0 85 -24.5t30 -71.5t-30 -71.5t-85 -24.5h-174v-465q0 -152 139 -162l55 -4q103 -6 103 -92q0 -49 -40 -74.5t-114 -21.5l-55 4q-344 25 -344 368v447h-103 q-55 0 -84.5 24.5t-29.5 71.5zM551 1120v250q0 41 32.5 63.5t78.5 22.5q43 0 75.5 -20.5t32.5 -57.5q0 -8 -4 -24l-74 -244q-8 -20 -27.5 -31.5t-41.5 -11.5q-29 0 -50.5 14.5t-21.5 38.5z" />
<glyph unicode="&#x166;" horiz-adv-x="1255" d="M0 1335q0 109 123 109h1010q122 0 122 -109t-122 -108h-373v-396h190q55 0 86 -26.5t31 -73.5q0 -49 -30.5 -75.5t-86.5 -26.5h-190v-508q0 -59 -36 -95t-95 -36q-61 0 -97 35.5t-36 95.5v508h-189q-57 0 -88 26.5t-31 75.5q0 47 31 73.5t88 26.5h189v396h-373 q-123 0 -123 108z" />
<glyph unicode="&#x167;" horiz-adv-x="776" d="M-4 905q0 47 29.5 71.5t85.5 24.5h102v189q0 55 35 88t94 33q57 0 92 -33t35 -88v-189h174q55 0 85 -24.5t30 -71.5t-30 -71.5t-85 -24.5h-174v-143h141q49 0 78 -25t29 -68t-29 -66.5t-78 -23.5h-141v-139q0 -152 139 -162l56 -4q102 -6 102 -92q0 -49 -40 -74.5 t-114 -21.5l-55 4q-344 25 -344 368v121h-70q-49 0 -77.5 23.5t-28.5 66.5t28.5 68t77.5 25h70v143h-102q-55 0 -85 24.5t-30 71.5z" />
<glyph unicode="&#x168;" horiz-adv-x="1501" d="M147 584v739q0 59 35 95t94 36t94.5 -36t35.5 -95v-754q0 -186 88 -281t258 -95q168 0 256 96t88 280v754q0 59 34.5 95t94.5 36q59 0 94 -36t35 -95v-739q0 -293 -153.5 -447.5t-448.5 -154.5q-297 0 -451 153.5t-154 448.5zM412 1667q0 39 24.5 81t68.5 70.5t97 28.5 q35 0 71 -9t89 -28q37 -12 73 -22t64 -10q27 0 42.5 9t35.5 30q18 18 28.5 25t28.5 7q27 0 42.5 -16t15.5 -45q0 -39 -24.5 -82t-68.5 -71.5t-98 -28.5q-35 0 -70.5 9t-88.5 27q-37 12 -73 22.5t-65 10.5q-27 0 -42 -9t-35 -30q-18 -18 -28.5 -25t-29.5 -7q-27 0 -42 17 t-15 46z" />
<glyph unicode="&#x169;" horiz-adv-x="1185" d="M127 397v504q0 55 35 88t92 33q59 0 94 -33t35 -88v-506q0 -106 43 -157.5t135 -51.5q106 0 171 71t65 187v457q0 55 34.5 88t92.5 33q59 0 94 -33t35 -88v-795q0 -53 -36 -85.5t-93 -32.5q-55 0 -88 30.5t-33 83.5v52q-47 -82 -127 -126t-180 -44q-369 0 -369 413z M252 1272q0 41 24.5 91t68.5 86t97 36q37 0 73 -16.5t91 -49.5q45 -27 71.5 -39t49.5 -12q33 0 52.5 16.5t39.5 47.5q16 25 28.5 36t31.5 11q25 0 39 -19.5t14 -50.5q0 -41 -24.5 -91t-68.5 -86t-98 -36q-37 0 -72.5 16.5t-91.5 49.5q-45 27 -71.5 39t-48.5 12 q-33 0 -52.5 -16.5t-40.5 -47.5q-16 -25 -28 -36t-31 -11q-23 0 -38 19.5t-15 50.5z" />
<glyph unicode="&#x16a;" horiz-adv-x="1501" d="M147 584v739q0 59 35 95t94 36t94.5 -36t35.5 -95v-754q0 -186 88 -281t258 -95q168 0 256 96t88 280v754q0 59 34.5 95t94.5 36q59 0 94 -36t35 -95v-739q0 -293 -153.5 -447.5t-448.5 -154.5q-297 0 -451 153.5t-154 448.5zM412 1724q0 41 25.5 62.5t66.5 21.5h496 q41 0 66.5 -21.5t25.5 -62.5q0 -39 -25.5 -60.5t-66.5 -21.5h-496q-41 0 -66.5 22t-25.5 60z" />
<glyph unicode="&#x16b;" horiz-adv-x="1185" d="M127 397v504q0 55 35 88t92 33q59 0 94 -33t35 -88v-506q0 -106 43 -157.5t135 -51.5q106 0 171 71t65 187v457q0 55 34.5 88t92.5 33q59 0 94 -33t35 -88v-795q0 -53 -36 -85.5t-93 -32.5q-55 0 -88 30.5t-33 83.5v52q-47 -82 -127 -126t-180 -44q-369 0 -369 413z M252 1339q0 41 25.5 62.5t66.5 21.5h496q41 0 66.5 -21.5t25.5 -62.5q0 -39 -25.5 -60.5t-66.5 -21.5h-496q-41 0 -66.5 21.5t-25.5 60.5z" />
<glyph unicode="&#x16c;" horiz-adv-x="1501" d="M147 584v739q0 59 35 95t94 36t94.5 -36t35.5 -95v-754q0 -186 88 -281t258 -95q168 0 256 96t88 280v754q0 59 34.5 95t94.5 36q59 0 94 -36t35 -95v-739q0 -293 -153.5 -447.5t-448.5 -154.5q-297 0 -451 153.5t-154 448.5zM408 1796q0 31 20.5 49.5t50.5 18.5 q37 0 70 -33q70 -84 203 -84t203 84q33 33 71 33q31 0 50.5 -18.5t19.5 -49.5q0 -23 -12 -47q-41 -76 -129.5 -119t-202.5 -43q-115 0 -203 43t-129 119q-12 25 -12 47z" />
<glyph unicode="&#x16d;" horiz-adv-x="1185" d="M127 397v504q0 55 35 88t92 33q59 0 94 -33t35 -88v-506q0 -106 43 -157.5t135 -51.5q106 0 171 71t65 187v457q0 55 34.5 88t92.5 33q59 0 94 -33t35 -88v-795q0 -53 -36 -85.5t-93 -32.5q-55 0 -88 30.5t-33 83.5v52q-47 -82 -127 -126t-180 -44q-369 0 -369 413z M246 1434q0 35 22.5 56t52.5 21q45 0 72 -45q66 -117 199 -116q133 0 198 116q27 43 72 43q31 0 53.5 -20.5t22.5 -54.5q0 -16 -6 -35q-39 -100 -132.5 -160.5t-207.5 -60.5q-115 0 -208 60t-132 161q-6 18 -6 35z" />
<glyph unicode="&#x16e;" horiz-adv-x="1501" d="M147 584v739q0 59 35 95t94 36t94.5 -36t35.5 -95v-754q0 -186 88 -281t258 -95q168 0 256 96t88 280v754q0 59 34.5 95t94.5 36q59 0 94 -36t35 -95v-739q0 -293 -153.5 -447.5t-448.5 -154.5q-297 0 -451 153.5t-154 448.5zM535 1769q0 90 63.5 153t153.5 63 t153.5 -62.5t63.5 -153.5q0 -90 -63.5 -151.5t-153.5 -61.5t-153.5 61.5t-63.5 151.5zM660 1769q0 -41 26.5 -68.5t65.5 -27.5t65.5 28t26.5 68q0 41 -26.5 69t-65.5 28t-65.5 -28t-26.5 -69z" />
<glyph unicode="&#x16f;" horiz-adv-x="1185" d="M127 397v504q0 55 35 88t92 33q59 0 94 -33t35 -88v-506q0 -106 43 -157.5t135 -51.5q106 0 171 71t65 187v457q0 55 34.5 88t92.5 33q59 0 94 -33t35 -88v-795q0 -53 -36 -85.5t-93 -32.5q-55 0 -88 30.5t-33 83.5v52q-47 -82 -127 -126t-180 -44q-369 0 -369 413z M375 1343q0 90 63.5 151.5t153.5 61.5t153.5 -61t63.5 -152q0 -90 -63.5 -151.5t-153.5 -61.5t-153.5 61.5t-63.5 151.5zM500 1343q0 -41 26.5 -68.5t65.5 -27.5t65.5 28t26.5 68q0 41 -26.5 69t-65.5 28t-65.5 -28t-26.5 -69z" />
<glyph unicode="&#x170;" horiz-adv-x="1501" d="M147 584v739q0 59 35 95t94 36t94.5 -36t35.5 -95v-754q0 -186 88 -281t258 -95q168 0 256 96t88 280v754q0 59 34.5 95t94.5 36q59 0 94 -36t35 -95v-739q0 -293 -153.5 -447.5t-448.5 -154.5q-297 0 -451 153.5t-154 448.5zM559 1612q0 16 8 30l89 191q25 59 81 59 q37 0 67 -27.5t30 -64.5q0 -35 -29 -65l-141 -156q-20 -23 -49 -23q-23 0 -39.5 15.5t-16.5 40.5zM830 1612q0 16 8 30l88 191q25 59 82 59q37 0 66.5 -26.5t29.5 -63.5q0 -33 -31 -67l-139 -156q-20 -23 -49 -23q-23 0 -39 15.5t-16 40.5z" />
<glyph unicode="&#x171;" horiz-adv-x="1185" d="M127 397v504q0 55 35 88t92 33q59 0 94 -33t35 -88v-506q0 -106 43 -157.5t135 -51.5q106 0 171 71t65 187v457q0 55 34.5 88t92.5 33q59 0 94 -33t35 -88v-795q0 -53 -36 -85.5t-93 -32.5q-55 0 -88 30.5t-33 83.5v52q-47 -82 -127 -126t-180 -44q-369 0 -369 413z M401 1194l68 274q10 47 39 71t63 24q37 0 64.5 -26t27.5 -64q0 -31 -16 -62l-137 -256q-8 -16 -23.5 -25.5t-29.5 -9.5q-27 0 -44.5 20.5t-11.5 53.5zM672 1194l67 274q10 47 39 71t64 24q37 0 65.5 -25t28.5 -63q0 -29 -19 -64l-137 -256q-8 -16 -23.5 -25.5t-29.5 -9.5 q-27 0 -44 20.5t-11 53.5z" />
<glyph unicode="&#x172;" horiz-adv-x="1501" d="M147 584v739q0 59 35 95t94 36t94.5 -36t35.5 -95v-754q0 -186 88 -281t258 -95q168 0 256 96t88 280v754q0 59 34.5 95t94.5 36q59 0 94 -36t35 -95v-739q0 -229 -94.5 -373.5t-276.5 -198.5q-143 -39 -143 -153q0 -53 30.5 -85t83.5 -32q51 0 99 18q16 4 20 4 q23 0 37 -17t14 -42q0 -41 -34 -61q-76 -43 -170 -43q-113 0 -182.5 62.5t-69.5 158.5q0 94 67 160q-289 4 -438.5 157.5t-149.5 444.5z" />
<glyph unicode="&#x173;" horiz-adv-x="1185" d="M127 397v504q0 55 35 88t92 33q59 0 94 -33t35 -88v-506q0 -106 43 -157.5t131 -51.5q109 0 174.5 71t65.5 187v457q0 55 34.5 88t92.5 33q59 0 94 -33t35 -88v-795q0 -78 -68 -106q-125 -43 -125 -141q0 -53 32 -85t85 -32q49 0 98 18q13 4 21 4q23 0 36 -17t13 -42 q0 -41 -35 -61q-76 -43 -170 -43q-113 0 -182.5 62.5t-69.5 162.5q0 66 34 121t97 92q-16 29 -16 63v52q-47 -82 -127 -126t-180 -44q-369 0 -369 413z" />
<glyph unicode="&#x174;" horiz-adv-x="2273" d="M70 1343q0 51 37.5 82t89.5 31q41 0 73.5 -20.5t46.5 -61.5l349 -1001l358 995q14 41 47 64.5t72 23.5t72.5 -23.5t48.5 -66.5l348 -1006l354 1014q14 41 46 61.5t71 20.5q49 0 85 -30.5t36 -82.5q0 -18 -11 -53l-440 -1218q-16 -41 -54 -63.5t-83 -22.5t-84 22.5 t-53 63.5l-340 964l-346 -964q-16 -41 -54.5 -63.5t-83.5 -22.5t-82.5 22.5t-52.5 63.5l-440 1218q-10 31 -10 53zM840 1634q0 35 33 62l170 157q43 37 94 37t94 -37l170 -157q31 -29 31 -64q0 -31 -22.5 -53.5t-55.5 -22.5q-35 0 -64 29l-153 158l-154 -158 q-28 -29 -63 -29q-33 0 -56.5 24t-23.5 54z" />
<glyph unicode="&#x175;" horiz-adv-x="1753" d="M41 907q0 47 41 81t90 34q35 0 63.5 -18.5t43.5 -55.5l241 -624l248 618q16 39 47 58.5t68 19.5t67.5 -19.5t46.5 -58.5l250 -620l240 624q14 37 41.5 55.5t60.5 18.5q47 0 85 -32t38 -79q0 -27 -10 -47l-338 -792q-16 -39 -50 -59.5t-75 -20.5q-39 0 -72.5 20.5 t-50.5 59.5l-244 585l-235 -585q-16 -39 -50 -59.5t-75 -20.5q-39 0 -74 20.5t-51 59.5l-336 792q-10 27 -10 45zM576 1204q0 27 18 53l180 244q25 31 47.5 45.5t55.5 14.5q35 0 57.5 -14.5t44.5 -47.5l180 -242q18 -25 19 -53q0 -33 -25.5 -57.5t-58.5 -24.5q-43 0 -72 43 l-145 226l-146 -226q-28 -43 -71 -43q-33 0 -58.5 24.5t-25.5 57.5z" />
<glyph unicode="&#x176;" horiz-adv-x="1275" d="M10 1333q0 49 37 85t84 36q51 0 88 -45l420 -520l418 520q37 45 88 45q47 0 84 -36t37 -85q0 -41 -31 -78l-465 -567v-567q0 -63 -37 -98t-94 -35q-59 0 -96 34.5t-37 98.5v567l-465 567q-31 37 -31 78zM340 1634q0 35 33 62l170 157q43 37 94 37t94 -37l170 -157 q31 -29 31 -64q0 -31 -22.5 -53.5t-55.5 -22.5q-35 0 -64 29l-153 158l-154 -158q-28 -29 -63 -29q-33 0 -56.5 24t-23.5 54z" />
<glyph unicode="&#x177;" horiz-adv-x="1077" d="M20 909q0 47 40 80t92 33q35 0 63.5 -17.5t44.5 -54.5l287 -633l284 631q17 37 44.5 54.5t60.5 17.5q47 0 85 -32t38 -79q0 -23 -12 -47l-560 -1171q-35 -70 -108 -70q-47 0 -83 30t-36 75q0 23 12 51l140 293l-381 792q-10 20 -11 47zM240 1204q0 27 18 53l180 244 q25 31 47.5 45.5t55.5 14.5q35 0 57.5 -14.5t44.5 -47.5l180 -242q18 -25 19 -53q0 -33 -25.5 -57.5t-58.5 -24.5q-43 0 -72 43l-145 226l-146 -226q-28 -43 -71 -43q-33 0 -58.5 24.5t-25.5 57.5z" />
<glyph unicode="&#x178;" horiz-adv-x="1275" d="M10 1333q0 49 37 85t84 36q51 0 88 -45l420 -520l418 520q37 45 88 45q47 0 84 -36t37 -85q0 -41 -31 -78l-465 -567v-567q0 -63 -37 -98t-94 -35q-59 0 -96 34.5t-37 98.5v567l-465 567q-31 37 -31 78zM315 1726q0 57 37 92t96 35t97.5 -34.5t38.5 -92.5q0 -57 -38 -93 t-98 -36q-59 0 -96 36t-37 93zM692 1726q0 57 37 92t96 35q57 0 95 -34.5t38 -92.5q0 -57 -36.5 -93t-96.5 -36q-59 0 -96 36t-37 93z" />
<glyph unicode="&#x179;" horiz-adv-x="1232" d="M74 113q0 49 32 94l734 1026h-641q-123 0 -123 104q0 106 123 107h845q53 0 85 -32t32 -79t-35 -94l-733 -1028h670q123 -1 123 -105q0 -106 -123 -106h-873q-53 0 -84.5 31.5t-31.5 81.5zM555 1614q0 23 23 45l186 192q39 41 88 41q41 0 71 -29.5t30 -68.5 q0 -27 -17.5 -51.5t-52.5 -42.5l-231 -135q-17 -9 -33 -9q-27 0 -45.5 17.5t-18.5 40.5z" />
<glyph unicode="&#x17a;" horiz-adv-x="1044" d="M70 905q0 47 28.5 71.5t85.5 24.5h662q53 0 85 -31.5t32 -78.5q0 -49 -35 -90l-529 -608h480q114 -1 114 -97q0 -45 -28.5 -70.5t-85.5 -25.5h-684q-51 0 -84 33t-33 78q0 47 37 90l526 608h-457q-57 0 -85.5 24.5t-28.5 71.5zM475 1188q0 23 17 45l198 264q47 61 109 62 q45 0 76.5 -32t31.5 -75q0 -57 -55 -98l-264 -215q-22 -17 -45 -17q-29 0 -48.5 19.5t-19.5 46.5z" />
<glyph unicode="&#x17b;" horiz-adv-x="1232" d="M74 113q0 49 32 94l734 1026h-641q-123 0 -123 104q0 106 123 107h845q53 0 85 -32t32 -79t-35 -94l-733 -1028h670q123 -1 123 -105q0 -106 -123 -106h-873q-53 0 -84.5 31.5t-31.5 81.5zM467 1726q0 61 41 98.5t111 37.5q68 0 109.5 -37t41.5 -99q0 -61 -41 -99 t-110 -38q-70 0 -111 38t-41 99z" />
<glyph unicode="&#x17c;" horiz-adv-x="1044" d="M70 905q0 47 28.5 71.5t85.5 24.5h662q53 0 85 -31.5t32 -78.5q0 -49 -35 -90l-529 -608h480q114 -1 114 -97q0 -45 -28.5 -70.5t-85.5 -25.5h-684q-51 0 -84 33t-33 78q0 47 37 90l526 608h-457q-57 0 -85.5 24.5t-28.5 71.5zM385 1341q0 61 41 98.5t111 37.5 q68 0 109.5 -37t41.5 -99q0 -61 -41 -99t-110 -38q-70 0 -111 38t-41 99z" />
<glyph unicode="&#x17d;" horiz-adv-x="1232" d="M74 113q0 49 32 94l734 1026h-641q-123 0 -123 104q0 106 123 107h845q53 0 85 -32t32 -79t-35 -94l-733 -1028h670q123 -1 123 -105q0 -106 -123 -106h-873q-53 0 -84.5 31.5t-31.5 81.5zM324 1815q0 31 22.5 54t55.5 23q35 0 63 -28l154 -158l153 158q29 29 64 28 q33 0 56.5 -23.5t23.5 -53.5q0 -33 -33 -64l-170 -158q-43 -37 -94 -37q-47 0 -94 37l-170 158q-31 29 -31 64z" />
<glyph unicode="&#x17e;" horiz-adv-x="1044" d="M70 905q0 47 28.5 71.5t85.5 24.5h662q53 0 85 -31.5t32 -78.5q0 -49 -35 -90l-529 -608h480q114 -1 114 -97q0 -45 -28.5 -70.5t-85.5 -25.5h-684q-51 0 -84 33t-33 78q0 47 37 90l526 608h-457q-57 0 -85.5 24.5t-28.5 71.5zM236 1479q0 33 25.5 57.5t58.5 24.5 q43 0 71 -43l146 -226l145 226q29 43 72 43q33 0 58.5 -25t25.5 -57q0 -25 -19 -54l-180 -241q-23 -31 -46 -46.5t-56 -15.5t-56.5 15.5t-46.5 46.5l-180 241q-18 25 -18 54z" />
<glyph unicode="&#x192;" d="M41 -283q0 43 34 75t91 32h29q145 0 178 176l182 852h-172q-35 0 -59.5 22.5t-24.5 55.5q0 35 24.5 57.5t59.5 22.5h207l14 71q39 193 153.5 283t270.5 90h43q55 0 86 -28.5t31 -69.5t-34 -74t-91 -33h-31q-143 0 -176 -176l-14 -63h174q35 0 59.5 -22.5t24.5 -57.5 q0 -33 -24.5 -55.5t-59.5 -22.5h-207l-184 -860q-39 -193 -155 -282t-271 -89h-41q-55 0 -86 28.5t-31 67.5z" />
<glyph unicode="&#x2c6;" horiz-adv-x="614" d="M6 1204q0 27 18 53l180 244q25 31 47.5 45.5t55.5 14.5q35 0 57.5 -14.5t44.5 -47.5l180 -242q18 -25 19 -53q0 -33 -25.5 -57.5t-58.5 -24.5q-43 0 -72 43l-145 226l-146 -226q-28 -43 -71 -43q-33 0 -58.5 24.5t-25.5 57.5z" />
<glyph unicode="&#x2da;" horiz-adv-x="614" d="M90 1343q0 90 63.5 151.5t153.5 61.5t153.5 -61t63.5 -152q0 -90 -63.5 -151.5t-153.5 -61.5t-153.5 61.5t-63.5 151.5zM215 1343q0 -41 26.5 -68.5t65.5 -27.5t65.5 28t26.5 68q0 41 -26.5 69t-65.5 28t-65.5 -28t-26.5 -69z" />
<glyph unicode="&#x2dc;" horiz-adv-x="614" d="M-33 1272q0 41 24.5 91t68.5 86t97 36q37 0 73 -16.5t91 -49.5q45 -27 71.5 -39t49.5 -12q33 0 52.5 16.5t39.5 47.5q16 25 28.5 36t31.5 11q25 0 39 -19.5t14 -50.5q0 -41 -24.5 -91t-68.5 -86t-98 -36q-37 0 -72.5 16.5t-91.5 49.5q-45 27 -71.5 39t-48.5 12 q-33 0 -52.5 -16.5t-40.5 -47.5q-16 -25 -28 -36t-31 -11q-23 0 -38 19.5t-15 50.5z" />
<glyph unicode="&#x3a9;" horiz-adv-x="1636" d="M102 109q0 51 32 77.5t91 26.5h236q-150 201 -224.5 321.5t-104.5 207.5t-30 180q0 166 87 287.5t249 187t381 65.5q215 0 377 -66.5t250 -188.5t88 -285q0 -94 -29.5 -182.5t-105.5 -210t-221 -316.5h233q59 0 91 -26.5t32 -77.5q0 -109 -123 -109h-389q-51 0 -82 30.5 t-31 78.5q0 47 31 98q193 303 261.5 451.5t68.5 256.5q0 160 -118 248t-333 88t-333.5 -88t-118.5 -248q0 -109 69.5 -255t261.5 -453q31 -49 31 -98q0 -47 -30.5 -78t-84.5 -31h-389q-123 0 -123 109z" />
<glyph unicode="&#x3c0;" horiz-adv-x="1234" d="M-14 905q0 96 114 96h971q113 0 113 -96t-113 -96h-133v-465q0 -152 137 -162l58 -4q102 -6 102 -92q0 -51 -40 -75.5t-114 -20.5l-57 4q-174 12 -258 104t-84 264v447h-213q-4 -211 -29.5 -393.5t-83.5 -343.5q-14 -43 -50 -65.5t-77 -22.5q-53 0 -92 30.5t-39 83.5 q0 20 6 41q98 313 111 670h-115q-115 0 -114 96z" />
<glyph unicode="&#x2000;" horiz-adv-x="992" />
<glyph unicode="&#x2001;" horiz-adv-x="1985" />
<glyph unicode="&#x2002;" horiz-adv-x="992" />
<glyph unicode="&#x2003;" horiz-adv-x="1985" />
<glyph unicode="&#x2004;" horiz-adv-x="661" />
<glyph unicode="&#x2005;" horiz-adv-x="496" />
<glyph unicode="&#x2006;" horiz-adv-x="330" />
<glyph unicode="&#x2007;" horiz-adv-x="330" />
<glyph unicode="&#x2008;" horiz-adv-x="248" />
<glyph unicode="&#x2009;" horiz-adv-x="397" />
<glyph unicode="&#x200a;" horiz-adv-x="110" />
<glyph unicode="&#x2010;" horiz-adv-x="888" d="M115 547q0 47 29.5 74.5t88.5 27.5h422q59 0 89 -27.5t30 -74.5t-29.5 -74t-89.5 -27h-422q-59 0 -88.5 27t-29.5 74z" />
<glyph unicode="&#x2011;" horiz-adv-x="888" d="M115 547q0 47 29.5 74.5t88.5 27.5h422q59 0 89 -27.5t30 -74.5t-29.5 -74t-89.5 -27h-422q-59 0 -88.5 27t-29.5 74z" />
<glyph unicode="&#x2012;" horiz-adv-x="888" d="M115 547q0 47 29.5 74.5t88.5 27.5h422q59 0 89 -27.5t30 -74.5t-29.5 -74t-89.5 -27h-422q-59 0 -88.5 27t-29.5 74z" />
<glyph unicode="&#x2013;" horiz-adv-x="1024" d="M0 547q0 35 26.5 55.5t71.5 20.5h828q45 0 71.5 -20.5t26.5 -55.5t-26.5 -55.5t-71.5 -20.5h-828q-45 0 -71.5 20.5t-26.5 55.5z" />
<glyph unicode="&#x2014;" horiz-adv-x="2048" d="M0 547q0 35 26.5 55.5t71.5 20.5h1852q45 0 71.5 -20.5t26.5 -55.5t-26.5 -55.5t-71.5 -20.5h-1852q-45 0 -71.5 20.5t-26.5 55.5z" />
<glyph unicode="&#x2018;" horiz-adv-x="507" d="M102 1092q0 193 136 338q25 27 57 26q29 0 52.5 -21.5t23.5 -50.5q0 -25 -21 -47q-61 -66 -80 -147q60 -6 98 -46t38 -100q0 -66 -42 -109.5t-104 -43.5q-70 0 -114 51t-44 150z" />
<glyph unicode="&#x2019;" horiz-adv-x="507" d="M102 1300q0 66 42 110t106 44q69 0 112.5 -51t43.5 -150q0 -193 -136 -338q-25 -27 -57 -26q-29 0 -52.5 21.5t-23.5 50.5q0 25 21 47q61 66 80 147q-59 6 -97.5 46t-38.5 99z" />
<glyph unicode="&#x201a;" horiz-adv-x="507" d="M102 141q0 66 42 110t106 44q69 0 112.5 -51t43.5 -150q0 -195 -136 -336q-27 -27 -57 -26q-31 0 -53.5 20.5t-22.5 48.5q0 25 21 47q61 66 80 148q-59 6 -97.5 46t-38.5 99z" />
<glyph unicode="&#x201c;" horiz-adv-x="901" d="M102 1092q0 193 136 338q25 27 57 26q29 0 52.5 -21.5t23.5 -50.5q0 -25 -21 -47q-61 -66 -80 -147q60 -6 98 -46t38 -100q0 -66 -42 -109.5t-104 -43.5q-70 0 -114 51t-44 150zM495 1092q0 193 136 338q25 27 57 26q29 0 52.5 -21.5t23.5 -50.5q0 -25 -21 -47 q-61 -66 -80 -147q60 -6 98 -46t38 -100q0 -66 -42 -109.5t-104 -43.5q-70 0 -114 51t-44 150z" />
<glyph unicode="&#x201d;" horiz-adv-x="901" d="M102 1300q0 66 42 110t106 44q69 0 112.5 -51t43.5 -150q0 -193 -136 -338q-25 -27 -57 -26q-29 0 -52.5 21.5t-23.5 50.5q0 25 21 47q61 66 80 147q-59 6 -97.5 46t-38.5 99zM495 1300q0 66 42 110t106 44q69 0 112.5 -51t43.5 -150q0 -193 -136 -338q-25 -27 -57 -26 q-29 0 -52.5 21.5t-23.5 50.5q0 25 21 47q61 66 80 147q-59 6 -97.5 46t-38.5 99z" />
<glyph unicode="&#x201e;" horiz-adv-x="901" d="M102 141q0 66 42 110t106 44q69 0 112.5 -51t43.5 -150q0 -195 -136 -336q-27 -27 -57 -26q-31 0 -53.5 20.5t-22.5 48.5q0 25 21 47q61 66 80 148q-59 6 -97.5 46t-38.5 99zM495 141q0 66 42 110t106 44q69 0 112.5 -51t43.5 -150q0 -195 -136 -336q-27 -27 -57 -26 q-31 0 -53.5 20.5t-22.5 48.5q0 25 21 47q61 66 80 148q-59 6 -97.5 46t-38.5 99z" />
<glyph unicode="&#x2026;" horiz-adv-x="1525" d="M102 141q0 66 43 110t109 44t109 -44t43 -110t-43.5 -109.5t-108.5 -43.5q-66 0 -109 44t-43 109zM612 141q0 66 43 110t109 44q63 0 106 -44t43 -110t-43 -109.5t-106 -43.5q-66 0 -109 44t-43 109zM1120 141q0 66 43 110t109 44t108.5 -44t42.5 -110t-43 -109.5 t-108 -43.5q-66 0 -109 44t-43 109z" />
<glyph unicode="&#x202f;" horiz-adv-x="397" />
<glyph unicode="&#x2030;" horiz-adv-x="2752" d="M88 1024q0 215 96.5 327.5t268.5 112.5t269 -112.5t97 -327.5q0 -217 -97 -329.5t-269 -112.5t-268.5 112.5t-96.5 329.5zM305 1024q0 -147 36 -211.5t112 -64.5q77 0 113 64.5t36 211.5q0 143 -37 208.5t-112 65.5q-76 0 -112 -64.5t-36 -209.5zM489 57q0 35 21 70 l745 1288q18 33 45 49.5t54 16.5q37 0 64.5 -27t27.5 -68q0 -35 -21 -69l-745 -1288q-18 -33 -45 -49.5t-53 -16.5q-37 0 -65 26.5t-28 67.5zM1118 430q0 215 97.5 326.5t267.5 111.5q172 0 268 -112.5t96 -327.5q0 -217 -96 -329.5t-268 -112.5t-268.5 112.5t-96.5 331.5z M1333 428q0 -147 37 -211.5t113 -64.5t112.5 64.5t36.5 211.5q0 143 -36.5 208.5t-112.5 65.5t-113 -65.5t-37 -208.5zM1933 430q0 215 97.5 326.5t267.5 111.5q172 0 269 -112.5t97 -327.5q0 -217 -97 -329.5t-269 -112.5t-268.5 112.5t-96.5 331.5zM2150 428 q0 -147 36 -211.5t112 -64.5q78 0 113.5 64.5t35.5 211.5q0 143 -36.5 208.5t-112.5 65.5t-112 -64.5t-36 -209.5z" />
<glyph unicode="&#x2039;" horiz-adv-x="587" d="M109 545q0 37 24 76l160 258q35 55 94 55q39 0 66.5 -24.5t27.5 -63.5q0 -23 -12 -51l-119 -250l119 -250q12 -27 12 -49q0 -39 -28.5 -64.5t-67.5 -25.5q-57 0 -92 55l-160 258q-25 41 -24 76z" />
<glyph unicode="&#x203a;" horiz-adv-x="579" d="M106 246q0 23 13 49l121 250l-121 250q-12 29 -13 51q0 39 29 63.5t68 24.5q59 0 92 -55l151 -258q23 -37 23 -76t-23 -76l-151 -258q-33 -55 -92 -55q-39 0 -68 25.5t-29 64.5z" />
<glyph unicode="&#x2044;" horiz-adv-x="389" d="M-285 59q0 33 21 68l747 1288q37 66 99 66q37 0 64.5 -28t27.5 -69q0 -33 -21 -67l-747 -1288q-38 -66 -99 -66q-37 0 -64.5 27.5t-27.5 68.5z" />
<glyph unicode="&#x205f;" horiz-adv-x="496" />
<glyph unicode="&#x20ac;" d="M14 567q0 35 24.5 57.5t59.5 22.5h115q-2 25 -2 76t2 76h-115q-35 0 -59.5 23.5t-24.5 56.5q0 35 24.5 58.5t59.5 23.5h133q47 240 184.5 370.5t344.5 130.5q104 0 210.5 -40t196.5 -115q25 -20 36 -42t11 -55q0 -45 -24.5 -76.5t-61.5 -31.5q-20 0 -37.5 7t-43.5 26 q-80 61 -144.5 87.5t-132.5 26.5q-115 0 -183.5 -70.5t-94.5 -217.5h262q37 0 60.5 -24t23.5 -58q0 -35 -23.5 -57.5t-60.5 -22.5h-279q-2 -25 -2 -76t2 -76h279q37 0 60.5 -22.5t23.5 -57.5t-23.5 -58.5t-60.5 -23.5h-262q27 -150 95 -220t183 -70q63 0 125.5 27.5 t151.5 86.5q27 18 44 25.5t37 7.5q37 0 61.5 -31.5t24.5 -77.5q0 -59 -47 -96q-92 -76 -196.5 -115.5t-210.5 -39.5q-209 0 -345 131t-184 372h-133q-35 0 -59.5 23.5t-24.5 58.5z" />
<glyph unicode="&#x2122;" horiz-adv-x="1912" d="M0 1348q0 49 26.5 72.5t84.5 23.5h569q113 0 113 -96q0 -92 -113 -93h-168v-571q0 -53 -34 -83t-83 -30t-82.5 30t-33.5 83v571h-168q-111 0 -111 93zM891 686v655q0 53 32.5 82t77.5 29q66 0 107 -76l223 -424l221 424q41 76 105 76q45 0 76.5 -28.5t31.5 -82.5v-655 q0 -55 -30.5 -85t-71.5 -30q-39 0 -69.5 30t-30.5 85v344l-133 -252q-20 -39 -44 -56t-57 -17t-55.5 17t-44.5 56l-133 246v-338q0 -55 -31 -85t-72 -30q-39 0 -70.5 30t-31.5 85z" />
<glyph unicode="&#x2202;" d="M74 502q0 168 64.5 290.5t172 186t234.5 63.5q205 0 307 -141q-25 236 -151 353.5t-326 117.5h-37q-39 0 -68.5 27.5t-29.5 68.5q0 82 108 101q43 6 86 6q187 0 341.5 -88t250.5 -285.5t96 -509.5q0 -350 -136 -537.5t-396 -187.5q-147 0 -265 62.5t-184.5 183.5 t-66.5 289zM332 504q0 -154 71.5 -242t184.5 -88q114 0 186 90t72 250q0 150 -73 235t-183 85q-113 0 -185.5 -87.5t-72.5 -242.5z" />
<glyph unicode="&#x2206;" horiz-adv-x="1636" d="M102 109q0 51 32 77.5t91 26.5h236q-150 201 -224.5 321.5t-104.5 207.5t-30 180q0 166 87 287.5t249 187t381 65.5q215 0 377 -66.5t250 -188.5t88 -285q0 -94 -29.5 -182.5t-105.5 -210t-221 -316.5h233q59 0 91 -26.5t32 -77.5q0 -109 -123 -109h-389q-51 0 -82 30.5 t-31 78.5q0 47 31 98q193 303 261.5 451.5t68.5 256.5q0 160 -118 248t-333 88t-333.5 -88t-118.5 -248q0 -109 69.5 -255t261.5 -453q31 -49 31 -98q0 -47 -30.5 -78t-84.5 -31h-389q-123 0 -123 109z" />
<glyph unicode="&#x220f;" d="M115 -260v1585q0 53 33.5 86t84.5 33h762q53 0 86 -33t33 -86v-1585q0 -53 -32.5 -86t-86.5 -33q-51 0 -84.5 34t-33.5 85v1493h-525v-1493q0 -53 -32.5 -86t-86.5 -33q-51 0 -84.5 34t-33.5 85z" />
<glyph unicode="&#x2211;" horiz-adv-x="1222" d="M66 -258q0 49 32 94l498 703l-498 700q-33 45 -32 94q0 47 31.5 79t84.5 32h846q123 0 123 -109q0 -106 -123 -106h-637l414 -578q45 -63 45 -112q0 -47 -47 -113l-412 -580h637q123 0 123 -106q0 -109 -123 -109h-846q-53 0 -84.5 32t-31.5 79z" />
<glyph unicode="&#x221a;" d="M12 586q0 39 25.5 64.5t64.5 25.5h191q29 0 51.5 -17.5t30.5 -46.5l207 -710l374 1503q8 31 31 48t53 17q100 0 101 -81q0 -18 -6 -41l-416 -1614q-18 -76 -49 -106.5t-84 -30.5q-51 0 -82 31.5t-51 101.5l-236 766h-115q-39 0 -64.5 25.5t-25.5 64.5z" />
<glyph unicode="&#x221e;" d="M72 582q0 147 78.5 237t214.5 90q72 0 138 -37.5t111 -121.5q45 84 112 121.5t138 37.5q135 0 214 -90t79 -237q0 -150 -79 -239t-214 -89q-72 0 -138.5 38t-111.5 122q-45 -84 -111.5 -122t-137.5 -38q-135 0 -214 89t-79 239zM236 582q0 -76 36.5 -125t102.5 -49 q53 0 100 40.5t78 135.5q-31 92 -78 132t-100 40q-66 0 -102.5 -49.5t-36.5 -124.5zM676 584q31 -94 78 -135t100 -41q66 0 102.5 49t36.5 125t-36.5 125t-102.5 49q-53 0 -100 -40t-78 -132z" />
<glyph unicode="&#x222b;" d="M207 -276q0 43 27.5 72.5t68.5 29.5h29q156 0 155 174v1081q0 195 106.5 284t289.5 89h43q41 0 67.5 -29.5t26.5 -72.5q0 -45 -26.5 -75t-67.5 -30h-29q-156 0 -156 -174v-1081q0 -193 -107.5 -282t-289.5 -89h-41q-43 0 -69.5 30t-26.5 73z" />
<glyph unicode="&#x2248;" d="M149 352q0 25 13 45q41 70 103 106.5t136 36.5q63 0 121.5 -22.5t140.5 -63.5q63 -31 101.5 -46t70.5 -15q68 0 111 53q39 43 78 43q23 0 43 -14q18 -10 28.5 -28.5t10.5 -39.5q0 -25 -15 -45q-41 -68 -103.5 -104.5t-135.5 -36.5q-64 0 -122.5 22.5t-139.5 63.5 q-70 35 -105 49t-67 14q-63 0 -111 -53q-39 -45 -80 -45q-23 0 -43 15q-35 23 -35 65zM149 762q0 25 13 45q41 70 103 106.5t136 36.5q63 0 121.5 -22.5t140.5 -63.5q63 -31 101.5 -46t70.5 -15q68 0 111 53q39 43 78 43q23 0 43 -14q18 -10 28.5 -28.5t10.5 -39.5 q0 -25 -15 -45q-41 -68 -103.5 -104.5t-135.5 -36.5q-64 0 -122.5 22.5t-139.5 63.5q-70 35 -105 49t-67 14q-63 0 -111 -53q-39 -45 -80 -45q-23 0 -43 15q-35 23 -35 65z" />
<glyph unicode="&#x2260;" d="M127 381q0 39 25.5 64.5t64.5 25.5h252l96 229h-348q-39 0 -64.5 26t-25.5 65t25.5 64.5t64.5 25.5h422l78 186q10 27 31.5 41t48.5 14q23 0 39 -8q25 -10 39 -31.5t14 -46.5q0 -23 -8 -39l-50 -116h205q39 0 64.5 -27t25.5 -66q0 -37 -25.5 -62.5t-64.5 -25.5h-278 l-94 -229h372q39 0 64.5 -26.5t25.5 -65.5q0 -37 -25.5 -62.5t-64.5 -25.5h-446l-78 -187q-12 -27 -33.5 -41t-48.5 -14q-41 0 -66.5 25.5t-25.5 60.5q0 23 8 39l49 117h-178q-39 0 -64.5 25.5t-25.5 64.5z" />
<glyph unicode="&#x2264;" d="M115 682q0 45 24.5 80t67.5 47l760 250q23 8 49 8q43 0 70.5 -24.5t27.5 -65.5q0 -27 -13.5 -47.5t-37.5 -28.5l-694 -217l694 -219q25 -8 38 -28.5t13 -47.5q0 -41 -26.5 -65.5t-69.5 -24.5q-27 0 -51 8l-760 246q-92 29 -92 129zM127 90q0 39 25.5 64.5t64.5 25.5h819 q39 0 64.5 -26.5t25.5 -65.5q0 -37 -25.5 -62.5t-64.5 -25.5h-819q-39 0 -64.5 25.5t-25.5 64.5z" />
<glyph unicode="&#x2265;" d="M115 389q0 27 13 47.5t38 28.5l694 219l-694 217q-25 8 -38 28.5t-13 47.5q0 41 27.5 65.5t70.5 24.5q27 0 49 -8l760 -250q43 -12 67.5 -47t24.5 -80q0 -100 -92 -129l-760 -246q-25 -8 -51 -8q-43 0 -69.5 24.5t-26.5 65.5zM127 90q0 39 25.5 64.5t64.5 25.5h819 q39 0 64.5 -26.5t25.5 -65.5q0 -37 -25.5 -62.5t-64.5 -25.5h-819q-39 0 -64.5 25.5t-25.5 64.5z" />
<glyph unicode="&#x25fc;" horiz-adv-x="1024" d="M0 0v1024h1024v-1024h-1024z" />
</font>
</defs>
</svg>
