<?xml version="1.0" standalone="no"?>
<!DOCTYPE svg PUBLIC "-//W3C//DTD SVG 1.1//EN" "http://www.w3.org/Graphics/SVG/1.1/DTD/svg11.dtd" >
<svg xmlns="http://www.w3.org/2000/svg" xmlns:xlink="http://www.w3.org/1999/xlink" version="1.1">
<metadata>
Created by FontForge 20170924 at Thu Jul 21 23:23:48 2016
 By www-data
Copyright \251 2015 by Radomir Tinkov. All rights reserved.
</metadata>
<defs>
<font id="Gilroy-MediumItalic" horiz-adv-x="564" >
  <font-face 
    font-family="Gilroy"
    font-weight="500"
    font-style="italic"
    font-stretch="normal"
    units-per-em="1000"
    panose-1="0 0 6 0 0 0 0 0 0 0"
    ascent="774"
    descent="-226"
    x-height="500"
    cap-height="700"
    bbox="-312 -248 1054 965"
    underline-thickness="50"
    underline-position="-100"
    slope="-10"
    unicode-range="U+0020-FB02"
  />
<missing-glyph horiz-adv-x="500" 
d="M93 800h317v-1000h-317v1000zM333 700v33h-165v-33h65v-37h-66v-33h166v33h-66v37h66zM267 534v70h-100v-104h166v34h-66zM200 570h33v-36h-33v36zM333 440v33h-166v-33h66v-37h-66v-33h100v70h66zM333 313v100h-33v-66h-133v-34h166zM333 178v113h-100v-56h34v23h33v-47
h-100v80h-33v-113h166zM333 5v113h-166v-113h166zM200 85h100v-47h-100v47zM333 -51v33h-166v-33h70l-70 -47v-33h166v33h-102l70 47h32z" />
    <glyph glyph-name="fi" unicode="fi" horiz-adv-x="530" 
d="M235 500h272l-88 -500h-87l73 416h-184l-74 -416h-87l74 416h-81l15 84h80l3 15c23 132 107 198 254 198c27 0 61 -4 100 -13l-14 -79c-29 5 -61 8 -96 8c-92 0 -142 -31 -157 -114z" />
    <glyph glyph-name="fl" unicode="fl" horiz-adv-x="530" 
d="M405 713c40 0 86 -5 137 -15l-123 -698h-87l111 633c-24 1 -41 2 -52 2c-89 0 -137 -35 -153 -120l-3 -15h104l-14 -84h-104l-74 -416h-87l74 416h-81l15 84h80l3 15c23 132 107 198 254 198z" />
    <glyph glyph-name="f_f" unicode="ff" horiz-adv-x="595" 
d="M421 500l4 25c24 139 112 207 253 198l-14 -84c-87 7 -138 -31 -152 -114l-4 -25h131l-14 -84h-132l-73 -416h-87l73 416h-185l-74 -416h-87l74 416h-81l15 84h80l3 15c24 139 113 207 254 198l-16 -84c-85 7 -136 -31 -151 -114l-3 -15h186z" />
    <glyph glyph-name="f_f_i" unicode="ffi" horiz-adv-x="802" 
d="M508 500h272l-88 -500h-87l73 416h-185l-73 -416h-87l73 416h-185l-74 -416h-87l74 416h-81l15 84h80l3 15c24 139 113 207 254 198l-16 -84c-85 7 -136 -31 -151 -114l-3 -15h186l4 25c23 132 106 198 251 198c31 0 65 -4 103 -13l-13 -79c-30 5 -62 8 -96 8
c-93 0 -143 -31 -158 -114z" />
    <glyph glyph-name="f_f_l" unicode="ffl" horiz-adv-x="802" 
d="M678 723c41 0 87 -5 138 -15l-124 -708h-87l113 643c-24 1 -42 2 -53 2c-89 0 -138 -35 -153 -120l-4 -25h104l-15 -84h-104l-73 -416h-87l73 416h-185l-74 -416h-87l74 416h-81l15 84h80l3 15c24 139 113 207 254 198l-16 -84c-85 7 -136 -31 -151 -114l-3 -15h186l4 25
c23 132 107 198 253 198z" />
    <glyph glyph-name=".notdef" horiz-adv-x="500" 
d="M93 800h317v-1000h-317v1000zM333 700v33h-165v-33h65v-37h-66v-33h166v33h-66v37h66zM267 534v70h-100v-104h166v34h-66zM200 570h33v-36h-33v36zM333 440v33h-166v-33h66v-37h-66v-33h100v70h66zM333 313v100h-33v-66h-133v-34h166zM333 178v113h-100v-56h34v23h33v-47
h-100v80h-33v-113h166zM333 5v113h-166v-113h166zM200 85h100v-47h-100v47zM333 -51v33h-166v-33h70l-70 -47v-33h166v33h-102l70 47h32z" />
    <glyph glyph-name="NULL" horiz-adv-x="0" 
 />
    <glyph glyph-name="CR" horiz-adv-x="333" 
 />
    <glyph glyph-name="space" unicode=" " horiz-adv-x="250" 
 />
    <glyph glyph-name="exclam" unicode="!" horiz-adv-x="243" 
d="M148 205h-68l33 295l35 200h105l-35 -200zM75 -11c-36 0 -60 30 -53 66c7 37 37 64 76 64c36 0 61 -30 54 -66c-7 -37 -37 -64 -77 -64z" />
    <glyph glyph-name="quotedbl" unicode="&#x22;" horiz-adv-x="333" 
d="M165 490h-63l25 210h87zM315 490h-63l25 210h87z" />
    <glyph glyph-name="numbersign" unicode="#" horiz-adv-x="605" 
d="M617 478l-25 -73h-115l-38 -110h117l-25 -72h-117l-59 -173h-76l59 173h-122l-59 -173h-77l59 173h-116l25 72h116l38 110h-118l25 73h118l59 172h77l-59 -172h122l59 172h76l-59 -172h115zM241 295h122l38 110h-122z" />
    <glyph glyph-name="dollar" unicode="$" horiz-adv-x="561" 
d="M388 617l-41 -232c24 -11 25 -10 49 -22c12 -5 21 -10 26 -14c11 -7 37 -22 46 -34c35 -31 57 -79 43 -147c-21 -111 -115 -174 -235 -181l-15 -87h-63l16 90c-101 12 -171 67 -198 152l84 42c18 -61 61 -96 130 -105l42 240c-83 39 -187 87 -160 216
c11 57 39 100 84 131s93 46 146 47l15 87h63l-16 -93c73 -16 124 -59 154 -130l-83 -41c-21 43 -50 70 -87 81zM205 527c-11 -55 22 -86 83 -115l38 210c-57 -4 -109 -39 -121 -95zM418 179c12 56 -22 86 -87 115l-38 -215c65 8 113 45 125 100z" />
    <glyph glyph-name="percent" unicode="%" horiz-adv-x="729" 
d="M243 403c-45 0 -80 16 -106 47c-25 31 -34 68 -27 110c7 43 28 80 62 109c35 29 76 44 123 44c45 0 80 -16 105 -49c25 -32 34 -70 26 -113c-8 -42 -29 -77 -63 -106c-33 -28 -73 -42 -120 -42zM188 558c-8 -47 19 -82 66 -82s86 37 94 82s-18 81 -65 81s-87 -36 -95 -81
zM121 70l-47 30l556 520l48 -29zM471 -12c-45 0 -81 16 -106 47c-25 32 -33 69 -26 112s28 78 62 107c35 29 75 44 122 44c45 0 79 -16 104 -48s34 -69 27 -112c-8 -43 -29 -78 -63 -107c-33 -29 -73 -43 -120 -43zM511 224c-48 0 -87 -36 -94 -81c-4 -23 0 -42 12 -58
c12 -15 30 -23 53 -23s44 8 61 23c57 47 40 144 -32 139z" />
    <glyph glyph-name="ampersand" unicode="&#x26;" horiz-adv-x="670" 
d="M535 323l74 -47c-22 -57 -50 -107 -83 -149l80 -105l-79 -41l-63 83c-63 -51 -134 -77 -214 -77c-71 0 -126 20 -164 60s-51 92 -39 155c15 84 71 148 168 193c-25 44 -33 90 -25 137c9 55 35 98 77 131s92 50 151 50c100 0 174 -54 203 -143l-83 -44
c-17 60 -64 97 -125 97c-64 0 -120 -38 -131 -103c-7 -40 7 -82 41 -127l150 -196c24 35 45 77 62 126zM263 75c55 0 105 19 150 56l-151 198c-70 -28 -111 -71 -122 -130c-13 -75 35 -124 123 -124z" />
    <glyph glyph-name="quotesingle" unicode="'" horiz-adv-x="183" 
d="M165 490h-63l25 210h87z" />
    <glyph glyph-name="parenleft" unicode="(" horiz-adv-x="280" 
d="M193 -100h-87c-47 146 -57 298 -29 457c27 151 89 298 188 443h87c-199 -292 -252 -608 -159 -900z" />
    <glyph glyph-name="parenright" unicode=")" horiz-adv-x="279" 
d="M122 800h87c47 -146 57 -298 29 -457c-27 -151 -89 -298 -188 -443h-87c199 292 252 608 159 900z" />
    <glyph glyph-name="asterisk" unicode="*" horiz-adv-x="395" 
d="M309 605l91 5l-11 -64l-90 4l40 -73l-59 -34l-31 82l-59 -82l-54 34l65 73l-91 -4l11 64l90 -5l-40 74l60 34l30 -82l60 82l53 -34z" />
    <glyph glyph-name="plus" unicode="+" horiz-adv-x="545" 
d="M339 392h173l-14 -83h-173l-31 -174h-83l31 174h-174l14 83h174l31 173h83z" />
    <glyph glyph-name="comma" unicode="," horiz-adv-x="253" 
d="M70 103h100l-108 -243h-75z" />
    <glyph glyph-name="hyphen" unicode="-" horiz-adv-x="515" 
d="M443 265h-365l14 84h365z" />
    <glyph glyph-name="period" unicode="." horiz-adv-x="243" 
d="M75 -11c-36 0 -60 30 -53 66c7 37 37 64 76 64c36 0 61 -30 54 -66c-7 -37 -37 -64 -77 -64z" />
    <glyph glyph-name="slash" unicode="/" horiz-adv-x="528" 
d="M587 800l-555 -900h-57l556 900h56z" />
    <glyph glyph-name="zero" unicode="0" horiz-adv-x="632" 
d="M272 -13c-83 0 -143 35 -181 104c-37 69 -46 159 -27 268c39 220 156 354 331 354c83 0 144 -35 181 -104s46 -158 27 -267c-39 -221 -156 -355 -331 -355zM511 350c31 173 -16 273 -129 273s-196 -100 -225 -273c-31 -175 16 -272 129 -272s194 97 225 272z" />
    <glyph glyph-name="one" unicode="1" horiz-adv-x="356" 
d="M82 636l196 64h80l-123 -700h-93l105 599v-2l-156 -44z" />
    <glyph glyph-name="two" unicode="2" horiz-adv-x="527" 
d="M445 0h-453l13 76l292 252c77 64 120 121 129 170c15 79 -33 125 -102 125c-62 0 -114 -32 -157 -95l-74 47c61 92 142 138 242 138c59 0 107 -21 144 -62c38 -41 51 -94 39 -160c-13 -81 -66 -143 -159 -223l-211 -178h312z" />
    <glyph glyph-name="three" unicode="3" horiz-adv-x="535" 
d="M126 700h420l-13 -82l-186 -207c97 -24 161 -102 142 -211c-12 -68 -44 -121 -96 -158c-51 -37 -110 -55 -177 -55c-105 0 -185 50 -210 142l82 45c16 -64 62 -96 139 -96c87 0 155 48 170 129c13 81 -37 130 -124 130h-24l-28 59l194 217h-303z" />
    <glyph glyph-name="four" unicode="4" horiz-adv-x="573" 
d="M468 220h85l-14 -87h-86l-23 -133h-93l23 133h-356l14 87l334 480h105l-334 -480h252l35 198h93z" />
    <glyph glyph-name="five" unicode="5" horiz-adv-x="546" 
d="M561 700l-15 -87h-296l-46 -186h100c61 0 112 -21 153 -63c41 -41 56 -96 44 -164s-43 -121 -94 -158s-110 -55 -177 -55c-107 0 -190 53 -215 150l84 44c13 -68 65 -103 141 -103c87 0 154 48 169 129c13 81 -36 130 -123 130h-197l89 363h383z" />
    <glyph glyph-name="six" unicode="6" horiz-adv-x="538" 
d="M303 458c69 0 122 -23 161 -70c39 -46 53 -103 40 -172s-44 -125 -95 -167c-50 -41 -111 -62 -184 -62c-69 0 -123 23 -162 69c-39 47 -52 105 -39 174c11 61 37 111 78 150l270 320h112l-206 -243c5 1 14 1 25 1zM412 223c15 88 -33 146 -122 146
c-91 0 -158 -57 -173 -146c-16 -89 32 -147 121 -147s158 58 174 147z" />
    <glyph glyph-name="seven" unicode="7" horiz-adv-x="490" 
d="M82 612l15 88h437l-14 -83l-359 -617h-102l356 612h-333z" />
    <glyph glyph-name="eight" unicode="8" horiz-adv-x="556" 
d="M540 509c-11 -67 -49 -117 -113 -150c61 -37 93 -101 80 -174c-24 -128 -130 -198 -274 -198c-67 0 -121 19 -162 58c-40 39 -54 91 -43 154c13 75 64 134 139 167c-51 38 -71 90 -60 155c11 63 41 111 88 143c47 33 102 49 163 49c57 0 105 -18 142 -55
c38 -36 51 -86 40 -149zM447 513c13 73 -34 111 -103 111c-71 0 -132 -38 -145 -111c-12 -71 38 -112 105 -112c72 0 131 41 143 112zM416 198c12 77 -43 121 -126 121c-87 0 -156 -44 -169 -121s41 -122 126 -122c88 0 154 43 169 122z" />
    <glyph glyph-name="nine" unicode="9" horiz-adv-x="540" 
d="M349 713c69 0 123 -23 162 -70s52 -105 40 -174c-9 -56 -33 -104 -72 -143l-275 -326h-112l206 244c-6 -1 -15 -1 -27 -1c-69 0 -123 23 -162 69c-39 47 -52 105 -40 174s43 124 94 165s113 62 186 62zM162 478c-16 -89 33 -147 122 -147s159 58 174 147
c16 89 -33 146 -122 146s-159 -58 -174 -146z" />
    <glyph glyph-name="colon" unicode=":" horiz-adv-x="243" 
d="M144 382c-36 0 -60 30 -53 66c7 37 37 64 76 64c36 0 61 -30 54 -66c-7 -37 -37 -64 -77 -64zM75 -11c-36 0 -60 30 -53 66c7 37 37 64 76 64c36 0 61 -30 54 -66c-7 -37 -37 -64 -77 -64z" />
    <glyph glyph-name="semicolon" unicode=";" horiz-adv-x="257" 
d="M159 382c-36 0 -60 30 -53 66c7 37 37 64 76 64c36 0 61 -30 54 -66c-7 -37 -37 -64 -77 -64zM70 103h100l-108 -243h-75z" />
    <glyph glyph-name="less" unicode="&#x3c;" horiz-adv-x="523" 
d="M80 393l445 180l-18 -99l-335 -129l290 -128l-16 -89l-380 180l7 42z" />
    <glyph glyph-name="equal" unicode="=" horiz-adv-x="535" 
d="M508 410h-424l14 83h425zM472 207h-425l16 83h424z" />
    <glyph glyph-name="greater" unicode="&#x3e;" horiz-adv-x="523" 
d="M97 484l15 89l380 -180l-7 -43l-8 -42l-443 -180l18 99l335 128z" />
    <glyph glyph-name="question" unicode="?" horiz-adv-x="538" 
d="M289 205h-92c11 61 49 114 90 149c62 50 136 99 148 166s-31 103 -103 103c-70 0 -121 -33 -154 -100l-77 47c48 93 142 143 245 143c57 0 105 -18 142 -54c37 -35 51 -83 40 -142c-9 -56 -47 -106 -90 -141c-60 -48 -136 -98 -149 -171zM205 -11c-36 0 -60 30 -53 66
c7 37 37 64 76 64c36 0 61 -30 54 -66c-7 -37 -37 -64 -77 -64z" />
    <glyph glyph-name="at" unicode="@" horiz-adv-x="790" 
d="M465 612c104 0 190 -45 237 -112s67 -153 52 -236c-24 -141 -100 -208 -185 -208c-55 0 -95 30 -103 82c-33 -33 -71 -49 -116 -49c-44 0 -79 16 -104 49s-33 72 -25 117s29 83 63 112s74 44 119 44c41 0 73 -17 96 -50l7 42h77l-39 -221c-10 -59 6 -88 47 -88
c59 0 111 57 131 176c15 89 -2 163 -52 222c-50 60 -120 90 -209 90c-93 0 -177 -31 -252 -94c-75 -62 -120 -140 -137 -235c-17 -96 1 -176 56 -240c55 -63 133 -95 234 -95c67 0 125 9 175 28l-6 -32c-50 -17 -108 -26 -174 -26c-109 0 -194 36 -255 107s-82 160 -63 265
c17 100 67 184 148 251s174 101 278 101zM313 185c29 -32 88 -32 128 0c21 17 33 38 38 65s0 48 -15 64c-28 33 -87 33 -128 0c-21 -16 -33 -37 -38 -64s0 -48 15 -65z" />
    <glyph glyph-name="A" unicode="A" horiz-adv-x="643" 
d="M591 0h-98l-28 157h-315l-86 -157h-101l385 700h105zM386 591l-189 -347h252z" />
    <glyph glyph-name="B" unicode="B" horiz-adv-x="615" 
d="M596 504c-10 -63 -43 -110 -100 -143c56 -33 85 -93 74 -168c-8 -55 -34 -101 -78 -138c-43 -37 -97 -55 -161 -55h-300l123 700h266c57 0 103 -19 137 -57c35 -38 48 -84 39 -139zM504 506c11 59 -27 107 -90 107h-182l-38 -214h186c59 0 113 47 124 107zM387 314h-208
l-40 -227h204c67 0 125 50 136 114s-29 113 -92 113z" />
    <glyph glyph-name="C" unicode="C" horiz-adv-x="740" 
d="M360 -13c-106 0 -188 37 -245 110s-76 161 -58 263c17 101 65 185 144 252s168 101 268 101c136 0 237 -65 285 -172l-83 -44c-39 84 -108 126 -207 126c-79 0 -149 -26 -208 -78s-95 -117 -108 -195c-13 -79 0 -144 41 -195s101 -77 179 -77c101 0 190 48 246 129
l77 -49c-76 -105 -199 -171 -331 -171z" />
    <glyph glyph-name="D" unicode="D" horiz-adv-x="720" 
d="M154 700h273c92 0 164 -36 217 -107s71 -155 54 -253s-63 -179 -136 -244c-73 -64 -159 -96 -258 -96h-273zM609 351c13 75 1 137 -36 186c-36 50 -90 75 -161 75h-180l-93 -524h178c73 0 136 25 190 75c55 51 89 113 102 188z" />
    <glyph glyph-name="E" unicode="E" horiz-adv-x="530" 
d="M567 700l-15 -88h-320l-38 -215h295l-16 -87h-295l-39 -222h325l-15 -88h-418l123 700h413z" />
    <glyph glyph-name="F" unicode="F" horiz-adv-x="516" 
d="M557 700l-16 -88h-309l-40 -227h297l-16 -88h-297l-52 -297h-93l123 700h403z" />
    <glyph glyph-name="G" unicode="G" horiz-adv-x="789" 
d="M417 347h351l-7 -41c-16 -92 -60 -168 -131 -229c-71 -60 -158 -90 -259 -90c-109 0 -194 37 -253 110c-59 74 -80 163 -61 267c18 101 66 184 144 250c79 66 169 99 272 99c136 0 237 -65 289 -173l-83 -44c-43 85 -114 127 -212 127c-81 0 -151 -26 -210 -77
s-96 -115 -109 -194s1 -144 42 -196s104 -78 187 -78c140 0 243 76 280 185h-255z" />
    <glyph glyph-name="H" unicode="H" horiz-adv-x="675" 
d="M535 403l52 297h92l-123 -700h-92l55 315h-340l-55 -315h-93l123 700h93l-52 -297h340z" />
    <glyph glyph-name="I" unicode="I" horiz-adv-x="243" 
d="M31 0l123 700h93l-123 -700h-93z" />
    <glyph glyph-name="J" unicode="J" horiz-adv-x="557" 
d="M219 -13c-107 0 -175 43 -205 129l84 45c17 -55 60 -83 129 -83c89 0 149 43 164 127l87 495h93l-87 -497c-13 -73 -44 -128 -93 -163c-48 -35 -105 -53 -172 -53z" />
    <glyph glyph-name="K" unicode="K" horiz-adv-x="590" 
d="M539 700h118l-376 -345l258 -355h-104l-250 344l-61 -344h-93l123 700h93l-55 -315z" />
    <glyph glyph-name="L" unicode="L" horiz-adv-x="488" 
d="M247 700l-108 -612h303l-16 -88h-395l123 700h93z" />
    <glyph glyph-name="M" unicode="M" horiz-adv-x="805" 
d="M700 700h109l-123 -700h-92l96 544l-295 -378h-12l-162 387l-97 -553h-93l123 700h102l154 -374z" />
    <glyph glyph-name="N" unicode="N" horiz-adv-x="678" 
d="M124 0h-93l123 700h71l273 -525l91 525h93l-123 -700h-71l-272 525z" />
    <glyph glyph-name="O" unicode="O" horiz-adv-x="803" 
d="M358 -13c-101 0 -181 37 -240 111s-80 161 -61 262c17 101 66 185 145 252s171 101 276 101c101 0 181 -38 240 -113s80 -163 63 -264c-18 -101 -67 -185 -146 -251c-79 -65 -171 -98 -277 -98zM371 78c79 0 148 25 207 76c60 51 97 115 110 192s-1 143 -44 196
c-43 54 -103 81 -181 81s-147 -26 -206 -78s-95 -117 -108 -195c-13 -77 1 -141 43 -194c42 -52 102 -78 179 -78z" />
    <glyph glyph-name="P" unicode="P" horiz-adv-x="589" 
d="M154 700h247c68 0 120 -22 155 -65c36 -43 49 -97 38 -162s-41 -119 -91 -161c-49 -41 -113 -62 -190 -62h-145l-44 -250h-93zM503 483c15 80 -30 130 -114 130h-157l-49 -276h140c97 0 165 61 180 146z" />
    <glyph glyph-name="Q" unicode="Q" horiz-adv-x="808" 
d="M781 336c-17 -97 -63 -179 -139 -244l56 -69l-68 -56l-61 74c-65 -36 -136 -54 -211 -54c-100 0 -180 37 -240 111c-59 74 -80 161 -61 262c17 101 66 185 145 252c80 67 172 101 276 101c101 0 181 -38 240 -113s80 -163 63 -264zM512 111l-117 143l69 55l122 -149
c55 51 89 113 102 186c13 77 -1 143 -44 196c-43 54 -103 81 -181 81s-147 -26 -206 -78s-95 -117 -108 -195c-13 -77 1 -141 43 -194c42 -52 102 -78 179 -78c50 0 97 11 141 33z" />
    <glyph glyph-name="R" unicode="R" horiz-adv-x="611" 
d="M613 473c-17 -95 -86 -167 -178 -194l114 -279h-96l-108 268h-174l-47 -268h-93l123 700h278c58 0 105 -23 142 -69c37 -45 50 -98 39 -158zM522 483c7 36 0 67 -21 92s-49 38 -84 38h-185l-46 -261h187c36 0 68 13 97 38c29 26 46 57 52 93z" />
    <glyph glyph-name="S" unicode="S" horiz-adv-x="585" 
d="M268 -13c-133 0 -222 64 -249 172l82 43c18 -83 75 -125 172 -125c91 0 152 39 165 102c8 37 -3 66 -36 87s-56 31 -109 48c-59 20 -95 38 -136 71c-41 35 -57 85 -45 149c11 58 40 102 87 133s99 46 156 46c115 0 191 -61 223 -152l-82 -42c-25 69 -75 104 -148 104
c-69 0 -130 -36 -143 -96c-7 -31 3 -56 18 -73c7 -9 18 -17 33 -26c31 -16 49 -23 90 -38c24 -9 43 -16 57 -22c14 -5 32 -15 53 -28s37 -26 48 -40c23 -28 38 -75 27 -131c-11 -59 -41 -104 -90 -135c-48 -31 -106 -47 -173 -47z" />
    <glyph glyph-name="T" unicode="T" horiz-adv-x="540" 
d="M97 700h505l-15 -88h-207l-108 -612h-92l108 612h-206z" />
    <glyph glyph-name="U" unicode="U" horiz-adv-x="655" 
d="M293 -13c-80 0 -142 23 -185 69s-58 106 -45 179l81 465h93l-81 -461c-17 -97 31 -161 140 -161c111 0 183 65 200 161l81 461h92l-81 -465c-14 -78 -48 -139 -101 -183c-53 -43 -118 -65 -194 -65z" />
    <glyph glyph-name="V" unicode="V" horiz-adv-x="616" 
d="M317 0h-105l-125 700h94l98 -587l304 587h105z" />
    <glyph glyph-name="W" unicode="W" horiz-adv-x="1000" 
d="M290 0h-108l-78 700h92l60 -578l272 578h94l69 -578l264 578h99l-324 -700h-108l-68 559z" />
    <glyph glyph-name="X" unicode="X" horiz-adv-x="590" 
d="M529 700h109l-272 -344l163 -356h-98l-128 278l-220 -278h-110l290 366l-153 334h98l117 -256z" />
    <glyph glyph-name="Y" unicode="Y" horiz-adv-x="584" 
d="M546 700h109l-305 -380l-56 -320h-93l57 322l-171 378h97l130 -293z" />
    <glyph glyph-name="Z" unicode="Z" horiz-adv-x="525" 
d="M127 700h440l-14 -80l-430 -532h345l-16 -88h-457l14 81l430 531h-327z" />
    <glyph glyph-name="bracketleft" unicode="[" horiz-adv-x="290" 
d="M367 800l-14 -84h-126l-129 -732h126l-16 -84h-213l160 900h212z" />
    <glyph glyph-name="backslash" unicode="\" horiz-adv-x="528" 
d="M428 -100h-52l-241 900h52z" />
    <glyph glyph-name="bracketright" unicode="]" horiz-adv-x="290" 
d="M117 800h213l-159 -900h-213l15 84h126l129 732h-125z" />
    <glyph glyph-name="asciicircum" unicode="^" horiz-adv-x="520" 
d="M299 700h78l127 -310h-93l-84 212l-160 -212h-103z" />
    <glyph glyph-name="underscore" unicode="_" horiz-adv-x="520" 
d="M412 -151h-445l14 84h445z" />
    <glyph glyph-name="grave" unicode="`" horiz-adv-x="226" 
d="M262 568h-84l-79 132h103z" />
    <glyph glyph-name="a" unicode="a" horiz-adv-x="634" 
d="M509 407l16 93h87l-88 -500h-87l13 71c-52 -56 -119 -84 -200 -84c-71 0 -128 27 -169 82s-54 119 -41 192c13 77 47 138 101 183c54 46 115 69 183 69c83 0 150 -38 185 -106zM480 246c11 57 1 101 -30 134c-30 33 -70 49 -120 49c-47 0 -91 -16 -130 -47
s-64 -73 -73 -128c-9 -51 0 -95 28 -130c29 -35 68 -53 119 -53s95 16 134 49s63 75 72 126z" />
    <glyph glyph-name="b" unicode="b" horiz-adv-x="633" 
d="M385 513c70 0 126 -26 167 -79c41 -52 56 -115 43 -188s-46 -135 -101 -185c-55 -49 -120 -74 -195 -74c-81 0 -142 41 -174 106l-16 -93h-87l123 700h87l-49 -279c53 61 120 92 202 92zM508 254c9 51 -1 92 -29 125c-27 33 -66 50 -117 50c-50 0 -95 -17 -135 -51
s-65 -77 -74 -128s1 -93 29 -128c29 -34 68 -51 118 -51c51 0 96 17 135 52s64 79 73 131z" />
    <glyph glyph-name="c" unicode="c" horiz-adv-x="549" 
d="M260 -13c-75 0 -133 27 -176 80c-43 54 -57 119 -44 194c13 73 47 134 104 181s122 71 197 71c100 0 178 -51 207 -130l-77 -40c-22 57 -68 85 -137 85c-51 0 -96 -17 -135 -50s-63 -74 -72 -124c-9 -51 0 -94 27 -129s66 -52 117 -52c68 0 127 34 163 89l70 -46
c-51 -81 -141 -129 -244 -129z" />
    <glyph glyph-name="d" unicode="d" horiz-adv-x="635" 
d="M509 406l52 294h87l-123 -700h-87l13 72c-53 -57 -120 -85 -201 -85c-71 0 -128 27 -169 82s-54 119 -41 192c13 77 47 138 101 183c54 46 115 69 183 69c83 0 152 -39 185 -107zM481 246c10 57 0 101 -31 134c-30 33 -70 49 -119 49c-48 0 -92 -16 -131 -47
s-64 -73 -73 -128c-9 -51 0 -95 28 -130c29 -35 68 -53 119 -53s96 16 135 49s63 75 72 126z" />
    <glyph glyph-name="e" unicode="e" horiz-adv-x="584" 
d="M337 513c75 0 133 -26 173 -78c41 -51 54 -113 40 -186c-1 -11 -5 -24 -10 -39h-418c0 -89 60 -141 152 -141c67 0 120 25 159 74l65 -47c-51 -69 -139 -109 -234 -109c-79 0 -139 26 -181 79s-56 117 -43 194c13 73 47 133 103 181s121 72 194 72zM135 287h333
c4 95 -52 144 -136 144c-93 0 -168 -55 -197 -144z" />
    <glyph glyph-name="f" unicode="f" horiz-adv-x="324" 
d="M148 500l3 15c25 137 113 207 254 198l-16 -84c-85 7 -136 -31 -151 -114l-3 -15h132l-15 -84h-131l-74 -416h-87l74 416h-81l15 84h80z" />
    <glyph glyph-name="g" unicode="g" horiz-adv-x="635" 
d="M509 406l17 94h86l-84 -479c-13 -76 -46 -134 -99 -174c-52 -40 -115 -60 -188 -60c-107 0 -188 45 -223 122l77 40c23 -54 73 -81 151 -81c109 0 179 56 196 153l10 59c-50 -59 -115 -88 -195 -88c-76 0 -134 26 -175 79c-40 53 -54 117 -42 192c11 73 44 133 99 180
s116 70 184 70c83 0 153 -38 186 -107zM277 76c48 0 91 15 129 44c38 30 63 69 74 118l5 26c6 51 -7 91 -38 121s-70 45 -116 45c-48 0 -92 -16 -132 -48c-40 -31 -64 -73 -72 -126c-9 -51 1 -94 29 -129c29 -34 69 -51 121 -51z" />
    <glyph glyph-name="h" unicode="h" 
d="M356 513c59 0 103 -19 133 -56c31 -37 41 -87 30 -150l-54 -307h-87l53 302c15 83 -21 128 -101 128c-85 0 -155 -53 -174 -165v1l-47 -266h-87l123 700h87l-47 -266c43 53 100 79 171 79z" />
    <glyph glyph-name="i" unicode="i" horiz-adv-x="220" 
d="M170 591c-32 0 -53 26 -48 58c5 33 33 59 68 59c32 0 54 -27 49 -59c-7 -33 -34 -58 -69 -58zM109 0h-87l88 500h87z" />
    <glyph glyph-name="j" unicode="j" horiz-adv-x="241" 
d="M260 649c-5 -33 -34 -58 -69 -58c-51 0 -65 63 -25 99c42 38 105 10 94 -41zM39 -30l93 530h87l-93 -530c-24 -140 -97 -192 -225 -183l15 84c71 -7 110 22 123 99z" />
    <glyph glyph-name="k" unicode="k" horiz-adv-x="502" 
d="M410 500h112l-282 -242l203 -258h-100l-191 246l-43 -246h-87l123 700h87l-73 -417z" />
    <glyph glyph-name="l" unicode="l" horiz-adv-x="221" 
d="M110 0h-87l53 304l75 426h87z" />
    <glyph glyph-name="m" unicode="m" horiz-adv-x="849" 
d="M650 513c53 0 95 -18 125 -55s40 -86 30 -147l-55 -311h-87l54 308c13 79 -21 122 -89 122c-73 0 -130 -48 -149 -149l-49 -281h-87l54 308c13 79 -19 122 -84 122c-73 0 -137 -49 -154 -149v1l-50 -282h-87l88 500h87l-11 -60c43 49 95 73 158 73c67 0 112 -29 134 -87
c45 58 103 87 172 87z" />
    <glyph glyph-name="n" unicode="n" 
d="M356 513c59 0 103 -19 133 -56c31 -37 41 -87 30 -150l-54 -307h-87l53 302c15 83 -21 128 -101 128c-85 0 -155 -53 -174 -165v1l-47 -266h-87l88 500h87l-12 -66c43 53 100 79 171 79z" />
    <glyph glyph-name="o" unicode="o" horiz-adv-x="603" 
d="M263 -13c-74 0 -133 26 -178 77s-60 116 -46 195c14 77 51 139 110 185s125 69 198 69c71 0 129 -26 172 -77s58 -116 45 -193c-13 -79 -49 -141 -107 -187s-123 -69 -194 -69zM270 72c49 0 93 16 133 48c41 32 66 76 75 132c9 54 -1 97 -30 128c-29 32 -67 48 -115 48
c-47 -1 -91 -17 -131 -48s-65 -75 -76 -130c-9 -56 0 -100 29 -132c29 -31 68 -47 115 -46z" />
    <glyph glyph-name="p" unicode="p" horiz-adv-x="634" 
d="M384 513c71 0 127 -27 168 -82c41 -54 56 -118 43 -191c-13 -77 -47 -138 -101 -184c-53 -46 -114 -69 -182 -69c-83 0 -153 39 -186 108l-52 -295h-87l123 700h87l-13 -74c52 58 119 87 200 87zM508 246c9 51 -1 95 -29 130s-67 53 -118 53s-96 -16 -135 -49
s-63 -74 -72 -125c-10 -57 0 -102 30 -135c31 -33 71 -49 121 -49c47 0 91 15 130 46s64 74 73 129z" />
    <glyph glyph-name="q" unicode="q" horiz-adv-x="634" 
d="M509 407l16 93h87l-123 -700h-87l48 271c-52 -56 -119 -84 -200 -84c-71 0 -128 27 -169 82s-54 119 -41 192c13 77 47 138 101 183c54 46 115 69 183 69c83 0 150 -38 185 -106zM480 245c11 57 1 101 -30 134c-30 33 -70 50 -120 50c-47 0 -91 -16 -130 -47
s-64 -73 -73 -128c-9 -51 0 -95 28 -130c29 -35 68 -53 119 -53s95 16 134 49s63 74 72 125z" />
    <glyph glyph-name="r" unicode="r" horiz-adv-x="329" 
d="M197 500l-13 -73c42 57 99 84 171 82l-16 -91c-43 1 -82 -10 -117 -35c-35 -24 -57 -63 -66 -118v1l-47 -266h-87l88 500h87z" />
    <glyph glyph-name="s" unicode="s" horiz-adv-x="473" 
d="M205 -13c-99 0 -163 46 -187 121l78 40c11 -47 53 -79 116 -79c59 0 101 23 109 66c19 106 -275 53 -241 240c7 41 29 74 64 99c36 26 78 39 126 39c85 0 143 -35 174 -104l-77 -40c-13 42 -47 63 -101 63c-47 0 -91 -22 -99 -66c-7 -40 33 -62 85 -78
c77 -21 175 -52 155 -163c-16 -88 -93 -138 -202 -138z" />
    <glyph glyph-name="t" unicode="t" horiz-adv-x="379" 
d="M368 416h-133l-48 -271c-15 -76 35 -71 122 -67l-14 -78c-148 -20 -216 24 -195 145l47 271h-99l16 84h98l20 114l92 26l-25 -140h134z" />
    <glyph glyph-name="u" unicode="u" 
d="M408 234l47 266h87l-88 -500h-87l12 66c-43 -53 -100 -79 -171 -79c-59 0 -103 19 -134 56c-30 37 -40 87 -29 150l54 307h87l-53 -302c-15 -83 21 -128 101 -128c85 0 155 53 174 165v-1z" />
    <glyph glyph-name="v" unicode="v" horiz-adv-x="480" 
d="M210 99l210 401h97l-272 -500h-98l-95 500h88z" />
    <glyph glyph-name="w" unicode="w" horiz-adv-x="773" 
d="M521 119l176 381h95l-244 -500h-89l-51 371l-180 -371h-91l-68 500h86l46 -380l182 380h87l-1 -2z" />
    <glyph glyph-name="x" unicode="x" horiz-adv-x="515" 
d="M425 500h108l-224 -247l147 -253h-96l-110 189l-171 -189h-108l237 261l-138 239h96l101 -174z" />
    <glyph glyph-name="y" unicode="y" horiz-adv-x="515" 
d="M239 105l216 395h97l-297 -531c-67 -120 -151 -176 -252 -169l14 81c63 -5 105 28 148 100l15 24l-128 495h88z" />
    <glyph glyph-name="z" unicode="z" horiz-adv-x="451" 
d="M92 500h365l-11 -58l-315 -359h262l-14 -83h-386l11 58l315 359h-242z" />
    <glyph glyph-name="braceleft" unicode="{" horiz-adv-x="357" 
d="M287 -24l-14 -84c-123 -11 -181 51 -160 170l28 161c12 72 -13 87 -81 86l16 84c67 -1 98 15 110 86l28 161c24 132 94 181 221 170l-15 -84c-72 8 -106 -13 -119 -86l-28 -161c-13 -77 -42 -114 -94 -131c44 -19 60 -60 49 -125l-28 -161c-13 -73 14 -94 87 -86z" />
    <glyph glyph-name="bar" unicode="|" horiz-adv-x="237" 
d="M83 -200h-87l162 920h87z" />
    <glyph glyph-name="braceright" unicode="}" horiz-adv-x="356" 
d="M105 726l14 84c123 11 181 -51 160 -170l-28 -161c-12 -72 13 -87 81 -86l-16 -84c-67 1 -98 -15 -110 -86l-28 -161c-24 -132 -94 -181 -221 -170l15 84c72 -8 106 13 119 86l28 161c13 77 42 114 94 131c-44 19 -60 60 -49 125l28 161c13 73 -14 94 -87 86z" />
    <glyph glyph-name="asciitilde" unicode="~" horiz-adv-x="596" 
d="M134 276l-68 35c48 121 150 153 263 81c47 -28 82 -39 105 -34c23 6 44 28 62 66l69 -36c-48 -121 -147 -153 -263 -80c-92 55 -132 43 -168 -32z" />
    <glyph glyph-name="exclamdown" unicode="&#xa1;" horiz-adv-x="243" 
d="M168 511c36 0 60 -30 53 -66c-7 -37 -37 -64 -76 -64c-36 0 -61 30 -54 66c7 37 37 64 77 64zM95 295h68l-33 -295l-35 -200h-105l35 200z" />
    <glyph glyph-name="cent" unicode="&#xa2;" horiz-adv-x="549" 
d="M289 173c68 0 127 34 163 89l70 -46c-51 -81 -141 -129 -244 -129c-21 0 -43 3 -64 8l-47 -95h-56l56 114c-84 44 -128 140 -109 247c13 73 47 134 104 181s122 71 197 71c16 0 33 -2 52 -5l45 92h56l-53 -107c53 -23 88 -59 107 -110l-77 -40c-12 33 -35 57 -68 72
l-167 -339c11 -2 22 -3 35 -3zM145 354c-12 -69 11 -129 62 -160l164 333c-4 1 -10 1 -19 1c-51 0 -96 -17 -135 -50s-63 -74 -72 -124z" />
    <glyph glyph-name="sterling" unicode="&#xa3;" horiz-adv-x="584" 
d="M445 284h-222l-34 -194h353l-16 -90h-533l16 90h88l34 194h-70l15 82h70l23 133c25 141 114 214 235 214c89 0 160 -53 187 -138l-79 -42c-23 60 -58 90 -119 90c-65 0 -117 -41 -132 -124l-23 -133h222z" />
    <glyph glyph-name="currency" unicode="&#xa4;" horiz-adv-x="549" 
d="M533 588l32 -35l-83 -71c25 -40 33 -85 24 -135s-32 -94 -69 -131l57 -69l-40 -33l-57 69c-44 -29 -91 -44 -142 -44c-48 0 -88 14 -121 43l-82 -70l-32 35l83 71c-25 40 -33 85 -24 135s32 94 69 131l-57 69l39 34l58 -70c43 30 90 45 142 45c48 0 88 -15 121 -44z
M166 350c-13 -72 32 -128 104 -128c36 0 68 12 96 37c29 25 47 55 54 91c12 73 -32 128 -105 128c-36 0 -68 -12 -97 -37c-29 -24 -46 -54 -52 -91z" />
    <glyph glyph-name="yen" unicode="&#xa5;" horiz-adv-x="584" 
d="M546 700h109l-279 -348h154l-11 -65h-175l-9 -55h174l-11 -66h-175l-29 -166h-93l29 166h-172l11 66h173l10 55h-173l11 65h154l-157 348h97l130 -293z" />
    <glyph glyph-name="brokenbar" unicode="&#xa6;" horiz-adv-x="237" 
d="M180 350h-87l65 370h87zM83 -200h-87l65 370h87z" />
    <glyph glyph-name="section" unicode="&#xa7;" horiz-adv-x="525" 
d="M308 467l54 -25c97 -44 140 -104 127 -181c-9 -49 -38 -89 -87 -120c24 -31 32 -67 25 -108c-17 -91 -95 -145 -206 -145c-101 0 -169 44 -202 131l78 42c19 -62 63 -93 132 -93c60 0 103 25 111 70c5 28 -5 52 -40 73c-17 11 -31 20 -44 26c-12 6 -31 14 -56 25
c-96 42 -137 102 -124 180c9 51 40 91 91 120c-21 31 -28 67 -21 106c16 89 94 145 195 145c84 0 150 -45 179 -122l-75 -39c-21 53 -58 80 -111 80c-51 0 -94 -25 -102 -70c-4 -27 6 -49 35 -70c15 -10 29 -18 41 -25zM401 264c8 48 -24 78 -91 106c-39 16 -68 31 -89 44
c-33 -19 -53 -45 -58 -77c-8 -48 23 -78 86 -103c47 -19 79 -34 96 -45c32 19 51 44 56 75z" />
    <glyph glyph-name="dieresis" unicode="&#xa8;" horiz-adv-x="328" 
d="M86 619c4 29 32 52 61 52s48 -23 44 -52c-7 -29 -33 -53 -62 -53s-48 24 -43 53zM276 619c4 29 32 52 61 52s48 -23 44 -52c-7 -29 -33 -53 -62 -53s-48 24 -43 53z" />
    <glyph glyph-name="copyright" unicode="&#xa9;" horiz-adv-x="799" 
d="M356 -12c-99 0 -178 36 -237 109s-80 159 -62 259c17 100 67 184 148 253s173 103 274 103c99 0 178 -36 237 -109s80 -159 63 -259c-18 -100 -68 -184 -149 -253s-173 -103 -274 -103zM360 18c92 0 175 32 250 96c75 65 120 143 136 236c16 92 -3 170 -56 235
s-125 97 -215 97c-92 0 -175 -32 -250 -97c-75 -64 -120 -142 -136 -235c-17 -91 2 -170 55 -235s125 -97 216 -97zM386 157c-53 0 -96 20 -128 59c-31 40 -42 87 -33 141s35 98 77 133s91 53 146 53c68 0 127 -38 155 -95l-71 -36c-20 35 -52 53 -95 53
c-34 0 -63 -11 -87 -34s-39 -50 -44 -81c-12 -61 25 -115 89 -115c44 0 86 21 110 57l65 -41c-43 -59 -111 -94 -184 -94z" />
    <glyph glyph-name="guillemotleft" unicode="&#xab;" horiz-adv-x="513" 
d="M218 492h99l-143 -188l75 -177h-94l-77 182zM389 492h99l-144 -189l75 -176h-94l-77 181z" />
    <glyph glyph-name="logicalnot" unicode="&#xac;" horiz-adv-x="530" 
d="M80 392h420l-35 -200h-87l20 117h-333z" />
    <glyph glyph-name="registered" unicode="&#xae;" horiz-adv-x="799" 
d="M479 712c99 0 178 -36 237 -109s80 -159 63 -259c-18 -100 -68 -184 -149 -253s-173 -103 -274 -103c-99 0 -178 36 -237 109s-80 159 -62 259c17 100 67 184 148 253s173 103 274 103zM746 350c16 92 -3 170 -56 235s-125 97 -215 97c-92 0 -175 -32 -250 -97
c-75 -64 -120 -142 -136 -235c-17 -91 2 -170 55 -235s125 -97 216 -97c92 0 175 32 250 96c75 65 120 143 136 236zM331 535h129c83 0 128 -58 116 -127c-9 -52 -36 -87 -82 -105l52 -138h-80l-43 125h-7h-51l-22 -125h-77zM499 411c6 35 -11 52 -52 52h-52l-18 -103h52
c40 0 63 17 70 51z" />
    <glyph glyph-name="overscore" unicode="&#xaf;" horiz-adv-x="310" 
d="M347 575h-270l13 73h270z" />
    <glyph glyph-name="degree" unicode="&#xb0;" horiz-adv-x="391" 
d="M240 500c-44 0 -79 16 -104 47s-33 69 -26 112s28 79 63 108s75 43 121 43c44 0 79 -16 104 -47s34 -69 27 -112c-16 -88 -88 -151 -185 -151zM346 655c8 45 -18 80 -65 80s-84 -35 -92 -80c-8 -47 16 -80 64 -80s86 35 93 80z" />
    <glyph glyph-name="plusminus" unicode="&#xb1;" horiz-adv-x="546" 
d="M380 623l-28 -158h174l-15 -83h-173l-28 -157h-83l28 157h-174l15 83h173l28 158h83zM457 78h-430l15 83h430z" />
    <glyph glyph-name="acute" unicode="&#xb4;" horiz-adv-x="224" 
d="M76 568l100 132h107l-121 -132h-86z" />
    <glyph glyph-name="uni00B5" unicode="&#xb5;" horiz-adv-x="610" 
d="M553 500l-67 -382c-4 -23 6 -35 29 -35h38l-15 -83h-51c-44 0 -79 24 -88 61c-43 -49 -99 -74 -167 -74c-50 0 -89 16 -117 47l-41 -234h-87l123 700h87l-54 -307c-11 -80 24 -123 103 -123c85 0 154 53 173 165v-1l47 266h87z" />
    <glyph glyph-name="paragraph" unicode="&#xb6;" horiz-adv-x="610" 
d="M319 700h327l-13 -79h-61l-144 -821h-83l144 821h-101l-144 -821h-83l86 490c-57 1 -101 22 -134 63c-32 42 -43 91 -34 148c11 57 39 104 85 142s98 57 155 57z" />
    <glyph glyph-name="middot" unicode="&#xb7;" horiz-adv-x="243" 
d="M127 284c-36 0 -60 30 -53 66c7 37 37 64 76 64c36 0 61 -30 54 -66c-7 -37 -37 -64 -77 -64z" />
    <glyph glyph-name="cedilla" unicode="&#xb8;" horiz-adv-x="250" 
d="M101 0l-8 -45c48 -11 78 -45 70 -86c-11 -67 -86 -95 -225 -85l12 66c87 -7 134 4 139 31c4 24 -26 36 -77 36l14 83h75z" />
    <glyph glyph-name="guillemotright" unicode="&#xbb;" horiz-adv-x="514" 
d="M115 491h94l77 -181l-141 -184h-99l144 189zM285 491h94l77 -182l-140 -183h-99l143 188z" />
    <glyph glyph-name="onequarter" unicode="&#xbc;" horiz-adv-x="819" 
d="M123 300l56 314l-92 -26l-8 70l126 42h66l-71 -400h-77zM80 0l518 700h75l-518 -700h-75zM734 142h47l-12 -71h-48l-12 -71h-76l13 71h-200l12 71l187 258h86l-184 -258h111l16 88h75z" />
    <glyph glyph-name="onehalf" unicode="&#xbd;" horiz-adv-x="809" 
d="M123 300l56 314l-92 -26l-8 70l126 42h66l-71 -400h-77zM80 0l518 700h75l-518 -700h-75zM779 282c-6 -37 -35 -77 -87 -120l-111 -90h167l-13 -72h-286l10 57l188 157c33 27 52 51 55 72c7 32 -14 54 -51 54c-32 0 -60 -20 -85 -60l-62 38c33 59 93 95 158 95
c80 0 130 -55 117 -131z" />
    <glyph glyph-name="threequarters" unicode="&#xbe;" horiz-adv-x="916" 
d="M344 412c-13 -79 -79 -125 -170 -125c-67 0 -111 29 -133 86l68 35c12 -33 37 -49 76 -49c48 0 75 20 82 59c7 36 -17 60 -62 60h-9l-25 50l97 100h-168l13 72h263l-11 -66l-99 -102c56 -16 87 -63 78 -120zM177 0l518 700h75l-518 -700h-75zM831 142h47l-12 -71h-48
l-12 -71h-76l13 71h-200l12 71l187 258h86l-184 -258h111l16 88h75z" />
    <glyph glyph-name="questiondown" unicode="&#xbf;" horiz-adv-x="538" 
d="M333 511c36 0 60 -30 53 -66c-7 -37 -37 -64 -76 -64c-36 0 -61 30 -54 66c7 37 37 64 77 64zM249 295h92c-11 -61 -48 -114 -91 -149c-60 -50 -134 -99 -147 -166c-12 -67 31 -103 103 -103c70 0 121 33 154 100l77 -47c-48 -93 -142 -143 -245 -143
c-57 0 -105 18 -142 54c-37 35 -51 83 -40 142c9 56 48 107 89 140c62 50 137 99 150 172z" />
    <glyph glyph-name="Agrave" unicode="&#xc0;" horiz-adv-x="643" 
d="M405 900l60 -132h-84l-79 132h103zM591 0h-98l-28 157h-315l-86 -157h-101l385 700h105zM386 591l-189 -347h252z" />
    <glyph glyph-name="Aacute" unicode="&#xc1;" horiz-adv-x="643" 
d="M453 900h107l-121 -132h-86zM591 0h-98l-28 157h-315l-86 -157h-101l385 700h105zM386 591l-189 -347h252z" />
    <glyph glyph-name="Acircumflex" unicode="&#xc2;" horiz-adv-x="643" 
d="M475 765l-47 81l-76 -81h-95l129 135h96l83 -135h-90zM591 0h-98l-28 157h-315l-86 -157h-101l385 700h105zM386 591l-189 -347h252z" />
    <glyph glyph-name="Atilde" unicode="&#xc3;" horiz-adv-x="643" 
d="M414 797c-41 40 -66 41 -77 -24h-74c19 135 106 152 172 99c41 -40 65 -41 76 23h74c-18 -132 -107 -155 -171 -98zM591 0h-98l-28 157h-315l-86 -157h-101l385 700h105zM386 591l-189 -347h252z" />
    <glyph glyph-name="Adieresis" unicode="&#xc4;" horiz-adv-x="643" 
d="M274 819c4 29 32 52 61 52s48 -23 44 -52c-7 -29 -33 -53 -62 -53s-48 24 -43 53zM464 819c4 29 32 52 61 52s48 -23 44 -52c-7 -29 -33 -53 -62 -53s-48 24 -43 53zM591 0h-98l-28 157h-315l-86 -157h-101l385 700h105zM386 591l-189 -347h252z" />
    <glyph glyph-name="Aring" unicode="&#xc5;" horiz-adv-x="643" 
d="M591 0h-98l-28 157h-315l-86 -157h-101l371 674c-30 21 -42 51 -35 92c11 60 63 103 128 103c68 0 106 -50 97 -110c-6 -40 -28 -69 -65 -88zM364 763c-4 -27 10 -46 39 -46s52 20 56 45c5 28 -11 46 -39 46c-31 0 -49 -15 -56 -45zM386 591l-189 -347h252z" />
    <glyph glyph-name="AE" unicode="&#xc6;" horiz-adv-x="880" 
d="M917 700l-15 -88h-297l-38 -215h279l-16 -87h-279l-39 -222h302l-15 -88h-393l28 157h-248l-123 -157h-107l547 700h414zM505 565l-251 -321h195z" />
    <glyph glyph-name="Ccedilla" unicode="&#xc7;" horiz-adv-x="740" 
d="M368 78c101 0 190 48 246 129l77 -49c-69 -96 -177 -160 -296 -169l-6 -34c48 -11 78 -45 70 -86c-11 -67 -86 -95 -225 -85l12 66c87 -7 134 4 139 31c4 24 -26 36 -77 36l12 72c-94 10 -166 50 -215 121s-65 155 -48 250c17 101 65 185 144 252s168 101 268 101
c136 0 237 -65 285 -172l-83 -44c-39 84 -108 126 -207 126c-79 0 -149 -26 -208 -78s-95 -117 -108 -195c-13 -79 0 -144 41 -195s101 -77 179 -77z" />
    <glyph glyph-name="Egrave" unicode="&#xc8;" horiz-adv-x="530" 
d="M366 900l60 -132h-84l-79 132h103zM567 700l-15 -88h-320l-38 -215h295l-16 -87h-295l-39 -222h325l-15 -88h-418l123 700h413z" />
    <glyph glyph-name="Eacute" unicode="&#xc9;" horiz-adv-x="530" 
d="M414 900h107l-121 -132h-86zM567 700l-15 -88h-320l-38 -215h295l-16 -87h-295l-39 -222h325l-15 -88h-418l123 700h413z" />
    <glyph glyph-name="Ecircumflex" unicode="&#xca;" horiz-adv-x="530" 
d="M436 765l-47 81l-76 -81h-95l129 135h96l83 -135h-90zM567 700l-15 -88h-320l-38 -215h295l-16 -87h-295l-39 -222h325l-15 -88h-418l123 700h413z" />
    <glyph glyph-name="Edieresis" unicode="&#xcb;" horiz-adv-x="530" 
d="M235 819c4 29 32 52 61 52s48 -23 44 -52c-7 -29 -33 -53 -62 -53s-48 24 -43 53zM425 819c4 29 32 52 61 52s48 -23 44 -52c-7 -29 -33 -53 -62 -53s-48 24 -43 53zM567 700l-15 -88h-320l-38 -215h295l-16 -87h-295l-39 -222h325l-15 -88h-418l123 700h413z" />
    <glyph glyph-name="Igrave" unicode="&#xcc;" horiz-adv-x="243" 
d="M265 768h-84l-79 132h103zM154 700l-123 -700h93l123 700h-93z" />
    <glyph glyph-name="Iacute" unicode="&#xcd;" horiz-adv-x="243" 
d="M153 768l100 132h107l-121 -132h-86zM154 700l-123 -700h93l123 700h-93z" />
    <glyph glyph-name="Icircumflex" unicode="&#xce;" horiz-adv-x="243" 
d="M186 900h96l83 -135h-90l-47 81l-76 -81h-95zM124 0h-93l123 700h93z" />
    <glyph glyph-name="Idieresis" unicode="&#xcf;" horiz-adv-x="243" 
d="M74 819c4 29 32 52 61 52s48 -23 44 -52c-7 -29 -33 -53 -62 -53s-48 24 -43 53zM264 819c4 29 32 52 61 52s48 -23 44 -52c-7 -29 -33 -53 -62 -53s-48 24 -43 53zM31 0l123 700h93l-123 -700h-93z" />
    <glyph glyph-name="Eth" unicode="&#xd0;" horiz-adv-x="745" 
d="M179 700h273c92 0 164 -36 217 -107s71 -155 54 -253s-63 -179 -136 -244c-73 -64 -159 -96 -258 -96h-273l54 306h-72l14 84h73zM634 351c13 75 1 137 -36 186c-36 50 -90 75 -161 75h-180l-39 -222h199l-14 -84h-200l-39 -218h178c73 0 136 25 190 75
c55 51 89 113 102 188z" />
    <glyph glyph-name="Ntilde" unicode="&#xd1;" horiz-adv-x="678" 
d="M355 773h-74c19 135 106 152 172 99c41 -40 65 -41 76 23h74c-18 -132 -107 -155 -171 -98c-41 40 -66 41 -77 -24zM124 0h-93l123 700h71l273 -525l91 525h93l-123 -700h-71l-272 525z" />
    <glyph glyph-name="Ograve" unicode="&#xd2;" horiz-adv-x="803" 
d="M545 771h-84l-79 132h103zM358 -13c106 0 198 33 277 98c79 66 128 150 146 251c17 101 -4 189 -63 264s-139 113 -240 113c-105 0 -197 -34 -276 -101s-128 -151 -145 -252c-19 -101 2 -188 61 -262s139 -111 240 -111zM371 78c-77 0 -137 26 -179 78
c-42 53 -56 117 -43 194c13 78 49 143 108 195s128 78 206 78s138 -27 181 -81c43 -53 57 -119 44 -196s-50 -141 -110 -192c-59 -51 -128 -76 -207 -76z" />
    <glyph glyph-name="Oacute" unicode="&#xd3;" horiz-adv-x="803" 
d="M433 771l100 132h107l-121 -132h-86zM358 -13c106 0 198 33 277 98c79 66 128 150 146 251c17 101 -4 189 -63 264s-139 113 -240 113c-105 0 -197 -34 -276 -101s-128 -151 -145 -252c-19 -101 2 -188 61 -262s139 -111 240 -111zM371 78c-77 0 -137 26 -179 78
c-42 53 -56 117 -43 194c13 78 49 143 108 195s128 78 206 78s138 -27 181 -81c43 -53 57 -119 44 -196s-50 -141 -110 -192c-59 -51 -128 -76 -207 -76z" />
    <glyph glyph-name="Ocircumflex" unicode="&#xd4;" horiz-adv-x="803" 
d="M555 768l-47 81l-76 -81h-95l129 135h96l83 -135h-90zM478 713c101 0 181 -38 240 -113s80 -163 63 -264c-18 -101 -67 -185 -146 -251c-79 -65 -171 -98 -277 -98c-101 0 -181 37 -240 111s-80 161 -61 262c17 101 66 185 145 252s171 101 276 101zM149 350
c-13 -77 1 -141 43 -194c42 -52 102 -78 179 -78c79 0 148 25 207 76c60 51 97 115 110 192s-1 143 -44 196c-43 54 -103 81 -181 81s-147 -26 -206 -78s-95 -117 -108 -195z" />
    <glyph glyph-name="Otilde" unicode="&#xd5;" horiz-adv-x="803" 
d="M417 776h-74c19 135 106 152 172 99c41 -40 65 -41 76 23h74c-18 -132 -107 -155 -171 -98c-41 40 -66 41 -77 -24zM358 -13c-101 0 -181 37 -240 111s-80 161 -61 262c17 101 66 185 145 252s171 101 276 101c101 0 181 -38 240 -113s80 -163 63 -264
c-18 -101 -67 -185 -146 -251c-79 -65 -171 -98 -277 -98zM371 78c79 0 148 25 207 76c60 51 97 115 110 192s-1 143 -44 196c-43 54 -103 81 -181 81s-147 -26 -206 -78s-95 -117 -108 -195c-13 -77 1 -141 43 -194c42 -52 102 -78 179 -78z" />
    <glyph glyph-name="Odieresis" unicode="&#xd6;" horiz-adv-x="803" 
d="M354 822c4 29 32 52 61 52s48 -23 44 -52c-7 -29 -33 -53 -62 -53s-48 24 -43 53zM544 822c4 29 32 52 61 52s48 -23 44 -52c-7 -29 -33 -53 -62 -53s-48 24 -43 53zM358 -13c-101 0 -181 37 -240 111s-80 161 -61 262c17 101 66 185 145 252s171 101 276 101
c101 0 181 -38 240 -113s80 -163 63 -264c-18 -101 -67 -185 -146 -251c-79 -65 -171 -98 -277 -98zM371 78c79 0 148 25 207 76c60 51 97 115 110 192s-1 143 -44 196c-43 54 -103 81 -181 81s-147 -26 -206 -78s-95 -117 -108 -195c-13 -77 1 -141 43 -194
c42 -52 102 -78 179 -78z" />
    <glyph glyph-name="multiply" unicode="&#xd7;" horiz-adv-x="485" 
d="M422 541l54 -56l-159 -137l112 -133l-64 -56l-112 134l-155 -134l-54 56l159 137l-111 133l63 56l112 -133z" />
    <glyph glyph-name="Oslash" unicode="&#xd8;" horiz-adv-x="812" 
d="M790 670l-66 -65c62 -76 84 -166 66 -269c-19 -101 -67 -185 -146 -251c-79 -65 -171 -98 -277 -98c-77 0 -142 23 -197 68l-60 -59l-52 33l69 69c-59 73 -80 161 -62 262c18 102 66 186 145 253s172 100 277 100c75 0 139 -22 194 -66l57 57zM158 350
c-13 -72 0 -134 37 -185l418 415c-39 29 -86 43 -141 43c-78 0 -147 -26 -206 -78s-95 -117 -108 -195zM697 346c13 75 -1 139 -40 192l-420 -416c39 -29 86 -44 143 -44c79 0 148 25 207 76c60 51 97 115 110 192z" />
    <glyph glyph-name="Ugrave" unicode="&#xd9;" horiz-adv-x="655" 
d="M471 768h-84l-79 132h103zM293 -13c76 0 141 22 194 65c53 44 87 105 101 183l81 465h-92l-81 -461c-17 -96 -89 -161 -200 -161c-109 0 -157 64 -140 161l81 461h-93l-81 -465c-13 -73 2 -133 45 -179s105 -69 185 -69z" />
    <glyph glyph-name="Uacute" unicode="&#xda;" horiz-adv-x="655" 
d="M359 768l100 132h107l-121 -132h-86zM293 -13c76 0 141 22 194 65c53 44 87 105 101 183l81 465h-92l-81 -461c-17 -96 -89 -161 -200 -161c-109 0 -157 64 -140 161l81 461h-93l-81 -465c-13 -73 2 -133 45 -179s105 -69 185 -69z" />
    <glyph glyph-name="Ucircumflex" unicode="&#xdb;" horiz-adv-x="655" 
d="M481 765l-47 81l-76 -81h-95l129 135h96l83 -135h-90zM496 239l81 461h92l-81 -465c-14 -78 -48 -139 -101 -183c-53 -43 -118 -65 -194 -65c-80 0 -142 23 -185 69s-58 106 -45 179l81 465h93l-81 -461c-17 -97 31 -161 140 -161c111 0 183 65 200 161z" />
    <glyph glyph-name="Udieresis" unicode="&#xdc;" horiz-adv-x="655" 
d="M280 819c4 29 32 52 61 52s48 -23 44 -52c-7 -29 -33 -53 -62 -53s-48 24 -43 53zM470 819c4 29 32 52 61 52s48 -23 44 -52c-7 -29 -33 -53 -62 -53s-48 24 -43 53zM293 -13c-80 0 -142 23 -185 69s-58 106 -45 179l81 465h93l-81 -461c-17 -97 31 -161 140 -161
c111 0 183 65 200 161l81 461h92l-81 -465c-14 -78 -48 -139 -101 -183c-53 -43 -118 -65 -194 -65z" />
    <glyph glyph-name="Yacute" unicode="&#xdd;" horiz-adv-x="584" 
d="M421 900h107l-121 -132h-86zM546 700h109l-305 -380l-56 -320h-93l57 322l-171 378h97l130 -293z" />
    <glyph glyph-name="Thorn" unicode="&#xde;" horiz-adv-x="590" 
d="M225 575h155c67 0 119 -22 154 -65c36 -43 49 -97 39 -162c-11 -65 -41 -118 -91 -160c-49 -42 -113 -63 -190 -63h-146l-22 -125h-93l123 700h93zM482 358c13 80 -30 130 -114 130h-158l-49 -276h141c97 0 165 61 180 146z" />
    <glyph glyph-name="germandbls" unicode="&#xdf;" horiz-adv-x="523" 
d="M241 -4l14 78c86 -6 134 19 145 75c7 39 -18 89 -46 124c-28 36 -54 84 -47 120c3 19 21 45 54 77c33 33 51 60 55 82c9 49 -27 79 -84 79c-59 0 -117 -36 -132 -120l-91 -511h-87l91 515c23 129 110 198 231 198c54 0 96 -16 127 -47s41 -69 32 -114
c-7 -37 -33 -75 -57 -98c-23 -21 -47 -47 -50 -66c-5 -25 20 -68 47 -105c27 -36 50 -95 41 -148c-16 -97 -96 -151 -243 -139z" />
    <glyph glyph-name="agrave" unicode="&#xe0;" horiz-adv-x="634" 
d="M351 700l60 -132h-84l-79 132h103zM509 407l16 93h87l-88 -500h-87l13 71c-52 -56 -119 -84 -200 -84c-71 0 -128 27 -169 82s-54 119 -41 192c13 77 47 138 101 183c54 46 115 69 183 69c83 0 150 -38 185 -106zM480 246c11 57 1 101 -30 134c-30 33 -70 49 -120 49
c-47 0 -91 -16 -130 -47s-64 -73 -73 -128c-9 -51 0 -95 28 -130c29 -35 68 -53 119 -53s95 16 134 49s63 75 72 126z" />
    <glyph glyph-name="aacute" unicode="&#xe1;" horiz-adv-x="634" 
d="M399 700h107l-121 -132h-86zM509 407l16 93h87l-88 -500h-87l13 71c-52 -56 -119 -84 -200 -84c-71 0 -128 27 -169 82s-54 119 -41 192c13 77 47 138 101 183c54 46 115 69 183 69c83 0 150 -38 185 -106zM480 246c11 57 1 101 -30 134c-30 33 -70 49 -120 49
c-47 0 -91 -16 -130 -47s-64 -73 -73 -128c-9 -51 0 -95 28 -130c29 -35 68 -53 119 -53s95 16 134 49s63 75 72 126z" />
    <glyph glyph-name="acircumflex" unicode="&#xe2;" horiz-adv-x="634" 
d="M421 565l-47 81l-76 -81h-95l129 135h96l83 -135h-90zM509 407l16 93h87l-88 -500h-87l13 71c-52 -56 -119 -84 -200 -84c-71 0 -128 27 -169 82s-54 119 -41 192c13 77 47 138 101 183c54 46 115 69 183 69c83 0 150 -38 185 -106zM480 246c11 57 1 101 -30 134
c-30 33 -70 49 -120 49c-47 0 -91 -16 -130 -47s-64 -73 -73 -128c-9 -51 0 -95 28 -130c29 -35 68 -53 119 -53s95 16 134 49s63 75 72 126z" />
    <glyph glyph-name="atilde" unicode="&#xe3;" horiz-adv-x="634" 
d="M360 597c-41 40 -66 41 -77 -24h-74c19 135 106 152 172 99c41 -40 65 -41 76 23h74c-18 -132 -107 -155 -171 -98zM509 407l16 93h87l-88 -500h-87l13 71c-52 -56 -119 -84 -200 -84c-71 0 -128 27 -169 82s-54 119 -41 192c13 77 47 138 101 183c54 46 115 69 183 69
c83 0 150 -38 185 -106zM480 246c11 57 1 101 -30 134c-30 33 -70 49 -120 49c-47 0 -91 -16 -130 -47s-64 -73 -73 -128c-9 -51 0 -95 28 -130c29 -35 68 -53 119 -53s95 16 134 49s63 75 72 126z" />
    <glyph glyph-name="adieresis" unicode="&#xe4;" horiz-adv-x="634" 
d="M220 619c4 29 32 52 61 52s48 -23 44 -52c-7 -29 -33 -53 -62 -53s-48 24 -43 53zM410 619c4 29 32 52 61 52s48 -23 44 -52c-7 -29 -33 -53 -62 -53s-48 24 -43 53zM509 407l16 93h87l-88 -500h-87l13 71c-52 -56 -119 -84 -200 -84c-71 0 -128 27 -169 82
s-54 119 -41 192c13 77 47 138 101 183c54 46 115 69 183 69c83 0 150 -38 185 -106zM480 246c11 57 1 101 -30 134c-30 33 -70 49 -120 49c-47 0 -91 -16 -130 -47s-64 -73 -73 -128c-9 -51 0 -95 28 -130c29 -35 68 -53 119 -53s95 16 134 49s63 75 72 126z" />
    <glyph glyph-name="aring" unicode="&#xe5;" horiz-adv-x="634" 
d="M261 656c11 60 63 103 128 103c68 0 106 -50 97 -110c-11 -60 -62 -103 -129 -103s-107 49 -96 110zM326 653c-4 -27 10 -46 39 -46s52 20 56 45c5 28 -11 46 -39 46c-31 0 -49 -15 -56 -45zM509 407l16 93h87l-88 -500h-87l13 71c-52 -56 -119 -84 -200 -84
c-71 0 -128 27 -169 82s-54 119 -41 192c13 77 47 138 101 183c54 46 115 69 183 69c83 0 150 -38 185 -106zM480 246c11 57 1 101 -30 134c-30 33 -70 49 -120 49c-47 0 -91 -16 -130 -47s-64 -73 -73 -128c-9 -51 0 -95 28 -130c29 -35 68 -53 119 -53s95 16 134 49
s63 75 72 126z" />
    <glyph glyph-name="ae" unicode="&#xe6;" horiz-adv-x="1026" 
d="M796 513c69 0 123 -26 160 -79c37 -52 49 -114 36 -185c-2 -11 -5 -24 -10 -39h-418c-1 -91 58 -141 150 -141c68 0 122 25 161 74l66 -47c-61 -73 -136 -109 -227 -109c-85 0 -144 33 -177 98l-15 -85h-85l13 75c-52 -59 -119 -88 -200 -88c-71 0 -128 27 -169 82
s-54 119 -41 192c13 77 47 138 101 183c54 46 115 69 183 69c84 0 152 -37 185 -105l16 92h85l-13 -75c52 59 118 88 199 88zM578 287h332c3 93 -52 144 -135 144c-93 0 -166 -56 -197 -144zM480 246c11 57 1 101 -30 134c-30 33 -70 49 -120 49c-47 0 -91 -16 -130 -47
s-64 -73 -74 -128c-9 -51 1 -95 29 -130c29 -35 68 -53 119 -53s95 16 134 49s63 75 72 126z" />
    <glyph glyph-name="ccedilla" unicode="&#xe7;" horiz-adv-x="549" 
d="M271 73c68 0 127 34 163 89l70 -46c-45 -73 -124 -120 -215 -128l-6 -33c48 -11 78 -45 70 -86c-11 -67 -86 -95 -225 -85l12 66c87 -7 134 4 139 31c4 24 -26 36 -77 36l12 74c-61 11 -109 42 -142 93s-43 110 -32 177c13 73 47 134 104 181s122 71 197 71
c100 0 178 -51 207 -130l-77 -40c-22 57 -68 85 -137 85c-51 0 -96 -17 -135 -50s-63 -74 -72 -124c-9 -51 0 -94 27 -129s66 -52 117 -52z" />
    <glyph glyph-name="egrave" unicode="&#xe8;" horiz-adv-x="584" 
d="M351 701l60 -132h-84l-79 132h103zM337 513c75 0 133 -26 173 -78c41 -51 54 -113 40 -186c-1 -11 -5 -24 -10 -39h-418c0 -89 60 -141 152 -141c67 0 120 25 159 74l65 -47c-51 -69 -139 -109 -234 -109c-79 0 -139 26 -181 79s-56 117 -43 194c13 73 47 133 103 181
s121 72 194 72zM135 287h333c4 95 -52 144 -136 144c-93 0 -168 -55 -197 -144z" />
    <glyph glyph-name="eacute" unicode="&#xe9;" horiz-adv-x="584" 
d="M399 701h107l-121 -132h-86zM337 513c75 0 133 -26 173 -78c41 -51 54 -113 40 -186c-1 -11 -5 -24 -10 -39h-418c0 -89 60 -141 152 -141c67 0 120 25 159 74l65 -47c-51 -69 -139 -109 -234 -109c-79 0 -139 26 -181 79s-56 117 -43 194c13 73 47 133 103 181
s121 72 194 72zM135 287h333c4 95 -52 144 -136 144c-93 0 -168 -55 -197 -144z" />
    <glyph glyph-name="ecircumflex" unicode="&#xea;" horiz-adv-x="584" 
d="M421 566l-47 81l-76 -81h-95l129 135h96l83 -135h-90zM337 513c75 0 133 -26 173 -78c41 -51 54 -113 40 -186c-1 -11 -5 -24 -10 -39h-418c0 -89 60 -141 152 -141c67 0 120 25 159 74l65 -47c-51 -69 -139 -109 -234 -109c-79 0 -139 26 -181 79s-56 117 -43 194
c13 73 47 133 103 181s121 72 194 72zM135 287h333c4 95 -52 144 -136 144c-93 0 -168 -55 -197 -144z" />
    <glyph glyph-name="edieresis" unicode="&#xeb;" horiz-adv-x="584" 
d="M220 620c4 29 32 52 61 52s48 -23 44 -52c-7 -29 -33 -53 -62 -53s-48 24 -43 53zM410 620c4 29 32 52 61 52s48 -23 44 -52c-7 -29 -33 -53 -62 -53s-48 24 -43 53zM337 513c75 0 133 -26 173 -78c41 -51 54 -113 40 -186c-1 -11 -5 -24 -10 -39h-418
c0 -89 60 -141 152 -141c67 0 120 25 159 74l65 -47c-51 -69 -139 -109 -234 -109c-79 0 -139 26 -181 79s-56 117 -43 194c13 73 47 133 103 181s121 72 194 72zM135 287h333c4 95 -52 144 -136 144c-93 0 -168 -55 -197 -144z" />
    <glyph glyph-name="igrave" unicode="&#xec;" horiz-adv-x="220" 
d="M207 565h-83l-44 135h100zM109 0l88 500h-87l-88 -500h87z" />
    <glyph glyph-name="iacute" unicode="&#xed;" horiz-adv-x="220" 
d="M125 565l70 135h103l-89 -135h-84zM22 0h87l88 500h-87z" />
    <glyph glyph-name="icircumflex" unicode="&#xee;" horiz-adv-x="220" 
d="M141 700h96l65 -135h-91l-33 70l-55 -70h-93zM109 0h-87l88 500h87z" />
    <glyph glyph-name="idieresis" unicode="&#xef;" horiz-adv-x="220" 
d="M131 583c-24 -20 -58 -20 -75 0c-16 20 -10 54 14 74c24 21 58 21 74 0c17 -20 11 -54 -13 -74zM197 620c4 29 32 53 61 53s49 -24 44 -53c-7 -29 -33 -52 -62 -52s-48 23 -43 52zM109 0h-87l88 500h87z" />
    <glyph glyph-name="eth" unicode="&#xf0;" horiz-adv-x="583" 
d="M379 598l131 -226c24 -41 37 -104 29 -156c-13 -72 -46 -128 -99 -168c-52 -40 -114 -60 -185 -60c-128 0 -247 107 -219 256c12 69 45 123 99 162c55 40 116 57 183 52c16 -1 33 -3 51 -8l-62 111l-137 -70l12 71l96 50l-49 88h91l30 -52l126 65l-12 -72zM452 223
c7 39 3 72 -12 99c-25 42 -69 63 -131 63c-97 0 -170 -55 -186 -147c-9 -49 1 -89 29 -120c29 -31 67 -47 115 -47c92 0 168 55 185 152z" />
    <glyph glyph-name="ntilde" unicode="&#xf1;" 
d="M337 600c-41 40 -66 41 -77 -24h-74c19 135 106 152 172 99c41 -40 65 -41 76 23h74c-18 -132 -107 -155 -171 -98zM356 513c59 0 103 -19 133 -56c31 -37 41 -87 30 -150l-54 -307h-87l53 302c15 83 -21 128 -101 128c-85 0 -155 -53 -174 -165v1l-47 -266h-87l88 500
h87l-12 -66c43 53 100 79 171 79z" />
    <glyph glyph-name="ograve" unicode="&#xf2;" horiz-adv-x="603" 
d="M411 571h-84l-79 132h103zM263 -13c71 0 136 23 194 69s94 108 107 187c13 77 -2 142 -45 193s-101 77 -172 77c-73 0 -139 -23 -198 -69s-96 -108 -110 -185c-14 -79 1 -144 46 -195s104 -77 178 -77zM270 72c-47 -1 -86 15 -115 46c-29 32 -38 76 -29 132
c11 55 36 99 76 130s84 47 131 48c48 0 86 -16 115 -48c29 -31 39 -74 30 -128c-9 -56 -34 -100 -75 -132c-40 -32 -84 -48 -133 -48z" />
    <glyph glyph-name="oacute" unicode="&#xf3;" horiz-adv-x="603" 
d="M299 571l100 132h107l-121 -132h-86zM263 -13c71 0 136 23 194 69s94 108 107 187c13 77 -2 142 -45 193s-101 77 -172 77c-73 0 -139 -23 -198 -69s-96 -108 -110 -185c-14 -79 1 -144 46 -195s104 -77 178 -77zM270 72c-47 -1 -86 15 -115 46c-29 32 -38 76 -29 132
c11 55 36 99 76 130s84 47 131 48c48 0 86 -16 115 -48c29 -31 39 -74 30 -128c-9 -56 -34 -100 -75 -132c-40 -32 -84 -48 -133 -48z" />
    <glyph glyph-name="ocircumflex" unicode="&#xf4;" horiz-adv-x="603" 
d="M421 568l-47 81l-76 -81h-95l129 135h96l83 -135h-90zM347 513c71 0 129 -26 172 -77s58 -116 45 -193c-13 -79 -49 -141 -107 -187s-123 -69 -194 -69c-74 0 -133 26 -178 77s-60 116 -46 195c14 77 51 139 110 185s125 69 198 69zM478 252c9 54 -1 97 -30 128
c-29 32 -67 48 -115 48c-47 -1 -91 -17 -131 -48s-65 -75 -76 -130c-9 -56 0 -100 29 -132c29 -31 68 -47 115 -46c49 0 93 16 133 48c41 32 66 76 75 132z" />
    <glyph glyph-name="otilde" unicode="&#xf5;" horiz-adv-x="603" 
d="M283 576h-74c19 135 106 152 172 99c41 -40 65 -41 76 23h74c-18 -132 -107 -155 -171 -98c-41 40 -66 41 -77 -24zM263 -13c-74 0 -133 26 -178 77s-60 116 -46 195c14 77 51 139 110 185s125 69 198 69c71 0 129 -26 172 -77s58 -116 45 -193
c-13 -79 -49 -141 -107 -187s-123 -69 -194 -69zM270 72c49 0 93 16 133 48c41 32 66 76 75 132c9 54 -1 97 -30 128c-29 32 -67 48 -115 48c-47 -1 -91 -17 -131 -48s-65 -75 -76 -130c-9 -56 0 -100 29 -132c29 -31 68 -47 115 -46z" />
    <glyph glyph-name="odieresis" unicode="&#xf6;" horiz-adv-x="603" 
d="M220 622c4 29 32 52 61 52s48 -23 44 -52c-7 -29 -33 -53 -62 -53s-48 24 -43 53zM410 622c4 29 32 52 61 52s48 -23 44 -52c-7 -29 -33 -53 -62 -53s-48 24 -43 53zM263 -13c-74 0 -133 26 -178 77s-60 116 -46 195c14 77 51 139 110 185s125 69 198 69
c71 0 129 -26 172 -77s58 -116 45 -193c-13 -79 -49 -141 -107 -187s-123 -69 -194 -69zM270 72c49 0 93 16 133 48c41 32 66 76 75 132c9 54 -1 97 -30 128c-29 32 -67 48 -115 48c-47 -1 -91 -17 -131 -48s-65 -75 -76 -130c-9 -56 0 -100 29 -132c29 -31 68 -47 115 -46z
" />
    <glyph glyph-name="divide" unicode="&#xf7;" horiz-adv-x="575" 
d="M328 476c-35 0 -60 30 -53 66c4 54 86 82 117 42c34 -38 -8 -113 -64 -108zM530 309h-465l15 83h465zM261 97c-35 0 -60 30 -53 66c5 36 38 61 75 61c35 0 58 -29 53 -65c-7 -36 -38 -62 -75 -62z" />
    <glyph glyph-name="oslash" unicode="&#xf8;" horiz-adv-x="603" 
d="M534 506l45 -27l-53 -51c38 -51 51 -113 38 -185c-13 -79 -49 -141 -107 -187c-57 -46 -122 -69 -194 -69c-57 0 -107 16 -148 48l-42 -41l-46 27l52 50c-40 51 -53 114 -40 188c14 77 51 139 110 185s125 69 198 69c56 0 104 -16 144 -49zM126 250
c-8 -46 -2 -85 19 -116l280 268c-27 17 -57 26 -92 26c-47 -1 -91 -17 -131 -48s-65 -75 -76 -130zM478 252c7 45 1 82 -18 113l-280 -268c25 -17 55 -25 90 -25c49 0 93 16 133 48c41 32 66 76 75 132z" />
    <glyph glyph-name="ugrave" unicode="&#xf9;" 
d="M321 700l60 -132h-84l-79 132h103zM408 234l47 266h87l-88 -500h-87l12 66c-43 -53 -100 -79 -171 -79c-59 0 -103 19 -134 56c-30 37 -40 87 -29 150l54 307h87l-53 -302c-15 -83 21 -128 101 -128c85 0 155 53 174 165v-1z" />
    <glyph glyph-name="uacute" unicode="&#xfa;" 
d="M369 700h107l-121 -132h-86zM408 234l47 266h87l-88 -500h-87l12 66c-43 -53 -100 -79 -171 -79c-59 0 -103 19 -134 56c-30 37 -40 87 -29 150l54 307h87l-53 -302c-15 -83 21 -128 101 -128c85 0 155 53 174 165v-1z" />
    <glyph glyph-name="ucircumflex" unicode="&#xfb;" 
d="M391 565l-47 81l-76 -81h-95l129 135h96l83 -135h-90zM408 234l47 266h87l-88 -500h-87l12 66c-43 -53 -100 -79 -171 -79c-59 0 -103 19 -134 56c-30 37 -40 87 -29 150l54 307h87l-53 -302c-15 -83 21 -128 101 -128c85 0 155 53 174 165v-1z" />
    <glyph glyph-name="udieresis" unicode="&#xfc;" 
d="M190 619c4 29 32 52 61 52s48 -23 44 -52c-7 -29 -33 -53 -62 -53s-48 24 -43 53zM380 619c4 29 32 52 61 52s48 -23 44 -52c-7 -29 -33 -53 -62 -53s-48 24 -43 53zM408 234l47 266h87l-88 -500h-87l12 66c-43 -53 -100 -79 -171 -79c-59 0 -103 19 -134 56
c-30 37 -40 87 -29 150l54 307h87l-53 -302c-15 -83 21 -128 101 -128c85 0 155 53 174 165v-1z" />
    <glyph glyph-name="yacute" unicode="&#xfd;" horiz-adv-x="515" 
d="M338 700h107l-121 -132h-86zM239 105l216 395h97l-297 -531c-67 -120 -151 -176 -252 -169l14 81c63 -5 105 28 148 100l15 24l-128 495h88z" />
    <glyph glyph-name="thorn" unicode="&#xfe;" horiz-adv-x="634" 
d="M384 513c71 0 127 -27 168 -82c41 -54 56 -118 43 -191c-13 -77 -47 -138 -101 -184c-53 -46 -114 -69 -182 -69c-83 0 -153 39 -186 108l-52 -295h-87l158 900h87l-48 -275c52 59 119 88 200 88zM508 246c9 51 -1 95 -29 130s-67 53 -118 53s-96 -16 -135 -49
s-63 -74 -72 -125c-10 -57 0 -102 30 -135c31 -33 71 -49 121 -49c47 0 91 15 130 46s64 74 73 129z" />
    <glyph glyph-name="ydieresis" unicode="&#xff;" horiz-adv-x="515" 
d="M159 619c4 29 32 52 61 52s48 -23 44 -52c-7 -29 -33 -53 -62 -53s-48 24 -43 53zM349 619c4 29 32 52 61 52s48 -23 44 -52c-7 -29 -33 -53 -62 -53s-48 24 -43 53zM239 105l216 395h97l-297 -531c-67 -120 -151 -176 -252 -169l14 81c63 -5 105 28 148 100l15 24
l-128 495h88z" />
    <glyph glyph-name="Amacron" unicode="&#x100;" horiz-adv-x="643" 
d="M291 848h270l-13 -73h-270zM591 0h-98l-28 157h-315l-86 -157h-101l385 700h105zM386 591l-189 -347h252z" />
    <glyph glyph-name="amacron" unicode="&#x101;" horiz-adv-x="634" 
d="M237 648h270l-13 -73h-270zM509 407l16 93h87l-88 -500h-87l13 71c-52 -56 -119 -84 -200 -84c-71 0 -128 27 -169 82s-54 119 -41 192c13 77 47 138 101 183c54 46 115 69 183 69c83 0 150 -38 185 -106zM480 246c11 57 1 101 -30 134c-30 33 -70 49 -120 49
c-47 0 -91 -16 -130 -47s-64 -73 -73 -128c-9 -51 0 -95 28 -130c29 -35 68 -53 119 -53s95 16 134 49s63 75 72 126z" />
    <glyph glyph-name="Abreve" unicode="&#x102;" horiz-adv-x="643" 
d="M413 757c-89 0 -143 51 -128 135h81c-8 -43 11 -65 56 -65s72 22 80 65h81c-15 -87 -74 -135 -170 -135zM591 0h-98l-28 157h-315l-86 -157h-101l385 700h105zM386 591l-189 -347h252z" />
    <glyph glyph-name="abreve" unicode="&#x103;" horiz-adv-x="634" 
d="M359 557c-89 0 -143 51 -128 135h81c-8 -43 11 -65 56 -65s72 22 80 65h81c-15 -87 -74 -135 -170 -135zM509 407l16 93h87l-88 -500h-87l13 71c-52 -56 -119 -84 -200 -84c-71 0 -128 27 -169 82s-54 119 -41 192c13 77 47 138 101 183c54 46 115 69 183 69
c83 0 150 -38 185 -106zM480 246c11 57 1 101 -30 134c-30 33 -70 49 -120 49c-47 0 -91 -16 -130 -47s-64 -73 -73 -128c-9 -51 0 -95 28 -130c29 -35 68 -53 119 -53s95 16 134 49s63 75 72 126z" />
    <glyph glyph-name="Aogonek" unicode="&#x104;" horiz-adv-x="643" 
d="M503 -113c-4 -20 5 -30 26 -30c13 0 25 2 38 6l-11 -62c-22 -9 -45 -14 -68 -14c-51 0 -82 38 -73 86c7 40 37 82 90 127h-12l-28 157h-315l-86 -157h-101l385 700h105l138 -700c-53 -43 -83 -81 -88 -113zM386 591l-189 -347h252z" />
    <glyph glyph-name="aogonek" unicode="&#x105;" horiz-adv-x="635" 
d="M612 500l-88 -500c-55 -45 -84 -83 -89 -116c-2 -19 7 -28 27 -28c13 0 25 3 38 8l-11 -64c-21 -9 -43 -13 -65 -13c-56 0 -85 35 -76 84c6 36 36 79 89 130l13 70c-52 -56 -119 -84 -200 -84c-71 0 -128 27 -169 82s-54 119 -41 192c13 77 47 138 101 183
c54 46 115 69 183 69c83 0 150 -38 185 -106l16 93h87zM480 246c11 57 1 101 -30 134c-30 33 -70 49 -120 49c-47 0 -91 -16 -130 -47s-64 -73 -73 -128c-9 -51 0 -95 28 -130c29 -35 68 -53 119 -53s95 16 134 49s63 75 72 126z" />
    <glyph glyph-name="Cacute" unicode="&#x106;" horiz-adv-x="740" 
d="M436 771l100 132h107l-121 -132h-86zM360 -13c132 0 255 66 331 171l-77 49c-56 -81 -145 -129 -246 -129c-78 0 -138 26 -179 77s-54 116 -41 195c13 78 49 143 108 195s129 78 208 78c99 0 168 -42 207 -126l83 44c-48 107 -149 172 -285 172
c-100 0 -189 -34 -268 -101s-127 -151 -144 -252c-18 -102 1 -190 58 -263s139 -110 245 -110z" />
    <glyph glyph-name="cacute" unicode="&#x107;" horiz-adv-x="549" 
d="M284 568l100 132h107l-121 -132h-86zM260 -13c103 0 193 48 244 129l-70 46c-36 -55 -95 -89 -163 -89c-51 0 -90 17 -117 52s-36 78 -27 129c9 50 33 91 72 124s84 50 135 50c69 0 115 -28 137 -85l77 40c-29 79 -107 130 -207 130c-75 0 -140 -24 -197 -71
s-91 -108 -104 -181c-13 -75 1 -140 44 -194c43 -53 101 -80 176 -80z" />
    <glyph glyph-name="Cdotaccent" unicode="&#x10a;" horiz-adv-x="740" 
d="M568 829c-5 -33 -38 -62 -73 -62s-59 27 -52 62s38 63 73 63s59 -28 52 -63zM360 -13c-106 0 -188 37 -245 110s-76 161 -58 263c17 101 65 185 144 252s168 101 268 101c136 0 237 -65 285 -172l-83 -44c-39 84 -108 126 -207 126c-79 0 -149 -26 -208 -78
s-95 -117 -108 -195c-13 -79 0 -144 41 -195s101 -77 179 -77c101 0 190 48 246 129l77 -49c-76 -105 -199 -171 -331 -171z" />
    <glyph glyph-name="cdotaccent" unicode="&#x10b;" horiz-adv-x="549" 
d="M416 626c-5 -33 -38 -62 -73 -62s-59 27 -52 62s38 63 73 63s59 -28 52 -63zM260 -13c-75 0 -133 27 -176 80c-43 54 -57 119 -44 194c13 73 47 134 104 181s122 71 197 71c100 0 178 -51 207 -130l-77 -40c-22 57 -68 85 -137 85c-51 0 -96 -17 -135 -50
s-63 -74 -72 -124c-9 -51 0 -94 27 -129s66 -52 117 -52c68 0 127 34 163 89l70 -46c-51 -81 -141 -129 -244 -129z" />
    <glyph glyph-name="Ccaron" unicode="&#x10c;" horiz-adv-x="740" 
d="M542 768h-96l-83 135h88l48 -80l75 80h97zM368 78c101 0 190 48 246 129l77 -49c-76 -105 -199 -171 -331 -171c-106 0 -188 37 -245 110s-76 161 -58 263c17 101 65 185 144 252s168 101 268 101c136 0 237 -65 285 -172l-83 -44c-39 84 -108 126 -207 126
c-79 0 -149 -26 -208 -78s-95 -117 -108 -195c-13 -79 0 -144 41 -195s101 -77 179 -77z" />
    <glyph glyph-name="ccaron" unicode="&#x10d;" horiz-adv-x="549" 
d="M390 565h-96l-83 135h88l48 -80l75 80h97zM271 73c68 0 127 34 163 89l70 -46c-51 -81 -141 -129 -244 -129c-75 0 -133 27 -176 80c-43 54 -57 119 -44 194c13 73 47 134 104 181s122 71 197 71c100 0 178 -51 207 -130l-77 -40c-22 57 -68 85 -137 85
c-51 0 -96 -17 -135 -50s-63 -74 -72 -124c-9 -51 0 -94 27 -129s66 -52 117 -52z" />
    <glyph glyph-name="Dcaron" unicode="&#x10e;" horiz-adv-x="720" 
d="M473 765h-96l-83 135h88l48 -80l75 80h97zM154 700h273c92 0 164 -36 217 -107s71 -155 54 -253s-63 -179 -136 -244c-73 -64 -159 -96 -258 -96h-273zM609 351c13 75 1 137 -36 186c-36 50 -90 75 -161 75h-180l-93 -524h178c73 0 136 25 190 75c55 51 89 113 102 188z
" />
    <glyph glyph-name="dcaron" unicode="&#x10f;" horiz-adv-x="715" 
d="M509 406l52 294h87l-123 -700h-87l13 72c-53 -57 -120 -85 -201 -85c-71 0 -128 27 -169 82s-54 119 -41 192c13 77 47 138 101 183c54 46 115 69 183 69c83 0 152 -39 185 -107zM678 520l42 180h84l-62 -180h-64zM481 246c10 57 0 101 -31 134c-30 33 -70 49 -119 49
c-48 0 -92 -16 -131 -47s-64 -73 -73 -128c-9 -51 0 -95 28 -130c29 -35 68 -53 119 -53s96 16 135 49s63 75 72 126z" />
    <glyph glyph-name="Dcroat" unicode="&#x110;" horiz-adv-x="745" 
d="M179 700h273c92 0 164 -36 217 -107s71 -155 54 -253s-63 -179 -136 -244c-73 -64 -159 -96 -258 -96h-273l54 306h-72l14 84h73zM634 351c13 75 1 137 -36 186c-36 50 -90 75 -161 75h-180l-39 -222h199l-14 -84h-200l-39 -218h178c73 0 136 25 190 75
c55 51 89 113 102 188z" />
    <glyph glyph-name="dslash" unicode="&#x111;" horiz-adv-x="642" 
d="M635 633h67l-11 -64h-67l-100 -569h-87l12 71c-51 -56 -117 -84 -199 -84c-71 0 -128 27 -169 82s-54 119 -41 192c13 77 47 138 101 183c54 46 115 69 183 69c83 0 150 -38 185 -106l28 162h-174l11 64h174l12 67h87zM274 71c47 0 90 14 127 43c38 29 63 66 76 112l7 40
c4 51 -9 90 -39 119s-68 44 -114 44c-48 0 -92 -16 -131 -47s-64 -73 -73 -128c-9 -51 0 -95 28 -130c29 -35 68 -53 119 -53z" />
    <glyph glyph-name="Emacron" unicode="&#x112;" horiz-adv-x="530" 
d="M252 848h270l-13 -73h-270zM567 700l-15 -88h-320l-38 -215h295l-16 -87h-295l-39 -222h325l-15 -88h-418l123 700h413z" />
    <glyph glyph-name="emacron" unicode="&#x113;" horiz-adv-x="584" 
d="M237 649h270l-13 -73h-270zM337 513c75 0 133 -26 173 -78c41 -51 54 -113 40 -186c-1 -11 -5 -24 -10 -39h-418c0 -89 60 -141 152 -141c67 0 120 25 159 74l65 -47c-51 -69 -139 -109 -234 -109c-79 0 -139 26 -181 79s-56 117 -43 194c13 73 47 133 103 181
s121 72 194 72zM135 287h333c4 95 -52 144 -136 144c-93 0 -168 -55 -197 -144z" />
    <glyph glyph-name="Edotaccent" unicode="&#x116;" horiz-adv-x="530" 
d="M446 826c-5 -33 -38 -62 -73 -62s-59 27 -52 62s38 63 73 63s59 -28 52 -63zM567 700l-15 -88h-320l-38 -215h295l-16 -87h-295l-39 -222h325l-15 -88h-418l123 700h413z" />
    <glyph glyph-name="edotaccent" unicode="&#x117;" horiz-adv-x="584" 
d="M431 627c-5 -33 -38 -62 -73 -62s-59 27 -52 62s38 63 73 63s59 -28 52 -63zM337 513c75 0 133 -26 173 -78c41 -51 54 -113 40 -186c-1 -11 -5 -24 -10 -39h-418c0 -89 60 -141 152 -141c67 0 120 25 159 74l65 -47c-51 -69 -139 -109 -234 -109c-79 0 -139 26 -181 79
s-56 117 -43 194c13 73 47 133 103 181s121 72 194 72zM135 287h333c4 95 -52 144 -136 144c-93 0 -168 -55 -197 -144z" />
    <glyph glyph-name="Eogonek" unicode="&#x118;" horiz-adv-x="530" 
d="M567 700l-15 -88h-320l-38 -215h295l-16 -87h-295l-39 -222h325l-15 -88h-1c-54 -45 -83 -82 -88 -111c-3 -22 5 -33 26 -33c14 0 27 3 38 8l-11 -65c-20 -8 -42 -12 -67 -12c-55 0 -82 37 -74 88c7 40 38 82 94 125h-335l123 700h413z" />
    <glyph glyph-name="eogonek" unicode="&#x119;" horiz-adv-x="584" 
d="M337 513c75 0 133 -26 173 -78c41 -51 54 -113 40 -186c-1 -11 -5 -24 -10 -39h-418c0 -89 60 -141 152 -141c67 0 120 25 159 74l65 -47c-15 -21 -35 -40 -59 -57c-75 -63 -117 -113 -124 -152c-4 -21 5 -31 27 -31c13 0 26 3 37 8l-11 -64c-21 -9 -43 -13 -64 -13
c-59 0 -86 36 -77 84c7 41 35 80 83 119c-15 -2 -30 -3 -46 -3c-79 0 -139 26 -181 79s-56 117 -43 194c13 73 47 133 103 181s121 72 194 72zM135 287h333c4 95 -52 144 -136 144c-93 0 -168 -55 -197 -144z" />
    <glyph glyph-name="Ecaron" unicode="&#x11a;" horiz-adv-x="530" 
d="M420 765h-96l-83 135h88l48 -80l75 80h97zM567 700l-15 -88h-320l-38 -215h295l-16 -87h-295l-39 -222h325l-15 -88h-418l123 700h413z" />
    <glyph glyph-name="ecaron" unicode="&#x11b;" horiz-adv-x="584" 
d="M405 566h-96l-83 135h88l48 -80l75 80h97zM337 513c75 0 133 -26 173 -78c41 -51 54 -113 40 -186c-1 -11 -5 -24 -10 -39h-418c0 -89 60 -141 152 -141c67 0 120 25 159 74l65 -47c-51 -69 -139 -109 -234 -109c-79 0 -139 26 -181 79s-56 117 -43 194
c13 73 47 133 103 181s121 72 194 72zM135 287h333c4 95 -52 144 -136 144c-93 0 -168 -55 -197 -144z" />
    <glyph glyph-name="Gbreve" unicode="&#x11e;" horiz-adv-x="789" 
d="M486 760c-89 0 -143 51 -128 135h81c-8 -43 11 -65 56 -65s72 22 80 65h81c-15 -87 -74 -135 -170 -135zM417 347h351l-7 -41c-16 -92 -60 -168 -131 -229c-71 -60 -158 -90 -259 -90c-109 0 -194 37 -253 110c-59 74 -80 163 -61 267c18 101 66 184 144 250
c79 66 169 99 272 99c136 0 237 -65 289 -173l-83 -44c-43 85 -114 127 -212 127c-81 0 -151 -26 -210 -77s-96 -115 -109 -194s1 -144 42 -196s104 -78 187 -78c140 0 243 76 280 185h-255z" />
    <glyph glyph-name="gbreve" unicode="&#x11f;" horiz-adv-x="635" 
d="M364 560c-89 0 -143 51 -128 135h81c-8 -43 11 -65 56 -65s72 22 80 65h81c-15 -87 -74 -135 -170 -135zM509 406l17 94h86l-84 -479c-13 -76 -46 -134 -99 -174c-52 -40 -115 -60 -188 -60c-107 0 -188 45 -223 122l77 40c23 -54 73 -81 151 -81c109 0 179 56 196 153
l10 59c-50 -59 -115 -88 -195 -88c-76 0 -134 26 -175 79c-40 53 -54 117 -42 192c11 73 44 133 99 180s116 70 184 70c83 0 153 -38 186 -107zM277 76c48 0 91 15 129 44c38 30 63 69 74 118l5 26c6 51 -7 91 -38 121s-70 45 -116 45c-48 0 -92 -16 -132 -48
c-40 -31 -64 -73 -72 -126c-9 -51 1 -94 29 -129c29 -34 69 -51 121 -51z" />
    <glyph glyph-name="Gdotaccent" unicode="&#x120;" horiz-adv-x="789" 
d="M558 829c-5 -33 -38 -62 -73 -62s-59 27 -52 62s38 63 73 63s59 -28 52 -63zM417 347h351l-7 -41c-16 -92 -60 -168 -131 -229c-71 -60 -158 -90 -259 -90c-109 0 -194 37 -253 110c-59 74 -80 163 -61 267c18 101 66 184 144 250c79 66 169 99 272 99
c136 0 237 -65 289 -173l-83 -44c-43 85 -114 127 -212 127c-81 0 -151 -26 -210 -77s-96 -115 -109 -194s1 -144 42 -196s104 -78 187 -78c140 0 243 76 280 185h-255z" />
    <glyph glyph-name="gdotaccent" unicode="&#x121;" horiz-adv-x="635" 
d="M436 629c-5 -33 -38 -62 -73 -62s-59 27 -52 62s38 63 73 63s59 -28 52 -63zM509 406l17 94h86l-84 -479c-13 -76 -46 -134 -99 -174c-52 -40 -115 -60 -188 -60c-107 0 -188 45 -223 122l77 40c23 -54 73 -81 151 -81c109 0 179 56 196 153l10 59
c-50 -59 -115 -88 -195 -88c-76 0 -134 26 -175 79c-40 53 -54 117 -42 192c11 73 44 133 99 180s116 70 184 70c83 0 153 -38 186 -107zM277 76c48 0 91 15 129 44c38 30 63 69 74 118l5 26c6 51 -7 91 -38 121s-70 45 -116 45c-48 0 -92 -16 -132 -48
c-40 -31 -64 -73 -72 -126c-9 -51 1 -94 29 -129c29 -34 69 -51 121 -51z" />
    <glyph glyph-name="Gcommaaccent" unicode="&#x122;" horiz-adv-x="789" 
d="M417 347h351l-7 -41c-16 -92 -60 -168 -131 -229c-71 -60 -158 -90 -259 -90c-109 0 -194 37 -253 110c-59 74 -80 163 -61 267c18 101 66 184 144 250c79 66 169 99 272 99c136 0 237 -65 289 -173l-83 -44c-43 85 -114 127 -212 127c-81 0 -151 -26 -210 -77
s-96 -115 -109 -194s1 -144 42 -196s104 -78 187 -78c140 0 243 76 280 185h-255zM347 -248h-65l42 180h85z" />
    <glyph glyph-name="gcommaaccent" unicode="&#x123;" horiz-adv-x="635" 
d="M379 768h65l-42 -180h-85zM509 406l17 94h86l-84 -479c-13 -76 -46 -134 -99 -174c-52 -40 -115 -60 -188 -60c-107 0 -188 45 -223 122l77 40c23 -54 73 -81 151 -81c109 0 179 56 196 153l10 59c-50 -59 -115 -88 -195 -88c-76 0 -134 26 -175 79
c-40 53 -54 117 -42 192c11 73 44 133 99 180s116 70 184 70c83 0 153 -38 186 -107zM277 76c48 0 91 15 129 44c38 30 63 69 74 118l5 26c6 51 -7 91 -38 121s-70 45 -116 45c-48 0 -92 -16 -132 -48c-40 -31 -64 -73 -72 -126c-9 -51 1 -94 29 -129c29 -34 69 -51 121 -51
z" />
    <glyph glyph-name="Hbar" unicode="&#x126;" horiz-adv-x="723" 
d="M682 579h64l-13 -71h-64l-89 -508h-93l54 309h-340l-54 -309h-92l89 508h-63l12 71h64l21 121h92l-21 -121h340l21 121h93zM217 397h340l19 111h-340z" />
    <glyph glyph-name="hbar" unicode="&#x127;" horiz-adv-x="572" 
d="M365 513c59 0 103 -19 133 -56c31 -37 41 -87 30 -150l-54 -307h-87l53 302c15 83 -22 128 -102 128c-85 0 -154 -53 -173 -165v1l-47 -266h-87l100 569h-67l11 64h67l12 67h87l-12 -67h144l-11 -64h-144l-24 -134c43 52 100 78 171 78z" />
    <glyph glyph-name="Imacron" unicode="&#x12a;" horiz-adv-x="243" 
d="M348 775h-270l13 73h270zM31 0l123 700h93l-123 -700h-93z" />
    <glyph glyph-name="imacron" unicode="&#x12b;" horiz-adv-x="220" 
d="M272 575h-210l13 76h210zM109 0h-87l88 500h87z" />
    <glyph glyph-name="Iogonek" unicode="&#x12e;" horiz-adv-x="243" 
d="M62 -111c-4 -22 5 -33 26 -33c14 0 27 3 38 8l-10 -64c-21 -9 -44 -13 -69 -13c-51 0 -79 36 -72 87c7 39 27 81 62 126h-6l123 700h93l-123 -700c-37 -47 -57 -84 -62 -111z" />
    <glyph glyph-name="iogonek" unicode="&#x12f;" horiz-adv-x="220" 
d="M190 708c32 0 54 -27 49 -59c-7 -33 -34 -58 -69 -58c-32 0 -53 26 -48 58c5 33 33 59 68 59zM197 500l-88 -500c-33 -43 -52 -79 -57 -107c-4 -20 5 -37 24 -37c13 0 26 3 39 8l-11 -64c-23 -9 -46 -13 -69 -13c-52 0 -79 41 -71 89c5 33 25 74 61 124h-3l88 500h87z
" />
    <glyph glyph-name="Idot" unicode="&#x130;" horiz-adv-x="243" 
d="M285 826c-5 -33 -38 -62 -73 -62s-59 27 -52 62s38 63 73 63s59 -28 52 -63zM31 0l123 700h93l-123 -700h-93z" />
    <glyph glyph-name="dotlessi" unicode="&#x131;" horiz-adv-x="220" 
d="M109 0h-87l88 500h87z" />
    <glyph glyph-name="Kcommaaccent" unicode="&#x136;" horiz-adv-x="590" 
d="M539 700h118l-376 -345l258 -355h-104l-250 344l-61 -344h-93l123 700h93l-55 -315zM234 -248h-65l42 180h85z" />
    <glyph glyph-name="kcommaaccent" unicode="&#x137;" horiz-adv-x="502" 
d="M410 500h112l-282 -242l203 -258h-100l-191 246l-43 -246h-87l123 700h87l-73 -417zM197 -248h-65l42 180h85z" />
    <glyph glyph-name="Lacute" unicode="&#x139;" horiz-adv-x="488" 
d="M269 900h107l-121 -132h-86zM247 700l-108 -612h303l-16 -88h-395l123 700h93z" />
    <glyph glyph-name="lacute" unicode="&#x13a;" horiz-adv-x="221" 
d="M158 768l100 132h107l-121 -132h-86zM23 0h87l128 730h-87l-75 -426z" />
    <glyph glyph-name="Lcommaaccent" unicode="&#x13b;" horiz-adv-x="488" 
d="M247 700l-108 -612h303l-16 -88h-395l123 700h93zM206 -248h-65l42 180h85z" />
    <glyph glyph-name="lcommaaccent" unicode="&#x13c;" horiz-adv-x="221" 
d="M110 0h-87l53 304l75 426h87zM36 -248h-65l42 180h85z" />
    <glyph glyph-name="Lcaron" unicode="&#x13d;" horiz-adv-x="488" 
d="M247 700l-108 -612h303l-16 -88h-395l123 700h93zM353 700h87l-61 -175h-67z" />
    <glyph glyph-name="lcaron" unicode="&#x13e;" horiz-adv-x="291" 
d="M110 0h-87l53 304l75 426h87zM324 550h-65l42 180h85z" />
    <glyph glyph-name="Lslash" unicode="&#x141;" horiz-adv-x="518" 
d="M206 297l-37 -209h303l-16 -88h-395l41 236l-74 -44l16 93l75 44l65 371h93l-55 -310l168 98l-16 -92z" />
    <glyph glyph-name="lslash" unicode="&#x142;" horiz-adv-x="248" 
d="M198 427l71 43l-15 -87l-71 -44l-7 -37l-53 -302h-87l49 280l-69 -42l15 87l69 42l64 363h87z" />
    <glyph glyph-name="Nacute" unicode="&#x143;" horiz-adv-x="678" 
d="M371 768l100 132h107l-121 -132h-86zM31 0h93l92 525l272 -525h71l123 700h-93l-91 -525l-273 525h-71z" />
    <glyph glyph-name="nacute" unicode="&#x144;" 
d="M376 703h107l-121 -132h-86zM356 513c59 0 103 -19 133 -56c31 -37 41 -87 30 -150l-54 -307h-87l53 302c15 83 -21 128 -101 128c-85 0 -155 -53 -174 -165v1l-47 -266h-87l88 500h87l-12 -66c43 53 100 79 171 79z" />
    <glyph glyph-name="Ncommaaccent" unicode="&#x145;" horiz-adv-x="678" 
d="M124 0h-93l123 700h71l273 -525l91 525h93l-123 -700h-71l-272 525zM266 -248h-65l42 180h85z" />
    <glyph glyph-name="ncommaaccent" unicode="&#x146;" 
d="M356 513c59 0 103 -19 133 -56c31 -37 41 -87 30 -150l-54 -307h-87l53 302c15 83 -21 128 -101 128c-85 0 -155 -53 -174 -165v1l-47 -266h-87l88 500h87l-12 -66c43 53 100 79 171 79zM225 -248h-65l42 180h85z" />
    <glyph glyph-name="Ncaron" unicode="&#x147;" horiz-adv-x="678" 
d="M477 765h-96l-83 135h88l48 -80l75 80h97zM498 175l91 525h93l-123 -700h-71l-272 525l-92 -525h-93l123 700h71z" />
    <glyph glyph-name="ncaron" unicode="&#x148;" 
d="M382 568h-96l-83 135h88l48 -80l75 80h97zM356 513c59 0 103 -19 133 -56c31 -37 41 -87 30 -150l-54 -307h-87l53 302c15 83 -21 128 -101 128c-85 0 -155 -53 -174 -165v1l-47 -266h-87l88 500h87l-12 -66c43 53 100 79 171 79z" />
    <glyph glyph-name="Eng" unicode="&#x14a;" horiz-adv-x="678" 
d="M498 175l91 525h93l-123 -700c-27 -152 -113 -205 -253 -200l16 87c81 -3 128 26 145 117l5 27l-256 494l-92 -525h-93l123 700h71z" />
    <glyph glyph-name="eng" unicode="&#x14b;" 
d="M356 513c59 0 103 -19 133 -56c31 -37 41 -87 30 -150l-59 -337c-23 -128 -101 -192 -222 -183l14 84c68 -7 108 26 121 99l58 332c15 83 -21 128 -101 128c-85 0 -155 -53 -174 -165v1l-47 -266h-87l88 500h87l-12 -66c43 53 100 79 171 79z" />
    <glyph glyph-name="Omacron" unicode="&#x14c;" horiz-adv-x="803" 
d="M628 778h-270l13 73h270zM358 -13c-101 0 -181 37 -240 111s-80 161 -61 262c17 101 66 185 145 252s171 101 276 101c101 0 181 -38 240 -113s80 -163 63 -264c-18 -101 -67 -185 -146 -251c-79 -65 -171 -98 -277 -98zM371 78c79 0 148 25 207 76c60 51 97 115 110 192
s-1 143 -44 196c-43 54 -103 81 -181 81s-147 -26 -206 -78s-95 -117 -108 -195c-13 -77 1 -141 43 -194c42 -52 102 -78 179 -78z" />
    <glyph glyph-name="omacron" unicode="&#x14d;" horiz-adv-x="603" 
d="M494 578h-270l13 73h270zM263 -13c-74 0 -133 26 -178 77s-60 116 -46 195c14 77 51 139 110 185s125 69 198 69c71 0 129 -26 172 -77s58 -116 45 -193c-13 -79 -49 -141 -107 -187s-123 -69 -194 -69zM270 72c49 0 93 16 133 48c41 32 66 76 75 132c9 54 -1 97 -30 128
c-29 32 -67 48 -115 48c-47 -1 -91 -17 -131 -48s-65 -75 -76 -130c-9 -56 0 -100 29 -132c29 -31 68 -47 115 -46z" />
    <glyph glyph-name="Ohungarumlaut" unicode="&#x150;" horiz-adv-x="803" 
d="M347 768l94 133h95l-99 -133h-90zM500 768l104 133h95l-109 -133h-90zM358 -13c106 0 198 33 277 98c79 66 128 150 146 251c17 101 -4 189 -63 264s-139 113 -240 113c-105 0 -197 -34 -276 -101s-128 -151 -145 -252c-19 -101 2 -188 61 -262s139 -111 240 -111z
M371 78c-77 0 -137 26 -179 78c-42 53 -56 117 -43 194c13 78 49 143 108 195s128 78 206 78s138 -27 181 -81c43 -53 57 -119 44 -196s-50 -141 -110 -192c-59 -51 -128 -76 -207 -76z" />
    <glyph glyph-name="ohungarumlaut" unicode="&#x151;" horiz-adv-x="603" 
d="M213 568l94 133h95l-99 -133h-90zM366 568l104 133h95l-109 -133h-90zM263 -13c71 0 136 23 194 69s94 108 107 187c13 77 -2 142 -45 193s-101 77 -172 77c-73 0 -139 -23 -198 -69s-96 -108 -110 -185c-14 -79 1 -144 46 -195s104 -77 178 -77zM270 72
c-47 -1 -86 15 -115 46c-29 32 -38 76 -29 132c11 55 36 99 76 130s84 47 131 48c48 0 86 -16 115 -48c29 -31 39 -74 30 -128c-9 -56 -34 -100 -75 -132c-40 -32 -84 -48 -133 -48z" />
    <glyph glyph-name="OE" unicode="&#x152;" horiz-adv-x="916" 
d="M953 700l-15 -88h-295l-38 -215h277l-16 -87h-277l-39 -222h300l-15 -88h-393c-33 -9 -66 -13 -97 -13c-99 0 -177 36 -233 108c-55 73 -74 160 -55 261c17 101 65 186 143 254c79 69 169 103 270 103c33 0 65 -4 95 -13h388zM458 93l91 515c-27 10 -58 15 -92 15
c-76 0 -143 -26 -201 -78s-94 -117 -107 -195c-14 -77 -1 -142 38 -194s97 -78 172 -78c39 0 72 5 99 15z" />
    <glyph glyph-name="oe" unicode="&#x153;" horiz-adv-x="1023" 
d="M783 513c71 0 126 -26 166 -78c41 -52 54 -114 40 -186c-2 -15 -5 -28 -10 -39h-418c0 -89 60 -141 152 -141c67 0 120 25 159 74l65 -47c-51 -69 -140 -109 -228 -109c-104 0 -178 50 -207 131c-55 -81 -144 -131 -245 -131c-77 0 -135 26 -176 79s-55 116 -42 190
c13 73 47 134 103 183c57 49 124 74 202 74c92 0 164 -51 196 -131c53 81 143 131 243 131zM575 287h332c4 95 -52 144 -136 144c-93 0 -167 -55 -196 -144zM478 250c9 51 0 93 -28 127s-67 51 -117 51c-51 0 -96 -17 -135 -51c-39 -33 -63 -76 -72 -127s0 -94 27 -128
c27 -33 66 -50 117 -50c50 0 95 17 135 51s64 76 73 127z" />
    <glyph glyph-name="Racute" unicode="&#x154;" horiz-adv-x="611" 
d="M420 900h107l-121 -132h-86zM613 473c-17 -95 -86 -167 -178 -194l114 -279h-96l-108 268h-174l-47 -268h-93l123 700h278c58 0 105 -23 142 -69c37 -45 50 -98 39 -158zM522 483c7 36 0 67 -21 92s-49 38 -84 38h-185l-46 -261h187c36 0 68 13 97 38c29 26 46 57 52 93z
" />
    <glyph glyph-name="racute" unicode="&#x155;" horiz-adv-x="329" 
d="M283 700h107l-121 -132h-86zM197 500l-13 -73c42 57 99 84 171 82l-16 -91c-43 1 -82 -10 -117 -35c-35 -24 -57 -63 -66 -118v1l-47 -266h-87l88 500h87z" />
    <glyph glyph-name="Rcommaaccent" unicode="&#x156;" horiz-adv-x="611" 
d="M613 473c-17 -95 -86 -167 -178 -194l114 -279h-96l-108 268h-174l-47 -268h-93l123 700h278c58 0 105 -23 142 -69c37 -45 50 -98 39 -158zM522 483c7 36 0 67 -21 92s-49 38 -84 38h-185l-46 -261h187c36 0 68 13 97 38c29 26 46 57 52 93zM262 -248h-65l42 180h85z
" />
    <glyph glyph-name="rcommaaccent" unicode="&#x157;" horiz-adv-x="329" 
d="M197 500l-13 -73c42 57 99 84 171 82l-16 -91c-43 1 -82 -10 -117 -35c-35 -24 -57 -63 -66 -118v1l-47 -266h-87l88 500h87zM36 -248h-65l42 180h85z" />
    <glyph glyph-name="Rcaron" unicode="&#x158;" horiz-adv-x="611" 
d="M426 765h-96l-83 135h88l48 -80l75 80h97zM613 473c-17 -95 -86 -167 -178 -194l114 -279h-96l-108 268h-174l-47 -268h-93l123 700h278c58 0 105 -23 142 -69c37 -45 50 -98 39 -158zM522 483c7 36 0 67 -21 92s-49 38 -84 38h-185l-46 -261h187c36 0 68 13 97 38
c29 26 46 57 52 93z" />
    <glyph glyph-name="rcaron" unicode="&#x159;" horiz-adv-x="329" 
d="M289 565h-96l-83 135h88l48 -80l75 80h97zM197 500l-13 -73c42 57 99 84 171 82l-16 -91c-43 1 -82 -10 -117 -35c-35 -24 -57 -63 -66 -118v1l-47 -266h-87l88 500h87z" />
    <glyph glyph-name="Sacute" unicode="&#x15a;" horiz-adv-x="585" 
d="M324 771l100 132h107l-121 -132h-86zM268 -13c67 0 125 16 173 47c49 31 79 76 90 135c11 56 -4 103 -27 131c-11 14 -27 27 -48 40s-39 23 -53 28c-14 6 -33 13 -57 22c-41 15 -59 22 -90 38c-15 9 -26 17 -33 26c-15 17 -25 42 -18 73c13 60 74 96 143 96
c73 0 123 -35 148 -104l82 42c-32 91 -108 152 -223 152c-57 0 -109 -15 -156 -46s-76 -75 -87 -133c-12 -64 4 -114 45 -149c41 -33 77 -51 136 -71c53 -17 76 -27 109 -48s44 -50 36 -87c-13 -63 -74 -102 -165 -102c-97 0 -154 42 -172 125l-82 -43
c27 -108 116 -172 249 -172z" />
    <glyph glyph-name="sacute" unicode="&#x15b;" horiz-adv-x="473" 
d="M235 571l100 132h107l-121 -132h-86zM205 -13c109 0 186 50 202 138c20 111 -78 142 -155 163c-52 16 -92 38 -85 78c8 44 52 66 99 66c54 0 88 -21 101 -63l77 40c-31 69 -89 104 -174 104c-48 0 -90 -13 -126 -39c-35 -25 -57 -58 -64 -99c-34 -187 260 -134 241 -240
c-8 -43 -50 -66 -109 -66c-63 0 -105 32 -116 79l-78 -40c24 -75 88 -121 187 -121z" />
    <glyph glyph-name="Scedilla" unicode="&#x15e;" horiz-adv-x="585" 
d="M346 390c24 -9 43 -16 57 -22c14 -5 32 -15 53 -28s37 -26 48 -40c23 -28 38 -75 27 -131c-23 -111 -116 -174 -240 -181l-6 -33c48 -11 78 -45 70 -86c-11 -67 -86 -95 -225 -85l12 66c87 -7 134 4 139 31c4 24 -26 36 -77 36l12 73c-105 15 -174 76 -197 169l82 43
c18 -83 75 -125 172 -125c91 0 152 39 165 102c8 37 -3 66 -36 87s-56 31 -109 48c-59 20 -95 38 -136 71c-41 35 -57 85 -45 149c11 58 40 102 87 133s99 46 156 46c115 0 191 -61 223 -152l-82 -42c-25 69 -75 104 -148 104c-69 0 -130 -36 -143 -96c-7 -31 3 -56 18 -73
c7 -9 18 -17 33 -26c31 -16 49 -23 90 -38z" />
    <glyph glyph-name="scedilla" unicode="&#x15f;" horiz-adv-x="473" 
d="M167 366c-7 -40 33 -62 85 -78c77 -21 175 -52 155 -163c-15 -80 -79 -129 -174 -137l-6 -33c48 -11 78 -45 70 -86c-11 -67 -86 -95 -225 -85l12 66c87 -7 134 4 139 31c4 24 -26 36 -77 36l12 74c-73 13 -119 52 -140 117l78 40c11 -47 53 -79 116 -79
c59 0 101 23 109 66c19 106 -275 53 -241 240c7 41 29 74 64 99c36 26 78 39 126 39c85 0 143 -35 174 -104l-77 -40c-13 42 -47 63 -101 63c-47 0 -91 -22 -99 -66z" />
    <glyph glyph-name="Scaron" unicode="&#x160;" horiz-adv-x="585" 
d="M430 768h-96l-83 135h88l48 -80l75 80h97zM346 390c24 -9 43 -16 57 -22c14 -5 32 -15 53 -28s37 -26 48 -40c23 -28 38 -75 27 -131c-11 -59 -41 -104 -90 -135c-48 -31 -106 -47 -173 -47c-133 0 -222 64 -249 172l82 43c18 -83 75 -125 172 -125c91 0 152 39 165 102
c8 37 -3 66 -36 87s-56 31 -109 48c-59 20 -95 38 -136 71c-41 35 -57 85 -45 149c11 58 40 102 87 133s99 46 156 46c115 0 191 -61 223 -152l-82 -42c-25 69 -75 104 -148 104c-69 0 -130 -36 -143 -96c-7 -31 3 -56 18 -73c7 -9 18 -17 33 -26c31 -16 49 -23 90 -38z" />
    <glyph glyph-name="scaron" unicode="&#x161;" horiz-adv-x="473" 
d="M341 568h-96l-83 135h88l48 -80l75 80h97zM266 432c-47 0 -91 -22 -99 -66c-7 -40 33 -62 85 -78c77 -21 175 -52 155 -163c-16 -88 -93 -138 -202 -138c-99 0 -163 46 -187 121l78 40c11 -47 53 -79 116 -79c59 0 101 23 109 66c19 106 -275 53 -241 240
c7 41 29 74 64 99c36 26 78 39 126 39c85 0 143 -35 174 -104l-77 -40c-13 42 -47 63 -101 63z" />
    <glyph glyph-name="uni0162" unicode="&#x162;" horiz-adv-x="540" 
d="M97 700h505l-15 -88h-207l-108 -612h-92l108 612h-206zM196 -248h-65l42 180h85z" />
    <glyph glyph-name="uni0163" unicode="&#x163;" horiz-adv-x="379" 
d="M368 416h-133l-48 -271c-15 -76 35 -71 122 -67l-14 -78c-148 -20 -216 24 -195 145l47 271h-99l16 84h98l20 114l92 26l-25 -140h134zM161 -248h-65l42 180h85z" />
    <glyph glyph-name="Tcaron" unicode="&#x164;" horiz-adv-x="540" 
d="M408 765h-96l-83 135h88l48 -80l75 80h97zM97 700h505l-15 -88h-207l-108 -612h-92l108 612h-206z" />
    <glyph glyph-name="tcaron" unicode="&#x165;" horiz-adv-x="386" 
d="M350 719h84l-60 -168h-64zM182 614l92 26l-25 -140h134l-15 -84h-133l-48 -271c-15 -76 35 -71 122 -67l-14 -78c-148 -20 -216 24 -195 145l47 271h-99l16 84h98z" />
    <glyph glyph-name="Tbar" unicode="&#x166;" horiz-adv-x="540" 
d="M602 700l-15 -88h-207l-39 -222h136l-14 -84h-137l-54 -306h-92l54 306h-136l14 84h137l39 222h-206l15 88h505z" />
    <glyph glyph-name="tbar" unicode="&#x167;" horiz-adv-x="379" 
d="M383 500l-15 -84h-133l-22 -124h91l-12 -70h-91l-14 -77c-15 -76 35 -71 122 -67l-14 -78c-148 -20 -216 24 -195 145l13 77h-63l12 70h64l21 124h-99l16 84h98l20 114l92 26l-25 -140h134z" />
    <glyph glyph-name="Umacron" unicode="&#x16a;" horiz-adv-x="655" 
d="M554 775h-270l13 73h270zM293 -13c-80 0 -142 23 -185 69s-58 106 -45 179l81 465h93l-81 -461c-17 -97 31 -161 140 -161c111 0 183 65 200 161l81 461h92l-81 -465c-14 -78 -48 -139 -101 -183c-53 -43 -118 -65 -194 -65z" />
    <glyph glyph-name="umacron" unicode="&#x16b;" 
d="M207 648h270l-13 -73h-270zM408 234l47 266h87l-88 -500h-87l12 66c-43 -53 -100 -79 -171 -79c-59 0 -103 19 -134 56c-30 37 -40 87 -29 150l54 307h87l-53 -302c-15 -83 21 -128 101 -128c85 0 155 53 174 165v-1z" />
    <glyph glyph-name="Uring" unicode="&#x16e;" horiz-adv-x="655" 
d="M316 826c11 60 63 103 128 103c68 0 106 -50 97 -110c-11 -60 -62 -103 -129 -103s-107 49 -96 110zM476 822c5 28 -11 46 -39 46c-31 0 -49 -15 -56 -45c-4 -27 10 -46 39 -46s52 20 56 45zM293 -13c-80 0 -142 23 -185 69s-58 106 -45 179l81 465h93l-81 -461
c-17 -97 31 -161 140 -161c111 0 183 65 200 161l81 461h92l-81 -465c-14 -78 -48 -139 -101 -183c-53 -43 -118 -65 -194 -65z" />
    <glyph glyph-name="uring" unicode="&#x16f;" 
d="M231 656c11 60 63 103 128 103c68 0 106 -50 97 -110c-11 -60 -62 -103 -129 -103s-107 49 -96 110zM296 653c-4 -27 10 -46 39 -46s52 20 56 45c5 28 -11 46 -39 46c-31 0 -49 -15 -56 -45zM408 234l47 266h87l-88 -500h-87l12 66c-43 -53 -100 -79 -171 -79
c-59 0 -103 19 -134 56c-30 37 -40 87 -29 150l54 307h87l-53 -302c-15 -83 21 -128 101 -128c85 0 155 53 174 165v-1z" />
    <glyph glyph-name="Uhungarumlaut" unicode="&#x170;" horiz-adv-x="655" 
d="M273 765l94 133h95l-99 -133h-90zM426 765l104 133h95l-109 -133h-90zM293 -13c76 0 141 22 194 65c53 44 87 105 101 183l81 465h-92l-81 -461c-17 -96 -89 -161 -200 -161c-109 0 -157 64 -140 161l81 461h-93l-81 -465c-13 -73 2 -133 45 -179s105 -69 185 -69z" />
    <glyph glyph-name="uhungarumlaut" unicode="&#x171;" 
d="M277 698h95l-99 -133h-90zM535 698l-109 -133h-90l104 133h95zM408 234l47 266h87l-88 -500h-87l12 66c-43 -53 -100 -79 -171 -79c-59 0 -103 19 -134 56c-30 37 -40 87 -29 150l54 307h87l-53 -302c-15 -83 21 -128 101 -128c85 0 155 53 174 165v-1z" />
    <glyph glyph-name="Uogonek" unicode="&#x172;" horiz-adv-x="655" 
d="M496 239l81 461h92l-81 -465c-17 -94 -62 -163 -136 -207c-79 -58 -122 -105 -129 -142c-3 -20 7 -30 29 -30c11 0 23 2 36 7l-11 -64c-20 -8 -41 -12 -62 -12c-60 0 -88 37 -79 86c6 38 32 76 78 115c-5 -1 -12 -1 -21 -1c-80 0 -142 23 -185 69s-58 106 -45 179l81 465
h93l-81 -461c-17 -97 31 -161 140 -161c111 0 183 65 200 161z" />
    <glyph glyph-name="uogonek" unicode="&#x173;" 
d="M408 234l47 266h87l-88 -500h-1c-55 -45 -84 -83 -89 -116c-3 -19 6 -28 26 -28c14 0 27 3 38 8l-10 -64c-23 -9 -44 -13 -65 -13c-55 0 -86 35 -77 84c7 36 38 80 92 132l11 63c-43 -53 -100 -79 -171 -79c-59 0 -103 19 -134 56c-30 37 -40 87 -29 150l54 307h87
l-53 -302c-15 -83 21 -128 101 -128c85 0 155 53 174 165v-1z" />
    <glyph glyph-name="Wcircumflex" unicode="&#x174;" horiz-adv-x="1000" 
d="M654 765l-47 81l-76 -81h-95l129 135h96l83 -135h-90zM691 122l264 578h99l-324 -700h-108l-68 559l-264 -559h-108l-78 700h92l60 -578l272 578h94z" />
    <glyph glyph-name="wcircumflex" unicode="&#x175;" horiz-adv-x="773" 
d="M505 565l-47 81l-76 -81h-95l129 135h96l83 -135h-90zM521 119l176 381h95l-244 -500h-89l-51 371l-180 -371h-91l-68 500h86l46 -380l182 380h87l-1 -2z" />
    <glyph glyph-name="Ycircumflex" unicode="&#x176;" horiz-adv-x="584" 
d="M443 765l-47 81l-76 -81h-95l129 135h96l83 -135h-90zM546 700h109l-305 -380l-56 -320h-93l57 322l-171 378h97l130 -293z" />
    <glyph glyph-name="ycircumflex" unicode="&#x177;" horiz-adv-x="515" 
d="M360 565l-47 81l-76 -81h-95l129 135h96l83 -135h-90zM239 105l216 395h97l-297 -531c-67 -120 -151 -176 -252 -169l14 81c63 -5 105 28 148 100l15 24l-128 495h88z" />
    <glyph glyph-name="Ydieresis" unicode="&#x178;" horiz-adv-x="584" 
d="M242 819c4 29 32 52 61 52s48 -23 44 -52c-7 -29 -33 -53 -62 -53s-48 24 -43 53zM432 819c4 29 32 52 61 52s48 -23 44 -52c-7 -29 -33 -53 -62 -53s-48 24 -43 53zM546 700h109l-305 -380l-56 -320h-93l57 322l-171 378h97l130 -293z" />
    <glyph glyph-name="Zacute" unicode="&#x179;" horiz-adv-x="525" 
d="M400 900h107l-121 -132h-86zM127 700h440l-14 -80l-430 -532h345l-16 -88h-457l14 81l430 531h-327z" />
    <glyph glyph-name="zacute" unicode="&#x17a;" horiz-adv-x="451" 
d="M329 700h107l-121 -132h-86zM92 500h365l-11 -58l-315 -359h262l-14 -83h-386l11 58l315 359h-242z" />
    <glyph glyph-name="Zdotaccent" unicode="&#x17b;" horiz-adv-x="525" 
d="M432 826c-5 -33 -38 -62 -73 -62s-59 27 -52 62s38 63 73 63s59 -28 52 -63zM127 700h440l-14 -80l-430 -532h345l-16 -88h-457l14 81l430 531h-327z" />
    <glyph glyph-name="zdotaccent" unicode="&#x17c;" horiz-adv-x="451" 
d="M361 626c-5 -33 -38 -62 -73 -62s-59 27 -52 62s38 63 73 63s59 -28 52 -63zM92 500h365l-11 -58l-315 -359h262l-14 -83h-386l11 58l315 359h-242z" />
    <glyph glyph-name="Zcaron" unicode="&#x17d;" horiz-adv-x="525" 
d="M406 765h-96l-83 135h88l48 -80l75 80h97zM127 700h440l-14 -80l-430 -532h345l-16 -88h-457l14 81l430 531h-327z" />
    <glyph glyph-name="zcaron" unicode="&#x17e;" horiz-adv-x="451" 
d="M335 565h-96l-83 135h88l48 -80l75 80h97zM319 417h-242l15 83h365l-11 -58l-315 -359h262l-14 -83h-386l11 58z" />
    <glyph glyph-name="florin" unicode="&#x192;" horiz-adv-x="440" 
d="M224 393l58 169c45 131 134 174 238 142l-15 -86c-57 27 -114 1 -135 -64l-55 -161h106l-15 -84h-120l-127 -369c-45 -131 -134 -173 -238 -141l15 85c57 -25 114 0 135 64l124 361h-100l15 84h114z" />
    <glyph glyph-name="Scommaaccent" unicode="&#x218;" horiz-adv-x="585" 
d="M268 -13c-133 0 -222 64 -249 172l82 43c18 -83 75 -125 172 -125c91 0 152 39 165 102c8 37 -3 66 -36 87s-56 31 -109 48c-59 20 -95 38 -136 71c-41 35 -57 85 -45 149c11 58 40 102 87 133s99 46 156 46c115 0 191 -61 223 -152l-82 -42c-25 69 -75 104 -148 104
c-69 0 -130 -36 -143 -96c-7 -31 3 -56 18 -73c7 -9 18 -17 33 -26c31 -16 49 -23 90 -38c24 -9 43 -16 57 -22c14 -5 32 -15 53 -28s37 -26 48 -40c23 -28 38 -75 27 -131c-11 -59 -41 -104 -90 -135c-48 -31 -106 -47 -173 -47zM238 -248h-65l42 180h85z" />
    <glyph glyph-name="scommaaccent" unicode="&#x219;" horiz-adv-x="473" 
d="M205 -13c-99 0 -163 46 -187 121l78 40c11 -47 53 -79 116 -79c59 0 101 23 109 66c19 106 -275 53 -241 240c7 41 29 74 64 99c36 26 78 39 126 39c85 0 143 -35 174 -104l-77 -40c-13 42 -47 63 -101 63c-47 0 -91 -22 -99 -66c-7 -40 33 -62 85 -78
c77 -21 175 -52 155 -163c-16 -88 -93 -138 -202 -138zM180 -248h-65l42 180h85z" />
    <glyph glyph-name="uni021A" unicode="&#x21a;" horiz-adv-x="540" 
d="M97 700h505l-15 -88h-207l-108 -612h-92l108 612h-206zM196 -248h-65l42 180h85z" />
    <glyph glyph-name="uni021B" unicode="&#x21b;" horiz-adv-x="379" 
d="M368 416h-133l-48 -271c-15 -76 35 -71 122 -67l-14 -78c-148 -20 -216 24 -195 145l47 271h-99l16 84h98l20 114l92 26l-25 -140h134zM161 -248h-65l42 180h85z" />
    <glyph glyph-name="circumflex" unicode="&#x2c6;" horiz-adv-x="348" 
d="M300 700l83 -135h-90l-47 81l-76 -81h-95l129 135h96z" />
    <glyph glyph-name="caron" unicode="&#x2c7;" horiz-adv-x="348" 
d="M235 620l75 80h97l-129 -135h-96l-83 135h88z" />
    <glyph glyph-name="breve" unicode="&#x2d8;" horiz-adv-x="338" 
d="M226 557c-89 0 -143 51 -128 135h81c-8 -43 11 -65 56 -65s72 22 80 65h81c-15 -87 -74 -135 -170 -135z" />
    <glyph glyph-name="dotaccent" unicode="&#x2d9;" horiz-adv-x="145" 
d="M207 626c-5 -33 -38 -62 -73 -62s-59 27 -52 62s38 63 73 63s59 -28 52 -63z" />
    <glyph glyph-name="ring" unicode="&#x2da;" horiz-adv-x="266" 
d="M91 656c11 60 63 103 128 103c68 0 106 -50 97 -110c-11 -60 -62 -103 -129 -103s-107 49 -96 110zM251 652c5 28 -11 46 -39 46c-31 0 -49 -15 -56 -45c-4 -27 10 -46 39 -46s52 20 56 45z" />
    <glyph glyph-name="ogonek" unicode="&#x2db;" horiz-adv-x="194" 
d="M28 -213c-55 0 -82 37 -74 88c7 40 38 82 94 125h82c-54 -45 -83 -82 -88 -111c-3 -22 5 -33 26 -33c14 0 27 3 38 8l-11 -65c-20 -8 -42 -12 -67 -12z" />
    <glyph glyph-name="tilde" unicode="&#x2dc;" horiz-adv-x="340" 
d="M153 573h-74c19 135 106 152 172 99c41 -40 65 -41 76 23h74c-18 -132 -107 -155 -171 -98c-41 40 -66 41 -77 -24z" />
    <glyph glyph-name="hungarumlaut" unicode="&#x2dd;" horiz-adv-x="369" 
d="M75 565l94 133h95l-99 -133h-90zM228 565l104 133h95l-109 -133h-90z" />
    <glyph glyph-name="gravecomb" unicode="&#x300;" horiz-adv-x="0" 
d="M37 568h-84l-79 132h103z" />
    <glyph glyph-name="acutecomb" unicode="&#x301;" horiz-adv-x="0" 
d="M-148 568l100 132h107l-121 -132h-86z" />
    <glyph glyph-name="uni0302" unicode="&#x302;" horiz-adv-x="0" 
d="M-48 700l83 -135h-90l-47 81l-76 -81h-95l129 135h96z" />
    <glyph glyph-name="tildecomb" unicode="&#x303;" horiz-adv-x="0" 
d="M-189 573h-74c19 135 106 152 172 99c41 -40 65 -41 76 23h74c-18 -132 -106 -155 -171 -98c-41 40 -66 41 -77 -24z" />
    <glyph glyph-name="uni0304" unicode="&#x304;" horiz-adv-x="0" 
d="M37 575h-270l13 73h270z" />
    <glyph glyph-name="uni0306" unicode="&#x306;" horiz-adv-x="0" 
d="M-112 557c-89 0 -143 51 -128 135h81c-8 -43 11 -65 56 -65s72 22 80 65h81c-15 -87 -74 -135 -170 -135z" />
    <glyph glyph-name="uni0307" unicode="&#x307;" horiz-adv-x="0" 
d="M46 626c-5 -33 -38 -62 -73 -62s-59 27 -52 62s38 63 73 63s59 -28 52 -63z" />
    <glyph glyph-name="uni0308" unicode="&#x308;" horiz-adv-x="0" 
d="M-249 619c4 29 32 52 61 52s48 -23 44 -52c-7 -29 -33 -53 -62 -53s-48 24 -43 53zM-59 619c4 29 32 52 61 52s48 -23 44 -52c-7 -29 -33 -53 -62 -53s-48 24 -43 53z" />
    <glyph glyph-name="uni030A" unicode="&#x30a;" horiz-adv-x="0" 
d="M-175 656c11 60 63 103 128 103c68 0 106 -50 97 -110c-11 -60 -62 -103 -129 -103s-107 49 -96 110zM-15 652c5 28 -11 46 -39 46c-31 0 -49 -15 -56 -45c-4 -27 10 -46 39 -46s52 20 56 45z" />
    <glyph glyph-name="uni030B" unicode="&#x30b;" horiz-adv-x="0" 
d="M-294 565l94 133h95l-99 -133h-90zM-141 565l104 133h95l-109 -133h-90z" />
    <glyph glyph-name="uni030C" unicode="&#x30c;" horiz-adv-x="0" 
d="M-113 620l75 80h97l-129 -135h-96l-83 135h88z" />
    <glyph glyph-name="uni0312" unicode="&#x312;" horiz-adv-x="0" 
d="M41 965h65l-42 -180h-85z" />
    <glyph glyph-name="uni0326" unicode="&#x326;" horiz-adv-x="0" 
d="M-138 -248h-65l42 180h85z" />
    <glyph glyph-name="uni0327" unicode="&#x327;" horiz-adv-x="0" 
d="M-149 0l-8 -45c48 -11 78 -45 70 -86c-11 -67 -86 -95 -225 -85l12 66c87 -7 134 4 139 31c4 24 -26 36 -77 36l14 83h75z" />
    <glyph glyph-name="uni0328" unicode="&#x328;" horiz-adv-x="0" 
d="M-169 -213c-55 0 -82 37 -74 88c7 40 38 82 94 125h82c-54 -45 -83 -82 -88 -111c-3 -22 5 -33 26 -33c14 0 27 3 38 8l-11 -65c-20 -8 -42 -12 -67 -12z" />
    <glyph glyph-name="uni0394" unicode="&#x394;" horiz-adv-x="638" 
d="M345 700h105l136 -700h-623zM383 591l-269 -504h361z" />
    <glyph glyph-name="uni03A9" unicode="&#x3a9;" horiz-adv-x="797" 
d="M779 347c-19 -109 -84 -200 -177 -259h118l-16 -88h-274l5 28l11 60c60 16 112 48 157 96s72 103 83 166c13 77 -1 142 -44 194c-43 53 -102 79 -178 79c-77 0 -145 -26 -206 -79c-61 -52 -98 -117 -111 -194c-11 -63 -3 -119 24 -167c27 -47 68 -79 123 -95l-10 -60
l-5 -28h-275l16 88h127c-76 63 -112 164 -92 276c17 100 66 183 146 249c80 67 172 100 277 100c99 0 178 -36 237 -109c60 -72 81 -158 64 -257z" />
    <glyph glyph-name="pi" unicode="&#x3c0;" horiz-adv-x="655" 
d="M72 500h600l-15 -83h-82l-73 -417h-87l73 417h-259l-73 -417h-87l73 417h-85z" />
    <glyph glyph-name="uni0401" unicode="&#x401;" horiz-adv-x="530" 
d="M235 819c4 29 32 52 61 52s48 -23 44 -52c-7 -29 -33 -53 -62 -53s-48 24 -43 53zM425 819c4 29 32 52 61 52s48 -23 44 -52c-7 -29 -33 -53 -62 -53s-48 24 -43 53zM567 700l-15 -88h-320l-38 -215h295l-16 -87h-295l-39 -222h325l-15 -88h-418l123 700h413z" />
    <glyph glyph-name="uni0402" unicode="&#x402;" horiz-adv-x="690" 
d="M481 470c116 0 184 -68 164 -192l-18 -104c-24 -132 -94 -192 -225 -183l15 86c71 -7 104 21 117 97l18 100c13 81 -20 112 -92 112c-47 0 -95 -11 -143 -33l-62 -353h-93l108 612h-188l15 88h497l-15 -88h-216l-31 -172c51 20 100 30 149 30z" />
    <glyph glyph-name="uni0403" unicode="&#x403;" horiz-adv-x="485" 
d="M406 899h107l-121 -132h-86zM154 700h393l-15 -88h-300l-108 -612h-93z" />
    <glyph glyph-name="uni0404" unicode="&#x404;" horiz-adv-x="740" 
d="M368 78c101 0 190 48 246 129l77 -49c-76 -105 -199 -171 -331 -171c-106 0 -188 37 -245 110s-76 161 -58 263c17 101 65 185 144 252s168 101 268 101c136 0 237 -65 285 -172l-83 -44c-39 84 -108 126 -207 126c-71 0 -134 -21 -190 -64s-94 -98 -115 -165h361
l-16 -87h-361c-2 -67 17 -122 58 -165s97 -64 167 -64z" />
    <glyph glyph-name="uni0405" unicode="&#x405;" horiz-adv-x="585" 
d="M268 -13c-133 0 -222 64 -249 172l82 43c18 -83 75 -125 172 -125c91 0 152 39 165 102c8 37 -3 66 -36 87s-56 31 -109 48c-59 20 -95 38 -136 71c-41 35 -57 85 -45 149c11 58 40 102 87 133s99 46 156 46c115 0 191 -61 223 -152l-82 -42c-25 69 -75 104 -148 104
c-69 0 -130 -36 -143 -96c-7 -31 3 -56 18 -73c7 -9 18 -17 33 -26c31 -16 49 -23 90 -38c24 -9 43 -16 57 -22c14 -5 32 -15 53 -28s37 -26 48 -40c23 -28 38 -75 27 -131c-11 -59 -41 -104 -90 -135c-48 -31 -106 -47 -173 -47z" />
    <glyph glyph-name="uni0406" unicode="&#x406;" horiz-adv-x="243" 
d="M31 0l123 700h93l-123 -700h-93z" />
    <glyph glyph-name="uni0407" unicode="&#x407;" horiz-adv-x="243" 
d="M74 819c4 29 32 52 61 52s48 -23 44 -52c-7 -29 -33 -53 -62 -53s-48 24 -43 53zM264 819c4 29 32 52 61 52s48 -23 44 -52c-7 -29 -33 -53 -62 -53s-48 24 -43 53zM31 0l123 700h93l-123 -700h-93z" />
    <glyph glyph-name="uni0408" unicode="&#x408;" horiz-adv-x="557" 
d="M219 -13c-107 0 -175 43 -205 129l84 45c17 -55 60 -83 129 -83c89 0 149 43 164 127l87 495h93l-87 -497c-13 -73 -44 -128 -93 -163c-48 -35 -105 -53 -172 -53z" />
    <glyph glyph-name="uni0409" unicode="&#x409;" horiz-adv-x="985" 
d="M618 413h141c59 0 107 -21 143 -63c37 -41 50 -92 39 -151s-40 -107 -88 -144c-47 -37 -103 -55 -167 -55h-234l108 612h-251l-55 -309c-23 -129 -60 -216 -112 -257c-51 -41 -101 -54 -172 -47l14 84c92 -12 146 44 178 220l69 397h437zM848 208c13 71 -32 118 -104 118
h-142l-42 -239h142c71 0 133 49 146 121z" />
    <glyph glyph-name="uni040A" unicode="&#x40a;" horiz-adv-x="973" 
d="M607 413h141c59 0 107 -21 143 -63c36 -41 49 -92 38 -151s-40 -107 -88 -144c-47 -37 -103 -55 -166 -55h-234l57 326h-317l-57 -326h-93l123 700h93l-50 -287h317l50 287h93zM837 208c13 71 -33 118 -105 118h-141l-42 -239h141c72 0 134 49 147 121z" />
    <glyph glyph-name="uni040B" unicode="&#x40b;" horiz-adv-x="695" 
d="M478 470c119 0 187 -68 167 -192l-49 -278h-93l49 274c13 81 -22 112 -94 112c-48 0 -95 -11 -141 -33l-62 -353h-93l108 612h-188l15 88h497l-15 -88h-216l-31 -171c49 19 98 29 146 29z" />
    <glyph glyph-name="uni040C" unicode="&#x40c;" horiz-adv-x="590" 
d="M426 899h107l-121 -132h-86zM539 700h118l-376 -345l258 -355h-104l-250 344l-61 -344h-93l123 700h93l-55 -315z" />
    <glyph glyph-name="uni040E" unicode="&#x40e;" horiz-adv-x="580" 
d="M266 850h270l-13 -76h-270zM321 299l233 401h95l-309 -534c-73 -125 -154 -173 -270 -166l15 84c76 -5 124 23 168 98l11 19l-157 499h89z" />
    <glyph glyph-name="uni040F" unicode="&#x40f;" horiz-adv-x="658" 
d="M461 88l108 612h93l-123 -700h-208l-24 -134h-92l24 134h-208l123 700h93l-108 -612h322z" />
    <glyph glyph-name="uni0410" unicode="&#x410;" horiz-adv-x="643" 
d="M591 0h-98l-28 157h-315l-86 -157h-101l385 700h105zM386 591l-189 -347h252z" />
    <glyph glyph-name="uni0411" unicode="&#x411;" horiz-adv-x="587" 
d="M574 700l-15 -88h-327l-33 -187h170c58 0 105 -22 141 -66s49 -96 38 -156s-40 -109 -87 -147c-47 -37 -102 -56 -167 -56h-263l123 700h420zM353 338h-170l-44 -251h170c35 0 67 12 96 36s46 54 53 90c13 75 -34 125 -105 125z" />
    <glyph glyph-name="uni0412" unicode="&#x412;" horiz-adv-x="615" 
d="M596 504c-10 -63 -43 -110 -100 -143c56 -33 85 -93 74 -168c-8 -55 -34 -101 -78 -138c-43 -37 -97 -55 -161 -55h-300l123 700h266c57 0 103 -19 137 -57c35 -38 48 -84 39 -139zM504 506c11 59 -27 107 -90 107h-182l-38 -214h186c59 0 113 47 124 107zM387 314h-208
l-40 -227h204c67 0 125 50 136 114s-29 113 -92 113z" />
    <glyph glyph-name="uni0413" unicode="&#x413;" horiz-adv-x="485" 
d="M154 700h393l-15 -88h-300l-108 -612h-93z" />
    <glyph glyph-name="uni0414" unicode="&#x414;" horiz-adv-x="695" 
d="M220 700h447l-108 -612h75l-39 -222h-92l24 134h-463l-24 -134h-92l39 222h60c53 55 90 137 109 246zM156 88h311l92 525h-261l-50 -281c-19 -109 -50 -190 -92 -244z" />
    <glyph glyph-name="uni0415" unicode="&#x415;" horiz-adv-x="530" 
d="M567 700l-15 -88h-320l-38 -215h295l-16 -87h-295l-39 -222h325l-15 -88h-418l123 700h413z" />
    <glyph glyph-name="uni0416" unicode="&#x416;" horiz-adv-x="868" 
d="M809 700h112l-334 -349l220 -351h-98l-213 336l-59 -336h-93l59 335l-317 -335h-113l347 367l-215 333h98l208 -320l56 320h93l-56 -319z" />
    <glyph glyph-name="uni0417" unicode="&#x417;" horiz-adv-x="565" 
d="M549 509c-11 -69 -49 -119 -114 -150c65 -33 96 -97 83 -174c-21 -121 -119 -198 -278 -198c-125 0 -198 66 -225 161l84 43c19 -73 57 -116 156 -116c95 0 159 50 172 122c12 72 -31 117 -122 117h-82l15 85h58c87 0 149 49 161 117c12 65 -33 110 -116 110
c-69 0 -125 -35 -168 -106l-74 49c57 96 143 144 258 144c65 0 116 -20 152 -59c37 -39 50 -88 40 -145z" />
    <glyph glyph-name="uni0418" unicode="&#x418;" horiz-adv-x="678" 
d="M106 0h-75l123 700h93l-92 -515l452 515h75l-123 -700h-93l91 515z" />
    <glyph glyph-name="uni0419" unicode="&#x419;" horiz-adv-x="678" 
d="M563 775h-270l13 76h270zM106 0h-75l123 700h93l-92 -515l452 515h75l-123 -700h-93l91 515z" />
    <glyph glyph-name="uni041A" unicode="&#x41a;" horiz-adv-x="590" 
d="M539 700h118l-376 -345l258 -355h-104l-250 344l-61 -344h-93l123 700h93l-55 -315z" />
    <glyph glyph-name="uni041B" unicode="&#x41b;" horiz-adv-x="689" 
d="M-30 -1l14 84c92 -12 146 44 178 220l69 397h462l-123 -700h-93l108 612h-276l-55 -309c-23 -131 -62 -217 -114 -258c-51 -41 -101 -53 -170 -46z" />
    <glyph glyph-name="uni041C" unicode="&#x41c;" horiz-adv-x="805" 
d="M700 700h109l-123 -700h-92l96 544l-295 -378h-12l-162 387l-97 -553h-93l123 700h102l154 -374z" />
    <glyph glyph-name="uni041D" unicode="&#x41d;" horiz-adv-x="675" 
d="M535 403l52 297h92l-123 -700h-92l55 315h-340l-55 -315h-93l123 700h93l-52 -297h340z" />
    <glyph glyph-name="uni041E" unicode="&#x41e;" horiz-adv-x="803" 
d="M358 -13c-101 0 -181 37 -240 111s-80 161 -61 262c17 101 66 185 145 252s171 101 276 101c101 0 181 -38 240 -113s80 -163 63 -264c-18 -101 -67 -185 -146 -251c-79 -65 -171 -98 -277 -98zM371 78c79 0 148 25 207 76c60 51 97 115 110 192s-1 143 -44 196
c-43 54 -103 81 -181 81s-147 -26 -206 -78s-95 -117 -108 -195c-13 -77 1 -141 43 -194c42 -52 102 -78 179 -78z" />
    <glyph glyph-name="uni041F" unicode="&#x41f;" horiz-adv-x="658" 
d="M154 700h508l-123 -700h-93l108 612h-322l-108 -612h-93z" />
    <glyph glyph-name="uni0420" unicode="&#x420;" horiz-adv-x="589" 
d="M154 700h247c68 0 120 -22 155 -65c36 -43 49 -97 38 -162s-41 -119 -91 -161c-49 -41 -113 -62 -190 -62h-145l-44 -250h-93zM503 483c15 80 -30 130 -114 130h-157l-49 -276h140c97 0 165 61 180 146z" />
    <glyph glyph-name="uni0421" unicode="&#x421;" horiz-adv-x="740" 
d="M360 -13c-106 0 -188 37 -245 110s-76 161 -58 263c17 101 65 185 144 252s168 101 268 101c136 0 237 -65 285 -172l-83 -44c-39 84 -108 126 -207 126c-79 0 -149 -26 -208 -78s-95 -117 -108 -195c-13 -79 0 -144 41 -195s101 -77 179 -77c101 0 190 48 246 129
l77 -49c-76 -105 -199 -171 -331 -171z" />
    <glyph glyph-name="uni0422" unicode="&#x422;" horiz-adv-x="540" 
d="M97 700h505l-15 -88h-207l-108 -612h-92l108 612h-206z" />
    <glyph glyph-name="uni0423" unicode="&#x423;" horiz-adv-x="580" 
d="M321 299l233 401h95l-309 -534c-73 -125 -154 -173 -270 -166l15 84c76 -5 124 23 168 98l11 19l-157 499h89z" />
    <glyph glyph-name="uni0424" unicode="&#x424;" horiz-adv-x="811" 
d="M531 705l-14 -80c95 -8 170 -37 223 -87c54 -49 74 -114 60 -194c-15 -81 -56 -145 -124 -192s-153 -73 -256 -78l-14 -79h-91l14 80c-97 8 -171 37 -224 86c-53 50 -72 115 -58 195c14 81 55 145 123 192c69 47 154 73 256 78l14 79h91zM139 350
c-21 -116 56 -179 205 -190l67 381c-152 -11 -252 -74 -272 -191zM707 350c20 117 -57 180 -205 191l-67 -381c152 11 251 73 272 190z" />
    <glyph glyph-name="uni0425" unicode="&#x425;" horiz-adv-x="590" 
d="M529 700h109l-272 -344l163 -356h-98l-128 278l-220 -278h-110l290 366l-153 334h98l117 -256z" />
    <glyph glyph-name="uni0426" unicode="&#x426;" horiz-adv-x="690" 
d="M662 700l-108 -612h75l-39 -222h-92l23 134h-490l123 700h93l-108 -612h323l107 612h93z" />
    <glyph glyph-name="uni0427" unicode="&#x427;" horiz-adv-x="628" 
d="M480 362l59 338h93l-123 -700h-93l47 269c-49 -17 -100 -26 -154 -26c-157 0 -235 83 -214 207l44 250h93l-43 -244c-7 -41 -1 -72 20 -93s58 -32 112 -32s107 10 159 31z" />
    <glyph glyph-name="uni0428" unicode="&#x428;" horiz-adv-x="948" 
d="M752 88l107 612h93l-123 -700h-798l123 700h93l-108 -612h260l108 612h92l-107 -612h260z" />
    <glyph glyph-name="uni0429" unicode="&#x429;" horiz-adv-x="980" 
d="M952 700l-108 -612h75l-39 -222h-93l24 134h-780l123 700h93l-108 -612h260l108 612h92l-107 -612h260l107 612h93z" />
    <glyph glyph-name="uni042A" unicode="&#x42a;" horiz-adv-x="698" 
d="M392 0h-253l107 612h-182l15 88h275l-44 -250h157c62 0 112 -23 149 -70c38 -47 52 -102 41 -165c-11 -65 -41 -117 -90 -156c-48 -39 -106 -59 -175 -59zM295 363l-48 -276h160c39 0 73 13 102 39c30 26 49 59 56 99c15 80 -33 138 -113 138h-157z" />
    <glyph glyph-name="uni042B" unicode="&#x42b;" horiz-adv-x="794" 
d="M284 0h-253l123 700h93l-45 -250h157c62 0 112 -23 150 -70s52 -102 41 -165c-11 -65 -41 -118 -90 -157s-107 -58 -176 -58zM675 0h-93l123 700h93zM188 363l-49 -276h160c79 0 143 58 158 138s-32 138 -112 138h-157z" />
    <glyph glyph-name="uni042C" unicode="&#x42c;" horiz-adv-x="591" 
d="M203 450h156c62 0 112 -23 150 -70s52 -102 41 -165c-11 -65 -41 -118 -90 -157s-107 -58 -176 -58h-253l123 700h93zM345 363h-157l-49 -276h160c79 0 143 58 158 138s-32 138 -112 138z" />
    <glyph glyph-name="uni042D" unicode="&#x42d;" horiz-adv-x="734" 
d="M416 713c105 0 184 -36 239 -109s75 -160 58 -262c-17 -101 -63 -185 -139 -253s-167 -102 -273 -102c-137 0 -239 65 -282 173l85 45c29 -80 102 -127 205 -127c71 0 134 21 188 64s92 98 113 165h-360l16 87h359c3 68 -15 123 -55 165c-39 43 -94 64 -164 64
c-104 0 -193 -52 -246 -132l-77 48c37 53 85 95 144 126c59 32 122 48 189 48z" />
    <glyph glyph-name="uni042E" unicode="&#x42e;" horiz-adv-x="1047" 
d="M722 713c101 0 181 -38 240 -113s80 -163 62 -264s-67 -184 -146 -250s-171 -99 -276 -99c-93 0 -168 32 -225 95c-57 64 -82 142 -77 234h-120l-56 -316h-93l123 700h93l-52 -296h120c26 91 76 165 151 222c75 58 160 87 256 87zM932 346c13 77 -2 143 -45 196
c-43 54 -103 81 -180 81c-78 0 -147 -26 -206 -78s-95 -117 -108 -195c-14 -77 0 -141 42 -194c43 -52 103 -78 180 -78c79 0 148 25 207 76c60 51 97 115 110 192z" />
    <glyph glyph-name="uni042F" unicode="&#x42f;" horiz-adv-x="621" 
d="M350 700h275l-123 -700h-92l47 268h-132l-228 -268h-112l236 276c-47 13 -83 39 -108 80c-24 41 -32 87 -23 136c11 59 40 108 88 148s105 60 172 60zM294 352h178l46 261h-182c-37 0 -70 -12 -99 -37c-29 -24 -48 -54 -55 -91s1 -68 22 -94s51 -39 90 -39z" />
    <glyph glyph-name="uni0430" unicode="&#x430;" horiz-adv-x="634" 
d="M509 407l16 93h87l-88 -500h-87l13 71c-52 -56 -119 -84 -200 -84c-71 0 -128 27 -169 82s-54 119 -41 192c13 77 47 138 101 183c54 46 115 69 183 69c83 0 150 -38 185 -106zM480 246c11 57 1 101 -30 134c-30 33 -70 49 -120 49c-47 0 -91 -16 -130 -47
s-64 -73 -73 -128c-9 -51 0 -95 28 -130c29 -35 68 -53 119 -53s95 16 134 49s63 75 72 126z" />
    <glyph glyph-name="uni0431" unicode="&#x431;" horiz-adv-x="568" 
d="M253 -13c-72 0 -129 25 -172 74s-57 112 -44 187c15 86 38 152 71 198c33 47 91 89 174 126l62 26l57 24c43 17 89 49 103 94l66 -40c-8 -21 -17 -39 -33 -56c-15 -16 -23 -27 -47 -40c-23 -13 -28 -19 -59 -32l-31 -13l-36 -14l-34 -13c-93 -36 -137 -70 -165 -127
c49 47 110 70 183 70c59 0 108 -23 146 -68c39 -45 52 -101 41 -168c-12 -68 -44 -123 -95 -165s-114 -63 -187 -63zM449 222c7 44 -1 80 -26 109s-60 43 -105 43c-44 0 -85 -13 -124 -39s-62 -61 -70 -105c-8 -45 1 -83 27 -114c27 -30 63 -45 110 -45s88 14 123 42
c35 29 57 65 65 109z" />
    <glyph glyph-name="uni0432" unicode="&#x432;" horiz-adv-x="503" 
d="M472 357c-9 -48 -33 -82 -73 -103c45 -23 66 -68 57 -120c-15 -81 -77 -134 -184 -134h-250l88 500h230c46 0 81 -14 106 -42c25 -27 33 -61 26 -101zM322 422h-141l-23 -131h137c54 0 85 22 92 67c8 40 -16 64 -65 64zM372 148c7 41 -17 66 -68 66h-159l-24 -135h160
c48 0 83 26 91 69z" />
    <glyph glyph-name="uni0433" unicode="&#x433;" horiz-adv-x="398" 
d="M110 500h328l-15 -84h-241l-73 -416h-87z" />
    <glyph glyph-name="uni0434" unicode="&#x434;" horiz-adv-x="593" 
d="M171 500h369l-73 -417h69l-39 -217h-86l24 134h-375l-24 -134h-87l39 217h62c40 44 67 106 81 185zM152 83h229l59 336h-197l-26 -151c-14 -76 -36 -138 -65 -185z" />
    <glyph glyph-name="uni0435" unicode="&#x435;" horiz-adv-x="584" 
d="M337 513c75 0 133 -26 173 -78c41 -51 54 -113 40 -186c-1 -11 -5 -24 -10 -39h-418c0 -89 60 -141 152 -141c67 0 120 25 159 74l65 -47c-51 -69 -139 -109 -234 -109c-79 0 -139 26 -181 79s-56 117 -43 194c13 73 47 133 103 181s121 72 194 72zM135 287h333
c4 95 -52 144 -136 144c-93 0 -168 -55 -197 -144z" />
    <glyph glyph-name="uni0436" unicode="&#x436;" horiz-adv-x="697" 
d="M613 500h101l-242 -248l163 -252h-92l-155 240l-42 -240h-86l42 238l-230 -238h-99l256 266l-158 234h93l145 -219l39 219h86l-39 -224z" />
    <glyph glyph-name="uni0437" unicode="&#x437;" horiz-adv-x="448" 
d="M416 358c-9 -51 -35 -86 -78 -106c47 -25 69 -72 60 -125c-15 -83 -89 -140 -212 -140c-105 0 -166 48 -185 120l76 40c10 -53 50 -79 119 -79c67 0 111 32 118 77c8 40 -19 68 -71 68h-73l15 79h53c51 0 85 26 93 69c7 43 -23 72 -83 72c-56 0 -98 -24 -125 -72l-67 43
c49 73 115 109 200 109c56 0 98 -16 127 -47s40 -67 33 -108z" />
    <glyph glyph-name="uni0438" unicode="&#x438;" horiz-adv-x="565" 
d="M135 154l338 346h70l-88 -500h-86l60 346l-337 -346h-70l88 500h86z" />
    <glyph glyph-name="uni0439" unicode="&#x439;" horiz-adv-x="565" 
d="M475 575h-270l13 76h270zM135 154l338 346h70l-88 -500h-86l60 346l-337 -346h-70l88 500h86z" />
    <glyph glyph-name="uni043A" unicode="&#x43a;" horiz-adv-x="502" 
d="M410 500h112l-282 -242l203 -258h-100l-191 246l-43 -246h-87l88 500h87l-38 -217z" />
    <glyph glyph-name="uni043B" unicode="&#x43b;" horiz-adv-x="549" 
d="M156 500h371l-88 -500h-87l73 416h-197l-35 -204c-15 -86 -42 -144 -79 -175c-37 -30 -87 -42 -148 -37l14 82c68 -8 107 25 126 132z" />
    <glyph glyph-name="uni043C" unicode="&#x43c;" horiz-adv-x="633" 
d="M512 500h98l-88 -500h-85l64 362l-204 -255h-11l-114 257l-64 -364h-86l88 500h90l110 -254z" />
    <glyph glyph-name="uni043D" unicode="&#x43d;" horiz-adv-x="565" 
d="M419 292l37 208h87l-88 -500h-87l37 209h-259l-37 -209h-87l88 500h87l-37 -208h259z" />
    <glyph glyph-name="uni043E" unicode="&#x43e;" horiz-adv-x="603" 
d="M263 -13c-74 0 -133 26 -178 77s-60 116 -46 195c14 77 51 139 110 185s125 69 198 69c71 0 129 -26 172 -77s58 -116 45 -193c-13 -79 -49 -141 -107 -187s-123 -69 -194 -69zM270 72c49 0 93 16 133 48c41 32 66 76 75 132c9 54 -1 97 -30 128c-29 32 -67 48 -115 48
c-47 -1 -91 -17 -131 -48s-65 -75 -76 -130c-9 -56 0 -100 29 -132c29 -31 68 -47 115 -46z" />
    <glyph glyph-name="uni043F" unicode="&#x43f;" horiz-adv-x="565" 
d="M110 500h433l-88 -500h-87l73 417h-259l-73 -417h-87z" />
    <glyph glyph-name="uni0440" unicode="&#x440;" horiz-adv-x="634" 
d="M384 513c71 0 127 -27 168 -82c41 -54 56 -118 43 -191c-13 -77 -47 -138 -101 -184c-53 -46 -114 -69 -182 -69c-83 0 -153 39 -186 108l-52 -295h-87l123 700h87l-13 -74c52 58 119 87 200 87zM508 246c9 51 -1 95 -29 130s-67 53 -118 53s-96 -16 -135 -49
s-63 -74 -72 -125c-10 -57 0 -102 30 -135c31 -33 71 -49 121 -49c47 0 91 15 130 46s64 74 73 129z" />
    <glyph glyph-name="uni0441" unicode="&#x441;" horiz-adv-x="549" 
d="M260 -13c-75 0 -133 27 -176 80c-43 54 -57 119 -44 194c13 73 47 134 104 181s122 71 197 71c100 0 178 -51 207 -130l-77 -40c-22 57 -68 85 -137 85c-51 0 -96 -17 -135 -50s-63 -74 -72 -124c-9 -51 0 -94 27 -129s66 -52 117 -52c68 0 127 34 163 89l70 -46
c-51 -81 -141 -129 -244 -129z" />
    <glyph glyph-name="uni0442" unicode="&#x442;" horiz-adv-x="448" 
d="M54 500h428l-15 -84h-170l-73 -416h-87l73 416h-170z" />
    <glyph glyph-name="uni0443" unicode="&#x443;" horiz-adv-x="515" 
d="M239 105l216 395h97l-297 -531c-67 -120 -151 -176 -252 -169l14 81c63 -5 105 28 148 100l15 24l-128 495h88z" />
    <glyph glyph-name="uni0444" unicode="&#x444;" horiz-adv-x="677" 
d="M460 700l-33 -191c75 -9 131 -38 170 -89c39 -50 53 -109 41 -177c-12 -69 -45 -127 -100 -174c-54 -46 -122 -72 -203 -79l-33 -190h-86l33 191c-74 9 -131 38 -170 88c-39 51 -52 110 -40 178c12 69 45 126 100 172c55 47 122 74 202 81l33 190h86zM412 426l-62 -352
c109 13 186 84 202 176s-36 163 -140 176zM264 74l62 352c-109 -15 -185 -84 -201 -176s35 -161 139 -176z" />
    <glyph glyph-name="uni0445" unicode="&#x445;" horiz-adv-x="515" 
d="M425 500h108l-224 -247l147 -253h-96l-110 189l-171 -189h-108l237 261l-138 239h96l101 -174z" />
    <glyph glyph-name="uni0446" unicode="&#x446;" horiz-adv-x="595" 
d="M530 500l-73 -417h81l-38 -217h-86l24 134h-416l88 500h87l-73 -417h246l73 417h87z" />
    <glyph glyph-name="uni0447" unicode="&#x447;" horiz-adv-x="534" 
d="M383 261l42 239h87l-88 -500h-87l31 177c-48 -15 -94 -23 -137 -23c-127 0 -190 71 -171 180l29 166h87l-28 -161c-12 -69 20 -104 97 -104c39 0 85 9 138 26z" />
    <glyph glyph-name="uni0448" unicode="&#x448;" horiz-adv-x="818" 
d="M635 83l73 417h87l-88 -500h-685l88 500h87l-73 -417h212l73 417h87l-73 -417h212z" />
    <glyph glyph-name="uni0449" unicode="&#x449;" horiz-adv-x="843" 
d="M703 500h87l-73 -417h69l-39 -217h-86l24 134h-663l88 500h87l-73 -417h210l73 417h87l-73 -417h209z" />
    <glyph glyph-name="uni044A" unicode="&#x44a;" horiz-adv-x="552" 
d="M238 320h124c47 0 85 -16 114 -49c29 -32 40 -71 31 -118c-16 -95 -96 -153 -201 -153h-211l73 416h-138l14 84h226zM422 160c8 48 -25 80 -74 80h-124l-28 -159h124c49 0 93 31 102 79z" />
    <glyph glyph-name="uni044B" unicode="&#x44b;" horiz-adv-x="670" 
d="M165 320h125c47 0 85 -16 114 -49c29 -32 40 -71 31 -118c-17 -95 -97 -153 -202 -153h-211l88 500h87zM472 0l88 500h87l-88 -500h-87zM349 160c9 48 -25 80 -74 80h-124l-28 -159h124c49 0 94 31 102 79z" />
    <glyph glyph-name="uni044C" unicode="&#x44c;" horiz-adv-x="480" 
d="M165 320h125c47 0 85 -16 114 -49c29 -32 40 -71 31 -118c-17 -95 -97 -153 -202 -153h-211l88 500h87zM349 160c9 48 -25 80 -74 80h-124l-28 -159h124c49 0 94 31 102 79z" />
    <glyph glyph-name="uni044D" unicode="&#x44d;" horiz-adv-x="549" 
d="M290 513c75 0 134 -27 176 -81c42 -53 56 -118 43 -193c-13 -74 -48 -135 -104 -182s-122 -70 -198 -70c-97 0 -177 51 -206 130l76 40c20 -57 66 -86 139 -86c44 0 84 13 120 38c37 25 63 59 78 100h-224l15 82h222c-3 83 -59 138 -148 138c-69 0 -130 -35 -165 -90
l-69 45c51 80 142 129 245 129z" />
    <glyph glyph-name="uni044E" unicode="&#x44e;" horiz-adv-x="804" 
d="M548 513c71 0 129 -26 172 -77s58 -116 45 -193c-13 -79 -49 -141 -107 -187c-57 -46 -122 -69 -193 -69c-66 0 -120 20 -163 61c-42 41 -63 94 -62 161h-94l-37 -209h-87l88 500h87l-37 -208h93c20 69 57 123 112 162s116 59 183 59zM679 252c10 54 0 97 -29 128
c-29 32 -68 48 -116 48c-48 -1 -92 -17 -132 -48s-65 -75 -75 -130c-9 -55 0 -99 29 -131s68 -48 115 -47c49 0 93 16 133 48c41 32 66 76 75 132z" />
    <glyph glyph-name="uni044F" unicode="&#x44f;" horiz-adv-x="506" 
d="M271 500h213l-88 -500h-86l32 180h-76l-170 -180h-105l179 187c-34 11 -61 31 -80 60c-19 30 -26 63 -19 99c8 45 30 82 67 111s82 43 133 43zM232 258h123l29 161h-124c-51 0 -95 -33 -103 -81c-9 -48 24 -80 75 -80z" />
    <glyph glyph-name="uni0451" unicode="&#x451;" horiz-adv-x="584" 
d="M220 620c4 29 32 52 61 52s48 -23 44 -52c-7 -29 -33 -53 -62 -53s-48 24 -43 53zM410 620c4 29 32 52 61 52s48 -23 44 -52c-7 -29 -33 -53 -62 -53s-48 24 -43 53zM337 513c75 0 133 -26 173 -78c41 -51 54 -113 40 -186c-1 -11 -5 -24 -10 -39h-418
c0 -89 60 -141 152 -141c67 0 120 25 159 74l65 -47c-51 -69 -139 -109 -234 -109c-79 0 -139 26 -181 79s-56 117 -43 194c13 73 47 133 103 181s121 72 194 72zM135 287h333c4 95 -52 144 -136 144c-93 0 -168 -55 -197 -144z" />
    <glyph glyph-name="uni0452" unicode="&#x452;" horiz-adv-x="572" 
d="M365 513c59 0 103 -19 133 -56c31 -37 41 -87 30 -150l-60 -337c-23 -130 -97 -191 -224 -183l15 84c69 -6 109 27 122 99l59 332c15 83 -22 128 -102 128c-85 0 -154 -53 -173 -165v1l-47 -266h-87l100 569h-67l11 64h67l12 67h87l-12 -67h144l-11 -64h-144l-24 -134
c43 52 100 78 171 78z" />
    <glyph glyph-name="uni0453" unicode="&#x453;" horiz-adv-x="398" 
d="M306 700h107l-121 -132h-86zM110 500h328l-15 -84h-241l-73 -416h-87z" />
    <glyph glyph-name="uni0454" unicode="&#x454;" horiz-adv-x="549" 
d="M269 71c69 0 130 35 166 90l69 -45c-51 -80 -142 -129 -246 -129c-73 0 -131 27 -174 81s-57 118 -44 193c13 74 47 134 104 181s123 71 198 71c97 0 177 -50 206 -130l-76 -39c-20 52 -69 85 -138 85c-88 0 -167 -57 -198 -138h223l-15 -82h-222c4 -80 62 -138 147 -138
z" />
    <glyph glyph-name="uni0455" unicode="&#x455;" horiz-adv-x="473" 
d="M205 -13c-99 0 -163 46 -187 121l78 40c11 -47 53 -79 116 -79c59 0 101 23 109 66c19 106 -275 53 -241 240c7 41 29 74 64 99c36 26 78 39 126 39c85 0 143 -35 174 -104l-77 -40c-13 42 -47 63 -101 63c-47 0 -91 -22 -99 -66c-7 -40 33 -62 85 -78
c77 -21 175 -52 155 -163c-16 -88 -93 -138 -202 -138z" />
    <glyph glyph-name="uni0456" unicode="&#x456;" horiz-adv-x="220" 
d="M170 591c-32 0 -53 26 -48 58c5 33 33 59 68 59c32 0 54 -27 49 -59c-7 -33 -34 -58 -69 -58zM109 0h-87l88 500h87z" />
    <glyph glyph-name="uni0457" unicode="&#x457;" horiz-adv-x="220" 
d="M28 619c4 29 32 52 61 52s48 -23 44 -52c-7 -29 -33 -53 -62 -53s-48 24 -43 53zM218 619c4 29 32 52 61 52s48 -23 44 -52c-7 -29 -33 -53 -62 -53s-48 24 -43 53zM109 0h-87l88 500h87z" />
    <glyph glyph-name="uni0458" unicode="&#x458;" horiz-adv-x="241" 
d="M260 649c-5 -33 -34 -58 -69 -58c-51 0 -65 63 -25 99c42 38 105 10 94 -41zM39 -30l93 530h87l-93 -530c-24 -140 -97 -192 -225 -183l15 84c71 -7 110 22 123 99z" />
    <glyph glyph-name="uni0459" unicode="&#x459;" horiz-adv-x="785" 
d="M482 303h119c45 0 81 -15 108 -45c28 -29 38 -67 29 -114c-16 -92 -91 -144 -191 -144h-205l73 416h-187l-35 -204c-31 -169 -106 -223 -227 -212l14 82c68 -11 106 24 126 132l50 286h361zM653 151c8 48 -21 71 -66 71h-119l-25 -141h119c44 0 83 23 91 70z" />
    <glyph glyph-name="uni045A" unicode="&#x45a;" horiz-adv-x="793" 
d="M490 303h119c45 0 82 -15 109 -45c27 -29 37 -67 29 -114c-17 -93 -91 -144 -191 -144h-206l39 220h-241l-39 -220h-87l88 500h87l-35 -197h241l35 197h87zM596 222h-120l-25 -141h119c45 0 83 23 91 70s-21 71 -65 71z" />
    <glyph glyph-name="uni045B" unicode="&#x45b;" horiz-adv-x="572" 
d="M365 513c59 0 103 -19 133 -56c31 -37 41 -87 30 -150l-54 -307h-87l53 302c15 83 -22 128 -102 128c-85 0 -154 -53 -173 -165v1l-47 -266h-87l100 569h-67l11 64h67l12 67h87l-12 -67h144l-11 -64h-144l-24 -134c43 52 100 78 171 78z" />
    <glyph glyph-name="uni045C" unicode="&#x45c;" horiz-adv-x="502" 
d="M351 700h107l-121 -132h-86zM410 500h112l-282 -242l203 -258h-100l-191 246l-43 -246h-87l88 500h87l-38 -217z" />
    <glyph glyph-name="uni045E" unicode="&#x45e;" horiz-adv-x="515" 
d="M176 651h270l-13 -76h-270zM239 105l216 395h97l-297 -531c-67 -120 -151 -176 -252 -169l14 81c63 -5 105 28 148 100l15 24l-128 495h88z" />
    <glyph glyph-name="uni045F" unicode="&#x45f;" horiz-adv-x="565" 
d="M383 83l73 417h87l-88 -500h-174l-23 -134h-86l23 134h-173l88 500h87l-73 -417h259z" />
    <glyph glyph-name="uni0490" unicode="&#x490;" horiz-adv-x="485" 
d="M455 700l21 120h93l-37 -208h-300l-108 -612h-93l123 700h301z" />
    <glyph glyph-name="uni0491" unicode="&#x491;" horiz-adv-x="398" 
d="M352 500l18 103h86l-33 -187h-241l-73 -416h-87l88 500h242z" />
    <glyph glyph-name="Wgrave" unicode="&#x1e80;" horiz-adv-x="1000" 
d="M644 768h-84l-79 132h103zM182 0h108l264 559l68 -559h108l324 700h-99l-264 -578l-69 578h-94l-272 -578l-60 578h-92z" />
    <glyph glyph-name="wgrave" unicode="&#x1e81;" horiz-adv-x="773" 
d="M435 700l60 -132h-84l-79 132h103zM521 119l176 381h95l-244 -500h-89l-51 371l-180 -371h-91l-68 500h86l46 -380l182 380h87l-1 -2z" />
    <glyph glyph-name="Wacute" unicode="&#x1e82;" horiz-adv-x="1000" 
d="M532 768l100 132h107l-121 -132h-86zM182 0h108l264 559l68 -559h108l324 700h-99l-264 -578l-69 578h-94l-272 -578l-60 578h-92z" />
    <glyph glyph-name="wacute" unicode="&#x1e83;" horiz-adv-x="773" 
d="M483 700h107l-121 -132h-86zM521 119l176 381h95l-244 -500h-89l-51 371l-180 -371h-91l-68 500h86l46 -380l182 380h87l-1 -2z" />
    <glyph glyph-name="Wdieresis" unicode="&#x1e84;" horiz-adv-x="1000" 
d="M453 819c4 29 32 52 61 52s48 -23 44 -52c-7 -29 -33 -53 -62 -53s-48 24 -43 53zM643 819c4 29 32 52 61 52s48 -23 44 -52c-7 -29 -33 -53 -62 -53s-48 24 -43 53zM290 0h-108l-78 700h92l60 -578l272 578h94l69 -578l264 578h99l-324 -700h-108l-68 559z" />
    <glyph glyph-name="wdieresis" unicode="&#x1e85;" horiz-adv-x="773" 
d="M304 619c4 29 32 52 61 52s48 -23 44 -52c-7 -29 -33 -53 -62 -53s-48 24 -43 53zM494 619c4 29 32 52 61 52s48 -23 44 -52c-7 -29 -33 -53 -62 -53s-48 24 -43 53zM521 119l176 381h95l-244 -500h-89l-51 371l-180 -371h-91l-68 500h86l46 -380l182 380h87l-1 -2z" />
    <glyph glyph-name="Ygrave" unicode="&#x1ef2;" horiz-adv-x="584" 
d="M373 900l60 -132h-84l-79 132h103zM546 700h109l-305 -380l-56 -320h-93l57 322l-171 378h97l130 -293z" />
    <glyph glyph-name="ygrave" unicode="&#x1ef3;" horiz-adv-x="515" 
d="M290 700l60 -132h-84l-79 132h103zM239 105l216 395h97l-297 -531c-67 -120 -151 -176 -252 -169l14 81c63 -5 105 28 148 100l15 24l-128 495h88z" />
    <glyph glyph-name="endash" unicode="&#x2013;" horiz-adv-x="641" 
d="M568 265h-490l14 84h491z" />
    <glyph glyph-name="emdash" unicode="&#x2014;" horiz-adv-x="741" 
d="M668 265h-590l14 84h591z" />
    <glyph glyph-name="quoteleft" unicode="&#x2018;" horiz-adv-x="253" 
d="M193 457h-100l108 243h75z" />
    <glyph glyph-name="quoteright" unicode="&#x2019;" horiz-adv-x="253" 
d="M176 701h100l-108 -243h-75z" />
    <glyph glyph-name="quotesinglbase" unicode="&#x201a;" horiz-adv-x="253" 
d="M70 103h100l-108 -243h-75z" />
    <glyph glyph-name="quotedblleft" unicode="&#x201c;" horiz-adv-x="408" 
d="M193 457h-100l108 243h75zM348 457h-100l108 243h75z" />
    <glyph glyph-name="quotedblright" unicode="&#x201d;" horiz-adv-x="408" 
d="M176 701h100l-108 -243h-75zM331 701h100l-108 -243h-75z" />
    <glyph glyph-name="quotedblbase" unicode="&#x201e;" horiz-adv-x="408" 
d="M70 103h100l-108 -243h-75zM225 103h100l-108 -243h-75z" />
    <glyph glyph-name="dagger" unicode="&#x2020;" horiz-adv-x="480" 
d="M336 545h141l-15 -84h-141l-81 -461h-87l81 461h-142l15 84h142l27 155h87z" />
    <glyph glyph-name="daggerdbl" unicode="&#x2021;" horiz-adv-x="480" 
d="M477 545l-15 -84h-141l-39 -222h141l-15 -84h-141l-27 -155h-87l27 155h-142l15 84h142l39 222h-142l15 84h142l27 155h87l-27 -155h141z" />
    <glyph glyph-name="bullet" unicode="&#x2022;" horiz-adv-x="320" 
d="M159 238c-31 0 -56 11 -74 34s-24 51 -18 83c11 63 67 108 132 108c31 0 55 -12 72 -35c18 -23 24 -50 19 -81c-12 -63 -66 -109 -131 -109z" />
    <glyph glyph-name="ellipsis" unicode="&#x2026;" horiz-adv-x="648" 
d="M75 -11c-36 0 -60 30 -53 66c7 37 37 64 76 64c36 0 61 -30 54 -66c-7 -37 -37 -64 -77 -64zM278 -11c-36 0 -60 30 -53 66c7 37 37 64 76 64c36 0 61 -30 54 -66c-7 -37 -37 -64 -77 -64zM480 -11c-36 0 -60 30 -53 66c7 37 37 64 76 64c36 0 61 -30 54 -66
c-7 -37 -37 -64 -77 -64z" />
    <glyph glyph-name="perthousand" unicode="&#x2030;" horiz-adv-x="1090" 
d="M243 403c-45 0 -80 16 -106 47c-25 31 -34 68 -27 110c7 43 28 80 62 109c35 29 76 44 123 44c45 0 80 -16 105 -49c25 -32 34 -70 26 -113c-8 -42 -29 -77 -63 -106c-33 -28 -73 -42 -120 -42zM188 558c-8 -47 19 -82 66 -82s86 37 94 82s-18 81 -65 81s-87 -36 -95 -81
zM121 70l-47 30l556 520l48 -29zM471 -12c-45 0 -81 16 -106 47c-25 32 -33 69 -26 112s28 78 62 107c35 29 75 44 122 44c45 0 79 -16 104 -48s34 -69 27 -112c-8 -43 -29 -78 -63 -107c-33 -29 -73 -43 -120 -43zM832 -12c-45 0 -80 16 -105 47c-25 32 -34 69 -27 112
s28 78 62 107c35 29 75 44 122 44c45 0 80 -16 105 -48s34 -69 26 -112c-7 -43 -28 -78 -62 -107s-74 -43 -121 -43zM511 224c-48 0 -87 -36 -94 -81c-4 -23 0 -42 12 -58c12 -15 30 -23 53 -23s44 8 61 23c57 47 40 144 -32 139zM778 143c-8 -45 18 -81 65 -81s87 36 95 81
s-19 81 -66 81s-87 -36 -94 -81z" />
    <glyph glyph-name="guilsinglleft" unicode="&#x2039;" horiz-adv-x="343" 
d="M219 492h99l-144 -188l76 -177h-94l-78 182z" />
    <glyph glyph-name="guilsinglright" unicode="&#x203a;" horiz-adv-x="344" 
d="M114 491h94l78 -182l-141 -183h-99l144 188z" />
    <glyph glyph-name="fraction" unicode="&#x2044;" horiz-adv-x="210" 
d="M419 700l-518 -700h-75l518 700h75z" />
    <glyph glyph-name="Euro" unicode="&#x20ac;" horiz-adv-x="602" 
d="M326 78c65 0 118 32 158 95l73 -46c-58 -93 -140 -140 -245 -140c-140 0 -220 108 -217 276h-74l12 65h67c1 12 3 22 4 29c1 5 2 13 5 24h-67l11 64h72c53 168 165 268 312 268c95 0 165 -51 194 -138l-82 -43c-19 61 -62 91 -127 91c-89 0 -160 -62 -201 -178h237
l-11 -64h-244l-6 -31l-4 -22h245l-12 -65h-238c-3 -120 45 -185 138 -185z" />
    <glyph glyph-name="uni20BD" unicode="&#x20bd;" horiz-adv-x="595" 
d="M182 700h253c58 0 105 -22 141 -67c37 -45 50 -97 39 -157c-10 -60 -39 -110 -87 -149s-104 -59 -169 -59h-161l-14 -81h248l-12 -68h-248l-21 -119h-92l21 119h-85l12 68h85l14 81h-85l15 84h85zM523 483c7 36 0 67 -20 92c-19 25 -47 38 -82 38h-162l-46 -261h161
c35 0 67 13 96 38c29 26 47 57 53 93z" />
    <glyph glyph-name="uni2116" unicode="&#x2116;" horiz-adv-x="1025" 
d="M856 402c-44 0 -79 16 -104 47s-33 69 -26 112s28 79 63 108s75 43 121 43c44 0 79 -16 104 -47s34 -69 27 -112c-16 -88 -88 -151 -185 -151zM124 0h-93l123 700h71l273 -525l91 525h93l-123 -700h-71l-272 525zM962 557c8 45 -18 80 -65 80s-84 -35 -92 -80
c-8 -47 16 -80 64 -80s86 35 93 80zM976 255h-292l14 83h292z" />
    <glyph glyph-name="trademark" unicode="&#x2122;" horiz-adv-x="469" 
d="M278 700l-8 -43h-57l-27 -157h-46l27 157h-58l8 43h161zM458 700h52l-35 -200h-46l22 125l-74 -90h-4l-39 89l-22 -124h-46l35 200h46l38 -94z" />
    <glyph glyph-name="estimated" unicode="&#x212e;" horiz-adv-x="810" 
d="M486 710c107 0 190 -35 247 -105c58 -69 78 -154 60 -255c-2 -10 -8 -15 -18 -15h-560c-10 0 -16 -5 -18 -15l-33 -192c-2 -7 -1 -14 3 -19c46 -59 119 -89 218 -89c95 0 179 32 250 97c6 6 12 9 19 9h35c13 0 17 -10 6 -19c-87 -78 -192 -117 -316 -117
c-115 0 -203 36 -263 108c-59 72 -80 159 -62 262c18 101 67 185 146 251c80 66 175 99 286 99zM648 380l35 194c1 7 -1 14 -4 19c-45 58 -111 87 -198 87c-86 0 -162 -30 -229 -89c-6 -6 -9 -12 -10 -19l-34 -192c-2 -10 2 -15 12 -15h410c10 0 16 5 18 15z" />
    <glyph glyph-name="oneeighth" unicode="&#x215b;" horiz-adv-x="804" 
d="M123 300l56 314l-92 -26l-8 70l126 42h66l-71 -400h-77zM80 0l518 700h75l-518 -700h-75zM776 293c-5 -37 -27 -65 -65 -85c38 -24 53 -59 45 -105c-12 -72 -77 -116 -166 -116c-85 0 -140 52 -128 124c9 47 37 81 84 102c-31 21 -43 51 -37 88c12 72 75 112 154 112
c36 0 65 -11 88 -34c23 -22 31 -51 25 -86zM580 294c-5 -33 14 -53 54 -53c37 0 63 21 70 53c5 31 -14 50 -53 50c-41 0 -64 -17 -71 -50zM683 117c5 37 -18 59 -61 59c-48 0 -76 -20 -83 -59c-7 -36 15 -59 62 -59c45 0 75 23 82 59z" />
    <glyph glyph-name="threeeighths" unicode="&#x215c;" horiz-adv-x="901" 
d="M344 412c-13 -79 -79 -125 -170 -125c-67 0 -111 29 -133 86l68 35c12 -33 37 -49 76 -49c48 0 75 20 82 59c7 36 -17 60 -62 60h-9l-25 50l97 100h-168l13 72h263l-11 -66l-99 -102c56 -16 87 -63 78 -120zM177 0l518 700h75l-518 -700h-75zM873 293
c-5 -37 -27 -65 -65 -85c38 -24 53 -59 45 -105c-12 -72 -77 -116 -166 -116c-85 0 -140 52 -128 124c9 47 37 81 84 102c-31 21 -43 51 -37 88c12 72 75 112 154 112c36 0 65 -11 88 -34c23 -22 31 -51 25 -86zM677 294c-5 -33 14 -53 54 -53c37 0 63 21 70 53
c5 31 -14 50 -53 50c-41 0 -64 -17 -71 -50zM780 117c5 37 -18 59 -61 59c-48 0 -76 -20 -83 -59c-7 -36 17 -59 62 -59s75 23 82 59z" />
    <glyph glyph-name="fiveeighths" unicode="&#x215d;" horiz-adv-x="890" 
d="M339 411c-13 -79 -74 -124 -165 -124c-66 0 -110 29 -131 87l68 34c12 -33 37 -50 74 -50c44 0 74 24 81 60c7 37 -15 63 -59 63h-125l54 219h236l-12 -71h-169l-20 -79h51c39 0 71 -13 94 -39s31 -59 23 -100zM166 0l518 700h75l-518 -700h-75zM862 293
c-5 -37 -27 -65 -65 -85c38 -24 53 -59 45 -105c-12 -72 -77 -116 -166 -116c-85 0 -140 52 -128 124c9 47 37 81 84 102c-31 21 -43 51 -37 88c12 72 75 112 154 112c36 0 65 -11 88 -34c23 -22 31 -51 25 -86zM666 294c-5 -33 14 -53 54 -53c37 0 63 21 70 53
c5 31 -14 50 -53 50c-41 0 -64 -17 -71 -50zM769 117c5 37 -18 59 -61 59c-48 0 -76 -20 -83 -59c-7 -36 15 -59 62 -59c45 0 75 23 82 59z" />
    <glyph glyph-name="seveneighths" unicode="&#x215e;" horiz-adv-x="846" 
d="M346 639l-198 -339h-84l193 328h-183l13 72h269zM122 0l518 700h75l-518 -700h-75zM818 293c-5 -37 -27 -65 -65 -85c38 -24 53 -59 45 -105c-12 -72 -77 -116 -166 -116c-85 0 -140 52 -128 124c9 47 37 81 84 102c-31 21 -43 51 -37 88c12 72 75 112 154 112
c36 0 65 -11 88 -34c23 -22 31 -51 25 -86zM622 294c-5 -33 14 -53 54 -53c37 0 63 21 70 53c5 31 -14 50 -53 50c-41 0 -64 -17 -71 -50zM725 117c5 37 -18 59 -61 59c-48 0 -76 -20 -83 -59c-7 -36 15 -59 62 -59c45 0 75 23 82 59z" />
    <glyph glyph-name="arrowleft" unicode="&#x2190;" horiz-adv-x="813" 
d="M245 392h537l-14 -84h-547l213 -258h-114l-247 300l353 300l122 -1z" />
    <glyph glyph-name="arrowup" unicode="&#x2191;" horiz-adv-x="710" 
d="M434 700l247 -300l-19 -113l-211 258l-96 -545h-87l94 533l-302 -256l22 123z" />
    <glyph glyph-name="arrowright" unicode="&#x2192;" horiz-adv-x="813" 
d="M416 650h113l247 -300l-350 -300h-123l300 258h-538l15 84h549z" />
    <glyph glyph-name="arrowdown" unicode="&#x2193;" horiz-adv-x="710" 
d="M478 700l-94 -533l301 256l-22 -123l-352 -300l-247 300l20 112l211 -257l96 545h87z" />
    <glyph glyph-name="arrowboth" unicode="&#x2194;" horiz-adv-x="1055" 
d="M807 608l211 -258l-302 -257h-122l252 215h-627l177 -215h-112l-211 257l302 258h123l-254 -216h628l-177 216h112z" />
    <glyph glyph-name="arrowupdn" unicode="&#x2195;" horiz-adv-x="625" 
d="M625 566l-19 -112l-176 215l-110 -627l251 214l-22 -122l-302 -257l-212 257l20 111l176 -214l110 628l-252 -214l22 121l303 257z" />
    <glyph glyph-name="uni2196" unicode="&#x2196;" horiz-adv-x="640" 
d="M541 596l67 -82h-368l322 -391l-66 -56l-322 391l-65 -368l-67 82l75 424h424z" />
    <glyph glyph-name="uni2197" unicode="&#x2197;" horiz-adv-x="641" 
d="M125 514l97 82h424l-75 -424l-98 -83l62 357l-448 -380l-54 64l451 384h-359z" />
    <glyph glyph-name="uni2198" unicode="&#x2198;" horiz-adv-x="640" 
d="M498 221l65 369l67 -82l-74 -424h-424l-68 82h367l-321 391l66 55z" />
    <glyph glyph-name="uni2199" unicode="&#x2199;" horiz-adv-x="641" 
d="M586 614l54 -64l-453 -384h360l-97 -82h-424l74 424l98 82l-63 -359z" />
    <glyph glyph-name="partialdiff" unicode="&#x2202;" horiz-adv-x="580" 
d="M317 713c78 0 140 -35 185 -105c45 -69 59 -158 40 -265c-21 -115 -61 -203 -120 -264s-128 -92 -207 -92c-63 0 -110 21 -143 64c-32 43 -43 95 -32 156c12 68 42 122 89 163c48 41 107 61 177 61c59 0 111 -16 154 -49c7 72 -3 131 -31 177c-27 46 -71 69 -132 70
c-45 0 -89 -11 -132 -34l14 82c42 24 88 36 138 36zM229 71c100 0 180 87 216 231c-37 33 -85 49 -144 49c-89 0 -158 -54 -174 -150c-13 -76 22 -130 102 -130z" />
    <glyph glyph-name="emptyset" unicode="&#x2205;" horiz-adv-x="806" 
d="M744 720h86l-113 -114c61 -75 83 -163 65 -264c-18 -100 -68 -184 -150 -252c-81 -68 -173 -102 -274 -102c-72 0 -135 21 -190 64l-71 -72h-87l114 115c-61 73 -83 161 -65 264c17 100 67 184 148 251c82 68 174 102 276 102c72 0 135 -21 190 -64zM129 350
c-14 -80 1 -148 45 -205l449 453c-43 31 -94 46 -151 46c-81 0 -155 -29 -222 -86c-66 -57 -106 -126 -121 -208zM713 350c14 81 -1 150 -46 205l-449 -452c43 -31 93 -47 151 -47c81 0 154 29 221 86s108 127 123 208z" />
    <glyph glyph-name="product" unicode="&#x220f;" horiz-adv-x="640" 
d="M83 -200h-87l158 900h490l-158 -900h-87l144 816h-316z" />
    <glyph glyph-name="summation" unicode="&#x2211;" horiz-adv-x="548" 
d="M436 -200h-470l14 84l299 384l-153 356l13 76h440l-14 -84h-343l155 -359l-290 -373h364z" />
    <glyph glyph-name="minus" unicode="&#x2212;" horiz-adv-x="545" 
d="M498 309h-430l14 83h430z" />
    <glyph glyph-name="radical" unicode="&#x221a;" horiz-adv-x="655" 
d="M324 0h-88l-93 224h-92l14 84h137l82 -205l357 697h96z" />
    <glyph glyph-name="infinity" unicode="&#x221e;" horiz-adv-x="803" 
d="M627 515c46 0 83 -17 110 -50s37 -73 29 -121c-9 -47 -31 -86 -67 -115c-35 -29 -78 -44 -127 -44c-61 0 -115 34 -163 102c-68 -68 -134 -102 -197 -102c-47 0 -84 17 -111 50s-37 74 -28 121c9 48 31 86 66 115c36 29 79 44 128 44c60 0 114 -34 163 -101
c69 67 134 101 197 101zM227 264c42 0 89 29 142 86c-32 57 -69 86 -112 86c-49 0 -89 -35 -98 -86s19 -86 68 -86zM612 436c-43 0 -90 -29 -141 -86c31 -57 68 -86 111 -86c49 0 89 35 98 86s-19 86 -68 86z" />
    <glyph glyph-name="integral" unicode="&#x222b;" horiz-adv-x="440" 
d="M-80 -203l15 86c59 -25 111 1 132 64l210 614c43 127 124 174 243 141l-16 -85c-68 24 -118 -1 -139 -64l-210 -614c-44 -129 -131 -174 -235 -142z" />
    <glyph glyph-name="approxequal" unicode="&#x2248;" horiz-adv-x="586" 
d="M310 394c-91 58 -132 37 -166 -24l-63 28c49 121 145 152 258 80c88 -53 130 -41 163 32l68 -35c-48 -120 -145 -153 -260 -81zM119 190l-68 35c48 120 148 153 261 81c92 -57 131 -37 165 24l63 -28c-48 -121 -142 -152 -258 -80c-87 56 -130 38 -163 -32z" />
    <glyph glyph-name="notequal" unicode="&#x2260;" horiz-adv-x="535" 
d="M523 493l-15 -83h-154l-75 -120h208l-15 -83h-244l-88 -142h-63l88 142h-118l16 83h153l75 120h-207l14 83h244l88 142h63l-88 -142h118z" />
    <glyph glyph-name="lessequal" unicode="&#x2264;" horiz-adv-x="523" 
d="M92 458l441 160l-18 -99l-326 -107l288 -106l-15 -89l-384 159l6 41zM439 85h-413l15 83h412z" />
    <glyph glyph-name="greaterequal" unicode="&#x2265;" horiz-adv-x="523" 
d="M105 528l15 90l384 -160l-14 -82l-441 -159l18 98l325 107zM439 85h-413l15 83h412z" />
    <glyph glyph-name="lozenge" unicode="&#x25ca;" horiz-adv-x="545" 
d="M268 0h-78l-124 350l247 350h78l125 -350zM158 341l85 -237l180 255l-85 237z" />
    <glyph glyph-name="i.loclTRK" horiz-adv-x="220" 
d="M239 626c-5 -33 -38 -62 -73 -62s-59 27 -52 62s38 63 73 63s59 -28 52 -63zM109 0h-87l88 500h87z" />
    <glyph glyph-name="f_f_j" horiz-adv-x="802" 
d="M508 500h272l-93 -530c-23 -131 -98 -192 -225 -183l15 84c71 -7 110 22 123 99l78 446h-185l-73 -416h-87l73 416h-185l-74 -416h-87l74 416h-81l15 84h80l3 15c24 139 113 207 254 198l-16 -84c-85 7 -136 -31 -151 -114l-3 -15h186l4 25c23 132 107 198 253 198
c29 0 63 -4 101 -13l-13 -79c-30 5 -62 8 -96 8c-93 0 -143 -31 -158 -114z" />
    <glyph glyph-name="f_j" horiz-adv-x="530" 
d="M235 500h272l-93 -530c-23 -131 -97 -192 -224 -183l14 84c72 -7 110 23 123 99l78 446h-184l-74 -416h-87l74 416h-81l15 84h80l3 15c23 132 107 198 254 198c27 0 61 -4 100 -13l-14 -79c-29 5 -61 8 -96 8c-92 0 -142 -31 -157 -114z" />
    <glyph glyph-name="uni0414.loclBGR" horiz-adv-x="710" 
d="M487 700l102 -612h70l-39 -222h-93l24 134h-480l-24 -134h-93l40 222h70l318 612h105zM419 590l-255 -502h332z" />
    <glyph glyph-name="uni041B.loclBGR" horiz-adv-x="616" 
d="M65 0h-102l372 700h105l125 -700h-96l-96 589z" />
    <glyph glyph-name="uni0424.loclBGR" horiz-adv-x="851" 
d="M567 800l-16 -90c99 -10 175 -49 227 -116c53 -67 70 -151 52 -252c-18 -103 -64 -185 -137 -248c-73 -62 -162 -97 -269 -105l-16 -89h-90l16 90c-99 11 -174 50 -226 117s-69 151 -51 252c19 102 64 184 136 246c73 63 162 98 268 105l16 90h90zM737 350
c27 157 -49 260 -201 276l-97 -551c160 16 270 118 298 275zM149 350c-28 -156 48 -258 200 -275l97 551c-160 -17 -270 -119 -297 -276z" />
    <glyph glyph-name="uni0414.ss01" horiz-adv-x="695" 
d="M220 700h447l-108 -612h75l-16 -88h-647l16 88h60c53 55 90 137 109 246zM156 88h311l92 525h-261l-50 -281c-19 -109 -50 -190 -92 -244z" />
    <glyph glyph-name="uni0426.ss01" horiz-adv-x="690" 
d="M662 700l-108 -612h75l-15 -88h-583l123 700h93l-108 -612h323l107 612h93z" />
    <glyph glyph-name="uni0429.ss01" horiz-adv-x="980" 
d="M952 700l-108 -612h75l-15 -88h-873l123 700h93l-108 -612h260l108 612h92l-107 -612h260l107 612h93z" />
    <glyph glyph-name="uni0414.loclBGR.ss01" horiz-adv-x="710" 
d="M487 700l102 -612h70l-15 -88h-666l16 88h70l318 612h105zM419 590l-255 -502h332z" />
    <glyph glyph-name="uni0432.loclBGR" horiz-adv-x="570" 
d="M429 398c73 -33 111 -104 95 -200c-24 -136 -120 -211 -268 -211c-69 0 -121 23 -157 68c-36 46 -48 106 -35 180l42 240c25 152 119 238 254 238c55 0 99 -17 131 -51s44 -76 35 -127s-41 -96 -97 -137zM193 474l-14 -81l88 17c26 5 51 7 75 6c57 37 90 78 97 122
c11 53 -25 92 -92 92c-76 0 -137 -59 -154 -156zM437 205c19 101 -50 150 -185 123l-87 -17l-14 -81c-17 -103 25 -158 117 -158s154 49 169 133z" />
    <glyph glyph-name="uni0433.loclBGR" horiz-adv-x="460" 
d="M193 -13c-57 0 -101 15 -134 46c-32 31 -44 70 -35 117c12 67 62 106 118 121c84 23 184 30 194 90c7 43 -30 71 -79 71c-48 0 -92 -25 -116 -69l-68 43c35 65 104 107 192 107c51 0 92 -16 123 -49c31 -32 43 -70 36 -113c-12 -65 -62 -105 -119 -121
c-81 -21 -183 -30 -193 -88c-9 -47 31 -73 86 -73c60 0 111 34 138 83l69 -46c-41 -73 -115 -119 -212 -119z" />
    <glyph glyph-name="uni0434.loclBGR" horiz-adv-x="635" 
d="M509 406l17 94h86l-84 -479c-13 -76 -46 -134 -99 -174c-52 -40 -115 -60 -188 -60c-107 0 -188 45 -223 122l77 40c23 -54 73 -81 151 -81c109 0 179 56 196 153l10 59c-50 -59 -115 -88 -195 -88c-76 0 -134 26 -175 79c-40 53 -54 117 -42 192c11 73 44 133 99 180
s116 70 184 70c83 0 153 -38 186 -107zM277 76c48 0 91 15 129 44c38 30 63 69 74 118l5 26c6 51 -7 91 -38 121s-70 45 -116 45c-48 0 -92 -16 -132 -48c-40 -31 -64 -73 -72 -126c-9 -51 1 -94 29 -129c29 -34 69 -51 121 -51z" />
    <glyph glyph-name="uni0436.loclBGR" horiz-adv-x="698" 
d="M72 0h-99l256 266l-158 234h93l146 -219l75 419h86l-76 -423l218 223h101l-242 -248l163 -252h-92l-154 239l-43 -239h-86l42 238z" />
    <glyph glyph-name="uni0438.loclBGR" 
d="M408 234l47 266h87l-88 -500h-87l12 66c-43 -53 -100 -79 -171 -79c-59 0 -103 19 -134 56c-30 37 -40 87 -29 150l54 307h87l-53 -302c-15 -83 21 -128 101 -128c85 0 155 53 174 165v-1z" />
    <glyph glyph-name="uni0439.loclBGR" 
d="M207 651h270l-13 -76h-270zM408 234l47 266h87l-88 -500h-87l12 66c-43 -53 -100 -79 -171 -79c-59 0 -103 19 -134 56c-30 37 -40 87 -29 150l54 307h87l-53 -302c-15 -83 21 -128 101 -128c85 0 155 53 174 165v-1z" />
    <glyph glyph-name="uni043A.loclBGR" horiz-adv-x="502" 
d="M410 500h112l-282 -242l203 -258h-100l-191 246l-43 -246h-87l123 700h87l-73 -417z" />
    <glyph glyph-name="uni043B.loclBGR" horiz-adv-x="480" 
d="M333 500l96 -500h-90l-68 401l-211 -401h-97l272 500h98z" />
    <glyph glyph-name="uni043F.loclBGR" 
d="M356 513c59 0 103 -19 133 -56c31 -37 41 -87 30 -150l-54 -307h-87l53 302c15 83 -21 128 -101 128c-85 0 -155 -53 -174 -165v1l-47 -266h-87l88 500h87l-12 -66c43 53 100 79 171 79z" />
    <glyph glyph-name="uni0442.loclBGR" horiz-adv-x="849" 
d="M650 513c53 0 95 -18 125 -55s40 -86 30 -147l-55 -311h-87l54 308c13 79 -21 122 -89 122c-73 0 -130 -48 -149 -149l-49 -281h-87l54 308c13 79 -19 122 -84 122c-73 0 -137 -49 -154 -149v1l-50 -282h-87l88 500h87l-11 -60c43 49 95 73 158 73c67 0 112 -29 134 -87
c45 58 103 87 172 87z" />
    <glyph glyph-name="uni0446.loclBGR" horiz-adv-x="601" 
d="M503 83h41l-39 -217h-86l24 138c-32 8 -51 29 -57 62c-45 -53 -104 -79 -176 -79c-121 0 -186 81 -165 206l54 307h87l-53 -301c-15 -83 21 -129 101 -129s146 48 170 145l50 285h87l-67 -382c-3 -23 6 -35 29 -35z" />
    <glyph glyph-name="uni0448.loclBGR" horiz-adv-x="849" 
d="M690 218l50 282h87l-88 -500h-87l11 60c-43 -49 -95 -73 -158 -73c-67 0 -112 29 -134 87c-45 -58 -103 -87 -172 -87c-53 0 -95 18 -125 55s-40 86 -30 147l55 311h87l-54 -308c-13 -79 21 -122 89 -122c73 0 130 48 149 149l49 281h87l-54 -308
c-13 -79 19 -122 84 -122c73 0 137 49 154 149v-1z" />
    <glyph glyph-name="uni0449.loclBGR" horiz-adv-x="886" 
d="M788 83h41l-39 -217h-86l24 138c-31 8 -50 28 -57 60c-45 -51 -99 -77 -164 -77c-69 0 -114 29 -136 86c-46 -57 -103 -86 -172 -86c-54 0 -96 18 -126 55s-40 86 -29 147l55 311h87l-54 -307c-13 -79 21 -123 89 -123s124 43 145 132l53 298h87l-54 -307
c-13 -79 19 -123 84 -123c68 0 130 44 151 132l52 298h87l-67 -382c-3 -23 6 -35 29 -35z" />
    <glyph glyph-name="uni044C.loclBGR" horiz-adv-x="484" 
d="M158 346h117c59 0 103 -18 133 -53c31 -35 41 -79 32 -134c-9 -51 -34 -92 -74 -124s-90 -48 -149 -48c-61 0 -107 19 -140 56c-32 38 -44 82 -35 133l57 324h86zM355 169c9 59 -26 96 -95 96h-116l-16 -89c-11 -63 28 -105 100 -105c68 0 116 43 127 98z" />
    <glyph glyph-name="uni044A.loclBGR" horiz-adv-x="568" 
d="M242 346h117c59 0 103 -18 133 -53c31 -35 41 -80 32 -135c-19 -101 -104 -171 -223 -171c-61 0 -107 19 -140 56c-32 38 -44 82 -35 133l42 241h-138l14 83h225zM439 168c9 59 -26 97 -95 97h-116l-16 -89c-11 -63 28 -105 100 -105c68 0 116 42 127 97z" />
    <glyph glyph-name="uni044E.loclBGR" horiz-adv-x="804" 
d="M548 513c71 0 129 -26 172 -77s58 -116 45 -193c-13 -79 -49 -141 -107 -187c-57 -46 -122 -69 -193 -69c-66 0 -120 20 -163 61c-42 41 -63 94 -62 161h-94l-37 -209h-87l123 700h87l-72 -408h93c19 69 56 123 111 162s117 59 184 59zM679 252c10 54 0 97 -29 128
c-29 32 -68 48 -116 48c-48 -1 -92 -17 -132 -48s-65 -75 -75 -130c-9 -55 0 -99 29 -131s68 -48 115 -47c49 0 93 16 133 48c41 32 66 76 75 132z" />
    <glyph glyph-name="zero.sinf" horiz-adv-x="411" 
d="M133 -173c-52 0 -91 20 -118 61s-35 93 -24 157c23 129 102 208 213 208c52 0 91 -20 118 -61s35 -93 24 -157c-23 -129 -102 -208 -213 -208zM69 40c-16 -88 12 -137 75 -137s108 48 124 137s-12 137 -75 137s-108 -48 -124 -137z" />
    <glyph glyph-name="one.sinf" horiz-adv-x="249" 
d="M-2 198l126 42h66l-71 -400h-77l56 314l-92 -26z" />
    <glyph glyph-name="two.sinf" horiz-adv-x="344" 
d="M243 -160h-286l10 57l188 157c33 27 52 51 55 72c7 32 -14 54 -51 54c-32 0 -60 -20 -85 -60l-62 38c33 59 93 95 158 95c80 0 130 -55 117 -131c-6 -37 -35 -77 -87 -120l-111 -90h167z" />
    <glyph glyph-name="three.sinf" horiz-adv-x="347" 
d="M32 240h263l-11 -66l-99 -102c56 -16 87 -63 78 -120c-13 -79 -79 -125 -170 -125c-67 0 -111 29 -133 86l68 35c12 -33 37 -49 76 -49c48 0 75 20 82 59c7 36 -17 60 -62 60h-9l-25 50l97 100h-168z" />
    <glyph glyph-name="four.sinf" horiz-adv-x="355" 
d="M242 -18h47l-12 -71h-48l-12 -71h-76l13 71h-200l12 71l187 258h86l-184 -258h111l16 88h75z" />
    <glyph glyph-name="five.sinf" horiz-adv-x="331" 
d="M291 240l-12 -71h-169l-20 -79h51c39 0 71 -13 94 -39s31 -59 23 -100c-13 -79 -74 -124 -165 -124c-66 0 -110 29 -131 87l68 34c12 -33 37 -50 74 -50c44 0 74 24 81 60c7 37 -15 63 -59 63h-125l54 219h236z" />
    <glyph glyph-name="six.sinf" horiz-adv-x="341" 
d="M143 108h2c43 0 77 -14 101 -43c25 -28 33 -62 26 -103c-15 -80 -84 -135 -175 -135c-43 0 -76 15 -101 44s-33 63 -26 103c5 30 17 56 38 77l156 189h91zM198 -32c7 43 -17 70 -65 70c-47 0 -81 -27 -89 -70c-7 -43 17 -71 64 -71c48 0 82 28 90 71z" />
    <glyph glyph-name="seven.sinf" horiz-adv-x="297" 
d="M-7 168l13 72h269l-10 -61l-198 -339h-84l193 328h-183z" />
    <glyph glyph-name="eight.sinf" horiz-adv-x="341" 
d="M284 133c-5 -37 -27 -65 -65 -85c38 -24 53 -59 45 -105c-12 -72 -77 -116 -166 -116c-85 0 -140 52 -128 124c9 47 37 81 84 102c-31 21 -43 51 -37 88c12 72 75 112 154 112c36 0 65 -11 88 -34c23 -22 31 -51 25 -86zM88 134c-5 -33 14 -53 54 -53c37 0 63 21 70 53
c5 31 -14 50 -53 50c-41 0 -64 -17 -71 -50zM191 -43c5 37 -18 59 -61 59c-48 0 -76 -20 -83 -59c-7 -36 15 -59 62 -59c45 0 75 23 82 59z" />
    <glyph glyph-name="nine.sinf" horiz-adv-x="341" 
d="M171 253c41 0 74 -15 99 -44s34 -63 27 -103c-5 -27 -15 -50 -32 -71l-160 -195h-91l112 132h-3c-42 0 -76 14 -101 43s-33 63 -26 103c15 80 86 135 175 135zM135 42c47 0 80 27 88 70s-17 71 -64 71s-82 -28 -89 -71s17 -70 65 -70z" />
    <glyph glyph-name="zero.tf" horiz-adv-x="573" 
d="M242 -13c-83 0 -143 34 -180 103s-46 158 -27 267c19 110 58 197 115 260c58 64 130 96 216 96c83 0 143 -34 180 -103s46 -158 27 -267c-39 -221 -158 -356 -331 -356zM481 350c31 173 -16 273 -129 273c-112 0 -195 -100 -224 -273c-31 -175 15 -272 128 -272
s194 97 225 272z" />
    <glyph glyph-name="one.tf" horiz-adv-x="573" 
d="M426 700l-108 -612h200l-16 -88h-510l16 88h218l89 509l-156 -44l-9 83l196 64h80z" />
    <glyph glyph-name="two.tf" horiz-adv-x="573" 
d="M489 0h-492l14 76l292 223c100 75 154 127 165 190c13 81 -31 134 -118 134c-70 0 -128 -37 -175 -111l-74 47c59 97 157 154 264 154c65 0 117 -22 155 -65c39 -43 52 -97 41 -163c-16 -91 -77 -159 -196 -247l-203 -148h342z" />
    <glyph glyph-name="three.tf" horiz-adv-x="573" 
d="M126 700h458l-14 -82l-199 -204c111 -21 177 -100 157 -215c-25 -139 -139 -212 -291 -212c-120 0 -208 60 -231 160l83 44c17 -71 74 -113 157 -113c101 0 174 47 189 131c15 83 -40 131 -143 131h-21l-29 58l210 215h-340z" />
    <glyph glyph-name="four.tf" horiz-adv-x="573" 
d="M460 220h88l-14 -87h-90l-23 -133h-93l23 133h-355l15 87l333 480h104l-333 -480h252l32 183h93z" />
    <glyph glyph-name="five.tf" horiz-adv-x="573" 
d="M588 700l-15 -87h-327l-46 -186h120c68 0 123 -21 164 -62s56 -96 44 -165c-25 -137 -138 -213 -283 -213c-117 0 -206 60 -231 160l84 44c15 -71 74 -113 158 -113c96 0 165 48 180 129c13 83 -38 130 -134 130h-215l89 363h412z" />
    <glyph glyph-name="six.tf" horiz-adv-x="573" 
d="M313 460c78 0 137 -23 177 -70c41 -46 55 -104 43 -173s-44 -124 -97 -167c-53 -42 -120 -63 -201 -63c-78 0 -137 23 -178 70c-40 47 -54 106 -41 175c10 57 35 105 74 144l290 324h111l-214 -242c16 1 28 2 36 2zM441 224c15 91 -37 148 -141 148
c-105 0 -176 -57 -192 -148c-17 -91 36 -148 140 -148s176 57 193 148z" />
    <glyph glyph-name="seven.tf" horiz-adv-x="573" 
d="M99 612l15 88h500l-14 -83l-381 -617h-103l379 612h-396z" />
    <glyph glyph-name="eight.tf" horiz-adv-x="573" 
d="M566 511c-11 -67 -50 -117 -116 -151c64 -36 95 -100 82 -173c-23 -128 -131 -200 -290 -200c-76 0 -135 19 -177 57c-41 38 -56 89 -45 152c13 77 61 134 143 169c-53 37 -74 88 -63 154c11 63 41 111 90 144s108 50 177 50c65 0 118 -18 157 -54s53 -85 42 -148z
M473 513c12 72 -36 111 -120 111c-88 0 -148 -38 -161 -111c-12 -71 36 -112 121 -112c87 0 148 41 160 112zM441 198c7 39 -2 68 -27 89c-24 21 -62 32 -115 32s-95 -11 -128 -32c-32 -21 -51 -50 -58 -89c-13 -77 40 -122 143 -122c105 0 170 45 185 122z" />
    <glyph glyph-name="nine.tf" horiz-adv-x="573" 
d="M373 713c79 0 138 -23 178 -70s54 -105 42 -174c-10 -55 -34 -102 -71 -140l-293 -329h-112l215 242c-16 -1 -28 -2 -37 -2c-77 0 -136 23 -177 69c-41 47 -55 104 -43 173s44 124 97 167s120 64 201 64zM501 476c15 92 -36 148 -141 148s-177 -57 -193 -148
s36 -147 141 -147s177 56 193 147z" />
    <glyph glyph-name="zero.dnom" horiz-adv-x="411" 
d="M161 -13c-52 0 -91 20 -118 61s-35 93 -24 157c23 129 102 208 213 208c52 0 91 -20 118 -61s35 -93 24 -157c-23 -129 -102 -208 -213 -208zM97 200c-16 -88 12 -137 75 -137s108 48 124 137s-12 137 -75 137s-108 -48 -124 -137z" />
    <glyph glyph-name="one.dnom" horiz-adv-x="254" 
d="M26 358l126 42h66l-71 -400h-77l56 314l-92 -26z" />
    <glyph glyph-name="two.dnom" horiz-adv-x="345" 
d="M271 0h-286l10 57l188 157c33 27 52 51 55 72c7 32 -14 54 -51 54c-32 0 -60 -20 -85 -60l-62 38c33 59 93 95 158 95c80 0 130 -55 117 -131c-6 -37 -35 -77 -87 -120l-111 -90h167z" />
    <glyph glyph-name="three.dnom" horiz-adv-x="352" 
d="M61 400h263l-11 -66l-99 -102c56 -16 87 -63 78 -120c-13 -79 -79 -125 -170 -125c-67 0 -111 29 -133 86l68 35c12 -33 37 -49 76 -49c48 0 75 20 82 59c7 36 -17 60 -62 60h-9l-25 50l97 100h-168z" />
    <glyph glyph-name="four.dnom" horiz-adv-x="355" 
d="M270 142h47l-12 -71h-48l-12 -71h-76l13 71h-200l12 71l187 258h86l-184 -258h111l16 88h75z" />
    <glyph glyph-name="five.dnom" horiz-adv-x="340" 
d="M320 400l-12 -71h-169l-20 -79h51c39 0 71 -13 94 -39s31 -59 23 -100c-13 -79 -74 -124 -165 -124c-66 0 -110 29 -131 87l68 34c12 -33 37 -50 74 -50c44 0 74 24 81 60c7 37 -15 63 -59 63h-125l54 219h236z" />
    <glyph glyph-name="six.dnom" horiz-adv-x="342" 
d="M172 268h2c43 0 77 -14 101 -43c25 -28 33 -62 26 -103c-15 -80 -84 -135 -175 -135c-43 0 -76 14 -101 43s-33 64 -26 104c5 30 17 56 38 77l156 189h91zM227 128c7 43 -17 70 -65 70c-47 0 -81 -27 -89 -70c-7 -43 17 -71 64 -71c48 0 82 28 90 71z" />
    <glyph glyph-name="seven.dnom" horiz-adv-x="296" 
d="M21 328l13 72h269l-10 -61l-198 -339h-84l193 328h-183z" />
    <glyph glyph-name="eight.dnom" horiz-adv-x="340" 
d="M312 293c-5 -37 -27 -65 -65 -85c38 -24 53 -59 45 -105c-12 -72 -77 -116 -166 -116c-85 0 -140 52 -128 124c9 47 37 81 84 102c-31 21 -43 51 -37 88c12 72 75 112 154 112c36 0 65 -11 88 -34c23 -22 31 -51 25 -86zM116 294c-5 -33 14 -53 54 -53c37 0 63 21 70 53
c5 31 -14 50 -53 50c-41 0 -64 -17 -71 -50zM219 117c5 37 -18 59 -61 59c-48 0 -76 -20 -83 -59c-7 -36 15 -59 62 -59c45 0 75 23 82 59z" />
    <glyph glyph-name="nine.dnom" horiz-adv-x="341" 
d="M199 413c41 0 74 -15 99 -44s34 -63 27 -103c-5 -27 -15 -50 -32 -71l-160 -195h-91l112 132h-3c-42 0 -76 14 -101 43s-33 63 -26 103c15 80 86 135 175 135zM163 202c47 0 80 27 88 70s-17 71 -64 71s-82 -28 -89 -71s17 -70 65 -70z" />
    <glyph glyph-name="zero.numr" horiz-adv-x="411" 
d="M214 287c-52 0 -91 20 -118 61s-35 93 -24 157c23 129 102 208 213 208c52 0 91 -20 118 -61s35 -93 24 -157c-23 -129 -102 -208 -213 -208zM150 500c-16 -88 12 -137 75 -137s108 48 124 137s-12 137 -75 137s-108 -48 -124 -137z" />
    <glyph glyph-name="one.numr" horiz-adv-x="254" 
d="M79 658l126 42h66l-71 -400h-77l56 314l-92 -26z" />
    <glyph glyph-name="two.numr" horiz-adv-x="345" 
d="M324 300h-286l10 57l188 157c33 27 52 51 55 72c7 32 -14 54 -51 54c-32 0 -60 -20 -85 -60l-62 38c33 59 93 95 158 95c80 0 130 -55 117 -131c-6 -37 -35 -77 -87 -120l-111 -90h167z" />
    <glyph glyph-name="three.numr" horiz-adv-x="351" 
d="M113 700h263l-11 -66l-99 -102c56 -16 87 -63 78 -120c-13 -79 -79 -125 -170 -125c-67 0 -111 29 -133 86l68 35c12 -33 37 -49 76 -49c48 0 75 20 82 59c7 36 -17 60 -62 60h-9l-25 50l97 100h-168z" />
    <glyph glyph-name="four.numr" horiz-adv-x="355" 
d="M323 442h47l-12 -71h-48l-12 -71h-76l13 71h-200l12 71l187 258h86l-184 -258h111l16 88h75z" />
    <glyph glyph-name="five.numr" horiz-adv-x="340" 
d="M372 700l-12 -71h-169l-20 -79h51c39 0 71 -13 94 -39s31 -59 23 -100c-13 -79 -74 -124 -165 -124c-66 0 -110 29 -131 87l68 34c12 -33 37 -50 74 -50c44 0 74 24 81 60c7 37 -15 63 -59 63h-125l54 219h236z" />
    <glyph glyph-name="six.numr" horiz-adv-x="341" 
d="M224 568h2c43 0 77 -14 101 -43c25 -28 33 -62 26 -103c-15 -80 -84 -135 -175 -135c-43 0 -76 14 -101 43s-33 64 -26 104c5 30 17 56 38 77l156 189h91zM279 428c7 43 -17 70 -65 70c-47 0 -81 -27 -89 -70c-7 -43 17 -71 64 -71c48 0 82 28 90 71z" />
    <glyph glyph-name="seven.numr" horiz-adv-x="296" 
d="M74 628l13 72h269l-10 -61l-198 -339h-84l193 328h-183z" />
    <glyph glyph-name="eight.numr" horiz-adv-x="341" 
d="M365 593c-5 -37 -27 -65 -65 -85c38 -24 53 -59 45 -105c-12 -72 -77 -116 -166 -116c-85 0 -140 52 -128 124c9 47 37 81 84 102c-31 21 -43 51 -37 88c12 72 75 112 154 112c36 0 65 -11 88 -34c23 -22 31 -51 25 -86zM169 594c-5 -33 14 -53 54 -53c37 0 63 21 70 53
c5 31 -14 50 -53 50c-41 0 -64 -17 -71 -50zM272 417c5 37 -18 59 -61 59c-48 0 -76 -20 -83 -59c-7 -36 17 -59 62 -59s75 23 82 59z" />
    <glyph glyph-name="nine.numr" horiz-adv-x="341" 
d="M252 713c41 0 74 -15 99 -44s34 -63 27 -103c-5 -27 -15 -50 -32 -71l-160 -195h-91l112 132h-3c-42 0 -76 14 -101 43s-33 63 -26 103c15 80 86 135 175 135zM216 502c47 0 80 27 88 70s-17 71 -64 71s-82 -28 -89 -71s17 -70 65 -70z" />
    <glyph glyph-name="zero.sups" horiz-adv-x="411" 
d="M242 447c-52 0 -91 20 -118 61s-35 93 -24 157c23 129 102 208 213 208c52 0 91 -20 118 -61s35 -93 24 -157c-23 -129 -102 -208 -213 -208zM178 660c-16 -88 12 -137 75 -137s108 48 124 137s-12 137 -75 137s-108 -48 -124 -137z" />
    <glyph glyph-name="one.sups" horiz-adv-x="255" 
d="M108 818l126 42h66l-71 -400h-77l56 314l-92 -26z" />
    <glyph glyph-name="two.sups" horiz-adv-x="345" 
d="M352 460h-286l10 57l188 157c33 27 52 51 55 72c7 32 -14 54 -51 54c-32 0 -60 -20 -85 -60l-62 38c33 59 93 95 158 95c80 0 130 -55 117 -131c-6 -37 -35 -77 -87 -120l-111 -90h167z" />
    <glyph glyph-name="three.sups" horiz-adv-x="352" 
d="M142 860h263l-11 -66l-99 -102c56 -16 87 -63 78 -120c-13 -79 -79 -125 -170 -125c-67 0 -111 29 -133 86l68 35c12 -33 37 -49 76 -49c48 0 75 20 82 59c7 36 -17 60 -62 60h-9l-25 50l97 100h-168z" />
    <glyph glyph-name="four.sups" horiz-adv-x="355" 
d="M351 602h47l-12 -71h-48l-12 -71h-76l13 71h-200l12 71l187 258h86l-184 -258h111l16 88h75z" />
    <glyph glyph-name="five.sups" horiz-adv-x="339" 
d="M401 860l-12 -71h-169l-20 -79h51c39 0 71 -13 94 -39s31 -59 23 -100c-13 -79 -74 -124 -165 -124c-66 0 -110 29 -131 87l68 34c12 -33 37 -50 74 -50c44 0 74 24 81 60c7 37 -15 63 -59 63h-125l54 219h236z" />
    <glyph glyph-name="six.sups" horiz-adv-x="341" 
d="M253 728h2c43 0 77 -14 101 -43c25 -28 33 -62 26 -103c-15 -80 -84 -135 -175 -135c-43 0 -76 14 -101 43s-33 64 -26 104c5 30 17 56 38 77l156 189h91zM308 588c7 43 -17 70 -65 70c-47 0 -81 -27 -89 -70c-7 -43 17 -71 64 -71c48 0 82 28 90 71z" />
    <glyph glyph-name="seven.sups" horiz-adv-x="297" 
d="M103 788l13 72h269l-10 -61l-198 -339h-84l193 328h-183z" />
    <glyph glyph-name="eight.sups" horiz-adv-x="340" 
d="M393 753c-5 -37 -27 -65 -65 -85c38 -24 53 -59 45 -105c-12 -72 -77 -116 -166 -116c-85 0 -140 52 -128 124c9 47 37 81 84 102c-31 21 -43 51 -37 88c12 72 75 112 154 112c36 0 65 -11 88 -34c23 -22 31 -51 25 -86zM197 754c-5 -33 14 -53 54 -53c37 0 63 21 70 53
c5 31 -14 50 -53 50c-41 0 -64 -17 -71 -50zM300 577c5 37 -18 59 -61 59c-48 0 -76 -20 -83 -59c-7 -36 17 -59 62 -59s75 23 82 59z" />
    <glyph glyph-name="nine.sups" horiz-adv-x="341" 
d="M280 873c41 0 74 -15 99 -44s34 -63 27 -103c-5 -27 -15 -50 -32 -71l-160 -195h-91l112 132h-3c-42 0 -76 14 -101 43s-33 63 -26 103c15 80 86 135 175 135zM244 662c47 0 80 27 88 70s-17 71 -64 71s-82 -28 -89 -71s17 -70 65 -70z" />
    <glyph glyph-name="cent.tf" horiz-adv-x="573" 
d="M299 173c68 0 127 34 163 89l70 -46c-51 -81 -141 -129 -244 -129c-21 0 -43 3 -64 8l-47 -95h-56l56 114c-84 44 -128 140 -109 247c13 73 47 134 104 181s122 71 197 71c16 0 33 -2 52 -5l45 92h56l-53 -107c53 -23 88 -59 107 -110l-77 -40c-12 33 -35 57 -68 72
l-167 -339c11 -2 22 -3 35 -3zM155 354c-12 -69 11 -129 62 -160l164 333c-4 1 -10 1 -19 1c-51 0 -96 -17 -135 -50s-63 -74 -72 -124z" />
    <glyph glyph-name="dollar.tf" horiz-adv-x="573" 
d="M399 619l-41 -233c59 -25 99 -48 122 -69c41 -39 55 -88 44 -149c-21 -109 -116 -172 -237 -180l-15 -88h-63l16 89c-108 11 -181 66 -209 153l84 42c19 -63 66 -99 140 -106l43 241c-87 37 -187 88 -162 216c11 57 38 100 83 130c45 31 94 47 149 48l15 87h63l-16 -92
c79 -14 134 -58 165 -131l-83 -41c-23 46 -56 74 -98 83zM214 527c-11 -56 21 -85 85 -116l38 212c-61 -5 -111 -40 -123 -96zM430 179c12 56 -21 85 -88 116l-39 -217c69 9 116 46 127 101z" />
    <glyph glyph-name="Euro.tf" horiz-adv-x="573" 
d="M304 78c64 0 115 35 154 106l73 -47c-52 -95 -137 -150 -241 -150c-129 0 -202 108 -198 276h-66l12 65h60c1 12 3 22 4 29c1 5 2 13 5 24h-60l11 64h65c51 168 153 268 292 268c91 0 161 -55 186 -144l-80 -42c-16 61 -59 96 -118 96c-84 0 -148 -62 -185 -178h220
l-11 -64h-226l-6 -31l-4 -22h227l-12 -65h-221c-5 -120 36 -185 119 -185z" />
    <glyph glyph-name="florin.tf" horiz-adv-x="573" 
d="M301 393l72 169c53 127 137 175 252 142l-15 -86c-71 24 -122 0 -149 -64l-68 -161h140l-15 -84h-161l-157 -369c-53 -127 -137 -174 -252 -141l15 85c72 -23 122 1 149 64l153 361h-138l16 84h158z" />
    <glyph glyph-name="uni20BD.tf" horiz-adv-x="573" 
d="M174 700h231c58 0 105 -22 141 -67c37 -45 50 -97 39 -157c-10 -60 -39 -110 -87 -149s-104 -59 -169 -59h-138l-14 -81h225l-12 -68h-225l-21 -119h-93l21 119h-85l12 68h85l14 81h-85l15 84h85zM493 483c7 36 0 67 -20 92c-19 25 -47 38 -82 38h-139l-46 -261h138
c35 0 67 13 96 38c29 26 47 57 53 93z" />
    <glyph glyph-name="sterling.tf" horiz-adv-x="573" 
d="M440 284h-224l-34 -194h352l-15 -90h-533l16 90h87l34 194h-69l14 82h70l23 133c25 141 114 214 235 214c89 0 160 -53 188 -138l-80 -42c-22 60 -61 90 -118 90c-67 0 -117 -41 -132 -124l-23 -133h224z" />
    <glyph glyph-name="yen.tf" horiz-adv-x="573" 
d="M538 700h108l-276 -348h155l-11 -65h-175l-9 -55h174l-12 -66h-174l-29 -166h-93l29 166h-173l12 66h173l9 55h-172l11 65h154l-154 348h98l127 -292z" />
    <glyph glyph-name="brevecy" horiz-adv-x="320" 
d="M352 575h-270l13 76h270z" />
    </font>
</defs>
</svg>
